osu file format v14

[General]
AudioFilename: audio.mp3
AudioLeadIn: 0
PreviewTime: 61708
Countdown: 0
SampleSet: Normal
StackLeniency: 0.7
Mode: 0
LetterboxInBreaks: 0
WidescreenStoryboard: 1

[Editor]
Bookmarks: 5519,10708,21086,31464,41843,52221,62600,72978,78167,80762
DistanceSpacing: 1
BeatDivisor: 4
GridSize: 4
TimelineZoom: 0.9999999

[Metadata]
Title:dawn (TV Size)
TitleUnicode:dawn (TV Size)
Artist:LiSA
ArtistUnicode:LiSA
Creator:Lafayla
Version:Nilou's Normal
Source:バック・アロウ
Tags:loli catgirl kanui cococolaco coco syndicate_ -_nilou_- hinsvar terakomari japanese anime opening op jpop j-pop pop jrock j-rock rock back arrow
BeatmapID:4336037
BeatmapSetID:2069389

[Difficulty]
HPDrainRate:3
CircleSize:3.2
OverallDifficulty:4
ApproachRate:5.5
SliderMultiplier:0.999999999999999
SliderTickRate:1

[Events]
//Background and Video events
0,0,"dawn.jpg",0,0
//Break Periods
//Storyboard Layer 0 (Background)
//Storyboard Layer 1 (Fail)
//Storyboard Layer 2 (Pass)
//Storyboard Layer 3 (Foreground)
//Storyboard Layer 4 (Overlay)
//Storyboard Sound Samples

[TimingPoints]
329,324.324324324324,4,1,1,60,1,0
329,-100,4,1,1,60,0,0
5519,-100,4,1,1,65,0,0
10708,-100,4,2,1,45,0,0
31464,-100,4,1,1,55,0,0
52221,-100,4,1,1,60,0,0
57410,-100,4,1,1,65,0,0
62600,-100,4,1,1,75,0,0
78167,-100,4,1,1,60,0,0
80762,-100,4,1,1,65,0,0

[Colours]
Combo1 : 149,32,70
Combo2 : 190,148,130
Combo3 : 128,136,144
Combo4 : 128,128,68
Combo5 : 192,194,187
Combo6 : 97,97,51

[HitObjects]
0,384,329,6,0,B|23:368|23:368|57:365|57:365|77:353|77:353|111:352|111:352|141:334|141:334|191:343,1,200,2|10,0:0|0:0,0:0:0:0:
455,210,1950,2,0,L|448:152,1,50,0|0,3:0|3:0,0:0:0:0:
444,110,2274,1,10,0:0:0:0:
267,15,2923,6,0,B|243:30|243:30|209:33|209:33|189:45|189:45|155:46|155:46|119:63|119:63|72:55,1,200,8|10,3:1|0:0,0:0:0:0:
26,196,4058,1,0,3:0:0:0:
26,196,4220,2,0,P|64:202|96:205,1,50,10|0,0:0|3:0,0:0:0:0:
122,220,4545,1,0,3:0:0:0:
198,283,4869,2,0,P|254:236|327:245,1,150,6|0,0:0|0:0,0:0:0:0:
368,273,5518,6,0,L|381:327,1,50,4|0,3:2|3:0,0:0:0:0:
425,342,5842,1,10,0:0:0:0:
488,264,6166,2,2,P|475:198|462:153,1,99.9999999999999,2|8,3:1|0:0,0:0:0:0:
457,66,6815,2,0,P|418:80|353:41,1,99.9999999999999,2|8,3:1|0:0,0:0:0:0:
332,30,7301,1,0,0:0:0:0:
332,30,7464,2,0,P|321:86|311:149,1,99.9999999999999,2|8,3:1|0:0,0:0:0:0:
255,209,8112,6,0,P|218:176|169:178,1,99.9999999999999,2|8,3:1|0:0,0:0:0:0:
132,209,8599,1,0,3:1:0:0:
132,209,8761,2,0,P|141:261|150:309,1,99.9999999999999,2|8,3:1|0:0,0:0:0:0:
178,354,9247,1,0,0:0:0:0:
178,354,9410,1,2,3:1:0:0:
269,313,9734,1,10,0:0:0:0:
362,349,10058,2,0,L|416:338,1,50,10|8,0:0|0:0,0:0:0:0:
454,313,10383,2,0,L|444:264,1,50,8|8,0:0|0:0,0:0:0:0:
474,224,10707,6,0,L|453:113,1,99.9999999999999,4|2,3:2|3:2,0:0:0:0:
423,30,11356,2,0,L|478:17,2,50,0|0|2,3:0|0:0|3:2,0:0:0:0:
333,74,12004,1,0,3:0:0:0:
250,18,12328,2,0,L|201:29,1,50,2|0,3:2|0:0,0:0:0:0:
157,47,12653,1,0,3:0:0:0:
157,47,12815,1,2,0:0:0:0:
117,138,13139,1,2,0:0:0:0:
204,197,13464,5,0,0:0:0:0:
204,197,13626,2,0,P|196:237|192:261,1,50,2|0,3:2|0:0,0:0:0:0:
198,295,13950,2,0,P|158:262|102:262,1,99.9999999999999,0|2,3:0|3:2,0:0:0:0:
35,324,14599,1,2,3:2:0:0:
6,228,14923,1,0,3:0:0:0:
76,156,15247,2,0,L|131:143,2,50,0|0|2,3:0|0:0|3:2,0:0:0:0:
11,79,15896,5,2,3:2:0:0:
105,39,16220,1,0,3:0:0:0:
105,39,16383,2,0,L|257:11,1,150,2|0,0:0|3:0,0:0:0:0:
328,76,17193,1,2,3:2:0:0:
286,169,17518,1,0,3:0:0:0:
286,169,17680,2,0,P|273:244|326:302,1,150,2|2,0:0|3:2,0:0:0:0:
412,326,18491,6,0,B|428:252|428:252|463:230,1,99.9999999999999,2|0,3:2|3:0,0:0:0:0:
508,159,19139,2,0,B|492:85|492:85|457:63,1,99.9999999999999,2|0,3:2|3:0,0:0:0:0:
378,35,19788,1,2,3:2:0:0:
295,90,20112,1,0,3:0:0:0:
205,45,20437,1,2,3:2:0:0:
124,103,20761,2,0,L|136:168,1,50,0|0,3:0|3:0,0:0:0:0:
171,183,21085,6,0,P|160:244|149:301,1,99.9999999999999,2|0,3:2|3:0,0:0:0:0:
64,328,21734,2,0,L|77:388,2,50,0|2|0,3:0|0:0|3:0,0:0:0:0:
25,294,22220,2,0,P|6:226|26:192,1,99.9999999999999,2|0,0:0|0:0,0:0:0:0:
53,167,22707,1,2,3:2:0:0:
131,105,23031,1,0,3:0:0:0:
131,105,23193,2,0,P|172:112|189:116,1,50,2|0,0:0|3:0,0:0:0:0:
222,141,23518,1,2,0:0:0:0:
313,101,23842,6,0,L|303:44,2,50,0|2|0,0:0|3:2|0:0,0:0:0:0:
355,127,24328,2,0,L|339:236,1,99.9999999999999,0|2,3:0|3:2,0:0:0:0:
269,297,24977,1,2,3:2:0:0:
334,372,25301,1,0,3:0:0:0:
430,346,25626,1,2,3:2:0:0:
463,251,25950,2,0,L|451:187,1,50,0|0,3:0|3:0,0:0:0:0:
433,156,26274,6,0,L|449:42,2,99.9999999999999,2|0|0,3:2|3:0|3:0,0:0:0:0:
347,208,27247,1,0,3:0:0:0:
288,126,27572,2,0,P|235:89|182:97,2,99.9999999999999,2|0|0,3:2|3:0|3:0,0:0:0:0:
347,208,28545,2,0,L|332:273,1,50,2|0,3:2|0:0,0:0:0:0:
322,304,28869,6,0,L|217:324,1,99.9999999999999,2|0,3:2|3:0,0:0:0:0:
138,375,29518,2,0,L|39:356,1,99.9999999999999,2|0,3:2|3:0,0:0:0:0:
22,156,30491,2,0,B|38:129|63:166|81:118|98:167|121:102|133:154|168:132,1,150,2|2,0:0|0:0,0:0:0:0:
280,35,31464,6,0,L|265:133,1,99.9999999999999,4|0,0:0|3:0,0:0:0:0:
256,183,31950,1,0,0:0:0:0:
256,183,32112,2,0,L|317:194,2,50,2|0|0,3:1|0:0|3:0,0:0:0:0:
206,189,32599,2,2,P|162:157|110:166,1,99.9999999999999,2|0,0:0|0:0,0:0:0:0:
32,211,33247,1,2,0:0:0:0:
91,291,33572,1,0,0:0:0:0:
22,363,33896,6,2,P|109:377|142:381,1,99.9999999999999,2|0,0:0|0:0,0:0:0:0:
170,372,34383,2,0,L|180:311,1,50,2|0,3:1|0:0,0:0:0:0:
218,292,34707,2,0,P|276:273|327:294,1,99.9999999999999,0|0,3:0|3:0,0:0:0:0:
360,295,35193,1,2,0:0:0:0:
443,350,35518,1,0,0:0:0:0:
501,269,35842,2,0,L|478:153,1,99.9999999999999,2|0,0:0|0:0,0:0:0:0:
498,75,36491,1,2,0:0:0:0:
498,75,36653,5,0,3:0:0:0:
410,27,36977,2,0,L|305:46,1,99.9999999999999,0|2,3:0|3:1,0:0:0:0:
235,108,37626,1,0,3:0:0:0:
235,108,37788,2,0,P|232:165|261:210,1,99.9999999999999,2|2,0:0|0:0,0:0:0:0:
349,225,38437,1,2,0:0:0:0:
315,319,38761,1,2,0:0:0:0:
217,301,39085,1,2,0:0:0:0:
217,301,39247,6,0,L|111:320,1,99.9999999999999,0|0,0:0|3:0,0:0:0:0:
18,323,39896,2,2,P|1:270|22:231,1,99.9999999999999,2|0,3:1|3:0,0:0:0:0:
63,207,40383,2,0,L|56:147,1,50,0|2,0:0|3:1,0:0:0:0:
39,110,40707,1,2,0:0:0:0:
101,32,41031,1,10,0:0:0:0:
187,92,41356,1,2,3:1:0:0:
187,92,41518,2,0,L|246:79,1,50,2|8,3:1|0:0,0:0:0:0:
281,61,41842,5,4,0:0:0:0:
371,19,42166,2,0,P|407:29|434:34,1,50,0|0,3:0|0:0,0:0:0:0:
468,41,42491,2,0,P|491:92|468:147,1,99.9999999999999,2|2,3:1|3:1,0:0:0:0:
440,161,42977,1,0,0:0:0:0:
440,161,43139,1,2,3:1:0:0:
360,220,43464,1,0,3:0:0:0:
360,220,43626,2,2,P|389:258|446:268,1,99.9999999999999,2|0,0:0|0:0,0:0:0:0:
477,300,44112,1,0,3:0:0:0:
393,355,44437,6,2,L|281:338,1,99.9999999999999,2|0,3:1|3:0,0:0:0:0:
248,319,44923,1,2,0:0:0:0:
160,362,45247,1,0,0:0:0:0:
160,362,45410,2,0,L|95:348,1,50,0|2,3:0|0:0,0:0:0:0:
77,314,45734,1,0,3:0:0:0:
88,214,46058,2,0,P|34:184|-13:206,2,99.9999999999999,2|0|2,3:1|3:1|3:1,0:0:0:0:
172,267,47031,5,0,3:0:0:0:
240,194,47356,2,0,L|225:87,2,99.9999999999999,2|2|2,3:1|3:1|3:1,0:0:0:0:
321,254,48328,1,0,3:0:0:0:
416,284,48653,1,0,3:0:0:0:
489,216,48977,2,2,L|480:150,1,50,2|0,3:1|0:0,0:0:0:0:
437,147,49301,2,0,L|428:81,1,50,0|0,3:0|0:0,0:0:0:0:
443,48,49626,6,0,P|377:12|344:27,1,99.9999999999999,2|2,3:1|3:1,0:0:0:0:
287,88,50274,2,0,L|223:74,1,50,2|0,3:1|0:0,0:0:0:0:
190,62,50599,1,2,3:1:0:0:
96,28,50923,2,0,B|68:62|68:62|86:133,1,99.9999999999999,0|0,3:0|3:0,0:0:0:0:
117,151,51410,1,2,3:1:0:0:
117,151,51572,2,0,L|103:207,1,50,2|0,3:1|3:0,0:0:0:0:
78,242,51896,1,10,0:0:0:0:
112,335,52220,6,2,B|135:319|135:319|169:316|169:316|189:304|189:304|223:303|223:303|253:285|253:285|297:293,1,200,6|8,0:0|0:0,0:0:0:0:
495,67,53842,2,0,L|427:48,1,50,0|0,3:0|3:0,0:0:0:0:
413,16,54166,1,10,0:0:0:0:
212,16,54815,6,2,B|223:41|223:41|219:75|219:75|227:97|227:97|222:131|222:131|234:163|234:163|217:206,1,200,2|10,3:1|0:0,0:0:0:0:
417,357,56274,2,0,L|475:347,1,50,0|0,0:0|3:0,0:0:0:0:
499,310,56599,1,0,3:0:0:0:
499,310,56761,1,10,0:0:0:0:
434,174,57247,1,0,3:0:0:0:
434,174,57410,6,0,L|446:113,1,50,8|0,0:0|0:0,0:0:0:0:
478,89,57734,2,0,L|466:28,1,50,8|0,0:0|0:0,0:0:0:0:
425,13,58058,2,0,L|323:33,1,99.9999999999999,10|10,0:0|0:0,0:0:0:0:
259,106,58707,1,10,0:0:0:0:
323,182,59031,1,8,0:0:0:0:
269,266,59356,2,0,L|170:246,1,99.9999999999999,10|10,0:0|0:0,0:0:0:0:
127,222,59842,1,0,0:0:0:0:
127,222,60004,6,0,L|120:168,1,50,8|8,0:0|0:0,0:0:0:0:
81,141,60328,2,0,L|93:88,1,50,10|8,0:0|0:0,0:0:0:0:
114,48,60653,1,10,0:0:0:0:
202,89,60977,2,0,L|263:79,1,50,10|8,0:0|0:0,0:0:0:0:
278,38,61301,1,10,0:0:0:0:
60,362,62599,6,0,P|103:336|152:341,1,99.9999999999999,6|8,0:0|0:0,0:0:0:0:
248,359,63247,2,2,L|304:351,1,50,2|0,3:1|0:0,0:0:0:0:
331,314,63572,2,0,L|387:306,1,50,8|0,0:0|3:0,0:0:0:0:
421,334,63896,2,0,P|455:298|459:249,1,99.9999999999999,2|8,3:1|0:0,0:0:0:0:
394,173,64545,1,0,3:0:0:0:
459,97,64869,2,0,L|449:38,1,50,10|0,0:0|0:0,0:0:0:0:
414,12,65193,5,2,3:1:0:0:
414,12,65356,2,0,L|315:27,1,99.9999999999999,2|0,3:1|0:0,0:0:0:0:
266,36,65842,1,2,3:1:0:0:
266,36,66004,2,0,P|250:88|270:137,1,99.9999999999999,2|0,3:1|0:0,0:0:0:0:
309,152,66491,1,2,3:1:0:0:
347,244,66815,2,0,L|334:310,1,50,10|0,0:0|3:0,0:0:0:0:
328,342,67139,2,0,L|278:332,1,50,0|0,3:0|3:0,0:0:0:0:
229,340,67464,1,10,0:0:0:0:
134,372,67788,6,2,P|96:319|106:270,1,99.9999999999999,6|8,0:0|0:0,0:0:0:0:
174,221,68437,2,0,L|166:158,1,50,2|0,3:1|3:0,0:0:0:0:
119,158,68761,1,10,0:0:0:0:
103,59,69085,2,2,B|158:34|158:34|211:40,1,99.9999999999999,2|8,3:1|0:0,0:0:0:0:
288,80,69734,2,0,L|306:191,1,99.9999999999999,0|10,3:0|0:0,0:0:0:0:
380,243,70383,5,0,3:0:0:0:
336,333,70707,1,10,0:0:0:0:
242,369,71031,1,0,3:0:0:0:
242,369,71193,2,0,L|231:312,1,50,2|8,3:1|0:0,0:0:0:0:
199,281,71518,2,0,P|135:253|94:272,1,99.9999999999999,2|0,3:1|3:0,0:0:0:0:
70,292,72004,2,0,L|59:224,1,50,10|0,0:0|3:0,0:0:0:0:
36,199,72328,1,2,3:1:0:0:
100,122,72653,2,0,L|89:54,1,50,2|0,3:1|3:1,0:0:0:0:
118,30,72977,6,2,L|227:17,1,99.9999999999999,6|8,0:0|0:0,0:0:0:0:
265,33,73464,1,0,0:0:0:0:
265,33,73626,2,2,P|257:86|286:138,1,99.9999999999999,2|8,3:1|0:0,0:0:0:0:
372,149,74274,2,0,L|485:173,1,99.9999999999999,2|8,3:1|0:0,0:0:0:0:
504,263,74923,1,0,3:0:0:0:
425,325,75247,2,0,L|365:313,1,50,10|0,0:0|0:0,0:0:0:0:
355,275,75572,5,0,3:0:0:0:
355,275,75734,2,0,P|303:242|247:253,1,99.9999999999999,2|2,3:1|0:0,0:0:0:0:
230,278,76220,1,0,3:0:0:0:
230,278,76383,2,2,B|196:268|196:268|164:280|164:280|134:271,1,99.9999999999999,2|0,3:1|0:0,0:0:0:0:
85,262,76869,1,2,3:1:0:0:
134,175,77193,1,2,0:0:0:0:
67,100,77518,1,10,0:0:0:0:
130,23,77842,1,8,3:0:0:0:
216,72,78166,6,0,L|325:90,1,99.9999999999999,6|0,0:0|3:0,0:0:0:0:
411,115,78815,2,0,P|412:162|402:186,1,50,10|0,0:0|3:0,0:0:0:0:
379,202,79139,1,2,0:0:0:0:
301,265,79464,2,0,L|325:376,2,99.9999999999999,8|2|2,0:0|2:0|2:0,0:0:0:0:
276,167,80437,1,2,2:0:0:0:
369,201,80761,6,0,P|418:214|473:187,1,99.9999999999999,4|8,3:1|0:0,0:0:0:0:
507,107,81410,2,2,L|491:1,1,99.9999999999999,2|8,3:1|0:0,0:0:0:0:
392,20,82058,2,0,P|355:56|291:54,1,99.9999999999999,2|8,3:1|0:0,0:0:0:0:
270,36,82545,1,0,0:0:0:0:
270,36,82707,2,0,L|249:140,1,99.9999999999999,2|8,3:1|0:0,0:0:0:0:
301,219,83356,6,0,L|280:323,1,99.9999999999999,2|8,3:1|0:0,0:0:0:0:
252,358,83842,1,0,0:0:0:0:
252,358,84004,2,0,P|200:373|141:342,1,99.9999999999999,2|8,3:1|0:0,0:0:0:0:
89,285,84653,2,0,L|101:222,1,50,2|0,3:1|3:0,0:0:0:0:
103,186,84977,1,10,0:0:0:0:
73,90,85301,2,0,L|10:102,2,50,10|8|8,0:0|0:0|0:0,0:0:0:0:
152,29,85950,5,4,3:0:0:0:
292,171,86599,2,0,B|337:162|337:162|368:181|368:181|403:182|403:182|424:194|424:194|459:197|459:197|482:214,1,200,10|2,0:0|0:0,0:0:0:0:
385,330,87734,1,2,0:0:0:0:
385,330,87896,2,2,B|350:323|350:323|326:337|326:337|299:338|299:338|283:348|283:348|256:350|256:350|237:363,1,150,2|2,0:0|2:0,0:0:0:0:
