osu file format v14

[General]
AudioFilename: audio.mp3
AudioLeadIn: 0
PreviewTime: 61708
Countdown: 0
SampleSet: Normal
StackLeniency: 0.7
Mode: 0
LetterboxInBreaks: 0
WidescreenStoryboard: 0

[Editor]
Bookmarks: 5519,10708,21086,31464,41843,52221,62600,72978,78167,80762
DistanceSpacing: 0.5
BeatDivisor: 4
GridSize: 4
TimelineZoom: 1.5

[Metadata]
Title:dawn (TV Size)
TitleUnicode:dawn (TV Size)
Artist:LiSA
ArtistUnicode:LiSA
Creator:Lafayla
Version:Insane
Source:バック・アロウ
Tags:loli catgirl kanui cococolaco coco syndicate_ -_nilou_- hinsvar terakomari japanese anime opening op jpop j-pop pop jrock j-rock rock back arrow
BeatmapID:4329827
BeatmapSetID:2069389

[Difficulty]
HPDrainRate:5
CircleSize:4
OverallDifficulty:7
ApproachRate:9
SliderMultiplier:1.8
SliderTickRate:1

[Events]
//Background and Video events
0,0,"dawn.jpg",0,0
//Break Periods
//Storyboard Layer 0 (Background)
//Storyboard Layer 1 (Fail)
//Storyboard Layer 2 (Pass)
//Storyboard Layer 3 (Foreground)
//Storyboard Layer 4 (Overlay)
//Storyboard Sound Samples

[TimingPoints]
329,324.324324324324,4,1,1,60,1,0
329,-105.263157894737,4,1,1,60,0,0
5519,-100,4,1,1,65,0,0
10708,-117.647058823529,4,2,1,45,0,0
31464,-108.695652173913,4,1,1,55,0,0
52221,-153.846153846153,4,1,1,60,0,0
53681,-133.333333333333,4,1,1,60,0,0
54005,-153.846153846153,4,1,1,60,0,0
57410,-108.695652173913,4,1,1,65,0,0
60654,-100,4,1,1,65,0,0
61302,-285.714285714283,4,1,1,65,0,0
62600,-100,4,1,1,75,0,0
78167,-133.333333333333,4,1,1,60,0,0
80762,-100,4,1,1,65,0,0

[Colours]
Combo1 : 149,32,70
Combo2 : 190,148,130
Combo3 : 128,136,144
Combo4 : 128,128,68
Combo5 : 192,194,187
Combo6 : 97,97,51

[HitObjects]
397,115,329,6,0,L|505:109,1,85.4999977169037,2|0,0:0|0:0,0:0:0:0:
482,110,573,1,0,0:0:0:0:
482,110,654,1,0,0:0:0:0:
376,202,816,1,0,0:0:0:0:
212,97,978,2,2,B|119:155|178:259,1,170.999995433807,10|0,0:0|0:0,0:0:0:0:
264,269,1464,1,0,0:0:0:0:
264,269,1545,1,0,0:0:0:0:
264,269,1627,2,0,B|321:270|362:332,1,85.4999977169037,2|0,0:0|0:0,0:0:0:0:
182,350,1951,2,0,B|123:347|82:285,1,85.4999977169037,0|0,3:0|3:0,0:0:0:0:
23,342,2275,2,2,B|19:251|32:162,1,170.999995433807,10|0,0:0|0:0,0:0:0:0:
225,140,2762,1,0,0:0:0:0:
222,54,2924,6,0,B|162:49|162:49|106:59|106:59|44:55,2,170.999995433807,8|0|10,3:1|0:0|0:0,0:0:0:0:
222,54,3735,1,0,0:0:0:0:
305,194,3897,1,0,0:0:0:0:
353,104,4059,1,0,3:0:0:0:
353,104,4140,1,0,3:0:0:0:
353,104,4221,1,10,0:0:0:0:
193,206,4383,5,0,3:0:0:0:
180,232,4464,1,0,3:0:0:0:
172,260,4546,1,0,3:0:0:0:
169,289,4627,1,0,3:0:0:0:
172,318,4708,1,0,3:0:0:0:
183,345,4789,1,0,3:0:0:0:
205,363,4870,2,0,B|266:365|329:358,1,85.4999977169037,6|0,0:0|0:0,0:0:0:0:
507,160,5194,2,0,B|445:157|417:161,1,85.4999977169037,2|0,0:0|0:0,0:0:0:0:
422,161,5437,5,0,3:0:0:0:
422,161,5519,1,4,3:2:0:0:
341,232,5681,1,0,3:0:0:0:
348,120,5843,1,10,0:0:0:0:
428,255,6005,1,0,0:0:0:0:
251,283,6167,2,2,B|195:248|184:159|257:108,1,180,2|8,3:1|0:0,0:0:0:0:
235,126,6654,1,0,0:0:0:0:
132,107,6816,2,0,L|42:99,1,90,2|0,3:1|3:0,0:0:0:0:
192,20,7140,2,0,L|279:43,1,90,8|0,0:0|0:0,0:0:0:0:
127,199,7464,2,0,L|37:207,1,90,2|0,3:1|3:0,0:0:0:0:
239,130,7789,2,0,L|329:138,1,90,8|0,0:0|0:0,0:0:0:0:
449,177,8113,5,2,3:1:0:0:
360,59,8275,1,0,3:0:0:0:
215,210,8437,1,8,0:0:0:0:
136,169,8600,1,0,3:1:0:0:
136,169,8681,1,0,3:0:0:0:
136,169,8762,2,0,B|119:130|128:80,1,90,2|0,3:1|3:0,0:0:0:0:
281,268,9086,2,0,B|290:308|272:356,1,90,8|0,0:0|0:0,0:0:0:0:
184,342,9410,5,2,3:1:0:0:
319,177,9572,1,0,3:1:0:0:
411,213,9735,2,0,B|460:212|500:208,1,90,10|0,0:0|0:0,0:0:0:0:
500,207,9978,1,8,0:0:0:0:
500,207,10059,1,10,0:0:0:0:
371,108,10221,1,8,0:0:0:0:
285,272,10383,1,8,0:0:0:0:
370,313,10546,1,8,0:0:0:0:
285,272,10708,6,0,B|244:262|197:263,1,76.5000014591217,4|0,3:2|0:0,0:0:0:0:
33,294,11032,2,0,B|76:375|188:336,1,153.000002918243,2|0,3:2|3:0,0:0:0:0:
209,262,11519,1,0,0:0:0:0:
219,165,11681,2,0,B|127:161|104:278,1,153.000002918243,2|0,3:2|3:0,0:0:0:0:
110,253,12167,1,0,0:0:0:0:
39,207,12329,2,0,B|28:169|29:131,2,76.5000014591217,2|0|0,3:2|0:0|3:0,0:0:0:0:
204,76,12816,2,0,B|205:38|194:0,1,76.5000014591217,2|0,0:0|3:0,0:0:0:0:
111,22,13140,6,0,L|126:174,1,153.000002918243,2|0,0:0|0:0,0:0:0:0:
216,158,13627,2,0,L|292:166,2,76.5000014591217,2|0|0,3:2|0:0|3:0,0:0:0:0:
216,158,14113,1,0,0:0:0:0:
383,179,14275,2,0,L|459:187,1,76.5000014591217,2|0,3:2|0:0,0:0:0:0:
327,247,14600,2,0,B|246:245|244:266|175:268,2,153.000002918243,2|0|0,3:2|3:0|3:0,0:0:0:0:
378,318,15410,1,0,0:0:0:0:
459,335,15573,2,0,B|473:298|475:260,1,76.5000014591217,2|0,3:2|3:0,0:0:0:0:
493,93,15897,6,0,B|398:90|377:198,1,153.000002918243,2|0,3:2|3:0,0:0:0:0:
327,247,16383,2,0,B|236:273|188:174,1,153.000002918243,2|0,0:0|0:0,0:0:0:0:
113,226,16870,2,0,B|109:187|123:150,1,76.5000014591217,0|0,3:0|0:0,0:0:0:0:
286,0,17194,2,0,B|298:81|259:162,1,153.000002918243,2|0,3:2|3:0,0:0:0:0:
352,150,17681,2,0,L|428:142,1,76.5000014591217,2|0,0:0|3:0,0:0:0:0:
428,141,18005,1,0,0:0:0:0:
512,315,18167,2,0,L|435:309,1,76.5000014591217,2|0,3:2|0:0,0:0:0:0:
373,240,18491,6,0,B|289:228|229:287,1,153.000002918243,2|0,3:2|3:0,0:0:0:0:
159,216,18978,1,0,0:0:0:0:
85,360,19140,2,0,L|77:284,1,76.5000014591217,2|0,3:2|0:0,0:0:0:0:
77,283,19383,1,0,0:0:0:0:
77,283,19464,1,0,3:0:0:0:
212,361,19627,1,0,0:0:0:0:
159,216,19789,2,0,B|148:178|152:136,1,76.5000014591217,2|0,3:2|0:0,0:0:0:0:
329,54,20113,2,0,B|313:90|283:118,1,76.5000014591217,0|0,3:0|0:0,0:0:0:0:
179,62,20437,2,0,B|144:47|104:46,1,76.5000014591217,2|0,3:2|0:0,0:0:0:0:
253,209,20762,2,0,B|291:218|328:213,1,76.5000014591217,0|0,3:0|3:0,0:0:0:0:
380,150,21086,6,0,B|369:229|363:302,2,153.000002918243,2|0|0,3:2|3:0|3:0,0:0:0:0:
455,271,21897,2,0,P|452:310|447:346,1,76.5000014591217,2|0,0:0|3:0,0:0:0:0:
466,177,22221,2,0,B|472:104|483:25,1,153.000002918243,2|0,0:0|0:0,0:0:0:0:
327,33,22707,2,0,B|291:26|253:9,1,76.5000014591217,2|0,3:2|0:0,0:0:0:0:
253,10,23032,1,0,3:0:0:0:
349,129,23194,2,0,B|366:160|378:200,1,76.5000014591217,2|0,0:0|3:0,0:0:0:0:
282,204,23519,6,0,B|193:193|147:258,1,153.000002918243,2|0,0:0|0:0,0:0:0:0:
48,245,24005,2,0,L|56:321,1,76.5000014591217,2|0,3:2|0:0,0:0:0:0:
102,161,24329,2,0,L|32:129,1,76.5000014591217,0|0,3:0|0:0,0:0:0:0:
147,258,24654,2,0,L|223:266,1,76.5000014591217,2|0,3:2|0:0,0:0:0:0:
418,355,24978,2,0,L|266:339,1,153.000002918243,2|0,3:2|3:0,0:0:0:0:
267,99,25627,2,0,L|114:88,1,153.000002918243,2|0,3:2|3:0,0:0:0:0:
114,88,26113,1,0,3:0:0:0:
25,124,26275,6,0,B|3:72|3:72|25:17,2,114.750002188683,2|2|0,3:2|0:0|0:0,0:0:0:0:
44,205,26924,2,0,B|77:203|117:186,1,76.5000014591217,0|0,3:0|0:0,0:0:0:0:
49,365,27248,2,0,B|22:344|-1:306,1,76.5000014591217,0|0,3:0|0:0,0:0:0:0:
101,285,27572,2,0,B|184:273|252:332,2,153.000002918243,2|0|0,3:2|3:0|3:0,0:0:0:0:
243,325,28383,1,0,0:0:0:0:
321,299,28546,2,0,P|335:263|338:225,1,76.5000014591217,2|0,3:2|0:0,0:0:0:0:
299,41,28870,2,0,B|239:70|238:151|290:197,1,153.000002918243,2|0,3:2|3:0,0:0:0:0:
338,225,29356,1,0,0:0:0:0:
419,213,29519,2,0,B|478:242|479:324|427:370,2,153.000002918243,2|0|0,3:2|3:0|0:0,0:0:0:0:
171,189,30491,5,2,0:0:0:0:
448,345,30978,1,2,0:0:0:0:
43,336,31464,6,0,B|103:265|193:298,1,165.599994440918,4|0,0:0|3:0,0:0:0:0:
270,344,31951,1,0,0:0:0:0:
394,283,32113,2,0,B|415:244|414:203,1,82.7999972204591,2|0,3:1|0:0,0:0:0:0:
295,113,32437,1,0,3:0:0:0:
221,173,32600,2,2,B|132:177|37:148,1,165.599994440918,2|0,0:0|0:0,0:0:0:0:
205,79,33086,1,0,3:0:0:0:
295,113,33248,2,0,B|302:75|299:30,1,82.7999972204591,2|0,0:0|3:0,0:0:0:0:
125,152,33573,2,0,B|122:196|128:234,1,82.7999972204591,0|0,0:0|3:0,0:0:0:0:
174,311,33897,6,2,B|221:342|309:330|325:240,1,165.599994440918,2|0,0:0|0:0,0:0:0:0:
471,282,34383,2,0,B|486:363,1,82.7999972204591,2|0,3:1|0:0,0:0:0:0:
397,341,34708,1,0,3:0:0:0:
391,219,34870,2,0,B|392:136,1,82.7999972204591,2|0,0:0|3:0,0:0:0:0:
392,136,35194,2,2,B|310:136|298:149|202:150,1,165.599994440918,2|0,0:0|0:0,0:0:0:0:
158,206,35681,1,0,3:0:0:0:
78,42,35843,2,0,B|71:83|71:133,1,82.7999972204591,2|0,0:0|3:0,0:0:0:0:
71,124,36086,1,0,0:0:0:0:
71,124,36167,1,0,0:0:0:0:
232,28,36329,1,0,3:0:0:0:
232,28,36410,1,0,0:0:0:0:
232,28,36491,1,2,0:0:0:0:
315,53,36654,6,0,B|405:75|487:28,1,165.599994440918,0|0,3:0|3:0,0:0:0:0:
383,169,37140,1,0,0:0:0:0:
295,150,37302,2,2,B|202:143|129:204,1,165.599994440918,2|0,3:1|3:0,0:0:0:0:
68,283,37789,1,2,0:0:0:0:
189,256,37951,1,0,3:0:0:0:
94,114,38113,1,2,0:0:0:0:
24,190,38275,1,0,3:0:0:0:
201,117,38437,2,0,B|215:72|204:35,1,82.7999972204591,2|0,0:0|3:0,0:0:0:0:
24,190,38762,2,0,B|2:231|6:270,1,82.7999972204591,2|0,0:0|3:0,0:0:0:0:
98,274,39086,6,2,B|136:183|87:102,1,165.599994440918,2|0,0:0|0:0,0:0:0:0:
93,114,39573,2,0,B|10:101,1,82.7999972204591,0|0,3:0|0:0,0:0:0:0:
187,214,39897,2,2,B|353:210,1,165.599994440918,2|0,3:1|3:0,0:0:0:0:
443,173,40383,1,0,0:0:0:0:
351,288,40546,1,2,3:1:0:0:
443,173,40708,1,2,0:0:0:0:
505,239,40870,1,0,3:0:0:0:
380,109,41032,2,0,B|367:71|370:24,1,82.7999972204591,10|0,0:0|3:0,0:0:0:0:
470,75,41356,1,2,3:1:0:0:
512,246,41519,2,0,B|518:285|507:331,1,82.7999972204591,2|8,3:1|0:0,0:0:0:0:
507,328,41762,5,8,0:0:0:0:
507,328,41843,2,0,B|421:280|336:348,1,165.599994440918,4|0,0:0|3:0,0:0:0:0:
271,355,42329,1,0,0:0:0:0:
205,308,42491,2,0,B|212:225,1,82.7999972204591,2|0,3:1|0:0,0:0:0:0:
379,130,42816,2,0,B|386:47,1,82.7999972204591,2|0,3:1|0:0,0:0:0:0:
296,32,43140,2,2,B|284:115|304:119|298:204,1,165.599994440918,2|0,3:1|3:0,0:0:0:0:
124,340,43627,2,2,B|136:257|116:253|122:168,1,165.599994440918,2|0,0:0|0:0,0:0:0:0:
200,127,44113,6,0,B|169:98|126:89,1,82.7999972204591,0|0,3:0|0:0,0:0:0:0:
251,263,44437,2,2,B|316:328|408:294,1,165.599994440918,2|0,3:1|3:0,0:0:0:0:
478,358,44924,2,0,B|494:320|496:277,1,82.7999972204591,2|0,0:0|3:0,0:0:0:0:
352,129,45248,2,0,B|335:166|333:209,1,82.7999972204591,0|0,0:0|3:0,0:0:0:0:
403,295,45573,2,0,B|419:256|421:214,1,82.7999972204591,2|0,0:0|3:0,0:0:0:0:
428,110,45897,1,0,0:0:0:0:
332,209,46059,1,2,3:1:0:0:
488,278,46221,1,0,0:0:0:0:
512,197,46383,6,0,B|513:114,1,82.7999972204591,0|0,3:1|0:0,0:0:0:0:
332,209,46708,2,2,B|227:232|189:135,1,165.599994440918,2|0,3:1|3:0,0:0:0:0:
335,31,47194,1,0,0:0:0:0:
413,22,47356,2,0,B|453:20|494:36,1,82.7999972204591,2|0,3:1|0:0,0:0:0:0:
374,128,47681,2,0,B|333:129|292:113,1,82.7999972204591,2|0,3:1|0:0,0:0:0:0:
104,22,48005,2,2,B|44:43|28:126|78:167,1,165.599994440918,2|0,3:1|3:0,0:0:0:0:
116,233,48491,2,0,B|108:314,2,82.7999972204591,0|0|0,0:0|3:0|0:0,0:0:0:0:
116,233,48978,6,2,B|201:242|206:212|284:218,1,165.599994440918,2|0,3:1|3:0,0:0:0:0:
450,162,49465,1,0,0:0:0:0:
461,242,49627,2,0,B|467:326,1,82.7999972204591,2|0,3:1|0:0,0:0:0:0:
294,138,49951,2,0,B|273:58,1,82.7999972204591,2|0,3:1|0:0,0:0:0:0:
343,0,50274,1,2,3:1:0:0:
467,62,50438,1,0,0:0:0:0:
364,184,50600,1,2,3:1:0:0:
305,89,50762,1,0,0:0:0:0:
450,162,50924,6,0,L|517:161,2,55.1999981469727,0|0|0,3:0|0:0|0:0,0:0:0:0:
450,162,51248,1,0,3:0:0:0:
364,184,51410,1,2,3:1:0:0:
505,320,51572,1,2,3:1:0:0:
422,288,51735,2,0,B|418:370,1,82.7999972204591,0|10,3:0|0:0,0:0:0:0:
272,166,52221,6,2,B|204:177|204:177|168:207|168:207|96:218,1,175.499991966248,6|0,0:0|0:0,0:0:0:0:
33,253,52870,2,2,B|-12:211|0:146,1,116.999994644165,8|0,0:0|0:0,0:0:0:0:
83,55,53356,1,0,0:0:0:0:
155,100,53519,2,0,L|215:90,1,58.4999973220826,2|0,0:0|0:0,0:0:0:0:
212,90,53762,1,0,0:0:0:0:
212,90,53843,1,0,3:0:0:0:
294,36,54005,1,0,3:0:0:0:
294,36,54086,1,0,0:0:0:0:
294,36,54167,2,2,B|339:77|326:148,1,116.999994644165,10|0,0:0|0:0,0:0:0:0:
285,231,54654,5,0,0:0:0:0:
285,231,54735,1,0,0:0:0:0:
285,231,54816,2,2,B|226:247|182:203|182:203|163:229|127:234,1,175.499991966248,2|0,3:1|0:0,0:0:0:0:
46,163,55464,2,2,B|19:215|19:215|37:271,1,116.999994644165,10|0,0:0|0:0,0:0:0:0:
36,270,55951,1,0,0:0:0:0:
111,371,56113,2,0,L|117:313,1,58.4999973220826,2|0,0:0|0:0,0:0:0:0:
117,313,56356,1,0,0:0:0:0:
117,313,56437,1,0,3:0:0:0:
134,175,56600,1,0,3:0:0:0:
134,175,56681,1,0,0:0:0:0:
134,175,56762,2,0,L|128:233,1,58.4999973220826,10|0,0:0|0:0,0:0:0:0:
284,210,57086,1,0,0:0:0:0:
378,201,57248,5,0,3:0:0:0:
378,201,57329,1,0,3:0:0:0:
378,201,57410,2,0,B|419:200|460:216,1,82.7999972204591,8|0,0:0|0:0,0:0:0:0:
281,316,57735,2,0,B|240:309|203:287,1,82.7999972204591,8|0,0:0|0:0,0:0:0:0:
401,285,58059,2,0,B|422:320|428:362,1,82.7999972204591,10|0,0:0|0:0,0:0:0:0:
205,173,58383,2,0,B|190:134|191:91,1,82.7999972204591,10|0,0:0|0:0,0:0:0:0:
190,91,58708,2,0,L|107:97,1,82.7999972204591,10|0,0:0|0:0,0:0:0:0:
391,204,59032,2,0,L|471:182,1,82.7999972204591,8|0,0:0|0:0,0:0:0:0:
208,249,59356,2,0,L|186:329,1,82.7999972204591,10|0,0:0|0:0,0:0:0:0:
369,124,59681,2,0,L|376:41,1,82.7999972204591,10|0,0:0|0:0,0:0:0:0:
375,41,59924,5,0,0:0:0:0:
375,41,60005,1,8,0:0:0:0:
190,91,60167,1,8,0:0:0:0:
299,4,60329,1,10,0:0:0:0:
259,162,60491,1,8,0:0:0:0:
107,120,60654,2,0,B|91:75|98:6,1,90,10|8,0:0|0:0,0:0:0:0:
190,91,60978,1,10,0:0:0:0:
89,219,61140,1,8,0:0:0:0:
164,268,61302,6,2,L|158:329,1,62.9999980773926,10|0,0:0|2:0,2:0:0:0:
256,192,61708,12,0,62437,0:0:0:0:
305,147,62600,22,0,B|311:100|299:57,1,90,6|0,0:0|3:0,0:0:0:0:
156,169,62924,2,0,B|150:216|162:259,1,90,8|0,0:0|0:0,0:0:0:0:
363,336,63248,2,2,B|480:355|499:228,1,180,2|8,3:1|0:0,0:0:0:0:
447,88,63735,1,0,3:0:0:0:
373,261,63897,1,2,3:1:0:0:
466,172,64059,1,0,3:0:0:0:
306,197,64221,2,0,B|216:191,1,90,8|0,0:0|3:0,0:0:0:0:
216,190,64464,1,0,3:0:0:0:
216,190,64546,1,0,3:0:0:0:
149,268,64708,1,0,3:0:0:0:
16,159,64870,6,0,B|0:198|0:246,1,90,10|0,0:0|0:0,0:0:0:0:
62,314,65194,1,2,3:1:0:0:
135,125,65356,2,0,B|137:55|56:7|-12:51,1,180,2|0,3:1|0:0,0:0:0:0:
8,40,65843,1,2,3:1:0:0:
92,227,66005,2,0,B|139:278|230:254|247:175,1,180,2|0,3:1|0:0,0:0:0:0:
392,178,66491,2,0,B|408:220|401:270,1,90,2|0,3:1|3:0,0:0:0:0:
220,109,66816,2,0,B|205:66|211:17,1,90,10|0,0:0|3:0,0:0:0:0:
211,20,67059,1,0,3:0:0:0:
211,20,67140,1,0,3:0:0:0:
351,107,67302,1,0,3:0:0:0:
249,229,67464,1,10,0:0:0:0:
180,183,67627,5,0,3:0:0:0:
180,183,67708,1,0,3:0:0:0:
180,183,67789,2,2,B|87:176|82:208|-4:196,1,180,6|8,0:0|0:0,0:0:0:0:
110,278,68275,1,0,0:0:0:0:
180,183,68437,1,2,3:1:0:0:
293,347,68600,1,0,3:0:0:0:
387,336,68762,2,0,B|406:296|401:247,1,90,10|0,0:0|3:0,0:0:0:0:
318,7,69086,2,2,B|232:90|282:207,1,180,2|8,3:1|0:0,0:0:0:0:
433,95,69573,5,0,3:0:0:0:
433,95,69653,1,0,3:0:0:0:
433,95,69734,1,0,3:0:0:0:
318,7,69897,1,0,3:0:0:0:
269,170,70059,1,10,0:0:0:0:
433,95,70221,1,0,0:0:0:0:
502,176,70383,2,0,B|506:266,1,90,0|0,3:0|3:0,0:0:0:0:
505,265,70708,2,2,B|437:276|437:276|401:306|401:306|329:317,1,180,10|0,0:0|3:0,0:0:0:0:
186,188,71194,2,0,B|96:200,1,90,2|8,3:1|0:0,0:0:0:0:
177,276,71519,2,0,B|266:263,1,90,2|0,3:1|0:0,0:0:0:0:
376,113,71843,1,0,3:0:0:0:
232,62,72005,1,10,0:0:0:0:
325,195,72167,1,0,3:0:0:0:
484,111,72329,5,2,3:1:0:0:
489,132,72410,1,0,3:0:0:0:
493,155,72491,1,0,3:0:0:0:
496,177,72572,1,0,3:0:0:0:
497,199,72653,1,2,3:1:0:0:
497,222,72734,1,0,3:0:0:0:
496,244,72815,1,0,3:1:0:0:
493,267,72896,1,0,3:0:0:0:
490,289,72978,2,2,B|398:295|392:281|293:286,1,180,6|8,0:0|0:0,0:0:0:0:
264,217,73464,1,0,0:0:0:0:
84,220,73627,2,2,B|175:226|181:212|280:217,1,180,2|8,3:1|0:0,0:0:0:0:
96,331,74113,5,0,0:0:0:0:
21,290,74275,2,0,B|-1:251|0:202,1,90,2|0,3:1|3:0,0:0:0:0:
108,72,74600,2,0,B|66:47|22:47,1,90,8|0,0:0|3:0,0:0:0:0:
22,47,74842,1,0,3:0:0:0:
22,47,74924,1,0,3:0:0:0:
74,154,75086,1,0,3:0:0:0:
155,175,75248,2,0,B|202:184|243:168,1,90,10|0,0:0|0:0,0:0:0:0:
381,70,75572,5,0,3:0:0:0:
435,133,75735,2,0,B|436:175|428:221,1,90,2|8,3:1|0:0,0:0:0:0:
214,340,76059,2,0,B|212:297|220:251,1,90,2|0,0:0|3:0,0:0:0:0:
300,297,76383,2,2,B|391:371|484:278,1,180,2|0,3:1|0:0,0:0:0:0:
281,169,76869,2,0,B|191:160,1,90,2|8,3:1|0:0,0:0:0:0:
84,308,77194,2,0,B|173:316,1,90,2|0,0:0|3:0,0:0:0:0:
173,316,77437,1,0,3:0:0:0:
173,316,77518,1,10,0:0:0:0:
228,246,77680,1,0,0:0:0:0:
97,130,77842,1,8,3:0:0:0:
30,246,78005,1,0,0:0:0:0:
135,222,78167,6,0,B|139:160|140:88,2,135.000005149842,6|0|10,0:0|3:0|0:0,0:0:0:0:
135,222,78978,1,0,3:0:0:0:
129,372,79140,2,0,L|131:292,1,67.5000025749208,2|0,0:0|3:0,0:0:0:0:
129,303,79383,1,0,3:0:0:0:
129,303,79464,1,8,0:0:0:0:
140,87,79789,1,2,2:0:0:0:
227,74,80113,1,2,2:0:0:0:
194,152,80437,1,2,2:0:0:0:
415,196,80762,6,0,B|463:200|526:198,1,90,4|0,3:1|3:0,0:0:0:0:
450,111,81086,1,8,0:0:0:0:
283,189,81248,1,0,0:0:0:0:
194,152,81410,2,2,B|131:172|98:256|157:323,1,180,2|8,3:1|0:0,0:0:0:0:
237,338,81897,1,0,0:0:0:0:
283,189,82059,2,0,B|291:142|284:78,1,90,2|0,3:1|3:0,0:0:0:0:
119,9,82383,2,0,B|110:56|117:120,1,90,8|0,0:0|0:0,0:0:0:0:
194,152,82708,2,0,B|199:194|190:241,1,90,2|0,3:1|3:0,0:0:0:0:
5,124,83032,2,0,B|0:81|8:34,1,90,8|0,0:0|0:0,0:0:0:0:
116,199,83356,5,2,3:1:0:0:
0,258,83518,1,0,3:0:0:0:
92,115,83681,1,8,0:0:0:0:
203,160,83843,1,0,0:0:0:0:
203,160,83924,1,0,0:0:0:0:
203,160,84005,2,0,B|252:166|318:146,1,90,2|0,3:1|3:0,0:0:0:0:
387,102,84329,1,8,0:0:0:0:
483,247,84491,1,0,0:0:0:0:
397,272,84653,6,0,B|393:315|397:366,1,90,2|0,3:1|3:0,0:0:0:0:
512,170,84977,2,0,B|516:127|511:75,1,90,10|0,0:0|3:0,0:0:0:0:
511,80,85221,1,0,3:0:0:0:
511,80,85302,1,10,0:0:0:0:
341,56,85464,1,8,0:0:0:0:
317,226,85627,1,8,0:0:0:0:
487,250,85789,1,8,0:0:0:0:
418,150,85951,1,4,3:0:0:0:
256,192,86599,12,2,88383,2:0:0:0:
