osu file format v14

[General]
AudioFilename: audio.mp3
AudioLeadIn: 0
PreviewTime: 61708
Countdown: 0
SampleSet: Normal
StackLeniency: 0.7
Mode: 0
LetterboxInBreaks: 0
WidescreenStoryboard: 1

[Editor]
Bookmarks: 5519,10708,21086,31464,41843,52221,62600,72978,80762
DistanceSpacing: 1.2
BeatDivisor: 4
GridSize: 4
TimelineZoom: 1.6

[Metadata]
Title:dawn (TV Size)
TitleUnicode:dawn (TV Size)
Artist:LiSA
ArtistUnicode:LiSA
Creator:Lafayla
Version:Hinsvar's Hard
Source:バック・アロウ
Tags:loli catgirl kanui cococolaco coco syndicate_ -_nilou_- hinsvar terakomari japanese anime opening op jpop j-pop pop jrock j-rock rock back arrow
BeatmapID:4336036
BeatmapSetID:2069389

[Difficulty]
HPDrainRate:4
CircleSize:3.3
OverallDifficulty:6.3
ApproachRate:8
SliderMultiplier:1.44
SliderTickRate:1

[Events]
//Background and Video events
0,0,"dawn.jpg",0,0
//Break Periods
//Storyboard Layer 0 (Background)
//Storyboard Layer 1 (Fail)
//Storyboard Layer 2 (Pass)
//Storyboard Layer 3 (Foreground)
//Storyboard Layer 4 (Overlay)
//Storyboard Sound Samples

[TimingPoints]
329,324.324324324324,4,1,1,60,1,0
329,-125,4,1,1,60,0,0
5519,-100,4,1,1,65,0,0
10708,-125,4,2,1,45,0,0
31464,-111.111111111111,4,1,1,55,0,0
50923,-100,4,1,1,55,0,0
52220,-125,4,1,1,60,0,0
57410,-111.111111111111,4,1,1,65,0,0
60004,-100,4,1,1,65,0,0
62599,-90.9090909090909,4,1,1,75,0,1
78167,-90.9090909090909,4,1,1,60,0,1
79301,-90.9090909090909,4,1,1,60,0,0
80761,-100,4,1,1,65,0,1
80842,-100,4,1,1,65,0,0
86599,-125,4,1,1,65,0,0

[Colours]
Combo1 : 149,32,70
Combo2 : 190,148,130
Combo3 : 128,136,144
Combo4 : 128,128,68
Combo5 : 192,194,187
Combo6 : 97,97,51

[HitObjects]
272,353,329,6,0,P|381:346|491:281,1,230.4,2|10,0:0|0:0,0:0:0:0:
488,291,1950,1,0,3:0:0:0:
488,291,2112,1,0,3:0:0:0:
439,362,2274,2,2,P|356:340|291:284,1,172.8,10|0,0:0|0:0,0:0:0:0:
327,205,2923,6,0,P|358:128|298:72,1,172.8,8|0,3:1|0:0,0:0:0:0:
214,83,3572,1,10,0:0:0:0:
104,336,4058,1,0,3:0:0:0:
104,336,4139,1,0,3:0:0:0:
104,336,4220,1,10,0:0:0:0:
58,255,4383,1,0,3:0:0:0:
128,204,4545,2,0,L|135:157,3,28.8,0|0|0|0,3:0|3:0|3:0|3:0,0:0:0:0:
136,147,4869,6,0,P|63:119|40:28,1,172.8,6|0,0:0|0:0,0:0:0:0:
124,49,5518,5,4,3:2:0:0:
206,23,5680,1,0,3:0:0:0:
269,81,5842,2,0,B|274:128|274:128|259:169|259:169|267:228,1,144,10|2,0:0|3:1,0:0:0:0:
299,301,6328,1,0,0:0:0:0:
361,359,6491,6,0,P|430:359|504:333,1,144,8|2,0:0|3:1,0:0:0:0:
506,248,6977,1,0,3:0:0:0:
493,162,7139,2,0,P|421:161|353:138,1,144,8|2,0:0|3:1,0:0:0:0:
278,94,7626,1,0,3:0:0:0:
223,27,7788,1,8,0:0:0:0:
64,94,8112,5,2,3:1:0:0:
84,177,8274,1,0,3:0:0:0:
41,252,8437,2,0,B|87:262|87:262|118:303|118:303|170:312,1,144,8|2,0:0|3:1,0:0:0:0:
242,345,8923,1,0,3:0:0:0:
319,307,9085,1,8,0:0:0:0:
474,230,9410,5,2,3:1:0:0:
409,174,9572,1,0,3:1:0:0:
323,187,9734,2,0,B|288:183|288:183|258:207|258:207|223:205,1,108,10|8,0:0|0:0,0:0:0:0:
205,205,10058,1,10,0:0:0:0:
117,199,10221,1,8,0:0:0:0:
95,115,10383,1,8,0:0:0:0:
167,69,10545,1,8,0:0:0:0:
234,124,10707,1,4,3:2:0:0:
312,87,10869,6,0,L|307:28,2,57.6,0|2|0,0:0|3:2|0:0,0:0:0:0:
394,115,11356,2,0,L|453:110,2,57.6,0|0|2,3:0|0:0|3:2,0:0:0:0:
188,299,12166,2,0,L|193:358,2,57.6,0|2|0,0:0|3:2|0:0,0:0:0:0:
106,271,12653,2,0,L|47:276,2,57.6,0|2|0,3:0|0:0|3:0,0:0:0:0:
172,215,13139,1,2,0:0:0:0:
345,212,13464,6,0,P|344:179|329:151,2,57.6,0|2|0,0:0|3:2|0:0,0:0:0:0:
407,271,13950,2,0,P|423:247|448:233,1,57.6,0|0,3:0|0:0,0:0:0:0:
469,150,14274,2,0,P|440:147|416:133,1,57.6,2|0,3:2|0:0,0:0:0:0:
349,76,14599,1,2,3:2:0:0:
186,17,14923,1,0,3:0:0:0:
79,153,15247,2,0,L|74:224,2,57.6,0|0|2,3:0|0:0|3:2,0:0:0:0:
47,72,15734,1,0,3:0:0:0:
132,82,15896,6,0,B|172:82|186:105|185:108|199:131|250:114,1,115.2,2|0,3:2|3:0,0:0:0:0:
291,50,16383,2,0,P|436:84|483:204,1,288,2|2,0:0|3:2,0:0:0:0:
416,362,17518,1,0,3:0:0:0:
302,232,17842,2,0,L|277:294,1,57.6,0|0,3:0|0:0,0:0:0:0:
210,335,18166,2,0,L|168:282,1,57.6,2|0,3:2|0:0,0:0:0:0:
166,203,18491,6,0,P|210:190|249:133,1,115.2,2|0,3:2|3:0,0:0:0:0:
163,119,18977,1,0,0:0:0:0:
160,35,19139,2,0,P|116:48|77:105,1,115.2,2|0,3:2|3:0,0:0:0:0:
30,269,19788,1,2,3:2:0:0:
172,366,20112,1,0,3:0:0:0:
340,325,20437,2,0,L|408:320,1,57.6,2|0,3:2|0:0,0:0:0:0:
453,254,20761,1,0,3:0:0:0:
373,224,20923,1,0,3:0:0:0:
292,194,21085,5,2,3:2:0:0:
219,240,21247,2,0,P|216:273|225:305,2,57.6,0|0|0,0:0|3:0|0:0,0:0:0:0:
215,153,21734,2,0,P|187:133|155:125,2,57.6,0|2|0,3:0|0:0|3:0,0:0:0:0:
292,194,22220,2,0,P|352:166|398:118,1,115.2,2|0,0:0|0:0,0:0:0:0:
399,47,22707,2,0,L|328:27,1,57.6,2|0,3:2|0:0,0:0:0:0:
258,17,23031,2,0,L|187:37,2,57.6,0|2|0,3:0|0:0|3:0,0:0:0:0:
289,97,23518,1,2,0:0:0:0:
369,249,23842,6,0,L|387:318,2,57.6,0|2|0,0:0|3:2|0:0,0:0:0:0:
291,287,24328,2,0,L|290:358,1,57.6,0|0,3:0|0:0,0:0:0:0:
208,372,24653,1,2,3:2:0:0:
40,328,24977,2,0,P|41:280|19:213,1,115.2,2|0,3:2|3:0,0:0:0:0:
188,175,25626,2,0,P|187:223|209:290,1,115.2,2|0,3:2|3:0,0:0:0:0:
290,265,26112,1,0,3:0:0:0:
280,179,26274,1,2,3:2:0:0:
369,30,26599,6,0,P|490:147|496:315,1,345.6,0|2,3:0|3:2,0:0:0:0:
328,361,27896,2,0,P|272:370|213:349,1,115.2,0|0,3:0|3:0,0:0:0:0:
169,279,28383,1,0,0:0:0:0:
121,207,28545,2,0,P|93:197|65:202,1,57.6,2|0,3:2|0:0,0:0:0:0:
35,121,28869,6,0,P|80:98|103:26,1,115.2,2|0,3:2|3:0,0:0:0:0:
188,60,29356,1,0,0:0:0:0:
272,41,29518,2,0,P|291:93|341:121,2,115.2,2|0|0,3:2|3:0|0:0,0:0:0:0:
447,25,30491,5,2,0:0:0:0:
447,25,30977,1,2,0:0:0:0:
447,25,31464,6,0,P|492:75|490:140,1,129.599996044922,4|0,0:0|3:0,0:0:0:0:
476,217,31950,1,0,0:0:0:0:
429,287,32112,2,0,L|442:363,2,64.799998022461,2|0|0,3:1|0:0|3:0,0:0:0:0:
346,307,32599,2,2,B|297:306|285:281|288:281|275:257|220:248,1,129.599996044922,2|0,0:0|0:0,0:0:0:0:
97,151,33247,2,0,B|138:144|151:120|148:120|160:95|209:94,1,129.599996044922,2|0,0:0|0:0,0:0:0:0:
286,130,33734,2,0,P|293:95|296:59,2,64.799998022461,0|2|0,3:0|0:0|0:0,0:0:0:0:
154,255,34383,6,0,L|164:325,1,64.799998022461,2|0,3:1|0:0,0:0:0:0:
83,346,34707,2,0,P|37:315|39:238,1,129.599996044922,0|0,3:0|3:0,0:0:0:0:
54,164,35193,2,2,L|124:154,1,64.799998022461,2|0,0:0|0:0,0:0:0:0:
159,80,35518,2,0,L|229:70,1,64.799998022461,0|0,0:0|3:0,0:0:0:0:
302,99,35842,2,0,B|349:91|370:116|365:120|382:145|431:128,1,129.599996044922,2|0,0:0|0:0,0:0:0:0:
461,205,36328,2,0,P|491:223|516:248,2,64.799998022461,0|2|0,3:0|0:0|3:0,0:0:0:0:
371,348,36977,6,0,P|360:314|361:273,1,64.799998022461,0|0,3:0|0:0,0:0:0:0:
362,201,37301,2,2,B|372:155|348:139|346:141|327:120|338:71,1,129.599996044922,2|0,3:1|3:0,0:0:0:0:
259,43,37788,2,0,L|196:29,1,64.799998022461,2|0,0:0|3:0,0:0:0:0:
179,111,38112,2,0,L|242:125,1,64.799998022461,2|0,0:0|3:0,0:0:0:0:
280,200,38437,2,0,L|266:263,1,64.799998022461,2|0,0:0|3:0,0:0:0:0:
189,298,38761,2,0,L|63:270,1,129.599996044922,2|2,0:0|0:0,0:0:0:0:
9,204,39247,1,0,0:0:0:0:
62,43,39572,5,0,3:0:0:0:
228,19,39896,2,2,P|263:25|296:49,2,64.799998022461,2|0|0,3:1|0:0|3:0,0:0:0:0:
228,103,40383,1,0,0:0:0:0:
248,184,40545,1,2,3:1:0:0:
165,170,40707,2,0,B|131:162|109:196|112:203|84:234|44:219,1,129.599996044922,2|10,0:0|0:0,0:0:0:0:
159,353,41356,1,2,3:1:0:0:
239,326,41518,1,2,3:1:0:0:
327,359,41680,1,8,0:0:0:0:
327,359,41761,1,8,0:0:0:0:
327,359,41842,1,4,0:0:0:0:
446,240,42166,6,0,P|459:208|464:176,2,64.799998022461,0|0|2,3:0|0:0|3:1,0:0:0:0:
375,193,42653,2,0,P|370:158|358:128,2,64.799998022461,0|2|0,0:0|3:1|0:0,0:0:0:0:
291,184,43139,1,2,3:1:0:0:
192,46,43464,1,0,3:0:0:0:
107,44,43626,2,2,B|107:86|129:106|134:101|158:123|148:178,1,129.599996044922,2|0,0:0|0:0,0:0:0:0:
146,246,44112,1,0,3:0:0:0:
264,366,44437,6,2,P|321:363|371:309,1,129.599996044922,2|0,3:1|3:0,0:0:0:0:
335,236,44923,2,0,P|306:234|281:207,1,64.799998022461,2|0,0:0|3:0,0:0:0:0:
320,134,45247,2,0,P|348:135|373:162,1,64.799998022461,0|0,0:0|3:0,0:0:0:0:
424,227,45572,1,2,0:0:0:0:
169,126,46058,2,0,P|171:89|156:55,1,64.799998022461,2|0,3:1|0:0,0:0:0:0:
78,46,46383,2,0,B|72:88|53:103|48:103|25:118|20:186,1,129.599996044922,0|2,3:1|3:1,0:0:0:0:
33,244,46869,1,0,0:0:0:0:
116,234,47031,1,0,3:0:0:0:
222,103,47356,6,0,L|303:122,1,64.799998022461,2|0,3:1|0:0,0:0:0:0:
367,136,47680,1,2,3:1:0:0:
491,22,48004,2,2,B|512:72|490:151|468:144|448:208|488:278,1,259.199992089844,2|0,3:1|3:0,0:0:0:0:
348,372,48977,2,2,P|332:315|266:263,1,129.599996044922,2|0,3:1|3:0,0:0:0:0:
119,219,49626,6,0,P|77:261|65:344,1,129.599996044922,2|2,3:1|3:1,0:0:0:0:
139,363,50112,1,0,0:0:0:0:
223,364,50274,2,0,P|243:342|249:301,2,64.799998022461,2|0|2,3:1|0:0|3:1,0:0:0:0:
237,176,50923,5,0,3:0:0:0:
278,96,51085,2,0,L|266:58,2,36,0|0|0,0:0|0:0|3:0,0:0:0:0:
367,91,51410,1,2,3:1:0:0:
415,165,51572,1,2,3:1:0:0:
374,243,51734,1,0,3:0:0:0:
286,249,51896,1,10,0:0:0:0:
122,303,52220,6,2,B|155:253|110:190|104:201|57:131|102:70,1,230.4,6|8,0:0|0:0,0:0:0:0:
101,93,53842,1,0,3:0:0:0:
101,93,54004,1,0,3:0:0:0:
101,93,54166,1,10,0:0:0:0:
388,300,54815,6,2,B|356:253|401:190|407:201|454:131|418:85,1,230.4,2|10,3:1|0:0,0:0:0:0:
426,94,56437,1,0,3:0:0:0:
426,94,56599,1,0,3:0:0:0:
426,94,56761,1,10,0:0:0:0:
201,35,57247,5,0,3:0:0:0:
201,35,57328,1,0,3:0:0:0:
201,35,57410,2,0,L|66:52,1,129.599996044922,8|8,0:0|0:0,0:0:0:0:
22,212,58058,2,0,L|89:220,1,64.799998022461,10|0,0:0|0:0,0:0:0:0:
153,168,58383,2,0,L|220:176,1,64.799998022461,10|0,0:0|0:0,0:0:0:0:
291,216,58707,1,10,0:0:0:0:
427,118,59031,2,0,P|455:143|464:175,1,64.799998022461,8|0,0:0|0:0,0:0:0:0:
500,244,59356,2,0,P|484:317|438:365,1,129.599996044922,10|10,0:0|0:0,0:0:0:0:
277,379,60004,6,0,L|269:304,1,72,8|8,0:0|0:0,0:0:0:0:
195,262,60328,1,10,0:0:0:0:
111,288,60491,1,8,0:0:0:0:
63,216,60653,2,0,L|71:141,1,72,10|8,0:0|0:0,0:0:0:0:
145,99,60977,2,0,L|137:24,1,72,10|8,0:0|0:0,0:0:0:0:
222,15,61301,1,10,0:0:0:0:
467,218,62599,5,6,0:0:0:0:
440,309,62761,1,0,3:0:0:0:
356,353,62923,2,0,B|328:312|328:312|334:246|334:246|307:192,1,158.400004833985,8|2,0:0|3:1,0:0:0:0:
358,122,63410,1,0,0:0:0:0:
300,46,63572,2,0,P|267:64|225:56,1,79.2000024169923,8|0,0:0|3:0,0:0:0:0:
138,24,63896,5,2,3:1:0:0:
65,85,64058,1,0,3:0:0:0:
81,178,64220,1,8,0:0:0:0:
170,346,64545,1,0,3:0:0:0:
243,285,64707,1,0,3:0:0:0:
227,192,64869,2,0,L|234:110,1,79.2000024169923,10|0,0:0|0:0,0:0:0:0:
320,74,65193,6,0,P|334:38|381:24,2,79.2000024169923,2|2|8,3:1|3:1|0:0,0:0:0:0:
389,139,65680,1,0,0:0:0:0:
458,204,65842,2,0,P|444:240|397:254,2,79.2000024169923,2|2|8,3:1|3:1|0:0,0:0:0:0:
389,139,66329,1,0,0:0:0:0:
309,190,66491,6,0,L|231:206,1,79.2000024169923,2|0,3:1|3:0,0:0:0:0:
140,179,66815,2,0,B|96:173|74:213|77:222|52:260|3:253,1,158.400004833985,10|0,0:0|3:0,0:0:0:0:
37,344,67301,1,0,3:0:0:0:
129,368,67464,2,0,P|132:331|148:283,1,79.2000024169923,10|0,0:0|3:0,0:0:0:0:
236,266,67788,5,6,0:0:0:0:
328,289,67950,1,0,0:0:0:0:
419,312,68112,2,0,B|444:290|444:290|430:157,1,158.400004833985,8|2,0:0|3:1,0:0:0:0:
426,70,68599,1,0,3:0:0:0:
335,47,68761,2,0,B|310:69|310:69|324:202,1,158.400004833985,10|2,0:0|3:1,0:0:0:0:
328,289,69247,5,0,0:0:0:0:
419,312,69410,1,8,0:0:0:0:
239,374,69734,1,0,3:0:0:0:
148,351,69896,2,0,P|117:326|74:317,2,79.2000024169923,0|10|0,3:0|0:0|0:0,0:0:0:0:
215,283,70383,5,0,3:0:0:0:
293,229,70545,1,0,3:0:0:0:
380,264,70707,2,2,B|389:218|389:218|368:152|368:152|384:97,1,158.400004833985,10|0,0:0|3:0,0:0:0:0:
427,29,71193,2,0,L|340:21,1,79.2000024169923,2|8,3:1|0:0,0:0:0:0:
259,56,71518,1,2,3:1:0:0:
102,163,71842,2,0,L|23:170,2,79.2000024169923,0|10|0,3:0|0:0|3:0,0:0:0:0:
189,200,72328,2,0,L|192:239,3,39.6000012084961,2|0|0|0,3:1|3:0|3:0|3:0,0:0:0:0:
170,272,72653,2,0,L|166:311,3,39.6000012084961,2|0|0|0,3:1|3:0|3:1|3:0,0:0:0:0:
188,344,72977,6,2,P|264:359|329:318,1,158.400004833985,6|8,0:0|0:0,0:0:0:0:
416,355,73464,1,0,0:0:0:0:
480,285,73626,1,2,3:1:0:0:
432,202,73788,1,0,0:0:0:0:
340,223,73950,2,0,P|334:187|341:141,1,79.2000024169923,8|0,0:0|0:0,0:0:0:0:
350,50,74274,5,2,3:1:0:0:
258,76,74437,1,0,3:0:0:0:
178,23,74599,2,0,B|129:23|129:23|80:55|80:55|22:61,1,158.400004833985,8|0,0:0|3:0,0:0:0:0:
71,145,75085,1,0,3:0:0:0:
17,223,75247,2,0,L|98:244,1,79.2000024169923,10|0,0:0|0:0,0:0:0:0:
181,281,75572,6,0,P|178:322|202:368,2,79.2000024169923,0|2|8,3:0|3:1|0:0,0:0:0:0:
256,223,76058,1,2,0:0:0:0:
331,165,76220,2,0,P|334:124|310:78,2,79.2000024169923,0|2|8,3:0|3:1|0:0,0:0:0:0:
256,223,76706,1,0,0:0:0:0:
342,264,76869,5,2,3:1:0:0:
441,253,77031,1,8,0:0:0:0:
448,348,77193,1,2,0:0:0:0:
353,355,77356,1,0,3:0:0:0:
258,362,77518,6,0,B|209:381|180:351|186:345|156:313|106:321,1,158.400004833985,10|8,0:0|3:0,0:0:0:0:
30,366,78004,1,0,0:0:0:0:
25,271,78166,6,0,L|40:191,1,79.2000024169923,6|0,0:0|0:0,0:0:0:0:
134,205,78491,2,0,L|149:125,1,79.2000024169923,0|0,3:0|0:0,0:0:0:0:
88,53,78815,1,10,0:0:0:0:
179,28,78977,1,0,3:0:0:0:
239,102,79139,1,2,0:0:0:0:
333,87,79301,5,0,3:0:0:0:
333,87,79383,1,0,3:0:0:0:
333,87,79463,1,8,0:0:0:0:
505,168,79788,1,2,2:0:0:0:
424,340,80112,1,2,2:0:0:0:
252,259,80437,1,2,2:0:0:0:
84,348,80761,5,4,3:1:0:0:
22,286,80923,1,0,3:0:0:0:
58,207,81085,2,0,P|128:202|196:153,1,144,8|2,0:0|3:1,0:0:0:0:
252,103,81572,1,0,0:0:0:0:
308,168,81734,6,0,B|315:204|315:204|290:268|290:268|298:325,1,144,8|2,0:0|3:1,0:0:0:0:
363,359,82220,1,0,3:0:0:0:
448,343,82383,2,0,B|441:307|441:307|466:243|466:243|458:186,1,144,8|2,0:0|3:1,0:0:0:0:
393,152,82869,1,0,3:0:0:0:
474,124,83031,1,8,0:0:0:0:
324,36,83356,5,2,3:1:0:0:
255,89,83518,1,0,3:0:0:0:
176,53,83680,2,0,B|184:99|162:123|168:125|151:146|163:217,1,144,8|2,0:0|3:1,0:0:0:0:
82,159,84166,1,0,3:0:0:0:
13,212,84328,1,8,0:0:0:0:
108,356,84653,5,2,3:1:0:0:
193,367,84815,1,0,3:0:0:0:
162,286,84977,2,0,P|214:276|281:278,1,108,10|0,0:0|3:0,0:0:0:0:
286,278,85301,1,10,0:0:0:0:
329,203,85464,1,8,0:0:0:0:
258,153,85626,2,0,P|223:159|178:158,2,72,8|8|4,0:0|0:0|3:0,0:0:0:0:
258,153,86599,6,0,B|193:165|157:109|172:93|130:26|72:43,1,230.4,10|2,0:0|0:0,0:0:0:0:
42,316,87734,1,2,0:0:0:0:
112,366,87896,2,2,B|153:378|184:327|173:315|200:273|249:282,1,172.8,2|2,0:0|2:0,0:0:0:0:
