osu file format v14

[General]
AudioFilename: audio.mp3
AudioLeadIn: 0
PreviewTime: 61708
Countdown: 0
SampleSet: Soft
StackLeniency: 0.7
Mode: 0
LetterboxInBreaks: 0
WidescreenStoryboard: 1

[Editor]
Bookmarks: 5518,10708,21086,31464,41843,52221,62600,72978,78167,80762
DistanceSpacing: 0.9
BeatDivisor: 4
GridSize: 4
TimelineZoom: 0.7999998

[Metadata]
Title:dawn (TV Size)
TitleUnicode:dawn (TV Size)
Artist:LiSA
ArtistUnicode:LiSA
Creator:Lafayla
Version:Easy
Source:バック・アロウ
Tags:loli catgirl kanui cococolaco coco syndicate_ -_nilou_- hinsvar terakomari japanese anime opening op jpop j-pop pop jrock j-rock rock back arrow
BeatmapID:4338020
BeatmapSetID:2069389

[Difficulty]
HPDrainRate:2.5
CircleSize:3
OverallDifficulty:2.5
ApproachRate:4
SliderMultiplier:0.999999999999999
SliderTickRate:1

[Events]
//Background and Video events
0,0,"dawn.jpg",0,0
//Break Periods
//Storyboard Layer 0 (Background)
//Storyboard Layer 1 (Fail)
//Storyboard Layer 2 (Pass)
//Storyboard Layer 3 (Foreground)
//Storyboard Layer 4 (Overlay)
//Storyboard Sound Samples

[TimingPoints]
329,324.324324324324,4,1,1,60,1,0
329,-100,4,1,1,60,0,0
5519,-100,4,1,1,65,0,0
10707,-111.111111111111,4,2,1,45,0,0
31464,-100,4,1,1,55,0,0
52221,-100,4,1,1,60,0,0
53681,-100,4,1,1,60,0,0
54005,-100,4,1,1,60,0,0
57410,-100,4,1,1,65,0,0
60654,-100,4,1,1,65,0,0
61302,-100,4,1,1,65,0,0
62600,-100,4,1,1,75,0,0
78167,-100,4,1,1,60,0,0
80762,-100,4,1,1,65,0,0

[Colours]
Combo1 : 149,32,70
Combo2 : 190,148,130
Combo3 : 128,136,144
Combo4 : 128,128,68
Combo5 : 192,194,187
Combo6 : 97,97,51

[HitObjects]
7,185,329,6,0,B|82:163|128:236|214:206,1,200,2|10,0:0|0:0,0:0:0:0:
361,293,1626,2,0,B|446:304|485:205|446:152,1,200,2|10,0:0|0:0,0:0:0:0:
302,55,2923,2,0,B|231:36|231:36|186:87|114:71,2,200,8|10|10,3:1|0:0|0:0,0:0:0:0:
382,14,4545,1,0,3:0:0:0:
459,59,4869,1,6,0:0:0:0:
309,159,5518,6,0,B|278:204|287:254,1,99.9999999999999,4|10,3:2|0:0,0:0:0:0:
346,321,6166,1,2,3:1:0:0:
412,260,6491,1,8,0:0:0:0:
500,274,6815,2,0,L|507:373,2,99.9999999999999,2|8|2,3:1|0:0|3:1,0:0:0:0:
503,183,7788,1,8,0:0:0:0:
439,119,8112,6,0,B|373:125|373:125|315:159|315:159|233:167,1,200,2|2,3:1|3:1,0:0:0:0:
188,232,9085,1,8,0:0:0:0:
98,219,9410,2,0,B|67:174|76:123,1,99.9999999999999,2|10,3:1|0:0,0:0:0:0:
136,57,10058,1,10,0:0:0:0:
215,98,10383,1,8,0:0:0:0:
298,63,10707,6,0,B|397:12|501:94,1,179.999994506836,4|0,3:2|3:0,0:0:0:0:
496,153,11680,2,0,B|441:229|332:206,1,179.999994506836,2|2,3:2|3:2,0:0:0:0:
261,163,12653,1,0,3:0:0:0:
97,112,13301,6,0,B|80:208|109:197|96:292,1,179.999994506836,2|0,3:2|3:0,0:0:0:0:
150,357,14274,1,2,3:2:0:0:
234,342,14599,2,0,B|277:342|326:355,2,89.999997253418,2|0|0,3:2|3:0|3:0,0:0:0:0:
216,258,15572,1,2,3:2:0:0:
216,172,15896,6,0,B|234:112|309:80|379:118,1,179.999994506836,2|0,3:2|3:0,0:0:0:0:
499,216,17193,2,0,B|481:276|405:308|335:269,1,179.999994506836,2|0,3:2|3:0,0:0:0:0:
271,308,18166,1,2,3:2:0:0:
203,255,18491,6,0,L|219:75,1,179.999994506836,2|2,3:2|3:2,0:0:0:0:
142,36,19464,1,0,3:0:0:0:
67,77,19788,2,0,B|44:126|61:174,1,89.999997253418,2|0,3:2|3:0,0:0:0:0:
11,236,20437,2,0,B|42:280|93:289,1,89.999997253418,2|0,3:2|3:0,0:0:0:0:
163,315,21085,5,2,3:2:0:0:
230,262,21410,1,0,3:0:0:0:
306,300,21734,2,0,B|390:307|407:291|526:308,2,179.999994506836,0|0|0,3:0|3:0|3:0,0:0:0:0:
312,129,23680,6,0,B|396:136|413:120|532:137,1,179.999994506836,2|0,3:2|3:0,0:0:0:0:
501,216,24652,1,2,3:2:0:0:
446,282,24977,2,0,B|446:325|459:374,2,89.999997253418,2|0|2,3:2|3:0|3:2,0:0:0:0:
362,263,25950,1,0,3:0:0:0:
324,339,26274,5,2,3:2:0:0:
238,346,26599,2,0,B|204:291|204:291|232:174,1,179.999994506836,0|0,3:0|3:0,0:0:0:0:
294,122,27571,1,2,3:2:0:0:
253,46,27896,2,0,B|194:38|194:38|141:58|141:58|75:50,1,179.999994506836,2|0,3:2|3:0,0:0:0:0:
1,90,28869,5,2,3:2:0:0:
49,254,29518,2,0,L|60:343,2,89.999997253418,2|0|0,3:2|3:0|0:0,0:0:0:0:
129,222,30491,1,2,0:0:0:0:
225,307,30977,1,2,0:0:0:0:
359,300,31464,6,0,B|381:250|363:187,1,99.9999999999999,4|0,0:0|3:0,0:0:0:0:
301,140,32112,2,0,B|299:43|406:34,1,150,2|2,3:1|0:0,0:0:0:0:
475,59,32923,1,0,0:0:0:0:
499,145,33247,2,0,B|501:197|495:258,1,99.9999999999999,2|0,0:0|0:0,0:0:0:0:
461,328,33896,6,2,B|399:400|315:343,1,150,2|2,0:0|3:1,0:0:0:0:
258,293,34707,1,0,3:0:0:0:
128,256,35193,2,2,L|28:262,2,99.9999999999999,2|0|2,0:0|0:0|0:0,0:0:0:0:
161,172,36166,1,0,0:0:0:0:
243,136,36491,6,0,B|329:119|396:154,1,150,2|0,0:0|3:0,0:0:0:0:
465,199,37301,2,2,B|496:138|479:52,1,150,2|2,3:1|0:0,0:0:0:0:
397,16,38112,1,2,0:0:0:0:
309,36,38437,2,0,B|264:49|206:42,1,99.9999999999999,2|2,0:0|0:0,0:0:0:0:
121,23,39086,6,2,B|58:83|106:159,1,150,2|0,0:0|3:0,0:0:0:0:
171,219,39896,2,2,B|221:221|265:191,1,99.9999999999999,2|0,3:1|3:0,0:0:0:0:
327,126,40545,1,2,3:1:0:0:
458,97,41031,2,0,B|482:175|442:183|466:277,1,150,10|2,0:0|3:1,0:0:0:0:
397,310,41842,6,0,B|358:319|324:312|324:312|280:341|280:341|238:334|188:345,1,200,4|2,0:0|3:1,0:0:0:0:
155,267,42815,1,2,3:1:0:0:
72,230,43139,2,0,B|-7:265|11:353,2,150,2|2|0,3:1|0:0|3:0,0:0:0:0:
143,174,44437,6,2,B|218:183|300:154,1,150,2|2,3:1|0:0,0:0:0:0:
361,101,45247,1,0,0:0:0:0:
396,18,45572,2,0,B|323:-3|237:10,1,150,2|2,0:0|3:1,0:0:0:0:
163,42,46383,1,0,3:1:0:0:
213,116,46707,6,2,B|201:229,1,99.9999999999999,2|0,3:1|3:0,0:0:0:0:
115,238,47356,2,0,B|103:351,1,99.9999999999999,2|2,3:1|3:1,0:0:0:0:
190,364,48004,2,2,B|260:391|331:352|335:266,1,200,2|0,3:1|3:0,0:0:0:0:
335,185,48977,1,2,3:1:0:0:
409,134,49301,1,0,3:0:0:0:
497,152,49626,6,0,B|506:89|503:43,2,99.9999999999999,2|2|2,3:1|3:1|3:1,0:0:0:0:
507,241,50599,1,2,3:1:0:0:
447,308,50923,2,0,B|399:334|340:333,1,99.9999999999999,0|0,3:0|3:0,0:0:0:0:
273,378,51572,2,0,B|246:330|247:271,1,99.9999999999999,2|10,3:1|0:0,0:0:0:0:
282,199,52220,6,0,B|339:199|372:164|372:164|417:204|481:187,2,200,6|8|2,0:0|0:0|0:0,0:0:0:0:
247,282,53842,1,0,3:0:0:0:
163,247,54166,2,2,B|127:203|144:153,1,99.9999999999999,10|0,0:0|0:0,0:0:0:0:
191,76,54815,6,0,B|120:93|120:93|70:68|70:68|-19:66,2,200,2|10|2,3:1|0:0|0:0,0:0:0:0:
273,111,56437,1,0,3:0:0:0:
343,54,56761,1,10,0:0:0:0:
486,162,57410,6,0,L|508:291,1,99.9999999999999,8|8,0:0|0:0,0:0:0:0:
463,341,58058,2,0,L|334:319,1,99.9999999999999,10|8,0:0|0:0,0:0:0:0:
283,364,58707,2,0,L|261:235,1,99.9999999999999,10|8,0:0|0:0,0:0:0:0:
288,178,59356,2,0,L|386:194,1,99.9999999999999,10|10,0:0|0:0,0:0:0:0:
460,246,60004,1,8,0:0:0:0:
509,170,60328,1,10,0:0:0:0:
445,105,60653,2,0,B|440:59|453:5,2,99.9999999999999,10|10|10,0:0|0:0|0:0,0:0:0:0:
194,363,62599,6,0,B|133:365|96:318,1,99.9999999999999,6|8,0:0|0:0,0:0:0:0:
55,251,63247,1,2,3:1:0:0:
124,193,63572,1,8,0:0:0:0:
63,126,63896,2,0,B|30:74|52:18,2,99.9999999999999,2|8|0,3:1|0:0|3:0,0:0:0:0:
150,106,64869,1,10,0:0:0:0:
228,149,65193,6,0,B|245:198|232:249,1,99.9999999999999,2|8,3:1|0:0,0:0:0:0:
174,317,65842,2,0,B|207:356|257:370,1,99.9999999999999,2|8,3:1|0:0,0:0:0:0:
345,353,66491,1,2,3:1:0:0:
368,266,66815,2,0,B|371:214|346:169,1,99.9999999999999,10|0,0:0|3:0,0:0:0:0:
279,109,67464,1,10,0:0:0:0:
318,27,67788,6,2,B|417:20,1,99.9999999999999,6|8,0:0|0:0,0:0:0:0:
489,73,68436,1,2,3:1:0:0:
439,148,68761,1,10,0:0:0:0:
505,208,69085,2,2,B|512:307,1,99.9999999999999,2|8,3:1|0:0,0:0:0:0:
461,382,69734,1,0,3:0:0:0:
371,377,70058,1,10,0:0:0:0:
328,297,70383,5,0,3:0:0:0:
386,228,70707,2,2,B|387:134|295:111,1,150,10|2,0:0|3:1,0:0:0:0:
237,171,71518,2,0,B|172:238|90:189,1,150,2|10,3:1|0:0,0:0:0:0:
30,139,72328,1,2,3:1:0:0:
77,62,72653,1,2,3:1:0:0:
166,53,72977,6,2,B|227:47|286:59,1,99.9999999999999,6|8,0:0|0:0,0:0:0:0:
342,103,73626,2,2,B|326:162|295:213,1,99.9999999999999,2|8,3:1|0:0,0:0:0:0:
254,270,74274,2,0,B|215:261|162:230,1,99.9999999999999,2|8,3:1|0:0,0:0:0:0:
108,158,74923,1,0,3:0:0:0:
18,166,75247,1,10,0:0:0:0:
0,254,75571,6,0,B|12:353,1,99.9999999999999,0|8,3:0|0:0,0:0:0:0:
102,342,76220,2,0,B|201:354,1,99.9999999999999,0|8,3:0|0:0,0:0:0:0:
288,378,76869,1,2,3:1:0:0:
369,339,77193,1,2,0:0:0:0:
391,251,77518,1,10,0:0:0:0:
337,178,77842,1,8,3:0:0:0:
249,200,78166,6,0,B|139:219|160:160|47:181,1,200,6|10,0:0|0:0,0:0:0:0:
7,102,79139,1,2,0:0:0:0:
58,27,79464,2,0,B|100:-3|176:17,1,99.9999999999999,8|2,0:0|2:0,0:0:0:0:
203,87,80112,2,0,B|245:117|321:97,1,99.9999999999999,2|2,2:0|2:0,0:0:0:0:
379,60,80761,6,0,B|465:57|521:151|459:232,1,200,4|2,3:1|3:1,0:0:0:0:
439,277,81734,1,8,0:0:0:0:
349,268,82058,2,0,L|250:275,2,99.9999999999999,2|8|2,3:1|0:0|3:1,0:0:0:0:
377,182,83031,1,8,0:0:0:0:
313,118,83355,6,0,B|260:115|217:149|217:149|174:112|113:119,1,200,2|2,3:1|3:1,0:0:0:0:
41,91,84328,1,8,0:0:0:0:
0,171,84653,2,0,B|0:213|16:269,1,99.9999999999999,2|10,3:1|0:0,0:0:0:0:
88,323,85301,1,10,0:0:0:0:
177,333,85626,2,0,B|193:277|193:234,1,99.9999999999999,8|4,0:0|3:0,0:0:0:0:
256,192,86599,12,2,88383,2:0:0:0:
