osu file format v14

[General]
AudioFilename: audio.mp3
AudioLeadIn: 0
PreviewTime: 45861
Countdown: 0
SampleSet: None
StackLeniency: 1
Mode: 0
LetterboxInBreaks: 0
WidescreenStoryboard: 1

[Editor]
Bookmarks: 85498,182034
DistanceSpacing: 1.7
BeatDivisor: 4
GridSize: 8
TimelineZoom: 1.8

[Metadata]
Title:crossing field
TitleUnicode:crossing field
Artist:LiSA
ArtistUnicode:LiSA
Creator:pishifat
Version:Insane
Source:ソードアート・オンライン
Tags:opening anime size full version sword art online kirito asuna deetz
BeatmapID:1956735
BeatmapSetID:936702

[Difficulty]
HPDrainRate:6
CircleSize:3.7
OverallDifficulty:8
ApproachRate:9
SliderMultiplier:1
SliderTickRate:1

[Events]
//Background and Video events
0,0,"sao.jpg",0,0
//Break Periods
2,152737,156294
//Storyboard Layer 0 (Background)
//Storyboard Layer 1 (Fail)
//Storyboard Layer 2 (Pass)
//Storyboard Layer 3 (Foreground)
//Storyboard Sound Samples

[TimingPoints]
-312,335.195530726257,4,2,0,40,1,0
358,-166.666666666667,4,2,0,40,0,0
4715,-111.111111111111,4,2,0,40,0,0
5218,-125,4,2,0,50,0,0
5553,-83.3333333333333,4,2,0,60,0,0
5889,-66.6666666666667,4,2,0,70,0,0
6391,-66.6666666666667,4,2,0,70,0,0
10246,-166.666666666667,4,2,0,60,0,0
11755,-83.3333333333333,4,2,0,40,0,0
16447,-50,4,2,0,60,0,0
16699,-50,4,2,0,5,0,0
16782,-50,4,2,0,60,0,0
17034,-55.5555555555556,4,2,0,60,0,0
17369,-55.5555555555556,4,2,0,5,0,0
17453,-55.5555555555556,4,2,0,60,0,0
22481,-66.6666666666667,4,2,0,50,0,0
27174,-50,4,2,0,50,0,0
27425,-50,4,2,0,5,0,0
27509,-50,4,2,0,50,0,0
27844,-55.5555555555556,4,2,0,60,0,0
28095,-55.5555555555556,4,2,0,5,0,0
28179,-55.5555555555556,4,2,0,60,0,0
31615,-66.6666666666667,4,2,0,60,0,0
33207,-66.6666666666667,4,2,0,40,0,0
38235,-44.4444444444445,4,2,0,60,0,0
38486,-44.4444444444445,4,2,0,5,0,0
38570,-100,4,2,0,60,0,0
39073,-83.3333333333333,4,2,0,60,0,0
39408,-71.4285714285714,4,2,0,60,0,0
39743,-62.5,4,2,0,60,0,0
40079,-55.5555555555556,4,2,0,60,0,0
40581,-71.4285714285714,4,2,0,60,0,0
41419,-62.5,4,2,0,40,0,0
41755,-50,4,2,0,50,0,0
42090,-41.6666666666667,4,2,0,50,0,0
42425,-35.7142857142857,4,2,0,60,0,0
43263,-166.666666666667,4,2,0,40,0,0
44436,-125,4,2,0,40,0,0
44939,-83.3333333333333,4,2,0,40,0,0
45944,-166.666666666667,4,2,0,40,0,0
46615,-40,4,2,0,70,0,1
46866,-40,4,2,0,5,0,1
46950,-40,4,2,0,70,0,1
47118,-55.5555555555556,4,2,0,70,0,1
47620,-40,4,2,0,70,0,1
47872,-40,4,2,0,5,0,1
47956,-55.5555555555556,4,2,0,70,0,1
48626,-40,4,2,0,70,0,1
49129,-40,4,2,0,70,0,1
49548,-40,4,2,0,5,0,1
49632,-40,4,2,0,70,0,1
49967,-55.5555555555556,4,2,0,70,0,1
51810,-40,4,2,0,70,0,1
52229,-40,4,2,0,5,0,1
52313,-40,4,2,0,70,0,1
52565,-40,4,2,0,45,0,1
52648,-40,4,2,0,70,0,1
52900,-40,4,2,0,5,0,1
52984,-40,4,2,0,70,0,1
53235,-40,4,2,0,45,0,1
53319,-40,4,2,0,70,0,1
53570,-40,4,2,0,5,0,1
53654,-40,4,2,0,70,0,1
53905,-40,4,2,0,45,0,1
53989,-40,4,2,0,70,0,1
54241,-40,4,2,0,5,0,1
54324,-40,4,2,0,70,0,1
54660,-55.5555555555556,4,2,0,70,0,1
55498,-40,4,2,0,60,0,0
55833,-33.3333333333333,4,2,0,60,0,0
56084,-33.3333333333333,4,2,0,5,0,0
56168,-33.3333333333333,4,2,0,60,0,0
56671,-66.6666666666667,4,2,0,70,0,0
57006,-44.4444444444445,4,2,0,70,0,0
57174,-33.3333333333333,4,2,0,70,0,0
57341,-40,4,2,0,70,0,1
57593,-40,4,2,0,5,0,1
57676,-40,4,2,0,70,0,1
58012,-55.5555555555556,4,2,0,70,0,1
58347,-40,4,2,0,70,0,1
58598,-40,4,2,0,5,0,1
58682,-55.5555555555556,4,2,0,70,0,1
59352,-40,4,2,0,70,0,1
60274,-40,4,2,0,5,0,1
60358,-40,4,2,0,70,0,1
60693,-55.5555555555556,4,2,0,70,0,1
62537,-40,4,2,0,70,0,1
62956,-40,4,2,0,5,0,1
63039,-40,4,2,0,70,0,1
63291,-40,4,2,0,45,0,1
63375,-40,4,2,0,70,0,1
63626,-40,4,2,0,5,0,1
63710,-40,4,2,0,70,0,1
63961,-40,4,2,0,45,0,1
64045,-40,4,2,0,70,0,1
64296,-40,4,2,0,5,0,1
64380,-40,4,2,0,70,0,1
64632,-40,4,2,0,45,0,1
64715,-40,4,2,0,70,0,1
64967,-40,4,2,0,5,0,1
65051,-40,4,2,0,70,0,1
65302,-40,4,2,0,45,0,1
65386,-40,4,2,0,70,0,1
65889,-55.5555555555556,4,2,0,60,0,0
66224,-40,4,2,0,60,0,0
66559,-33.3333333333333,4,2,0,60,0,0
66810,-33.3333333333333,4,2,0,6,0,0
66894,-33.3333333333333,4,2,0,60,0,0
67062,-40,4,2,0,60,0,0
67397,-66.6666666666667,4,2,0,70,0,0
67732,-44.4444444444445,4,2,0,70,0,0
67900,-33.3333333333333,4,2,0,70,0,0
68067,-58.8235294117647,4,2,0,70,0,1
70246,-44.4444444444445,4,2,0,70,0,1
70581,-50,4,2,0,70,0,1
70833,-50,4,2,0,6,0,1
70917,-50,4,2,0,70,0,1
71252,-42.8571489795927,4,2,0,75,0,1
71503,-42.8571489795927,4,2,0,5,0,1
71587,-37.5000937502344,4,2,0,75,0,1
72174,-37.5000937502344,4,2,0,6,0,1
72257,-37.5000937502344,4,2,0,75,0,1
72760,-40,4,2,0,70,0,1
73347,-40,4,2,0,6,0,1
73431,-40,4,2,0,70,0,1
73514,-40,4,2,0,70,0,1
73933,-58.8235294117647,4,2,0,70,0,1
75777,-66.6666666666667,4,2,0,70,0,1
76112,-33.3333333333333,4,2,0,70,0,1
77285,-100,4,2,0,70,0,0
78458,-100,4,2,0,60,0,0
78794,-50,4,2,0,60,0,0
79045,-50,4,2,0,5,0,0
79129,-50,4,2,0,60,0,0
81727,-50,4,2,0,5,0,0
81810,-50,4,2,0,60,0,0
83486,-33.3333333333333,4,2,0,60,0,0
84157,-100,4,2,0,60,0,0
84827,-133.333333333333,4,2,0,60,0,0
85498,-83.3333333333333,4,2,0,50,0,0
86168,-66.6666666666667,4,2,0,50,0,0
86671,-83.3333333333333,4,2,0,50,0,0
88850,-66.6666666666667,4,2,0,50,0,0
89352,-83.3333333333333,4,2,0,50,0,0
90861,-66.6666666666667,4,2,0,60,0,0
92872,-100,4,2,0,60,0,0
93542,-66.6666666666667,4,2,0,60,0,0
96224,-62.5,4,2,0,50,0,0
100749,-50,4,2,0,50,0,0
101587,-50,4,2,0,60,0,0
101838,-50,4,2,0,5,0,0
101922,-55.5555555555556,4,2,0,60,0,0
104604,-66.6666666666667,4,2,0,60,0,0
105442,-66.6666666666667,4,2,0,60,0,0
106950,-166.666666666667,4,2,0,40,0,0
111978,-40,4,2,0,60,0,0
112229,-40,4,2,0,5,0,0
112313,-100,4,2,0,60,0,0
112816,-83.3333333333333,4,2,0,60,0,0
113151,-71.4285714285714,4,2,0,60,0,0
113486,-62.5,4,2,0,60,0,0
113822,-55.5555555555556,4,2,0,60,0,0
114324,-66.6666666666667,4,2,0,60,0,0
115162,-62.5,4,2,0,40,0,0
115498,-50,4,2,0,50,0,0
116000,-41.6666666666667,4,2,0,60,0,0
116336,-35.7142857142857,4,2,0,60,0,0
117006,-83.3333333333333,4,2,0,40,0,0
119352,-100,4,2,0,40,0,0
119688,-166.666666666667,4,2,0,40,0,0
120358,-40,4,2,0,70,0,1
120609,-40,4,2,0,5,0,1
120693,-100,4,2,0,70,0,1
121028,-55.5555555555556,4,2,0,70,0,1
121363,-40,4,2,0,70,0,1
121614,-40,4,2,0,5,0,1
121699,-55.5555555555556,4,2,0,70,0,1
122537,-40,4,2,0,70,0,1
123290,-40,4,2,0,5,0,1
123374,-40,4,2,0,70,0,1
123542,-55.5555555555556,4,2,0,70,0,1
125553,-40,4,2,0,70,0,1
125637,-40,4,2,0,45,0,1
125720,-40,4,2,0,70,0,1
125972,-40,4,2,0,5,0,1
126056,-40,4,2,0,70,0,1
126307,-40,4,2,0,45,0,1
126391,-40,4,2,0,70,0,1
126642,-40,4,2,0,5,0,1
126726,-40,4,2,0,70,0,1
126977,-40,4,2,0,45,0,1
127062,-40.8163265306122,4,2,0,70,0,1
127313,-40.8163265306122,4,2,0,6,0,1
127397,-40,4,2,0,70,0,1
127648,-40,4,2,0,45,0,1
127732,-40,4,2,0,70,0,1
127983,-40,4,2,0,5,0,1
128067,-40,4,2,0,70,0,1
128403,-40,4,2,0,70,0,1
128570,-55.5555555555556,4,2,0,70,0,1
129241,-40,4,2,0,70,0,1
129576,-33.3333333333333,4,2,0,70,0,1
129827,-33.3333333333333,4,2,0,5,0,1
129910,-33.3333333333333,4,2,0,70,0,1
130414,-66.6666666666667,4,2,0,70,0,0
130749,-44.4444444444445,4,2,0,70,0,0
130917,-33.3333333333333,4,2,0,70,0,0
131084,-40,4,2,0,70,0,1
131335,-40,4,2,0,5,0,1
131419,-40,4,2,0,70,0,1
131755,-55.5555555555556,4,2,0,70,0,1
132090,-40,4,2,0,70,0,1
132341,-40,4,2,0,5,0,1
132425,-55.5555555555556,4,2,0,70,0,1
133263,-40,4,2,0,70,0,1
134017,-40,4,2,0,5,0,1
134100,-40,4,2,0,70,0,1
134269,-55.5555555555556,4,2,0,70,0,1
136280,-40,4,2,0,70,0,1
136363,-40,4,2,0,45,0,1
136447,-40,4,2,0,70,0,1
136698,-40,4,2,0,6,0,1
136782,-40,4,2,0,70,0,1
137033,-40,4,2,0,45,0,1
137117,-40,4,2,0,70,0,1
137368,-40,4,2,0,5,0,1
137452,-40,4,2,0,70,0,1
137704,-40,4,2,0,45,0,1
137787,-40,4,2,0,70,0,1
138039,-40,4,2,0,6,0,1
138123,-40,4,2,0,70,0,1
138374,-40,4,2,0,45,0,1
138458,-40,4,2,0,70,0,1
138709,-40,4,2,0,5,0,1
138793,-40,4,2,0,70,0,1
139632,-55.5555555555556,4,2,0,60,0,0
139967,-40,4,2,0,60,0,0
140302,-33.3333333333333,4,2,0,60,0,0
140553,-33.3333333333333,4,2,0,5,0,0
140637,-33.3333333333333,4,2,0,60,0,0
141140,-83.3333333333333,4,2,0,70,0,0
141308,-66.6666666666667,4,2,0,70,0,0
141475,-44.4444444444445,4,2,0,70,0,0
141643,-33.3333333333333,4,2,0,70,0,0
141810,-58.8235294117647,4,2,0,70,0,1
143989,-66.6666666666667,4,2,0,70,0,1
144157,-44.4444444444445,4,2,0,70,0,1
144324,-50,4,2,0,70,0,1
144575,-50,4,2,0,6,0,1
144659,-50,4,2,0,70,0,1
144995,-42.863266180883,4,2,0,75,0,1
145246,-42.863266180883,4,2,0,5,0,1
145329,-42.863266180883,4,2,0,75,0,1
145665,-37.5009375234381,4,2,0,80,0,1
145916,-37.5009375234381,4,2,0,5,0,1
146000,-37.5009375234381,4,2,0,80,0,1
146503,-40,4,2,0,70,0,1
147089,-40,4,2,0,5,0,1
147173,-40,4,2,0,70,0,1
147509,-58.8235294117647,4,2,0,70,0,1
149855,-33.3333333333333,4,2,0,70,0,1
151028,-83.3333333333333,4,2,0,70,0,0
151782,-83.3333333333333,4,2,0,6,0,0
151866,-83.3333333333333,4,2,0,60,0,0
156894,-133.333333333333,4,2,0,50,0,0
157397,-50,4,2,0,55,0,0
157900,-83.3333333333333,4,2,0,60,0,0
160079,-50,4,2,0,60,0,0
160581,-83.3333333333333,4,2,0,60,0,0
162760,-50,4,2,0,60,0,0
163431,-83.3333333333333,4,2,0,60,0,0
165442,-50,4,2,0,60,0,0
166112,-83.3333333333333,4,2,0,60,0,0
168626,-50,4,2,0,70,0,1
170302,-66.6666666666667,4,2,0,70,0,1
170637,-40,4,2,0,70,0,1
170972,-66.6666666666667,4,2,0,70,0,1
171308,-50,4,2,0,70,0,1
176671,-66.6666666666667,4,2,0,70,0,1
176922,-66.6666666666667,4,2,0,6,0,1
177006,-50,4,2,0,70,0,1
177174,-57.1428571428571,4,2,0,70,0,1
177424,-57.1428571428571,4,2,0,6,0,1
177509,-44.4444444444445,4,2,0,70,0,1
178012,-40,4,2,0,70,0,1
179185,-55.5555555555556,4,2,0,70,0,1
179352,-100,4,2,0,30,0,0
187397,-83.3333333333333,4,2,0,60,0,0
192090,-166.666666666667,4,2,0,40,0,0
192760,-125,4,2,0,30,0,0
193011,-125,4,2,0,5,0,0
193095,-100,4,2,0,40,0,0
193346,-100,4,2,0,5,0,0
193431,335.195530726257,4,2,0,70,1,1
193431,-36.3636363636364,4,2,0,70,0,1
193682,-36.3636363636364,4,2,0,5,0,1
193766,-36.3636363636364,4,2,0,70,0,1
194101,-50,4,2,0,70,0,1
194436,-36.3636363636364,4,2,0,70,0,1
194687,-36.3636363636364,4,2,0,5,0,1
194771,-50,4,2,0,70,0,1
195609,-36.3636363636364,4,2,0,70,0,1
196363,-36.3636363636364,4,2,0,5,0,1
196447,-36.3636363636364,4,2,0,70,0,1
196782,-50,4,2,0,70,0,1
198626,-36.3636363636364,4,2,0,70,0,1
198794,-36.3636363636364,4,2,0,70,0,1
199045,-36.3636363636364,4,2,0,5,0,1
199129,-36.3636363636364,4,2,0,70,0,1
199380,-36.3636363636364,4,2,0,45,0,1
199464,-36.3636363636364,4,2,0,70,0,1
199715,-100,4,2,0,6,0,1
199799,-36.3636363636364,4,2,0,70,0,1
200051,-36.3636363636364,4,2,0,45,0,1
200134,-36.3636363636364,4,2,0,70,0,1
200386,-36.3636363636364,4,2,0,6,0,1
200470,-36.3636363636364,4,2,0,70,0,1
200721,-36.3636363636364,4,2,0,45,0,1
200805,-36.3636363636364,4,2,0,70,0,1
201056,-36.3636363636364,4,2,0,5,0,1
201140,-36.3636363636364,4,2,0,70,0,1
201475,-50,4,2,0,70,0,1
201978,-50,4,2,0,60,0,0
202313,-36.3636363636364,4,2,0,60,0,0
202648,-28.5714285714286,4,2,0,60,0,0
202900,-28.5714285714286,4,2,0,5,0,0
202984,-83.3333333333333,4,2,0,60,0,0
203151,-36.3636363636364,4,2,0,60,0,0
203486,-66.6666666666667,4,2,0,70,0,0
203822,-40,4,2,0,70,0,0
203989,-28.5714285714286,4,2,0,70,0,0
204157,-36.3636363636364,4,2,0,70,0,1
204408,-36.3636363636364,4,2,0,5,0,1
204492,-36.3636363636364,4,2,0,70,0,1
204660,-50,4,2,0,70,0,1
205162,-36.3636363636364,4,2,0,70,0,1
205414,-36.3636363636364,4,2,0,5,0,1
205498,-50,4,2,0,70,0,1
206336,-36.3636363636364,4,2,0,70,0,1
207090,-36.3636363636364,4,2,0,5,0,1
207174,-36.3636363636364,4,2,0,70,0,1
207425,-50,4,2,0,70,0,1
209352,-36.3636363636364,4,2,0,70,0,1
209436,-36.3636363636364,4,2,0,45,0,1
209520,-40,4,2,0,70,0,1
209771,-40,4,2,0,5,0,1
209855,-36.3636363636364,4,2,0,70,0,1
210106,-36.3636363636364,4,2,0,45,0,1
210190,-40,4,2,0,70,0,1
210442,-40,4,2,0,5,0,1
210525,-40,4,2,0,70,0,1
210777,-40,4,2,0,45,0,1
210861,-40,4,2,0,70,0,1
211112,-40,4,2,0,6,0,1
211196,-40,4,2,0,70,0,1
211363,-40,4,2,0,70,0,1
211447,-40,4,2,0,45,0,1
211531,-40,4,2,0,70,0,1
211782,-50,4,2,0,5,0,1
211866,-40,4,2,0,70,0,1
212704,-50,4,2,0,70,0,1
213039,-36.3636363636364,4,2,0,60,0,0
213375,-28.5714285714286,4,2,0,60,0,0
213626,-28.5714285714286,4,2,0,5,0,0
213710,-28.5714285714286,4,2,0,60,0,0
214213,-83.3333333333333,4,2,0,70,0,0
214380,-40,4,2,0,70,0,0
214548,-28.5714285714286,4,2,0,70,0,0
214883,-83.3333333333333,4,2,0,70,0,1
215386,-52.6315789473684,4,2,0,70,0,1
217062,-66.6666666666667,4,2,0,70,0,1
217229,-40,4,2,0,70,0,1
217397,-33.3333333333333,4,2,0,70,0,1
217648,-33.3333333333333,4,2,0,5,0,1
217732,-33.3333333333333,4,2,0,70,0,1
218905,-40,4,2,0,70,0,1
219576,-50,4,2,0,70,0,1
220246,-125,4,2,0,56,0,0
222257,-100,4,2,0,60,0,0
222928,-33.3333333333333,4,2,0,60,0,0
224604,-83.3333333333333,4,2,0,60,0,0
224939,-66.6666666666667,4,2,0,60,0,0
225609,-50,4,2,0,60,0,0
225861,-50,4,2,0,5,0,0
225944,-50,4,2,0,60,0,0
228542,-50,4,2,0,5,0,0
228626,-50,4,2,0,60,0,0
231224,-50,4,2,0,5,0,0
231308,-50,4,2,0,60,0,0
233905,-50,4,2,0,5,0,0
233989,-50,4,2,0,60,0,0
236252,-50,4,2,0,33,0,0

[Colours]
Combo1 : 255,168,170
Combo2 : 205,255,151
Combo3 : 255,208,157
Combo4 : 149,255,253

[HitObjects]
63,53,358,5,0,0:0:0:0:
63,53,525,1,0,0:0:0:0:
63,53,693,1,0,0:0:0:0:
63,53,1028,6,0,P|104:95|163:124,1,119.999996337891,2|0,0:0|3:0,0:0:0:0:
253,103,2034,2,0,P|281:112|310:117,1,59.9999981689454,2|2,0:0|0:0,0:0:0:0:
310,117,2537,1,0,3:0:0:0:
459,202,3039,6,0,P|422:227|378:238,1,89.9999972534181,2|2,0:0|0:0,0:0:0:0:
378,238,3626,1,2,0:0:0:0:
378,238,3710,2,0,P|294:235|252:214,1,119.999996337891,2|0,0:0|3:0,0:0:0:0:
40,293,4715,5,2,0:0:0:0:
40,293,4883,2,0,P|91:323|134:328,1,89.9999972534181,2|2,0:0|3:2,0:0:0:0:
235,376,5553,2,0,P|308:344|345:301,1,119.999996337891,2|2,0:0|0:0,0:0:0:0:
436,251,6056,5,2,0:0:0:0:
436,251,6224,2,2,L|429:210,1,37.5000014305115
419,125,6391,6,0,P|434:78|465:44,1,75.0000028610231,4|0,0:1|0:0,0:0:0:0:
292,168,6727,2,0,P|255:117|249:80,1,75.0000028610231,4|0,0:3|0:0,0:0:0:0:
70,13,7062,6,0,P|34:23|4:46,1,75.0000028610231,4|0,0:3|0:0,0:0:0:0:
160,113,7398,2,0,P|150:148|152:186,1,75.0000028610231,4|0,0:3|0:0,0:0:0:0:
103,345,7732,6,0,P|56:305|43:276,1,75.0000028610231,4|0,0:3|0:0,0:0:0:0:
216,298,8067,2,0,P|227:237|245:211,1,75.0000028610231,4|0,0:3|0:0,0:0:0:0:
488,372,8403,6,0,P|483:334|467:301,1,75.0000028610231,4|0,0:3|0:0,0:0:0:0:
295,338,8738,2,0,P|325:315|345:284,1,75.0000028610231,4|0,0:3|0:0,0:0:0:0:
318,121,9073,6,0,P|275:101|233:100,1,75.0000028610231,4|0,0:3|0:0,0:0:0:0:
92,52,9408,2,0,P|130:53|177:38,1,75.0000028610231,4|0,0:3|0:0,0:0:0:0:
261,9,9743,1,4,0:3:0:0:
261,9,10079,1,4,0:3:0:0:
316,219,10246,5,0,1:0:0:0:
114,174,10581,5,4,0:3:0:0:
114,174,10665,1,4,0:3:0:0:
114,174,10749,1,0,1:0:0:0:
68,241,10917,1,4,0:3:0:0:
61,347,11755,5,4,0:0:0:0:
61,347,11922,2,0,L|126:335,1,59.9999981689454,2|4,0:0|0:3,0:0:0:0:
205,382,12257,2,0,L|216:311,1,59.9999981689454,2|4,0:0|0:3,0:0:0:0:
275,255,12593,2,0,L|340:243,1,59.9999981689454,2|4,0:0|0:3,0:0:0:0:
431,191,12928,6,0,L|409:328,1,119.999996337891,2|2,0:0|0:0,0:0:0:0:
411,309,13431,1,4,0:3:0:0:
73,143,13766,6,0,L|60:71,1,59.9999981689454,4|0,0:3|0:0,0:0:0:0:
155,69,14101,2,0,L|142:-3,1,59.9999981689454,4|0,0:3|0:3,0:3:0:0:
270,40,14436,5,4,0:3:0:0:
270,40,14604,2,0,L|340:54,1,59.9999981689454,2|4,0:0|0:3,0:0:0:0:
414,5,14939,2,0,L|425:63,1,59.9999981689454,2|4,0:0|0:3,0:0:0:0:
323,144,15274,2,0,L|264:132,1,59.9999981689454,2|4,0:0|0:3,0:0:0:0:
423,166,15609,6,0,L|446:306,1,119.999996337891,2|2,0:0|0:0,0:0:0:0:
442,284,16112,1,4,0:3:0:0:
442,284,16447,6,0,P|385:299|352:380,1,150,6|0,0:3|0:0,0:0:0:0:
435,369,16782,1,8,0:3:0:0:
437,69,17118,6,0,B|397:59|369:83|382:91|349:114|313:106,1,134.999995880127,4|0,0:1|0:0,0:0:0:0:
231,80,17453,2,0,P|204:44|202:0,1,89.9999972534181,0|0,1:0|0:0,0:0:0:0:
264,175,17788,5,4,0:3:0:0:
154,234,17956,2,0,P|176:195|181:151,1,89.9999972534181,4|0,0:3|1:0,0:0:0:0:
13,258,18291,5,2,0:0:0:0:
164,337,18458,2,0,P|123:318|79:319,1,89.9999972534181,4|0,0:3|0:0,0:0:0:0:
246,253,18794,5,0,1:0:0:0:
387,353,18961,2,0,P|348:330|322:294,1,89.9999972534181,4|0,0:3|0:0,0:0:0:0:
398,127,19296,5,4,0:3:0:0:
434,229,19464,2,0,P|431:146|495:61,2,179.999994506836,0|4|0,1:0|0:3|1:0,0:0:0:0:
175,27,20470,5,4,0:3:0:0:
254,64,20637,1,4,0:3:0:0:
317,9,20805,2,0,P|393:39|413:74,1,89.9999972534181,0|0,1:0|0:0,0:0:0:0:
112,149,21140,5,4,0:3:0:0:
178,209,21308,1,4,0:3:0:0:
256,173,21475,2,0,P|292:146|357:141,1,89.9999972534181,0|0,1:0|0:0,0:0:0:0:
410,315,21810,5,0,1:0:0:0:
499,289,21978,1,0,1:0:0:0:
499,289,22062,1,0,1:0:0:0:
499,289,22146,5,0,1:0:0:0:
484,260,22229,1,0,1:0:0:0:
459,237,22313,1,0,1:0:0:0:
429,223,22397,1,0,1:0:0:0:
396,220,22481,5,4,1:2:0:0:
313,303,22648,2,0,L|303:384,1,75.0000028610231,2|0,0:0|1:0,0:0:0:0:
303,377,22984,1,0,1:0:0:0:
303,377,23067,1,0,1:0:0:0:
303,377,23151,1,0,1:0:0:0:
235,251,23319,2,0,P|176:229|148:196,1,75.0000028610231,2|0,0:0|1:0,0:0:0:0:
26,286,23654,5,2,0:0:0:0:
26,286,23822,2,0,L|39:199,1,75.0000028610231,4|2,0:3|0:0,0:0:0:0:
168,222,24157,2,0,L|155:135,1,75.0000028610231,0|0,1:0|1:0,0:0:0:0:
156,147,24408,1,0,1:0:0:0:
156,147,24492,1,0,1:0:0:0:
284,126,24660,2,0,L|242:48,1,75.0000028610231,2|0,0:0|1:0,0:0:0:0:
248,60,24995,1,2,0:0:0:0:
379,212,25162,5,4,0:3:0:0:
456,180,25330,2,0,P|498:219|506:264,1,75.0000028610231,2|0,0:0|1:0,0:0:0:0:
504,234,25665,1,0,1:0:0:0:
504,234,25749,1,0,1:0:0:0:
504,234,25833,1,0,1:0:0:0:
391,347,26000,2,0,P|333:331|298:339,1,75.0000028610231,2|0,0:0|1:0,0:0:0:0:
228,208,26336,6,0,L|241:298,2,75.0000028610231,2|4|2,0:0|0:3|0:0,0:0:0:0:
175,346,26838,2,0,P|145:323|126:291,1,75.0000028610231,0|0,1:0|1:0,0:0:0:0:
126,291,27090,1,0,1:0:0:0:
126,291,27174,6,0,P|48:268|-13:324,1,150,6|0,0:3|0:0,0:0:0:0:
67,349,27509,1,8,0:3:0:0:
136,42,27844,6,0,P|127:80|183:163,1,134.999995880127,4|0,0:1|0:0,0:0:0:0:
253,128,28179,2,0,P|312:98|364:110,1,89.9999972534181,0|0,1:0|0:0,0:0:0:0:
488,168,28514,5,4,0:3:0:0:
373,277,28682,2,0,P|378:232|404:196,1,89.9999972534181,4|0,0:3|0:0,0:0:0:0:
404,196,29017,5,0,1:0:0:0:
308,347,29185,2,0,P|252:337|210:296,1,89.9999972534181,2|4,0:0|0:3,0:0:0:0:
187,124,29520,5,0,1:0:0:0:
42,211,29688,2,0,P|80:187|125:183,1,89.9999972534181,2|4,0:0|0:3,0:0:0:0:
242,3,30023,5,4,0:3:0:0:
136,39,30190,2,0,P|221:44|310:131,2,179.999994506836,0|4|0,1:0|0:3|1:0,0:0:0:0:
131,376,31196,5,4,0:3:0:0:
131,376,31363,1,4,0:3:0:0:
131,376,31699,2,0,L|212:359,1,75.0000028610231,0|0,1:0|0:0,0:0:0:0:
326,339,32034,5,4,0:3:0:0:
326,339,32201,2,0,L|426:357,1,75.0000028610231,0|0,1:0|3:0,0:0:0:0:
399,352,32453,1,0,3:0:0:0:
399,352,32537,5,0,1:0:0:0:
428,329,32620,1,0,1:0:0:0:
441,293,32704,1,0,1:0:0:0:
442,255,32788,1,0,1:0:0:0:
434,218,32872,2,4,L|423:173,3,37.5000014305115,4|4|4|4,0:3|0:3|0:3|0:3,0:3:0:0:
407,99,33207,5,4,0:2:0:0:
182,49,33710,1,8,0:3:0:0:
308,120,34045,5,4,0:3:0:0:
283,42,34213,1,0,1:0:0:0:
30,208,34548,5,4,0:3:0:0:
255,158,35051,1,8,0:3:0:0:
184,189,35218,1,4,0:3:0:0:
105,174,35386,1,4,0:3:0:0:
30,208,35554,1,8,0:3:0:0:
121,294,35721,5,4,0:3:0:0:
121,294,35805,1,4,0:3:0:0:
121,294,35889,1,4,0:2:0:0:
293,295,36224,1,8,0:3:0:0:
325,219,36391,1,4,0:3:0:0:
121,294,36727,1,4,0:3:0:0:
136,375,36895,1,0,1:0:0:0:
379,144,37229,5,4,0:3:0:0:
208,81,37565,1,4,0:3:0:0:
189,0,37732,1,8,0:3:0:0:
379,144,38067,1,4,0:3:0:0:
349,218,38235,6,0,B|390:237|390:237|416:375,1,168.750006437302,4|0,1:2|0:0,0:0:0:0:
412,358,38570,5,0,3:0:0:0:
298,344,38738,2,0,L|304:307,2,25,0|0|0,3:0|3:0|3:0,3:0:0:0:
207,298,39073,2,0,L|195:249,2,29.9999990844727,0|0|0,3:0|3:0|3:0,3:0:0:0:
349,218,39408,2,0,L|360:158,2,34.9999989318848,0|0|0,3:0|3:0|3:0,3:0:0:0:
178,177,39743,2,0,L|159:107,2,40,0|0|0,3:0|3:0|3:0,3:0:0:0:
389,102,40079,2,0,L|403:48,1,44.999998626709,0|0,3:0|3:0,3:0:0:0:
256,32,40246,1,0,3:0:0:0:
256,45,40330,1,0,3:0:0:0:
256,58,40414,1,0,3:0:0:0:
256,71,40498,1,0,3:0:0:0:
256,84,40581,2,0,L|256:128,3,34.9999989318848,0|0|0|0,3:0|3:0|3:0|3:0,3:0:0:0:
256,132,40917,2,0,L|256:176,3,34.9999989318848,0|0|0|0,3:0|3:0|3:0|3:0,3:0:0:0:
256,184,41252,5,0,1:0:0:0:
122,50,41419,1,0,1:0:0:0:
131,68,41503,1,0,1:0:0:0:
140,86,41587,2,0,L|206:102,1,40,0|0,1:0|1:0,1:0:0:0:
411,98,41755,1,0,1:0:0:0:
399,120,41839,1,0,1:0:0:0:
388,142,41923,2,0,L|340:153,1,50,0|0,1:0|1:0,1:0:0:0:
56,193,42090,1,0,1:0:0:0:
70,219,42174,1,0,1:0:0:0:
83,245,42258,2,0,L|140:258,1,59.9999981689454,0|0,1:0|1:0,1:0:0:0:
461,264,42425,1,0,1:0:0:0:
444,294,42509,1,0,1:0:0:0:
429,324,42593,2,0,L|361:340,1,69.9999978637696,0|0,1:0|1:0,1:0:0:0:
256,304,42760,1,0,1:0:0:0:
256,344,42844,1,0,1:0:0:0:
256,384,42928,1,0,1:0:0:0:
256,176,43263,6,8,L|256:128,2,44.999998626709,8|8|8,0:3|0:3|0:3,0:3:0:0:
256,192,43933,1,4,0:0:0:0:
256,192,44017,12,2,44939,0:0:0:0:
256,192,45023,12,0,45609,1:0:0:0:
512,0,45944,5,0,0:0:0:0:
474,67,46112,1,0,0:0:0:0:
402,86,46280,1,8,0:0:0:0:
402,86,46615,6,0,P|350:59|195:71,1,187.5,4|0,0:1|0:0,0:0:0:0:
152,100,46950,1,0,1:0:0:0:
313,255,47118,1,2,0:0:0:0:
313,255,47285,2,0,P|286:195|233:171,1,89.9999972534181,4|0,0:3|0:0,0:0:0:0:
268,182,47620,6,0,P|295:236|207:320,1,187.5,0|0,1:0|0:0,0:0:0:0:
138,309,47956,2,0,P|107:276|95:227,1,89.9999972534181,4|0,0:3|0:0,0:0:0:0:
4,333,48291,2,0,P|35:365|78:379,1,89.9999972534181,0|0,1:0|0:0,0:0:0:0:
208,126,48626,5,4,0:3:0:0:
208,126,48794,2,0,L|71:150,1,125,2|0,0:0|1:0,0:0:0:0:
84,147,49129,2,0,L|165:161,1,62.5,2|0,0:0|0:0,0:0:0:0:
261,62,49296,6,0,P|341:15|433:11,1,187.5,4|0,0:3|0:0,0:0:0:0:
507,53,49632,1,0,1:0:0:0:
367,220,49799,1,2,0:0:0:0:
367,220,49967,2,0,P|403:146|443:125,1,89.9999972534181,4|0,0:3|0:0,0:0:0:0:
407,142,50302,5,0,1:0:0:0:
380,342,50470,1,2,0:0:0:0:
380,342,50553,1,2,0:0:0:0:
380,342,50637,1,4,0:3:0:0:
281,271,50805,6,0,L|173:298,1,89.9999972534181,2|0,0:0|1:0,0:0:0:0:
380,342,51140,1,2,0:0:0:0:
193,292,51308,5,4,0:3:0:0:
380,342,51475,2,0,L|488:364,1,89.9999972534181,2|0,0:0|1:0,0:0:0:0:
468,360,51810,6,0,L|382:374,1,62.5,2|0,0:0|0:0,0:0:0:0:
197,296,51978,2,0,P|163:218|181:90,1,187.5,4|0,0:1|0:0,0:0:0:0:
210,47,52313,1,0,1:0:0:0:
186,236,52481,6,0,P|175:183|185:142,1,62.5,2|0,0:0|0:0,0:0:0:0:
210,47,52648,2,0,P|288:12|416:30,1,187.5,4|0,0:3|0:0,0:0:0:0:
461,69,52984,1,0,1:0:0:0:
269,38,53152,6,0,P|322:27|363:37,1,62.5,2|0,0:0|0:0,0:0:0:0:
461,69,53319,2,0,P|495:147|477:275,1,187.5,4|0,0:3|0:0,0:0:0:0:
441,317,53654,1,0,1:0:0:0:
472,125,53822,6,0,P|483:178|473:219,1,62.5,2|0,0:0|0:0,0:0:0:0:
441,317,53989,2,0,P|363:351|235:333,1,187.5,4|0,0:3|0:0,0:0:0:0:
197,296,54324,1,0,1:0:0:0:
379,181,54492,5,2,0:0:0:0:
379,181,54576,1,2,0:0:0:0:
379,181,54660,2,0,P|344:222|277:241,1,89.9999972534181,4|0,0:3|0:0,0:0:0:0:
174,142,54995,5,0,1:0:0:0:
174,142,55162,2,0,L|53:117,1,89.9999972534181,4|0,0:3|0:0,0:0:0:0:
85,123,55498,2,0,L|228:98,1,125,0|0,1:0|0:0,0:0:0:0:
208,101,55833,6,0,P|150:182|165:318,1,225.000008583069,4|0,0:1|0:0,0:0:0:0:
323,343,56168,2,0,P|347:307|342:249,1,75.0000028610231,2|0,0:0|0:0,0:0:0:0:
254,226,56336,6,0,L|226:378,1,150.000005722046,0|0,1:0|0:0,0:0:0:0:
238,384,56587,1,0,1:0:0:0:
238,384,56671,1,0,1:0:0:0:
238,384,56838,6,0,L|197:391,1,37.5000014305115,0|0,3:0|3:0,3:0:0:0:
310,216,57006,2,0,L|255:226,1,56.2500021457673,0|0,1:0|3:0,0:0:0:0:
157,316,57174,2,0,L|58:336,1,75.0000028610231,0|0,1:0|3:0,0:0:0:0:
57,89,57341,6,0,P|140:93|243:180,1,187.5,4|0,0:1|0:0,0:0:0:0:
255,227,57676,1,0,1:0:0:0:
324,27,57844,1,2,0:0:0:0:
324,27,58012,2,0,P|357:101|354:127,1,89.9999972534181,4|0,0:3|0:0,0:0:0:0:
356,107,58347,6,0,P|335:184|416:269,1,187.5,0|0,1:0|0:0,0:0:0:0:
483,275,58682,2,0,P|532:231|539:179,1,89.9999972534181,4|0,0:3|0:0,0:0:0:0:
409,0,59017,2,0,P|442:74|439:100,1,89.9999972534181,0|0,1:0|0:0,0:0:0:0:
251,227,59352,5,4,0:3:0:0:
251,227,59520,2,0,L|273:89,1,125,2|0,0:0|1:0,0:0:0:0:
270,103,59855,2,0,L|289:196,1,62.5,2|0,0:0|0:0,0:0:0:0:
374,374,60023,6,0,P|299:319|206:312,1,187.5,4|0,0:3|0:0,0:0:0:0:
128,346,60358,1,0,1:0:0:0:
98,153,60525,1,2,0:0:0:0:
98,153,60693,2,0,P|50:223|49:268,1,89.9999972534181,4|0,0:3|0:0,0:0:0:0:
49,225,61028,5,0,1:0:0:0:
12,97,61196,1,2,0:0:0:0:
12,97,61280,1,2,0:0:0:0:
12,97,61363,1,4,0:3:0:0:
185,188,61531,6,0,L|294:204,1,89.9999972534181,2|0,0:0|1:0,0:0:0:0:
156,57,61866,1,2,0:0:0:0:
274,200,62034,5,4,0:3:0:0:
156,57,62201,2,0,L|245:43,1,89.9999972534181,2|0,0:0|1:0,0:0:0:0:
245,43,62537,6,0,L|231:119,1,62.5,2|0,0:0|0:0,0:0:0:0:
363,328,62704,2,0,P|434:259|449:158,1,187.5,4|0,0:1|0:0,0:0:0:0:
411,99,63039,1,0,1:0:0:0:
353,232,63207,6,0,P|365:202|363:164,1,62.5,2|0,0:0|0:0,0:0:0:0:
411,99,63375,2,0,P|342:28|241:13,1,187.5,4|0,3:3|3:0,3:0:0:0:
182,51,63710,1,0,1:0:0:0:
315,109,63878,6,0,P|285:97|247:99,1,62.5,2|0,0:0|0:0,3:0:0:0:
182,51,64045,2,0,P|111:120|96:221,1,187.5,4|0,0:3|0:0,3:0:0:0:
134,280,64380,1,0,1:0:0:0:
192,147,64548,6,0,P|180:177|182:215,1,62.5,2|0,0:0|0:0,0:0:0:0:
134,280,64715,2,0,P|203:351|304:366,1,187.5,4|0,0:3|0:0,0:0:0:0:
363,328,65050,1,0,1:0:0:0:
230,270,65218,6,0,P|260:282|298:280,1,62.5,2|0,0:0|0:0,0:0:0:0:
387,198,65386,2,0,P|431:155|492:144,1,125,4|0,0:3|0:0,0:0:0:0:
247,115,65721,5,0,1:0:0:0:
247,115,65889,2,0,L|335:98,1,89.9999972534181,2|4,0:0|0:3,0:0:0:0:
336,98,66224,2,0,L|212:79,1,125,2|0,0:0|1:0,0:0:0:0:
212,79,66559,6,0,P|280:178|250:294,1,225.000008583069,4|0,0:1|0:0,0:0:0:0:
181,296,66894,1,4,0:3:0:0:
432,322,67062,2,0,P|345:375|299:372,1,125,0|4,1:0|0:3,0:0:0:0:
95,198,67397,1,0,1:0:0:0:
95,198,67565,6,0,L|82:266,1,37.5000014305115,0|0,3:0|3:0,3:0:0:0:
206,131,67732,2,0,L|189:216,1,56.2500021457673,0|0,1:0|3:0,0:0:0:0:
81,7,67900,2,0,L|60:103,1,75.0000028610231,0|0,1:0|3:0,0:0:0:0:
181,296,68067,5,4,0:1:0:0:
181,296,68403,1,0,1:0:0:0:
33,382,68570,1,2,0:0:0:0:
33,382,68738,2,0,P|86:358|138:354,1,85.0000016212464,4|0,0:3|0:0,0:0:0:0:
257,223,69073,6,0,P|215:214|177:194,1,85.0000016212464,0|0,1:0|0:0,0:0:0:0:
319,77,69408,2,0,P|332:117|334:159,1,85.0000016212464,4|0,0:3|0:0,0:0:0:0:
234,365,69743,2,0,P|262:333|297:310,1,85.0000016212464,0|0,1:0|0:0,0:0:0:0:
512,288,70079,5,4,0:3:0:0:
512,288,70246,2,0,L|403:259,1,112.500004291535,2|0,0:3|1:0,0:0:0:0:
403,259,70581,6,0,P|466:195|468:107,1,150,4|0,0:1|0:0,0:0:0:0:
452,57,70917,1,4,0:3:0:0:
452,57,71084,1,0,1:0:0:0:
317,217,71252,6,0,P|340:150|280:37,1,174.999982198081,4|0,0:1|0:0,0:0:0:0:
229,16,71587,1,4,0:3:0:0:
229,16,71755,1,0,1:0:0:0:
224,233,71922,6,0,P|165:138|44:126,1,199.999491374991,4|0,0:1|0:0,0:0:0:0:
0,140,72257,1,4,0:3:0:0:
0,140,72425,1,0,1:0:0:0:
200,374,72593,5,4,0:1:0:0:
37,334,72760,2,0,P|85:296|147:292,1,125,4|0,0:3|0:0,0:0:0:0:
367,339,73095,2,0,P|279:304|215:204,1,187.5,0|0,1:0|0:0,0:0:0:0:
206,151,73431,5,4,0:1:0:0:
206,151,73766,1,0,1:0:0:0:
332,48,73933,2,0,P|298:94|288:142,1,85.0000016212464,2|4,0:0|0:3,0:0:0:0:
482,101,74269,2,0,P|449:73|428:36,1,85.0000016212464,2|0,0:0|1:0,0:0:0:0:
428,36,74604,1,2,0:0:0:0:
401,246,74771,5,4,0:3:0:0:
401,246,75106,1,0,1:0:0:0:
386,142,75274,1,2,0:0:0:0:
316,222,75442,5,0,1:0:0:0:
316,222,75525,1,0,1:0:0:0:
316,222,75609,1,0,1:0:0:0:
316,222,75693,1,0,1:0:0:0:
316,222,75777,2,0,L|239:213,1,75.0000028610231,0|4,1:0|0:3,1:0:0:0:
27,350,76112,6,0,L|197:324,1,150.000005722046,4|0,1:0|1:0,1:0:0:0:
175,327,76615,2,0,L|5:301,1,150.000005722046,4|0,1:0|1:0,1:0:0:0:
26,304,77118,2,0,L|196:278,1,150.000005722046,4|0,1:0|1:0,1:0:0:0:
73,75,78123,6,0,B|84:91|84:91|71:160,1,75,2|0,1:3|0:0,0:0:0:0:
9,196,78458,5,0,1:0:0:0:
30,217,78542,1,0,1:0:0:0:
58,226,78626,1,0,1:0:0:0:
88,227,78710,1,0,1:0:0:0:
116,218,78794,6,0,P|196:231|277:289,1,150,4|0,1:0|0:0,1:0:0:0:
317,326,79129,2,0,P|395:291|442:301,1,100,0|0,1:0|0:0,0:0:0:0:
491,323,79380,1,0,1:0:0:0:
491,323,79464,1,4,0:3:0:0:
471,201,79632,2,0,L|452:102,2,100,2|0|0,0:0|1:0|0:0,0:0:0:0:
331,49,80134,5,4,0:3:0:0:
331,49,80302,2,0,L|313:176,1,100,2|0,0:0|1:0,0:0:0:0:
75,102,80637,1,2,0:0:0:0:
193,229,80805,1,4,0:3:0:0:
193,229,80972,2,0,L|178:129,1,100,2|0,0:0|1:0,0:0:0:0:
0,72,81308,1,2,0:0:0:0:
0,72,81475,6,0,P|81:66|143:25,1,150,4|0,0:3|0:0,0:0:0:0:
221,58,81810,2,0,P|279:91|350:84,1,100,0|0,1:0|0:0,0:0:0:0:
391,72,82063,1,0,1:0:0:0:
391,72,82146,1,4,0:3:0:0:
318,189,82313,1,2,0:0:0:0:
487,178,82481,2,0,P|455:215|409:234,1,100,0|0,1:0|0:0,0:0:0:0:
202,311,82816,6,0,P|288:360|323:354,1,100,4|0,0:3|1:0,0:0:0:0:
314,357,83067,1,0,1:0:0:0:
340,342,83151,1,0,1:0:0:0:
222,165,83319,1,4,0:3:0:0:
173,235,83486,6,4,L|195:78,1,150.000005722046,4|4,1:3|1:3,1:3:0:0:
92,178,84157,6,0,L|81:111,1,50,0|0,3:0|3:0,3:0:0:0:
27,238,84827,6,0,L|10:197,1,37.5000014305115,0|0,3:0|3:0,3:0:0:0:
12,203,85498,5,4,0:0:0:0:
72,375,85665,2,0,B|90:360|90:360|200:342,1,119.999996337891,2|0,0:0|0:0,0:0:0:0:
185,344,86168,2,0,P|224:355|266:359,1,75.0000028610231,0|0,1:0|0:0,0:0:0:0:
458,258,86671,6,0,B|474:277|474:277|492:370,1,119.999996337891,4|0,0:3|0:0,0:0:0:0:
491,177,87174,1,6,0:3:0:0:
441,103,87509,1,0,1:0:0:0:
477,23,87844,1,2,0:0:0:0:
477,23,88179,5,4,0:3:0:0:
323,141,88347,2,0,B|305:118|305:118|198:100,1,119.999996337891,2|0,0:0|0:0,0:0:0:0:
215,102,88850,2,0,P|195:37|194:13,1,75.0000028610231,0|0,1:0|0:0,0:0:0:0:
228,272,89352,6,0,B|251:249|251:249|356:229,1,119.999996337891,4|0,0:3|0:0,0:0:0:0:
141,292,89855,1,6,0:3:0:0:
57,271,90190,1,0,1:0:0:0:
57,271,90358,1,4,0:3:0:0:
10,197,90525,1,2,1:3:0:0:
10,197,90861,5,4,0:1:0:0:
124,90,91028,2,0,P|88:101|59:124,1,75.0000028610231,2|0,0:0|0:0,0:0:0:0:
220,96,91363,5,4,0:3:0:0:
149,236,91531,2,0,P|153:198|170:165,1,75.0000028610231,0|0,1:0|0:0,0:0:0:0:
362,300,91866,5,4,0:3:0:0:
253,188,92034,2,0,P|264:223|287:252,1,75.0000028610231,4|0,0:3|0:0,0:0:0:0:
277,374,92369,5,0,1:0:0:0:
256,364,92537,1,2,0:0:0:0:
146,325,92704,5,2,0:0:0:0:
125,334,92872,1,0,1:0:0:0:
106,343,93039,1,2,0:0:0:0:
11,281,93207,5,0,1:0:0:0:
174,81,93542,5,4,0:2:0:0:
308,162,93710,2,0,P|245:144|224:131,1,75.0000028610231,2|0,0:0|0:0,0:0:0:0:
465,128,94045,5,2,0:0:0:0:
359,234,94213,2,0,P|419:206|441:178,1,75.0000028610231,0|0,1:0|0:0,0:0:0:0:
170,191,94548,5,0,1:0:0:0:
292,296,94715,2,0,P|242:280|204:246,1,75.0000028610231,4|0,0:3|0:0,0:0:0:0:
98,241,95051,6,0,P|44:292|23:363,1,150.000005722046,0|0,1:0|0:0,0:0:0:0:
170,191,95553,2,0,L|152:102,1,75.0000028610231,0|0,1:0|3:0,0:0:0:0:
155,117,95805,1,0,3:0:0:0:
155,117,95889,5,0,1:0:0:0:
193,133,95972,1,0,1:0:0:0:
230,134,96056,1,0,1:0:0:0:
266,124,96140,1,0,1:0:0:0:
295,99,96224,5,4,1:1:0:0:
435,128,96391,2,0,P|461:157|476:194,1,80,2|0,0:0|1:0,0:0:0:0:
476,194,96727,1,0,1:0:0:0:
476,194,96810,1,0,1:0:0:0:
476,194,96894,1,0,1:0:0:0:
368,284,97062,2,0,P|338:257|301:242,1,80,2|0,0:0|1:0,0:0:0:0:
180,271,97397,5,2,0:0:0:0:
180,271,97565,2,0,L|71:287,1,80,4|0,0:3|0:0,0:0:0:0:
220,158,97900,2,0,L|140:146,1,80,0|0,1:0|1:0,0:0:0:0:
140,146,98151,1,0,1:0:0:0:
140,146,98235,1,0,1:0:0:0:
285,65,98403,1,2,0:0:0:0:
285,65,98570,2,0,L|213:26,1,80,0|0,1:0|0:0,0:0:0:0:
389,132,98905,5,4,0:3:0:0:
315,231,99073,2,0,P|334:281|368:316,1,80,2|0,0:0|1:0,0:0:0:0:
350,301,99408,1,0,1:0:0:0:
350,301,99492,1,0,1:0:0:0:
350,301,99576,1,0,1:0:0:0:
139,281,99743,2,0,P|166:218|196:194,1,80,2|0,0:0|1:0,0:0:0:0:
71,68,100079,5,2,0:0:0:0:
71,68,100246,2,0,L|91:164,1,80,4|0,0:3|0:0,0:0:0:0:
254,80,100581,1,0,1:0:0:0:
254,80,100749,2,2,L|240:145,1,50,2|2,3:0|3:0,3:0:0:0:
345,233,100917,2,0,L|400:149,2,100,6|0|2,0:3|3:3|1:3,0:0:0:0:
345,233,101587,6,0,P|434:291|490:277,1,150,4|0,0:1|0:0,0:0:0:0:
512,210,101922,2,0,P|483:132|492:88,1,89.9999972534181,0|0,1:0|0:0,0:0:0:0:
407,14,102257,5,4,0:3:0:0:
283,99,102425,2,0,P|292:55|319:20,1,89.9999972534181,4|0,0:3|0:0,0:0:0:0:
305,245,102760,5,0,1:0:0:0:
182,184,102928,2,0,P|191:227|218:262,1,89.9999972534181,2|0,0:0|0:0,0:0:0:0:
49,270,103263,5,0,1:0:0:0:
124,382,103431,2,0,P|79:378|41:356,1,89.9999972534181,2|4,0:0|0:3,0:0:0:0:
182,184,103766,5,4,0:3:0:0:
45,31,103933,2,0,P|45:120|95:193,1,179.999994506836,0|4,1:0|0:3,0:0:0:0:
250,273,104436,5,2,0:0:0:0:
250,273,104604,2,0,L|236:369,1,75.0000028610231,0|0,1:0|0:0,0:0:0:0:
383,277,104939,5,4,0:3:0:0:
383,277,105106,1,4,0:3:0:0:
383,277,105442,2,0,L|369:196,1,75.0000028610231,0|0,1:0|0:0,0:0:0:0:
467,98,105777,5,4,0:3:0:0:
467,98,105944,2,0,L|501:165,1,75.0000028610231,0|4,1:0|0:3,0:0:0:0:
500,164,106196,1,4,0:3:0:0:
500,164,106280,5,0,1:0:0:0:
500,216,106363,1,0,1:0:0:0:
493,260,106447,1,0,1:0:0:0:
486,304,106531,1,0,1:0:0:0:
493,361,106615,5,4,0:3:0:0:
493,361,106699,1,4,0:3:0:0:
493,361,106782,1,4,0:3:0:0:
493,361,106866,1,4,0:3:0:0:
493,361,106950,5,4,0:2:0:0:
303,277,107453,1,8,0:3:0:0:
223,195,107788,1,4,0:3:0:0:
203,117,107956,1,0,1:0:0:0:
44,383,108291,5,4,0:3:0:0:
128,244,108794,1,8,0:3:0:0:
223,195,108961,1,4,0:3:0:0:
301,204,109129,1,4,0:3:0:0:
333,240,109296,1,8,0:3:0:0:
338,276,109464,1,4,0:3:0:0:
327,299,109632,5,4,0:0:0:0:
437,195,110134,1,8,0:3:0:0:
480,82,110470,1,4,0:3:0:0:
471,0,110637,1,0,1:0:0:0:
315,181,110972,5,4,0:3:0:0:
208,75,111475,1,8,0:3:0:0:
88,56,111810,1,4,0:3:0:0:
9,78,111978,6,0,B|41:74|41:74|137:2|137:2|177:-3,1,187.5,4|0,1:1|0:0,0:0:0:0:
256,0,112313,5,0,3:0:0:0:
318,71,112481,2,0,L|349:76,2,25,0|0|0,3:0|3:0|3:0,3:0:0:0:
198,110,112816,2,0,L|159:116,2,29.9999990844727,0|0|0,3:0|3:0|3:0,3:0:0:0:
334,177,113151,2,0,L|379:185,2,34.9999989318848,0|0|0,3:0|3:0|3:0,3:0:0:0:
170,220,113486,2,0,L|115:229,2,40,0|0|0,3:0|3:0|3:0,3:0:0:0:
364,289,113822,2,0,L|408:298,1,44.999998626709,0|0,3:0|3:0,3:0:0:0:
256,384,113989,1,0,3:0:0:0:
256,368,114072,1,0,3:0:0:0:
256,354,114156,1,0,3:0:0:0:
256,339,114240,1,0,3:0:0:0:
256,320,114324,2,0,L|256:256,3,37.5000014305115,0|0|0|0,3:0|3:0|3:0|3:0,3:0:0:0:
256,267,114660,2,0,L|256:203,3,37.5000014305115,0|0|0|0,3:0|3:0|3:0|3:0,3:0:0:0:
256,213,114994,5,0,1:0:0:0:
165,287,115162,1,0,1:0:0:0:
150,282,115246,1,0,1:0:0:0:
135,278,115330,2,0,L|177:268,1,40,0|0,1:0|1:0,1:0:0:0:
350,219,115498,1,0,1:0:0:0:
373,213,115582,1,0,1:0:0:0:
395,207,115665,2,0,L|329:192,1,50,0|0,1:0|1:0,1:0:0:0:
148,145,115833,1,0,1:0:0:0:
120,135,115916,1,0,1:0:0:0:
91,126,116000,2,0,L|172:110,1,59.9999981689454,0|0,1:0|1:0,1:0:0:0:
383,58,116168,1,0,1:0:0:0:
417,45,116251,1,0,1:0:0:0:
452,34,116336,2,0,L|336:9,1,69.9999978637696,0|0,1:0|1:0,1:0:0:0:
256,0,116503,1,0,1:0:0:0:
256,39,116587,1,0,1:0:0:0:
256,78,116671,1,0,1:0:0:0:
256,160,117006,5,8,0:3:0:0:
256,192,117257,1,8,0:3:0:0:
256,224,117509,1,8,0:3:0:0:
256,352,117676,5,4,0:0:0:0:
256,192,117760,12,2,118682,0:0:0:0:
256,192,118766,12,0,119352,1:0:0:0:
335,259,119688,5,0,0:0:0:0:
386,319,119855,1,0,0:0:0:0:
467,334,120023,1,8,0:0:0:0:
467,334,120358,6,0,P|401:275|397:139,1,187.5,4|0,0:1|0:0,0:0:0:0:
412,102,120693,1,0,1:0:0:0:
197,177,120861,1,2,0:0:0:0:
197,177,121028,2,0,P|231:132|281:116,1,89.9999972534181,4|0,0:3|0:0,0:0:0:0:
260,118,121363,6,0,B|210:138|166:108|183:96|146:65|88:78,1,187.5,0|0,1:0|0:0,0:0:0:0:
13,117,121699,2,0,P|-4:189|21:234,1,89.9999972534181,4|0,0:3|0:0,0:0:0:0:
126,302,122034,1,0,1:0:0:0:
215,264,122201,1,0,0:0:0:0:
434,362,122369,5,4,0:3:0:0:
434,362,122537,2,0,L|287:337,1,125,2|0,0:0|1:0,0:0:0:0:
310,341,122872,2,0,P|367:311|383:269,1,62.5,2|0,0:0|0:0,0:0:0:0:
411,188,123039,6,0,P|401:93|325:4,1,187.5,4|0,0:3|0:0,0:0:0:0:
268,0,123375,1,0,1:0:0:0:
233,268,123542,1,2,0:0:0:0:
233,268,123710,2,0,P|263:235|275:192,1,89.9999972534181,4|0,0:3|0:0,0:0:0:0:
275,192,124045,5,0,1:0:0:0:
56,290,124213,1,2,0:0:0:0:
56,290,124296,1,2,0:0:0:0:
56,290,124380,1,4,0:3:0:0:
213,134,124548,6,0,L|100:115,1,89.9999972534181,2|0,0:0|1:0,0:0:0:0:
56,290,124883,1,2,0:0:0:0:
124,119,125051,5,4,0:3:0:0:
56,290,125218,2,0,L|169:271,1,89.9999972534181,2|0,0:0|1:0,0:0:0:0:
144,275,125553,6,0,L|69:257,1,62.5,2|0,0:0|0:0,0:0:0:0:
0,53,125721,2,0,B|59:63|81:106|61:111|90:156|144:157,1,187.5,4|0,0:1|0:0,0:0:0:0:
226,145,126056,1,0,1:0:0:0:
127,18,126224,6,0,P|146:88|132:118,1,62.5,2|0,0:0|0:0,0:0:0:0:
196,221,126391,2,0,B|168:267|114:269|121:249|73:247|33:293,1,187.5,4|0,0:3|0:0,0:0:0:0:
23,374,126726,1,0,1:0:0:0:
70,147,126894,6,0,P|101:157|123:176,1,62.5,2|0,0:0|0:0,0:0:0:0:
255,384,127062,2,0,B|235:329|261:289|275:304|300:257|274:209,1,183.750001752377,4|0,0:3|0:0,0:0:0:0:
226,145,127397,1,0,1:0:0:0:
383,382,127565,6,0,P|353:371|330:351,1,62.5,2|0,0:0|0:0,3:0:0:0:
306,136,127732,2,0,B|359:137|388:181|368:186|390:229|450:240,1,187.5,4|0,0:3|0:0,0:0:0:0:
512,189,128068,1,0,1:0:0:0:
477,0,128235,5,2,0:0:0:0:
477,0,128319,1,2,0:0:0:0:
477,0,128403,2,0,P|433:53|434:119,1,125,4|0,0:3|0:0,0:0:0:0:
237,204,128738,5,0,1:0:0:0:
237,204,128905,2,0,L|222:84,1,89.9999972534181,2|0,0:0|0:0,0:0:0:0:
225,114,129241,2,0,L|199:285,1,125,2|0,0:0|1:0,0:0:0:0:
206,237,129576,6,0,B|163:178|299:151|303:271|270:324|195:370,1,225.000008583069,4|0,0:1|0:0,0:0:0:0:
41,323,129911,2,0,P|65:351|99:365,1,75.0000028610231,2|0,0:0|0:0,0:0:0:0:
182,384,130079,1,0,1:0:0:0:
443,120,130414,5,0,3:0:0:0:
443,120,130498,1,0,3:0:0:0:
443,120,130581,2,0,L|393:75,1,37.5000014305115,0|0,3:0|3:0,3:0:0:0:
260,249,130749,2,0,L|181:231,1,56.2500021457673,0|0,1:0|3:0,0:0:0:0:
376,196,130917,2,0,L|288:143,1,75.0000028610231,0|0,1:0|3:0,0:0:0:0:
186,19,131084,6,0,P|102:35|26:168,1,187.5,4|0,0:1|0:0,0:0:0:0:
14,193,131419,1,0,1:0:0:0:
234,271,131587,1,2,0:0:0:0:
234,271,131755,2,0,P|178:231|124:229,1,89.9999972534181,4|0,0:3|0:0,0:0:0:0:
158,227,132090,6,0,B|208:247|252:217|235:205|272:174|330:187,1,187.5,0|0,1:0|0:0,0:0:0:0:
401,237,132425,2,0,P|455:272|501:271,1,89.9999972534181,4|0,0:3|0:0,0:0:0:0:
498,67,132760,1,0,1:0:0:0:
411,105,132928,1,0,0:0:0:0:
163,20,133095,5,4,0:3:0:0:
163,20,133263,2,0,L|187:161,1,125,2|0,0:0|1:0,0:0:0:0:
183,143,133598,2,0,P|189:91|217:58,1,62.5,2|0,0:0|0:0,0:0:0:0:
420,14,133766,6,0,P|482:134|464:218,1,187.5,4|0,0:3|0:0,0:0:0:0:
430,250,134101,1,0,1:0:0:0:
270,139,134269,1,2,0:0:0:0:
270,139,134436,2,0,P|313:197|315:239,1,89.9999972534181,4|0,0:3|0:0,0:0:0:0:
315,212,134771,5,0,1:0:0:0:
132,310,134939,1,2,0:0:0:0:
132,310,135023,1,2,0:0:0:0:
132,310,135106,1,4,0:3:0:0:
294,343,135274,6,0,L|196:363,1,89.9999972534181,2|0,0:0|1:0,0:0:0:0:
171,182,135609,1,2,0:0:0:0:
205,360,135777,5,4,0:3:0:0:
171,182,135944,2,0,L|82:164,1,89.9999972534181,2|0,0:0|1:0,0:0:0:0:
82,164,136280,6,0,P|118:234|140:244,1,62.5,2|0,0:0|0:0,0:0:0:0:
306,301,136447,2,0,B|359:290|379:240|359:238|373:193|429:172,1,187.5,4|0,0:1|0:0,0:0:0:0:
505,208,136782,1,0,1:0:0:0:
325,81,136950,6,0,P|312:109|310:140,1,62.5,2|0,0:0|0:0,0:0:0:0:
286,220,137118,2,0,B|303:168|270:126|259:142|226:107|236:48,1,187.5,4|0,0:3|0:0,0:0:0:0:
306,0,137453,1,0,1:0:0:0:
107,90,137620,6,0,P|125:114|151:132,1,62.5,2|0,0:0|0:0,0:0:0:0:
207,193,137788,2,0,B|170:152|118:159|126:177|79:188|34:150,1,187.5,4|0,0:3|0:0,0:0:0:0:
26,66,138123,1,0,1:0:0:0:
11,284,138291,6,0,P|41:280|69:266,1,62.5,2|0,0:0|0:0,0:0:0:0:
150,249,138459,2,0,B|96:259|76:309|96:311|82:356|26:377,1,187.5,4|0,0:3|0:0,0:0:0:0:
26,377,138794,1,0,1:0:0:0:
339,352,138961,5,2,0:0:0:0:
339,352,139045,1,2,0:0:0:0:
339,352,139129,2,0,P|260:309|193:330,1,125,4|0,0:3|0:0,0:0:0:0:
482,276,139464,5,0,1:0:0:0:
482,276,139632,2,0,L|497:366,1,89.9999972534181,2|0,0:0|0:0,0:0:0:0:
496,364,139967,2,0,L|512:215,1,125,2|0,0:0|1:0,0:0:0:0:
509,240,140302,6,0,B|490:281|423:278|368:224|428:106,1,225.000008583069,4|0,0:1|0:0,0:0:0:0:
512,0,140637,2,0,P|416:53|390:45,1,75.0000028610231,4|2,0:3|0:0,0:0:0:0:
374,56,140805,6,0,L|244:28,1,75.0000028610231,0|2,1:0|0:0,0:0:0:0:
218,24,140972,1,0,1:0:0:0:
218,24,141056,1,0,1:0:0:0:
218,24,141140,1,0,1:0:0:0:
218,24,141308,6,0,L|163:64,1,37.5000014305115,0|0,1:0|3:3,0:0:0:0:
171,291,141475,2,0,L|109:305,1,56.2500021457673,0|0,1:0|3:0,0:0:0:0:
262,144,141643,2,0,L|174:185,1,75.0000028610231,0|0,1:0|3:0,0:0:0:0:
32,325,141810,5,4,0:1:0:0:
32,325,142146,1,0,1:0:0:0:
116,303,142313,1,2,0:0:0:0:
208,363,142481,2,0,P|248:376|290:383,1,85.0000016212464,4|0,0:3|0:0,0:0:0:0:
350,207,142816,6,0,P|358:248|372:288,1,85.0000016212464,0|0,1:0|0:0,0:0:0:0:
180,150,143151,2,0,P|194:110|202:68,1,85.0000016212464,4|0,0:3|0:0,0:0:0:0:
367,109,143486,2,0,P|326:122|284:129,1,85.0000016212464,0|0,1:0|0:0,0:0:0:0:
106,222,143822,5,4,0:3:0:0:
106,222,143989,2,0,L|156:235,1,37.5000014305115,0|0,3:0|3:0,3:0:0:0:
170,239,144157,2,0,L|246:258,1,56.2500021457673,0|0,3:0|3:0,3:0:0:0:
274,373,144324,6,0,B|318:383|351:354|337:345|365:315|414:320,1,150,4|0,0:1|0:0,0:0:0:0:
485,352,144660,1,4,0:3:0:0:
485,352,144827,1,0,1:0:0:0:
256,127,144995,6,0,B|270:175|317:190|317:172|360:181|382:232,1,174.975000774273,4|0,0:1|0:0,0:0:0:0:
408,320,145331,1,4,0:3:0:0:
408,320,145498,1,0,1:0:0:0:
487,0,145665,6,0,B|446:40|457:96|475:86|491:134|454:186,1,199.994995242429,4|0,0:1|0:0,0:0:0:0:
383,232,146000,1,4,0:3:0:0:
383,232,146168,1,0,1:0:0:0:
309,26,146336,5,4,0:1:0:0:
309,26,146503,2,0,P|245:71|176:70,1,125,2|0,0:0|0:0,0:0:0:0:
6,128,146838,2,0,B|60:132|86:179|67:183|84:227|143:242,1,187.5,0|0,1:0|0:0,0:0:0:0:
227,173,147174,5,4,0:1:0:0:
227,173,147509,1,0,1:0:0:0:
166,334,147676,2,0,P|228:295|273:294,1,85.0000016212464,2|4,0:0|0:3,0:0:0:0:
384,371,148012,1,2,0:0:0:0:
384,371,148179,1,0,1:0:0:0:
465,383,148347,1,2,0:0:0:0:
371,173,148514,5,4,0:3:0:0:
371,173,148850,1,0,1:0:0:0:
445,98,149017,1,2,0:0:0:0:
487,214,149185,5,0,1:0:0:0:
487,214,149269,1,0,1:0:0:0:
487,214,149352,1,0,1:0:0:0:
487,214,149436,1,0,1:0:0:0:
487,214,149520,1,0,1:0:0:0:
410,247,149688,1,4,0:3:0:0:
230,276,149855,6,0,L|255:100,1,150.000005722046,4|0,1:0|1:0,1:0:0:0:
251,127,150358,2,0,L|272:275,1,150.000005722046,4|0,1:0|1:0,1:0:0:0:
272,275,150861,2,0,L|293:126,1,150.000005722046,4|0,1:0|1:0,1:0:0:0:
293,127,151363,5,4,0:3:0:0:
293,127,151531,2,0,P|237:106|213:77,1,89.9999972534181,2|0,0:3|0:0,0:0:0:0:
217,84,151866,5,8,1:3:0:0:
177,119,151978,5,8,1:3:0:0:
124,127,152090,5,8,1:3:0:0:
71,119,152201,6,4,L|59:58,2,39.9999987792969,4|4|4,0:3|0:3|0:3,0:3:0:0:
6,199,152537,1,4,0:0:0:0:
24,80,156894,6,0,P|65:70|102:43,1,75.0000028610231,2|0,0:3|1:0,0:0:0:0:
92,52,157397,6,0,P|116:144|216:150,1,200,4|0,0:0|1:0,0:0:0:0:
352,29,157900,5,4,0:0:0:0:
352,29,158067,2,0,L|367:101,1,59.9999981689454,2|0,0:0|0:0,0:0:0:0:
432,146,158403,2,0,L|488:164,1,59.9999981689454,2|0,0:0|1:0,0:0:0:0:
241,154,158738,5,2,0:0:0:0:
241,154,158905,1,0,0:0:0:0:
348,178,159073,2,0,P|296:230|285:295,1,119.999996337891,2|0,0:0|0:0,0:0:0:0:
512,280,159576,5,0,1:0:0:0:
445,189,159743,2,2,L|478:194,2,29.9999990844727
445,189,160079,6,0,P|368:191|281:283,1,200,4|0,0:1|0:0,0:0:0:0:
155,384,160581,5,4,0:0:0:0:
155,384,160749,2,0,L|75:371,1,59.9999981689454,2|0,0:0|0:0,0:0:0:0:
21,310,161084,2,0,L|-7:234,1,59.9999981689454,2|0,0:0|1:0,0:0:0:0:
204,160,161419,5,2,0:0:0:0:
180,244,161587,1,2,0:0:0:0:
109,284,161755,2,0,P|126:260|158:238,1,59.9999981689454,2|0,0:0|0:0,0:0:0:0:
308,218,162090,2,0,P|336:226|367:250,1,59.9999981689454,2|0,1:2|0:0,0:0:0:0:
463,23,162425,5,2,1:2:0:0:
302,69,162593,1,0,1:0:0:0:
302,69,162760,6,0,P|356:127|341:276,1,200,4|0,0:1|0:0,0:0:0:0:
203,81,163263,5,4,0:0:0:0:
203,81,163431,2,0,L|215:16,1,59.9999981689454,2|0,0:0|0:0,0:0:0:0:
80,122,163766,2,0,L|29:79,1,59.9999981689454,2|0,0:0|1:0,0:0:0:0:
194,261,164269,5,2,0:0:0:0:
194,261,164436,2,0,L|171:198,1,59.9999981689454,2|0,0:0|0:0,0:0:0:0:
63,298,164771,2,0,P|113:308|174:372,1,119.999996337891,2|4,1:2|0:3,0:0:0:0:
164,352,165190,1,4,0:3:0:0:
164,352,165274,1,0,1:3:0:0:
164,352,165442,6,0,P|197:255|219:240,2,100,4|2|0,0:1|0:0|1:0,0:0:0:0:
456,280,165944,5,4,0:2:0:0:
456,280,166112,2,0,L|369:264,1,59.9999981689454,2|0,0:0|0:0,0:0:0:0:
297,168,166447,2,0,L|317:224,1,59.9999981689454,2|0,0:0|1:0,0:0:0:0:
512,132,166782,5,2,0:0:0:0:
512,132,166950,1,0,1:0:0:0:
400,178,167118,2,0,P|416:124|381:53,1,119.999996337891,2|0,0:0|1:0,0:0:0:0:
182,101,167620,1,2,0:3:0:0:
311,35,167788,5,0,1:0:0:0:
297,65,167872,1,0,1:0:0:0:
272,86,167956,1,0,1:0:0:0:
91,122,168123,5,0,3:0:0:0:
69,137,168206,1,0,3:0:0:0:
54,157,168290,1,0,3:0:0:0:
43,182,168374,1,0,3:0:0:0:
40,208,168458,1,0,3:0:0:0:
43,234,168541,1,0,3:0:0:0:
55,255,168626,6,0,B|85:233|85:233|214:265,1,150,4|0,0:1|0:0,0:0:0:0:
226,338,168961,1,0,1:0:0:0:
391,190,169129,6,0,B|362:205|362:205|277:186,1,100,2|0,0:0|0:0,0:0:0:0:
296,190,169464,1,2,0:0:0:0:
404,304,169632,5,0,1:0:0:0:
486,317,169799,1,2,0:0:0:0:
512,238,169967,2,0,L|486:136,1,100,2|0,0:0|0:0,0:0:0:0:
487,141,170302,6,0,B|510:124|510:124|528:47,1,75.0000028610231,4|0,0:2|0:0,0:0:0:0:
300,109,170637,2,0,B|382:165|382:165|391:190,1,125,4|0,0:2|1:0,0:0:0:0:
390,189,170889,1,0,1:0:0:0:
390,189,170972,2,0,L|340:201,1,37.5000014305115,0|0,1:0|1:0,1:0:0:0:
294,260,171140,2,0,L|257:269,1,37.5000014305115,0|0,1:0|1:0,1:0:0:0:
195,332,171308,6,0,B|166:327|166:327|100:265,1,100,4|0,0:1|0:0,0:0:0:0:
31,278,171559,2,0,B|60:273|60:273|126:211|126:211|155:206,1,150,2|2,0:0|0:0,0:0:0:0:
28,42,171978,6,0,L|42:159,1,100,2|0,0:0|0:0,0:0:0:0:
119,110,172229,2,0,L|110:49,1,50,2|0,0:0|1:0,0:0:0:0:
111,60,172481,1,2,0:0:0:0:
236,116,172648,5,0,1:0:0:0:
222,96,172732,1,0,1:0:0:0:
200,84,172816,1,0,1:0:0:0:
288,257,172984,2,0,B|312:237|312:237|301:138,1,100,0|0,1:0|0:0,0:0:0:0:
351,98,173235,1,0,1:0:0:0:
351,98,173319,1,2,0:3:0:0:
496,213,173486,5,0,1:0:0:0:
469,210,173570,1,0,1:0:0:0:
443,217,173653,1,0,1:0:0:0:
419,232,173737,1,0,1:0:0:0:
403,253,173821,1,0,1:0:0:0:
393,278,173905,1,0,1:0:0:0:
391,305,173989,6,0,B|357:333|357:333|245:321|245:321|210:349,2,200,4|0|2,0:0|1:0|0:0,0:0:0:0:
153,219,174827,2,0,L|279:236,1,100,2|0,0:0|1:0,0:0:0:0:
34,280,175162,1,2,0:0:0:0:
34,280,175330,5,4,0:3:0:0:
102,87,175498,2,0,L|115:151,2,50,0|0|4,1:0|1:0|0:3,1:0:0:0:
239,8,175833,1,0,1:0:0:0:
212,143,176000,1,0,1:0:0:0:
212,143,176084,1,0,1:0:0:0:
212,143,176168,2,0,L|223:75,1,50,2|0,1:2|1:0,1:0:0:0:
327,150,176336,1,0,1:0:0:0:
327,150,176419,2,0,L|296:190,2,50,2|0|0,1:2|1:0|1:0,1:0:0:0:
383,82,176671,6,0,B|419:104|419:104|439:202,1,112.500004291535,4|0,0:0|0:0,0:0:0:0:
433,172,177006,2,0,L|425:221,1,50,0|0,1:0|1:0,1:0:0:0:
473,317,177174,6,0,L|321:289,1,131.250001251698,4|0,0:0|0:0,0:0:0:0:
343,293,177509,2,0,B|323:318|323:318|257:335,1,56.2500021457673,0|0,1:0|1:0,1:0:0:0:
179,197,177676,2,0,B|263:218|263:218|275:248,1,112.500004291535,4|0,0:0|0:0,0:0:0:0:
73,353,178012,6,0,B|52:320|52:320|70:293|70:293|90:176,1,187.5,4|0,0:1|0:0,0:0:0:0:
103,95,178347,5,0,1:0:0:0:
91,65,178431,1,0,1:0:0:0:
71,41,178514,1,0,1:0:0:0:
43,26,178598,1,0,1:0:0:0:
12,20,178682,6,0,B|34:43|34:43|90:51,1,62.5,0|0,1:0|1:0,1:0:0:0:
191,122,178850,2,0,B|213:99|213:99|243:94,1,62.5,0|0,1:0|1:0,1:0:0:0:
371,22,179017,5,0,1:0:0:0:
480,192,179185,1,0,1:0:0:0:
472,274,179352,5,2,0:0:0:0:
256,192,182034,12,2,191252,0:0:0:0:
512,79,192090,5,0,0:0:0:0:
502,173,192257,1,0,0:0:0:0:
449,252,192425,1,0,0:0:0:0:
449,252,192760,6,0,P|461:207|461:192,1,60,4|0,0:1|0:0,0:0:0:0:
502,173,193095,6,0,P|491:137|471:105,1,75,4|0,0:1|0:0,0:0:0:0:
512,79,193431,6,0,P|437:34|304:46,1,206.250001966953,4|0,0:1|0:0,0:0:0:0:
253,86,193766,1,0,1:0:0:0:
354,277,193933,1,2,0:0:0:0:
354,277,194101,2,0,P|289:252|263:206,1,100,4|0,0:3|0:0,0:0:0:0:
272,230,194436,6,0,P|352:248|368:140,1,206.250001966953,0|0,1:0|0:0,0:0:0:0:
313,92,194771,2,0,P|242:102|217:146,1,100,4|0,0:3|0:0,0:0:0:0:
111,296,195106,1,0,1:0:0:0:
81,213,195274,1,2,0:0:0:0:
155,0,195442,5,4,0:3:0:0:
155,0,195609,2,0,L|134:147,1,137.500001311302,2|0,0:0|1:0,0:0:0:0:
135,136,195944,2,0,P|184:116|206:84,1,68.7500006556511,2|0,0:0|0:0,0:0:0:0:
30,12,196112,6,0,P|-24:100|-4:209,1,206.250001966953,4|0,0:3|0:0,0:0:0:0:
57,249,196447,1,0,1:0:0:0:
276,235,196615,1,2,0:0:0:0:
276,235,196782,2,0,P|221:272|175:274,1,100,4|0,0:3|0:0,0:0:0:0:
366,58,197118,5,0,1:0:0:0:
383,253,197285,1,2,0:0:0:0:
383,253,197369,1,2,0:0:0:0:
383,253,197453,1,4,0:3:0:0:
512,92,197620,6,0,L|494:210,1,100,2|0,0:0|1:0,0:0:0:0:
236,127,197956,1,2,0:0:0:0:
497,191,198123,5,4,0:3:0:0:
236,127,198291,2,0,L|266:202,1,50,0|0,3:0|3:0,3:0:0:0:
372,116,198458,1,0,1:0:0:0:
369,87,198542,1,0,1:0:0:0:
366,58,198626,6,0,L|357:-25,1,68.7500006556511,0|0,1:0|1:0,1:0:0:0:
74,30,198794,2,0,P|173:49|244:176,1,206.250001966953,4|0,0:1|0:0,0:0:0:0:
224,215,199129,1,0,1:0:0:0:
87,146,199296,6,0,L|183:166,1,68.7500006556511,2|0,0:0|0:0,0:0:0:0:
465,86,199464,2,0,P|366:105|295:232,1,206.250001966953,4|0,0:3|0:0,0:0:0:0:
315,271,199799,1,0,1:0:0:0:
451,201,199967,6,0,L|384:216,1,68.7500006556511,2|0,0:0|0:0,0:0:0:0:
72,141,200134,2,0,P|171:160|242:287,1,206.250001966953,4|0,0:3|0:0,0:0:0:0:
222,326,200469,1,0,1:0:0:0:
85,257,200637,6,0,L|181:277,1,68.7500006556511,2|0,0:0|0:0,0:0:0:0:
465,196,200805,2,0,P|366:215|295:342,1,206.250001966953,4|0,0:3|0:0,0:0:0:0:
315,381,201140,1,0,1:0:0:0:
463,289,201308,5,2,0:0:0:0:
463,289,201391,1,2,0:0:0:0:
463,289,201475,2,0,P|502:333|512:390,1,100,4|0,0:3|0:0,0:0:0:0:
344,122,201810,5,0,1:0:0:0:
344,122,201978,2,0,L|470:95,1,100,2|0,0:0|0:0,0:0:0:0:
441,101,202313,2,0,L|255:79,1,137.500001311302,2|0,0:0|1:0,0:0:0:0:
304,84,202648,6,0,B|296:110|296:110|302:132|302:132|287:140|287:140|301:178|301:178|280:199|251:195|251:195|215:243|237:291,1,262.500002503395,4|0,0:1|0:0,0:0:0:0:
410,378,202984,1,0,1:0:0:0:
443,362,203067,1,0,1:0:0:0:
461,337,203151,6,0,B|439:308|439:308|374:281|312:357,1,137.500001311302,0|0,1:0|0:0,0:0:0:0:
344,324,203403,1,0,1:0:0:0:
344,324,203486,1,0,1:0:0:0:
344,324,203654,6,0,L|285:305,1,37.5000014305115,0|0,3:0|3:0,3:0:0:0:
437,187,203822,2,0,L|335:213,1,62.5,0|0,1:0|3:0,0:0:0:0:
216,384,203989,2,0,L|155:296,1,87.500000834465,0|0,1:0|3:0,0:0:0:0:
199,9,204157,6,0,P|289:33|361:127,1,206.250001966953,4|0,0:1|0:0,0:0:0:0:
376,202,204492,1,0,1:0:0:0:
174,320,204660,1,2,0:0:0:0:
174,320,204827,2,0,P|244:333|300:309,1,100,4|0,0:3|0:0,0:0:0:0:
270,326,205162,6,0,B|211:338|169:296|189:286|154:246|89:248,1,206.250001966953,0|0,1:0|0:0,0:0:0:0:
9,289,205498,2,0,P|-2:344|16:390,1,100,4|0,0:3|0:0,0:0:0:0:
188,184,205833,1,0,1:0:0:0:
169,98,206000,1,2,0:0:0:0:
432,90,206168,5,4,0:3:0:0:
432,90,206336,2,0,L|276:69,1,137.500001311302,2|0,0:0|1:0,0:0:0:0:
295,71,206671,2,0,P|268:92|258:125,1,68.7500006556511,2|0,0:0|0:0,0:0:0:0:
512,152,206838,6,0,P|405:138|301:207,1,206.250001966953,4|0,0:3|0:0,0:0:0:0:
288,260,207174,1,0,1:0:0:0:
493,350,207341,1,2,0:0:0:0:
493,350,207509,2,0,P|420:369|368:342,1,100,4|0,0:3|0:0,0:0:0:0:
219,146,207844,5,0,1:0:0:0:
141,305,208012,1,2,0:0:0:0:
141,305,208095,1,2,0:0:0:0:
141,305,208179,1,4,0:3:0:0:
44,188,208347,6,0,L|162:208,1,100,2|0,0:0|1:0,0:0:0:0:
13,366,208682,1,2,0:0:0:0:
142,204,208849,5,4,0:3:0:0:
13,366,209017,2,0,L|88:353,1,50,2|2,0:0|0:0,0:0:0:0:
141,305,209185,1,0,1:0:0:0:
141,305,209352,6,0,L|223:322,1,68.7500006556511,2|0,3:2|0:0,3:0:0:0:
463,306,209520,2,0,B|411:287|368:320|385:332|350:364|291:354,1,187.5,4|0,0:1|0:0,0:0:0:0:
208,318,209855,1,0,1:0:0:0:
366,205,210023,6,0,P|328:251|289:259,1,68.7500006556511,2|0,0:0|0:0,0:0:0:0:
65,243,210190,2,0,B|116:224|159:257|142:269|177:301|236:291,1,187.5,4|0,0:3|0:0,0:0:0:0:
320,255,210525,1,0,1:0:0:0:
167,145,210693,6,0,P|204:190|243:198,1,62.5,2|0,0:0|0:0,0:0:0:0:
462,180,210861,2,0,B|410:161|367:194|384:206|349:238|290:228,1,187.5,4|0,0:3|0:0,0:0:0:0:
207,192,211196,1,0,1:0:0:0:
355,80,211364,6,0,P|319:128|280:136,1,62.5,2|0,0:0|0:0,0:0:0:0:
64,117,211531,2,0,B|115:98|158:131|141:143|176:175|235:165,1,187.5,4|0,0:3|0:0,0:0:0:0:
319,129,211866,1,0,1:0:0:0:
121,311,212034,5,2,0:0:0:0:
121,311,212118,1,2,0:0:0:0:
121,311,212201,2,0,P|79:228|98:167,1,125,4|0,0:3|0:0,0:0:0:0:
415,320,212537,5,0,1:0:0:0:
415,320,212704,2,0,L|301:337,1,100,2|0,0:0|0:0,0:0:0:0:
316,334,213039,2,0,L|461:358,1,137.500001311302,2|0,0:0|1:0,0:0:0:0:
451,356,213375,6,0,B|445:337|445:337|457:323|457:323|448:306|448:306|485:275|490:217|490:217|468:164|403:140,1,262.500002503395,4|0,0:1|0:0,0:0:0:0:
281,111,213710,2,0,P|252:74|251:10,1,87.500000834465,4|0,0:3|0:0,0:0:0:0:
417,146,213877,6,0,B|394:168|394:168|323:180,1,87.500000834465,0|2,1:0|0:0,0:0:0:0:
199,154,214045,1,0,1:0:0:0:
199,154,214129,1,0,1:0:0:0:
199,154,214213,5,0,1:0:0:0:
199,154,214380,2,0,L|182:221,1,62.5,4|2,0:3|0:0,0:0:0:0:
17,33,214548,2,0,B|41:46|41:46|67:211,1,175.00000166893,0|0,0:1|3:0,0:0:0:0:
47,267,214799,1,0,1:0:0:0:
30,346,214883,5,4,1:0:0:0:
30,346,215218,1,0,1:0:0:0:
169,313,215386,2,0,P|216:315|260:331,1,94.9999974632264,2|4,0:0|0:3,0:0:0:0:
341,373,215721,1,2,0:0:0:0:
434,262,215889,6,0,P|415:173|418:136,1,94.9999974632264,0|0,1:0|0:0,0:0:0:0:
410,37,216224,2,0,P|342:97|308:113,1,94.9999974632264,4|0,0:3|0:0,0:0:0:0:
173,11,216559,2,0,P|259:39|290:60,1,94.9999974632264,0|0,1:0|0:0,0:0:0:0:
221,221,216894,5,4,0:3:0:0:
221,221,217062,2,0,L|266:174,1,37.5000014305115,0|0,3:0|3:0,3:0:0:0:
274,166,217229,2,0,L|329:106,1,62.5,0|0,3:0|3:0,3:0:0:0:
111,199,217397,6,0,B|158:193|158:193|252:285|252:285|351:302,1,225.000008583069,4|0,0:1|0:0,0:0:0:0:
382,305,217732,1,4,0:3:0:0:
424,91,217900,6,0,L|450:265,1,150.000005722046,0|4,1:0|0:3,0:0:0:0:
191,361,218235,2,0,L|402:395,1,150.000005722046,0|4,1:0|0:3,0:0:0:0:
218,136,218570,2,0,L|337:262,1,150.000005722046,0|4,1:0|0:3,0:0:0:0:
401,15,218905,6,0,B|389:42|389:42|411:183,1,125,0|4,1:0|0:3,0:0:0:0:
115,342,219240,2,0,B|147:332|147:332|280:355,1,125,0|4,1:0|0:3,0:0:0:0:
52,18,219576,6,0,P|27:78|33:144,1,133.333333333333,0|0,1:0|1:0,0:0:0:0:
76,221,219911,5,0,1:0:0:0:
146,251,220023,5,0,1:0:0:0:
188,246,220134,5,0,1:0:0:0:
207,233,220246,5,4,1:2:0:0:
359,158,220749,5,4,0:3:0:0:
433,119,220917,1,4,0:0:0:0:
359,158,221084,1,4,0:3:0:0:
157,251,221587,5,4,0:3:0:0:
84,213,221755,1,0,1:0:0:0:
357,333,222090,5,4,0:3:0:0:
372,327,222174,1,4,0:3:0:0:
386,322,222257,1,4,1:2:0:0:
465,349,222425,1,4,0:3:0:0:
450,266,222593,1,4,1:2:0:0:
184,228,222928,6,0,L|355:203,1,150.000005722046,4|0,1:0|1:0,1:0:0:0:
332,206,223431,2,0,L|161:181,1,150.000005722046,4|0,1:0|1:0,1:0:0:0:
183,184,223933,2,0,L|354:159,1,150.000005722046,4|0,1:0|1:0,1:0:0:0:
331,162,224436,5,4,0:3:0:0:
331,162,224604,2,0,L|341:91,1,59.9999981689454,2|0,0:3|0:0,0:0:0:0:
358,16,224855,1,0,1:0:0:0:
358,16,224939,6,0,L|263:34,1,75.0000028610231,0|0,1:0|0:0,0:0:0:0:
207,0,225190,1,0,1:0:0:0:
207,0,225274,5,0,3:0:0:0:
177,0,225357,1,0,3:0:0:0:
151,12,225441,1,0,3:0:0:0:
132,35,225525,1,0,3:0:0:0:
124,63,225609,6,0,P|185:102|188:198,1,150,4|0,0:0|0:0,0:0:0:0:
150,249,225944,2,0,P|211:272|231:316,1,100,0|0,1:0|0:0,0:0:0:0:
202,378,226197,1,0,1:0:0:0:
202,378,226280,1,4,0:3:0:0:
345,358,226447,2,0,L|446:346,2,100,2|0|0,0:0|1:0|0:0,0:0:0:0:
112,319,226950,5,4,0:3:0:0:
112,319,227118,2,0,L|-15:301,1,100,2|0,0:0|1:0,0:0:0:0:
178,107,227453,1,2,0:0:0:0:
248,205,227621,1,4,0:3:0:0:
248,205,227788,2,0,L|144:220,1,100,2|0,0:0|1:0,0:0:0:0:
332,40,228124,1,2,0:0:0:0:
332,40,228291,6,0,P|338:121|409:168,1,150,4|0,0:3|0:0,0:0:0:0:
455,214,228626,2,0,P|422:272|442:338,1,100,0|0,1:0|0:0,0:0:0:0:
480,373,228877,1,0,1:0:0:0:
480,373,228962,1,4,0:3:0:0:
307,184,229129,1,2,0:0:0:0:
353,344,229296,2,0,P|316:312|297:266,1,100,0|0,1:0|0:0,0:0:0:0:
249,59,229632,5,4,0:3:0:0:
249,59,229799,2,0,P|230:104|192:137,1,100,2|0,0:0|1:0,0:0:0:0:
1,157,230134,1,2,0:0:0:0:
148,262,230302,1,4,0:3:0:0:
148,262,230470,2,0,P|108:231|60:222,1,100,2|0,0:0|0:0,0:0:0:0:
118,371,230805,1,0,1:0:0:0:
151,377,230889,1,0,1:0:0:0:
181,361,230972,6,0,P|235:314|338:346,1,150,4|0,0:1|0:0,0:0:0:0:
390,320,231308,2,0,P|395:247|433:214,1,100,0|0,1:0|0:0,0:0:0:0:
478,184,231559,1,0,1:0:0:0:
478,184,231643,1,4,0:3:0:0:
356,30,231810,2,0,L|371:141,2,100,2|0|0,0:0|1:0|0:0,0:0:0:0:
199,231,232313,5,4,0:3:0:0:
199,231,232481,2,0,L|223:113,1,100,2|0,0:0|1:0,0:0:0:0:
312,200,232816,1,2,0:0:0:0:
101,48,232984,1,4,0:3:0:0:
101,48,233151,2,0,L|114:152,1,100,2|0,0:0|1:0,0:0:0:0:
12,114,233486,1,2,0:0:0:0:
12,114,233654,6,0,P|-5:186|50:249,1,150,4|0,0:2|0:0,0:0:0:0:
88,313,233989,2,0,P|123:280|196:275,1,100,0|0,1:0|0:0,0:0:0:0:
251,307,234241,1,0,1:0:0:0:
251,307,234324,1,4,0:3:0:0:
469,364,234492,2,0,L|338:337,1,100,2|0,0:0|3:0,0:0:0:0:
510,127,234827,1,0,1:0:0:0:
431,142,234995,5,4,0:3:0:0:
245,48,235162,1,0,1:0:0:0:
379,80,235330,1,0,1:0:0:0:
320,288,235498,5,2,0:0:0:0:
291,280,235581,1,2,0:0:0:0:
270,258,235665,1,2,0:0:0:0:
197,175,235833,6,0,P|174:184|150:210,1,50,0|0,1:0|0:0,0:0:0:0:
306,159,236000,5,0,1:0:0:0:
313,130,236083,1,0,1:0:0:0:
305,101,236167,1,4,1:0:0:0:
256,192,236252,12,2,238849,0:0:0:0:
