osu file format v14

[General]
AudioFilename: audio.mp3
AudioLeadIn: 0
PreviewTime: 192100
Countdown: 0
SampleSet: Normal
StackLeniency: 0.7
Mode: 1
LetterboxInBreaks: 0
WidescreenStoryboard: 0

[Editor]
DistanceSpacing: 1
BeatDivisor: 4
GridSize: 32
TimelineZoom: 2.1

[Metadata]
Title:crossing field
TitleUnicode:crossing field
Artist:LiSA
ArtistUnicode:LiSA
Creator:gaston_2199
Version:Nardo's Oni
Source:ソードアート・オンライン
Tags:sword art online opening sao Nardoxyribonucleic
BeatmapID:1476226
BeatmapSetID:679269

[Difficulty]
HPDrainRate:5.5
CircleSize:5
OverallDifficulty:5.5
ApproachRate:7
SliderMultiplier:1.4
SliderTickRate:1

[Events]
//Background and Video events
0,0,"BG.jpg",0,40
//Break Periods
2,182244,191200
//Storyboard Layer 0 (Background)
//Storyboard Layer 1 (Fail)
//Storyboard Layer 2 (Pass)
//Storyboard Layer 3 (Foreground)
//Storyboard Sound Samples

[TimingPoints]
-302,335.195530726257,4,1,0,50,1,0
6401,-100,4,1,0,80,0,0
11765,-100,4,1,0,70,0,0
17128,-100,4,1,0,80,0,0
33217,-100,4,1,0,60,0,0
38580,-100,4,1,0,80,0,0
46625,-100,4,1,0,90,0,1
78804,-100,4,1,0,80,0,0
85508,-100,4,1,0,75,0,0
96234,-100,4,1,0,80,0,0
106960,-100,4,1,0,60,0,0
112323,-100,4,1,0,80,0,0
120368,-100,4,1,0,90,0,1
152547,-100,4,1,0,60,0,0
157910,-100,4,1,0,75,0,0
168636,-100,4,1,0,90,0,1
179195,-100,4,1,0,65,0,0
192770,335.195530726257,4,1,0,65,1,8
193441,335.195530726257,4,1,0,90,1,1
225619,-100,4,1,0,80,0,0
236346,-100,4,1,0,50,0,0
238357,-100,4,1,0,40,0,0
240368,-100,4,1,0,30,0,0
242379,-100,4,1,0,20,0,0
244390,-100,4,1,0,10,0,0

[HitObjects]
256,192,368,5,0,0:0:0:0:
256,192,535,1,0,0:0:0:0:
256,192,703,1,8,0:0:0:0:
256,192,1038,1,8,0:0:0:0:
256,192,1709,1,8,0:0:0:0:
256,192,2044,1,0,0:0:0:0:
256,192,2379,1,0,0:0:0:0:
256,192,2547,1,8,0:0:0:0:
256,192,2882,1,0,0:0:0:0:
256,192,3049,1,8,0:0:0:0:
256,192,3385,1,8,0:0:0:0:
256,192,3552,1,0,0:0:0:0:
256,192,3636,1,8,0:0:0:0:
256,192,3720,1,0,0:0:0:0:
256,192,4055,1,0,0:0:0:0:
256,192,4223,1,0,0:0:0:0:
256,192,4390,1,8,0:0:0:0:
256,192,4725,1,0,0:0:0:0:
256,192,4893,1,8,0:0:0:0:
256,192,5061,1,0,0:0:0:0:
256,192,5228,1,8,0:0:0:0:
256,192,5563,1,0,0:0:0:0:
256,192,5731,1,8,0:0:0:0:
256,192,6066,1,8,0:0:0:0:
256,192,6401,1,4,0:0:0:0:
256,192,6737,1,8,0:0:0:0:
256,192,7072,1,0,0:0:0:0:
256,192,7407,1,8,0:0:0:0:
256,192,7575,1,0,0:0:0:0:
256,192,7742,1,8,0:0:0:0:
256,192,8077,1,8,0:0:0:0:
256,192,8413,1,0,0:0:0:0:
256,192,8748,1,0,0:0:0:0:
256,192,8915,1,0,0:0:0:0:
256,192,9083,1,8,0:0:0:0:
256,192,9418,1,0,0:0:0:0:
256,192,9753,1,8,0:0:0:0:
256,192,10089,1,0,0:0:0:0:
256,192,10256,1,12,0:0:0:0:
256,192,10591,1,0,0:0:0:0:
256,192,10759,1,8,0:0:0:0:
256,192,10927,1,0,0:0:0:0:
256,192,11010,1,0,0:0:0:0:
256,192,11094,1,0,0:0:0:0:
256,192,11262,1,8,0:0:0:0:
256,192,11429,1,0,0:0:0:0:
256,192,11597,1,0,0:0:0:0:
256,192,11765,1,12,0:0:0:0:
256,192,11932,1,0,0:0:0:0:
256,192,12267,1,8,0:0:0:0:
256,192,12603,1,8,0:0:0:0:
256,192,12938,1,0,0:0:0:0:
256,192,13105,1,0,0:0:0:0:
256,192,13441,1,0,0:0:0:0:
256,192,13776,1,8,0:0:0:0:
256,192,14111,1,0,0:0:0:0:
256,192,14446,1,8,0:0:0:0:
256,192,14781,1,0,0:0:0:0:
256,192,14949,1,8,0:0:0:0:
256,192,15284,1,8,0:0:0:0:
256,192,15619,1,0,0:0:0:0:
256,192,15787,1,0,0:0:0:0:
256,192,16122,1,0,0:0:0:0:
256,192,16457,1,8,0:0:0:0:
256,192,16792,1,0,0:0:0:0:
256,192,17128,1,12,0:0:0:0:
256,192,17463,1,8,0:0:0:0:
256,192,17630,1,0,0:0:0:0:
256,192,17966,1,0,0:0:0:0:
256,192,18133,1,8,0:0:0:0:
256,192,18468,1,0,0:0:0:0:
256,192,18804,1,8,0:0:0:0:
256,192,18971,1,8,0:0:0:0:
256,192,19139,1,0,0:0:0:0:
256,192,19306,1,0,0:0:0:0:
256,192,19474,1,8,0:0:0:0:
256,192,19809,1,0,0:0:0:0:
256,192,20144,1,8,0:0:0:0:
256,192,20480,1,8,0:0:0:0:
256,192,20647,1,0,0:0:0:0:
256,192,20815,1,8,0:0:0:0:
256,192,21150,1,0,0:0:0:0:
256,192,21318,1,0,0:0:0:0:
256,192,21485,1,8,0:0:0:0:
256,192,21653,1,0,0:0:0:0:
256,192,21820,1,8,0:0:0:0:
256,192,21988,1,0,0:0:0:0:
256,192,22156,1,8,0:0:0:0:
256,192,22239,1,8,0:0:0:0:
256,192,22323,1,8,0:0:0:0:
256,192,22407,1,8,0:0:0:0:
256,192,22491,1,0,0:0:0:0:
256,192,22658,1,0,0:0:0:0:
256,192,22826,1,8,0:0:0:0:
256,192,22994,1,0,0:0:0:0:
256,192,23077,1,8,0:0:0:0:
256,192,23161,1,0,0:0:0:0:
256,192,23329,1,8,0:0:0:0:
256,192,23496,1,8,0:0:0:0:
256,192,23664,1,0,0:0:0:0:
256,192,23999,1,0,0:0:0:0:
256,192,24167,1,8,0:0:0:0:
256,192,24334,1,8,0:0:0:0:
256,192,24418,1,8,0:0:0:0:
256,192,24502,1,0,0:0:0:0:
256,192,24670,1,0,0:0:0:0:
256,192,24837,1,8,0:0:0:0:
256,192,25005,1,0,0:0:0:0:
256,192,25089,1,0,0:0:0:0:
256,192,25172,1,8,0:0:0:0:
256,192,25340,1,0,0:0:0:0:
256,192,25508,1,8,0:0:0:0:
256,192,25675,1,0,0:0:0:0:
256,192,25759,1,8,0:0:0:0:
256,192,25843,1,0,0:0:0:0:
256,192,26010,1,0,0:0:0:0:
256,192,26178,1,8,0:0:0:0:
256,192,26346,1,8,0:0:0:0:
256,192,26681,1,0,0:0:0:0:
256,192,26848,1,8,0:0:0:0:
256,192,27184,1,8,0:0:0:0:
256,192,27519,1,0,0:0:0:0:
256,192,27854,1,12,0:0:0:0:
256,192,28189,1,8,0:0:0:0:
256,192,28357,1,0,0:0:0:0:
256,192,28441,1,0,0:0:0:0:
256,192,28524,1,0,0:0:0:0:
256,192,28692,1,0,0:0:0:0:
256,192,29027,1,8,0:0:0:0:
256,192,29195,1,0,0:0:0:0:
256,192,29530,1,8,0:0:0:0:
256,192,29698,1,8,0:0:0:0:
256,192,29865,1,0,0:0:0:0:
256,192,30033,1,0,0:0:0:0:
256,192,30200,1,8,0:0:0:0:
256,192,30535,1,0,0:0:0:0:
256,192,30871,1,8,0:0:0:0:
256,192,31206,1,0,0:0:0:0:
256,192,31373,1,0,0:0:0:0:
256,192,31709,1,8,0:0:0:0:
256,192,31876,1,0,0:0:0:0:
256,192,32044,1,0,0:0:0:0:
256,192,32211,1,8,0:0:0:0:
256,192,32379,1,0,0:0:0:0:
256,192,32547,1,8,0:0:0:0:
256,192,32630,1,8,0:0:0:0:
256,192,32714,1,0,0:0:0:0:
256,192,32882,1,8,0:0:0:0:
256,192,32966,1,0,0:0:0:0:
256,192,33049,1,0,0:0:0:0:
256,192,33217,1,12,0:0:0:0:
256,192,33720,1,0,0:0:0:0:
256,192,34055,1,0,0:0:0:0:
256,192,34223,1,8,0:0:0:0:
256,192,34558,1,8,0:0:0:0:
256,192,35061,1,0,0:0:0:0:
256,192,35396,1,8,0:0:0:0:
256,192,35563,1,0,0:0:0:0:
256,192,35899,1,8,0:0:0:0:
256,192,36401,1,8,0:0:0:0:
256,192,36737,1,0,0:0:0:0:
256,192,36904,1,8,0:0:0:0:
256,192,37239,1,0,0:0:0:0:
256,192,37575,1,0,0:0:0:0:
256,192,37742,1,8,0:0:0:0:
256,192,37910,1,0,0:0:0:0:
256,192,38245,1,8,0:0:0:0:
256,192,38580,1,4,0:0:0:0:
256,192,38748,1,0,0:0:0:0:
256,192,38915,1,8,0:0:0:0:
256,192,39083,1,0,0:0:0:0:
256,192,39167,1,0,0:0:0:0:
256,192,39251,1,0,0:0:0:0:
256,192,39418,1,8,0:0:0:0:
256,192,39586,1,0,0:0:0:0:
256,192,39753,1,8,0:0:0:0:
256,192,39837,1,8,0:0:0:0:
256,192,39921,1,0,0:0:0:0:
256,192,40089,1,8,0:0:0:0:
256,192,40256,1,8,0:0:0:0:
256,192,40591,1,8,0:0:0:0:
256,192,40927,1,0,0:0:0:0:
256,192,41262,1,0,0:0:0:0:
256,192,41429,1,0,0:0:0:0:
256,192,41597,1,8,0:0:0:0:
256,192,41765,1,0,0:0:0:0:
256,192,41848,1,0,0:0:0:0:
256,192,41932,1,0,0:0:0:0:
256,192,42100,1,8,0:0:0:0:
256,192,42184,1,8,0:0:0:0:
256,192,42267,1,0,0:0:0:0:
256,192,42435,1,8,0:0:0:0:
256,192,42603,1,0,0:0:0:0:
256,192,42686,1,0,0:0:0:0:
256,192,42770,1,8,0:0:0:0:
256,192,42854,1,0,0:0:0:0:
256,192,42938,1,8,0:0:0:0:
256,192,43273,1,0,0:0:0:0:
256,192,43524,1,0,0:0:0:0:
256,192,43776,1,0,0:0:0:0:
256,192,43943,1,12,0:0:0:0:
256,192,44446,1,0,0:0:0:0:
256,192,44949,1,8,0:0:0:0:
256,192,45452,1,0,0:0:0:0:
256,192,45619,1,8,0:0:0:0:
256,192,45787,1,0,0:0:0:0:
256,192,45954,1,0,0:0:0:0:
256,192,46122,1,0,0:0:0:0:
256,192,46290,1,8,0:0:0:0:
256,192,46625,1,12,0:0:0:0:
256,192,46960,1,8,0:0:0:0:
256,192,47128,1,0,0:0:0:0:
256,192,47211,1,0,0:0:0:0:
256,192,47295,1,0,0:0:0:0:
256,192,47463,1,0,0:0:0:0:
256,192,47630,1,8,0:0:0:0:
256,192,47798,1,8,0:0:0:0:
256,192,47966,1,0,0:0:0:0:
256,192,48301,1,8,0:0:0:0:
256,192,48468,1,0,0:0:0:0:
256,192,48636,1,8,0:0:0:0:
256,192,48720,1,8,0:0:0:0:
256,192,48804,1,8,0:0:0:0:
256,192,48971,1,0,0:0:0:0:
256,192,49139,1,8,0:0:0:0:
256,192,49306,1,0,0:0:0:0:
256,192,49642,1,8,0:0:0:0:
256,192,49977,1,0,0:0:0:0:
256,192,50144,1,0,0:0:0:0:
256,192,50312,1,8,0:0:0:0:
256,192,50480,1,8,0:0:0:0:
256,192,50563,1,8,0:0:0:0:
256,192,50647,1,0,0:0:0:0:
256,192,50815,1,0,0:0:0:0:
256,192,50982,1,8,0:0:0:0:
256,192,51150,1,0,0:0:0:0:
256,192,51485,1,8,0:0:0:0:
256,192,51653,1,8,0:0:0:0:
256,192,51820,1,0,0:0:0:0:
256,192,51988,1,4,0:0:0:0:
256,192,52156,1,0,0:0:0:0:
256,192,52323,1,8,0:0:0:0:
256,192,52491,1,0,0:0:0:0:
256,192,52575,1,0,0:0:0:0:
256,192,52658,1,8,0:0:0:0:
256,192,52826,1,0,0:0:0:0:
256,192,52994,1,8,0:0:0:0:
256,192,53161,1,0,0:0:0:0:
256,192,53245,1,0,0:0:0:0:
256,192,53329,1,8,0:0:0:0:
256,192,53413,1,8,0:0:0:0:
256,192,53496,1,0,0:0:0:0:
256,192,53664,1,8,0:0:0:0:
256,192,53832,1,0,0:0:0:0:
256,192,53999,1,8,0:0:0:0:
256,192,54334,1,8,0:0:0:0:
256,192,54502,1,0,0:0:0:0:
256,192,54670,1,8,0:0:0:0:
256,192,54753,1,8,0:0:0:0:
256,192,54837,1,0,0:0:0:0:
256,192,54921,1,0,0:0:0:0:
256,192,55005,1,8,0:0:0:0:
256,192,55172,1,0,0:0:0:0:
256,192,55508,1,8,0:0:0:0:
256,192,55675,1,8,0:0:0:0:
256,192,55843,1,4,0:0:0:0:
256,192,56178,1,0,0:0:0:0:
256,192,56346,1,8,0:0:0:0:
256,192,56597,1,8,0:0:0:0:
256,192,56681,1,0,0:0:0:0:
256,192,56848,1,0,0:0:0:0:
256,192,56932,1,0,0:0:0:0:
256,192,57016,1,8,0:0:0:0:
256,192,57100,1,8,0:0:0:0:
256,192,57184,1,8,0:0:0:0:
256,192,57351,1,4,0:0:0:0:
256,192,57686,1,8,0:0:0:0:
256,192,57854,1,0,0:0:0:0:
256,192,57938,1,0,0:0:0:0:
256,192,58022,1,0,0:0:0:0:
256,192,58189,1,0,0:0:0:0:
256,192,58357,1,8,0:0:0:0:
256,192,58524,1,8,0:0:0:0:
256,192,58692,1,0,0:0:0:0:
256,192,59027,1,8,0:0:0:0:
256,192,59195,1,0,0:0:0:0:
256,192,59279,1,0,0:0:0:0:
256,192,59362,1,8,0:0:0:0:
256,192,59530,1,0,0:0:0:0:
256,192,59698,1,8,0:0:0:0:
256,192,59865,1,0,0:0:0:0:
256,192,59949,1,8,0:0:0:0:
256,192,60033,1,0,0:0:0:0:
256,192,60368,1,8,0:0:0:0:
256,192,60703,1,0,0:0:0:0:
256,192,60871,1,0,0:0:0:0:
256,192,61038,1,8,0:0:0:0:
256,192,61206,1,8,0:0:0:0:
256,192,61290,1,8,0:0:0:0:
256,192,61373,1,0,0:0:0:0:
256,192,61541,1,0,0:0:0:0:
256,192,61709,1,8,0:0:0:0:
256,192,61876,1,0,0:0:0:0:
256,192,62211,1,8,0:0:0:0:
256,192,62379,1,8,0:0:0:0:
256,192,62547,1,0,0:0:0:0:
256,192,62714,1,4,0:0:0:0:
256,192,62882,1,0,0:0:0:0:
256,192,63049,1,8,0:0:0:0:
256,192,63217,1,0,0:0:0:0:
256,192,63385,1,8,0:0:0:0:
256,192,63468,1,8,0:0:0:0:
256,192,63552,1,0,0:0:0:0:
256,192,63720,1,8,0:0:0:0:
256,192,63887,1,0,0:0:0:0:
256,192,64055,1,8,0:0:0:0:
256,192,64139,1,8,0:0:0:0:
256,192,64223,1,0,0:0:0:0:
256,192,64306,1,0,0:0:0:0:
256,192,64390,1,8,0:0:0:0:
256,192,64558,1,0,0:0:0:0:
256,192,64725,1,8,0:0:0:0:
256,192,65061,1,8,0:0:0:0:
256,192,65228,1,0,0:0:0:0:
256,192,65312,1,0,0:0:0:0:
256,192,65396,1,8,0:0:0:0:
256,192,65480,1,8,0:0:0:0:
256,192,65563,1,0,0:0:0:0:
256,192,65731,1,8,0:0:0:0:
256,192,65899,1,0,0:0:0:0:
256,192,66234,1,8,0:0:0:0:
256,192,66401,1,8,0:0:0:0:
256,192,66569,1,4,0:0:0:0:
256,192,66904,1,8,0:0:0:0:
256,192,67072,1,8,0:0:0:0:
256,192,67239,1,0,0:0:0:0:
256,192,67323,1,0,0:0:0:0:
256,192,67407,1,8,0:0:0:0:
256,192,67575,1,0,0:0:0:0:
256,192,67742,1,8,0:0:0:0:
256,192,67826,1,8,0:0:0:0:
256,192,67910,1,8,0:0:0:0:
256,192,68077,1,4,0:0:0:0:
256,192,68413,1,8,0:0:0:0:
256,192,68580,1,0,0:0:0:0:
256,192,68915,1,0,0:0:0:0:
256,192,69083,1,8,0:0:0:0:
256,192,69418,1,0,0:0:0:0:
256,192,69586,1,8,0:0:0:0:
256,192,69670,1,0,0:0:0:0:
256,192,69753,1,8,0:0:0:0:
256,192,69921,1,0,0:0:0:0:
256,192,70089,1,0,0:0:0:0:
256,192,70172,1,0,0:0:0:0:
256,192,70256,1,8,0:0:0:0:
256,192,70424,1,8,0:0:0:0:
256,192,70591,1,4,0:0:0:0:
256,192,70927,1,8,0:0:0:0:
256,192,71094,1,0,0:0:0:0:
256,192,71262,1,12,0:0:0:0:
256,192,71597,1,0,0:0:0:0:
256,192,71765,1,8,0:0:0:0:
256,192,71932,1,4,0:0:0:0:
256,192,72267,1,0,0:0:0:0:
256,192,72435,1,8,0:0:0:0:
256,192,72603,1,0,0:0:0:0:
256,192,72686,1,0,0:0:0:0:
256,192,72770,1,8,0:0:0:0:
256,192,72938,1,0,0:0:0:0:
256,192,73105,1,8,0:0:0:0:
256,192,73189,1,8,0:0:0:0:
256,192,73273,1,0,0:0:0:0:
256,192,73441,1,12,0:0:0:0:
256,192,73776,1,8,0:0:0:0:
256,192,73943,1,0,0:0:0:0:
256,192,74027,1,0,0:0:0:0:
256,192,74111,1,0,0:0:0:0:
256,192,74279,1,0,0:0:0:0:
256,192,74446,1,8,0:0:0:0:
256,192,74614,1,0,0:0:0:0:
256,192,74781,1,8,0:0:0:0:
256,192,75116,1,0,0:0:0:0:
256,192,75284,1,0,0:0:0:0:
256,192,75452,1,8,0:0:0:0:
256,192,75619,1,0,0:0:0:0:
256,192,75703,1,8,0:0:0:0:
256,192,75787,1,8,0:0:0:0:
256,192,75954,1,0,0:0:0:0:
256,192,76122,1,12,0:0:0:0:
256,192,76290,1,12,0:0:0:0:
256,192,76625,1,4,0:0:0:0:
256,192,76792,1,4,0:0:0:0:
256,192,77128,1,12,0:0:0:0:
256,192,77295,1,12,0:0:0:0:
256,192,78133,1,8,0:0:0:0:
256,192,78301,1,0,0:0:0:0:
256,192,78385,1,0,0:0:0:0:
256,192,78468,1,8,0:0:0:0:
256,192,78552,1,8,0:0:0:0:
256,192,78636,1,8,0:0:0:0:
256,192,78720,1,8,0:0:0:0:
256,192,78804,1,0,0:0:0:0:
256,192,79139,1,8,0:0:0:0:
256,192,79390,1,0,0:0:0:0:
256,192,79474,1,8,0:0:0:0:
256,192,79642,1,0,0:0:0:0:
256,192,79809,1,8,0:0:0:0:
256,192,79977,1,8,0:0:0:0:
256,192,80061,1,8,0:0:0:0:
256,192,80144,1,0,0:0:0:0:
256,192,80312,1,0,0:0:0:0:
256,192,80480,1,8,0:0:0:0:
256,192,80647,1,0,0:0:0:0:
256,192,80731,1,0,0:0:0:0:
256,192,80815,1,8,0:0:0:0:
256,192,80982,1,0,0:0:0:0:
256,192,81150,1,8,0:0:0:0:
256,192,81318,1,8,0:0:0:0:
256,192,81485,1,0,0:0:0:0:
256,192,81820,1,8,0:0:0:0:
256,192,82072,1,8,0:0:0:0:
256,192,82156,1,0,0:0:0:0:
256,192,82323,1,0,0:0:0:0:
256,192,82491,1,8,0:0:0:0:
256,192,82658,1,8,0:0:0:0:
256,192,82742,1,8,0:0:0:0:
256,192,82826,1,0,0:0:0:0:
256,192,82994,1,8,0:0:0:0:
256,192,83077,1,8,0:0:0:0:
256,192,83161,1,8,0:0:0:0:
256,192,83329,1,0,0:0:0:0:
256,192,83496,1,8,0:0:0:0:
256,192,83664,1,8,0:0:0:0:
256,192,84167,1,8,0:0:0:0:
256,192,84334,1,8,0:0:0:0:
256,192,84837,1,8,0:0:0:0:
256,192,85005,1,8,0:0:0:0:
256,192,85508,1,4,0:0:0:0:
256,192,85675,1,0,0:0:0:0:
256,192,86178,1,8,0:0:0:0:
256,192,86681,1,0,0:0:0:0:
256,192,87016,1,0,0:0:0:0:
256,192,87184,1,0,0:0:0:0:
256,192,87519,1,8,0:0:0:0:
256,192,88189,1,0,0:0:0:0:
256,192,88357,1,0,0:0:0:0:
256,192,88860,1,8,0:0:0:0:
256,192,89362,1,0,0:0:0:0:
256,192,89698,1,0,0:0:0:0:
256,192,89865,1,0,0:0:0:0:
256,192,90200,1,8,0:0:0:0:
256,192,90535,1,0,0:0:0:0:
256,192,90871,1,12,0:0:0:0:
256,192,91373,1,0,0:0:0:0:
256,192,91541,1,8,0:0:0:0:
256,192,91876,1,0,0:0:0:0:
256,192,92044,1,0,0:0:0:0:
256,192,92379,1,8,0:0:0:0:
256,192,92547,1,0,0:0:0:0:
256,192,92714,1,0,0:0:0:0:
256,192,92882,1,8,0:0:0:0:
256,192,93049,1,0,0:0:0:0:
256,192,93217,1,8,0:0:0:0:
256,192,93552,1,0,0:0:0:0:
256,192,93720,1,0,0:0:0:0:
256,192,94055,1,0,0:0:0:0:
256,192,94223,1,8,0:0:0:0:
256,192,94558,1,8,0:0:0:0:
256,192,94725,1,0,0:0:0:0:
256,192,94893,1,0,0:0:0:0:
256,192,95061,1,8,0:0:0:0:
256,192,95396,1,0,0:0:0:0:
256,192,95563,1,8,0:0:0:0:
256,192,95731,1,0,0:0:0:0:
256,192,95899,1,8,0:0:0:0:
256,192,95982,1,8,0:0:0:0:
256,192,96066,1,8,0:0:0:0:
256,192,96150,1,8,0:0:0:0:
256,192,96234,1,0,0:0:0:0:
256,192,96401,1,0,0:0:0:0:
256,192,96569,1,8,0:0:0:0:
256,192,96737,1,0,0:0:0:0:
256,192,96820,1,8,0:0:0:0:
256,192,96904,1,0,0:0:0:0:
256,192,97072,1,8,0:0:0:0:
256,192,97239,1,8,0:0:0:0:
256,192,97407,1,0,0:0:0:0:
256,192,97742,1,0,0:0:0:0:
256,192,97910,1,8,0:0:0:0:
256,192,98077,1,8,0:0:0:0:
256,192,98161,1,8,0:0:0:0:
256,192,98245,1,0,0:0:0:0:
256,192,98413,1,0,0:0:0:0:
256,192,98580,1,8,0:0:0:0:
256,192,98748,1,0,0:0:0:0:
256,192,98832,1,0,0:0:0:0:
256,192,98915,1,8,0:0:0:0:
256,192,99083,1,0,0:0:0:0:
256,192,99251,1,8,0:0:0:0:
256,192,99418,1,0,0:0:0:0:
256,192,99502,1,8,0:0:0:0:
256,192,99586,1,0,0:0:0:0:
256,192,99670,1,8,0:0:0:0:
256,192,99753,1,0,0:0:0:0:
256,192,99921,1,8,0:0:0:0:
256,192,100089,1,8,0:0:0:0:
256,192,100172,1,8,0:0:0:0:
256,192,100256,1,0,0:0:0:0:
256,192,100424,1,0,0:0:0:0:
256,192,100591,1,8,0:0:0:0:
256,192,100759,1,0,0:0:0:0:
256,192,100843,1,0,0:0:0:0:
256,192,100927,1,8,0:0:0:0:
256,192,101262,1,0,0:0:0:0:
256,192,101597,1,12,0:0:0:0:
256,192,101932,1,8,0:0:0:0:
256,192,102100,1,0,0:0:0:0:
256,192,102184,1,0,0:0:0:0:
256,192,102267,1,0,0:0:0:0:
256,192,102435,1,8,0:0:0:0:
256,192,102603,1,0,0:0:0:0:
256,192,102770,1,8,0:0:0:0:
256,192,102854,1,0,0:0:0:0:
256,192,102938,1,8,0:0:0:0:
256,192,103022,1,8,0:0:0:0:
256,192,103105,1,0,0:0:0:0:
256,192,103273,1,8,0:0:0:0:
256,192,103441,1,0,0:0:0:0:
256,192,103524,1,8,0:0:0:0:
256,192,103608,1,0,0:0:0:0:
256,192,103776,1,0,0:0:0:0:
256,192,103943,1,8,0:0:0:0:
256,192,104279,1,0,0:0:0:0:
256,192,104614,1,8,0:0:0:0:
256,192,104949,1,0,0:0:0:0:
256,192,105116,1,0,0:0:0:0:
256,192,105452,1,8,0:0:0:0:
256,192,105619,1,0,0:0:0:0:
256,192,105787,1,0,0:0:0:0:
256,192,105871,1,0,0:0:0:0:
256,192,105954,1,8,0:0:0:0:
256,192,106122,1,0,0:0:0:0:
256,192,106290,1,8,0:0:0:0:
256,192,106373,1,8,0:0:0:0:
256,192,106457,1,0,0:0:0:0:
256,192,106625,1,8,0:0:0:0:
256,192,106709,1,0,0:0:0:0:
256,192,106792,1,0,0:0:0:0:
256,192,106960,1,12,0:0:0:0:
256,192,107463,1,0,0:0:0:0:
256,192,107798,1,0,0:0:0:0:
256,192,107966,1,8,0:0:0:0:
256,192,108301,1,8,0:0:0:0:
256,192,108804,1,0,0:0:0:0:
256,192,109139,1,8,0:0:0:0:
256,192,109306,1,0,0:0:0:0:
256,192,109642,1,8,0:0:0:0:
256,192,110144,1,8,0:0:0:0:
256,192,110480,1,0,0:0:0:0:
256,192,110647,1,8,0:0:0:0:
256,192,110982,1,0,0:0:0:0:
256,192,111318,1,0,0:0:0:0:
256,192,111485,1,8,0:0:0:0:
256,192,111653,1,0,0:0:0:0:
256,192,111820,1,0,0:0:0:0:
256,192,111988,1,12,0:0:0:0:
256,192,112323,1,4,0:0:0:0:
256,192,112491,1,0,0:0:0:0:
256,192,112658,1,8,0:0:0:0:
256,192,112826,1,0,0:0:0:0:
256,192,112910,1,0,0:0:0:0:
256,192,112994,1,0,0:0:0:0:
256,192,113161,1,8,0:0:0:0:
256,192,113329,1,0,0:0:0:0:
256,192,113496,1,8,0:0:0:0:
256,192,113580,1,8,0:0:0:0:
256,192,113664,1,0,0:0:0:0:
256,192,113832,1,8,0:0:0:0:
256,192,113999,1,8,0:0:0:0:
256,192,114083,1,8,0:0:0:0:
256,192,114167,1,0,0:0:0:0:
256,192,114251,1,0,0:0:0:0:
256,192,114334,1,8,0:0:0:0:
256,192,114502,1,8,0:0:0:0:
256,192,114670,1,0,0:0:0:0:
256,192,115005,1,8,0:0:0:0:
256,192,115172,1,0,0:0:0:0:
256,192,115340,1,8,0:0:0:0:
256,192,115508,1,0,0:0:0:0:
256,192,115591,1,0,0:0:0:0:
256,192,115675,1,0,0:0:0:0:
256,192,115759,1,0,0:0:0:0:
256,192,115843,1,8,0:0:0:0:
256,192,116010,1,0,0:0:0:0:
256,192,116178,1,8,0:0:0:0:
256,192,116262,1,8,0:0:0:0:
256,192,116346,1,0,0:0:0:0:
256,192,116429,1,0,0:0:0:0:
256,192,116513,1,8,0:0:0:0:
256,192,116597,1,0,0:0:0:0:
256,192,116681,1,8,0:0:0:0:
256,192,117016,1,0,0:0:0:0:
256,192,117267,1,0,0:0:0:0:
256,192,117519,1,0,0:0:0:0:
256,192,117686,1,12,0:0:0:0:
256,192,118189,1,0,0:0:0:0:
256,192,118692,1,8,0:0:0:0:
256,192,119195,1,0,0:0:0:0:
256,192,119362,1,8,0:0:0:0:
256,192,119530,1,0,0:0:0:0:
256,192,119698,1,0,0:0:0:0:
256,192,119865,1,0,0:0:0:0:
256,192,120033,1,8,0:0:0:0:
256,192,120368,1,12,0:0:0:0:
256,192,120703,1,8,0:0:0:0:
256,192,120871,1,0,0:0:0:0:
256,192,120954,1,0,0:0:0:0:
256,192,121038,1,0,0:0:0:0:
256,192,121206,1,0,0:0:0:0:
256,192,121373,1,8,0:0:0:0:
256,192,121541,1,0,0:0:0:0:
256,192,121625,1,0,0:0:0:0:
256,192,121709,1,8,0:0:0:0:
256,192,121876,1,0,0:0:0:0:
256,192,122044,1,8,0:0:0:0:
256,192,122211,1,0,0:0:0:0:
256,192,122379,1,8,0:0:0:0:
256,192,122463,1,8,0:0:0:0:
256,192,122547,1,8,0:0:0:0:
256,192,122714,1,0,0:0:0:0:
256,192,122882,1,8,0:0:0:0:
256,192,123049,1,0,0:0:0:0:
256,192,123385,1,8,0:0:0:0:
256,192,123720,1,0,0:0:0:0:
256,192,123887,1,0,0:0:0:0:
256,192,124055,1,8,0:0:0:0:
256,192,124223,1,8,0:0:0:0:
256,192,124306,1,8,0:0:0:0:
256,192,124390,1,0,0:0:0:0:
256,192,124558,1,0,0:0:0:0:
256,192,124725,1,8,0:0:0:0:
256,192,124893,1,0,0:0:0:0:
256,192,125228,1,8,0:0:0:0:
256,192,125396,1,8,0:0:0:0:
256,192,125563,1,0,0:0:0:0:
256,192,125731,1,4,0:0:0:0:
256,192,125899,1,0,0:0:0:0:
256,192,126066,1,8,0:0:0:0:
256,192,126234,1,0,0:0:0:0:
256,192,126318,1,0,0:0:0:0:
256,192,126401,1,8,0:0:0:0:
256,192,126569,1,0,0:0:0:0:
256,192,126737,1,8,0:0:0:0:
256,192,126904,1,0,0:0:0:0:
256,192,126988,1,0,0:0:0:0:
256,192,127072,1,8,0:0:0:0:
256,192,127156,1,8,0:0:0:0:
256,192,127239,1,0,0:0:0:0:
256,192,127407,1,8,0:0:0:0:
256,192,127575,1,0,0:0:0:0:
256,192,127742,1,8,0:0:0:0:
256,192,128077,1,8,0:0:0:0:
256,192,128245,1,0,0:0:0:0:
256,192,128413,1,8,0:0:0:0:
256,192,128496,1,8,0:0:0:0:
256,192,128580,1,0,0:0:0:0:
256,192,128664,1,0,0:0:0:0:
256,192,128748,1,8,0:0:0:0:
256,192,128915,1,0,0:0:0:0:
256,192,128999,1,8,0:0:0:0:
256,192,129083,1,0,0:0:0:0:
256,192,129251,1,8,0:0:0:0:
256,192,129418,1,8,0:0:0:0:
256,192,129586,1,4,0:0:0:0:
256,192,129921,1,0,0:0:0:0:
256,192,130089,1,8,0:0:0:0:
256,192,130340,1,8,0:0:0:0:
256,192,130424,1,0,0:0:0:0:
256,192,130591,1,0,0:0:0:0:
256,192,130675,1,0,0:0:0:0:
256,192,130759,1,8,0:0:0:0:
256,192,130843,1,8,0:0:0:0:
256,192,130927,1,8,0:0:0:0:
256,192,131094,1,4,0:0:0:0:
256,192,131429,1,8,0:0:0:0:
256,192,131597,1,0,0:0:0:0:
256,192,131681,1,0,0:0:0:0:
256,192,131765,1,0,0:0:0:0:
256,192,131932,1,0,0:0:0:0:
256,192,132100,1,8,0:0:0:0:
256,192,132267,1,8,0:0:0:0:
256,192,132351,1,0,0:0:0:0:
256,192,132435,1,0,0:0:0:0:
256,192,132603,1,0,0:0:0:0:
256,192,132770,1,8,0:0:0:0:
256,192,132938,1,0,0:0:0:0:
256,192,133022,1,0,0:0:0:0:
256,192,133105,1,8,0:0:0:0:
256,192,133273,1,0,0:0:0:0:
256,192,133441,1,8,0:0:0:0:
256,192,133608,1,0,0:0:0:0:
256,192,133692,1,8,0:0:0:0:
256,192,133776,1,0,0:0:0:0:
256,192,134111,1,8,0:0:0:0:
256,192,134446,1,0,0:0:0:0:
256,192,134614,1,0,0:0:0:0:
256,192,134781,1,8,0:0:0:0:
256,192,134949,1,8,0:0:0:0:
256,192,135033,1,8,0:0:0:0:
256,192,135116,1,0,0:0:0:0:
256,192,135284,1,0,0:0:0:0:
256,192,135452,1,8,0:0:0:0:
256,192,135619,1,0,0:0:0:0:
256,192,135954,1,8,0:0:0:0:
256,192,136122,1,8,0:0:0:0:
256,192,136290,1,0,0:0:0:0:
256,192,136457,1,4,0:0:0:0:
256,192,136625,1,0,0:0:0:0:
256,192,136792,1,8,0:0:0:0:
256,192,136960,1,0,0:0:0:0:
256,192,137128,1,8,0:0:0:0:
256,192,137211,1,8,0:0:0:0:
256,192,137295,1,0,0:0:0:0:
256,192,137463,1,8,0:0:0:0:
256,192,137630,1,0,0:0:0:0:
256,192,137798,1,8,0:0:0:0:
256,192,137882,1,8,0:0:0:0:
256,192,137966,1,0,0:0:0:0:
256,192,138049,1,0,0:0:0:0:
256,192,138133,1,8,0:0:0:0:
256,192,138301,1,0,0:0:0:0:
256,192,138468,1,8,0:0:0:0:
256,192,138804,1,8,0:0:0:0:
256,192,138971,1,0,0:0:0:0:
256,192,139055,1,0,0:0:0:0:
256,192,139139,1,8,0:0:0:0:
256,192,139223,1,8,0:0:0:0:
256,192,139306,1,0,0:0:0:0:
256,192,139474,1,8,0:0:0:0:
256,192,139642,1,0,0:0:0:0:
256,192,139977,1,8,0:0:0:0:
256,192,140144,1,8,0:0:0:0:
256,192,140312,1,4,0:0:0:0:
256,192,140647,1,8,0:0:0:0:
256,192,140815,1,8,0:0:0:0:
256,192,140982,1,0,0:0:0:0:
256,192,141066,1,0,0:0:0:0:
256,192,141150,1,8,0:0:0:0:
256,192,141318,1,0,0:0:0:0:
256,192,141401,1,0,0:0:0:0:
256,192,141485,1,8,0:0:0:0:
256,192,141569,1,8,0:0:0:0:
256,192,141653,1,8,0:0:0:0:
256,192,141820,1,4,0:0:0:0:
256,192,142156,1,8,0:0:0:0:
256,192,142323,1,0,0:0:0:0:
256,192,142658,1,0,0:0:0:0:
256,192,142826,1,8,0:0:0:0:
256,192,143161,1,0,0:0:0:0:
256,192,143329,1,8,0:0:0:0:
256,192,143413,1,8,0:0:0:0:
256,192,143496,1,0,0:0:0:0:
256,192,143664,1,0,0:0:0:0:
256,192,143832,1,0,0:0:0:0:
256,192,143915,1,0,0:0:0:0:
256,192,143999,1,8,0:0:0:0:
256,192,144083,1,0,0:0:0:0:
256,192,144167,1,8,0:0:0:0:
256,192,144334,1,4,0:0:0:0:
256,192,144670,1,8,0:0:0:0:
256,192,144837,1,0,0:0:0:0:
256,192,145005,1,12,0:0:0:0:
256,192,145340,1,0,0:0:0:0:
256,192,145508,1,8,0:0:0:0:
256,192,145675,1,4,0:0:0:0:
256,192,146010,1,0,0:0:0:0:
256,192,146178,1,8,0:0:0:0:
256,192,146346,1,0,0:0:0:0:
256,192,146429,1,0,0:0:0:0:
256,192,146513,1,8,0:0:0:0:
256,192,146681,1,0,0:0:0:0:
256,192,146848,1,8,0:0:0:0:
256,192,146932,1,8,0:0:0:0:
256,192,147016,1,0,0:0:0:0:
256,192,147184,1,12,0:0:0:0:
256,192,147519,1,8,0:0:0:0:
256,192,147686,1,0,0:0:0:0:
256,192,147770,1,0,0:0:0:0:
256,192,147854,1,0,0:0:0:0:
256,192,148022,1,0,0:0:0:0:
256,192,148189,1,8,0:0:0:0:
256,192,148357,1,0,0:0:0:0:
256,192,148441,1,0,0:0:0:0:
256,192,148524,1,8,0:0:0:0:
256,192,148860,1,0,0:0:0:0:
256,192,149027,1,0,0:0:0:0:
256,192,149195,1,8,0:0:0:0:
256,192,149362,1,0,0:0:0:0:
256,192,149446,1,8,0:0:0:0:
256,192,149530,1,8,0:0:0:0:
256,192,149698,1,0,0:0:0:0:
256,192,149865,1,12,0:0:0:0:
256,192,150033,1,12,0:0:0:0:
256,192,150368,1,4,0:0:0:0:
256,192,150535,1,4,0:0:0:0:
256,192,150871,1,12,0:0:0:0:
256,192,151038,1,12,0:0:0:0:
256,192,151541,1,0,0:0:0:0:
256,192,151876,1,8,0:0:0:0:
256,192,151988,1,0,0:0:0:0:
256,192,152100,1,0,0:0:0:0:
256,192,152211,1,8,0:0:0:0:
256,192,152323,1,8,0:0:0:0:
256,192,152435,1,0,0:0:0:0:
256,192,152547,1,8,0:0:0:0:
256,192,152714,12,0,156904,0:0:0:0:
256,192,157239,5,8,0:0:0:0:
256,192,157407,1,0,0:0:0:0:
256,192,157575,1,0,0:0:0:0:
256,192,157742,1,8,0:0:0:0:
256,192,157910,1,12,0:0:0:0:
256,192,158413,1,0,0:0:0:0:
256,192,158580,1,8,0:0:0:0:
256,192,158748,1,0,0:0:0:0:
256,192,158915,1,0,0:0:0:0:
256,192,159083,1,8,0:0:0:0:
256,192,159418,1,8,0:0:0:0:
256,192,159753,1,0,0:0:0:0:
256,192,159921,1,8,0:0:0:0:
256,192,160089,1,8,0:0:0:0:
256,192,160591,1,4,0:0:0:0:
256,192,161094,1,0,0:0:0:0:
256,192,161262,1,8,0:0:0:0:
256,192,161429,1,0,0:0:0:0:
256,192,161597,1,0,0:0:0:0:
256,192,161765,1,8,0:0:0:0:
256,192,162100,1,8,0:0:0:0:
256,192,162267,1,8,0:0:0:0:
256,192,162435,1,0,0:0:0:0:
256,192,162770,1,8,0:0:0:0:
256,192,163273,1,4,0:0:0:0:
256,192,163776,1,0,0:0:0:0:
256,192,163943,1,8,0:0:0:0:
256,192,164279,1,8,0:0:0:0:
256,192,164446,1,0,0:0:0:0:
256,192,164781,1,8,0:0:0:0:
256,192,165116,1,0,0:0:0:0:
256,192,165200,1,0,0:0:0:0:
256,192,165284,1,8,0:0:0:0:
256,192,165452,1,8,0:0:0:0:
256,192,165619,1,0,0:0:0:0:
256,192,165787,1,8,0:0:0:0:
256,192,165954,1,4,0:0:0:0:
256,192,166457,1,0,0:0:0:0:
256,192,166625,1,0,0:0:0:0:
256,192,166792,1,8,0:0:0:0:
256,192,166960,1,8,0:0:0:0:
256,192,167128,1,0,0:0:0:0:
256,192,167463,1,0,0:0:0:0:
256,192,167630,1,8,0:0:0:0:
256,192,167798,1,0,0:0:0:0:
256,192,167882,1,8,0:0:0:0:
256,192,167966,1,0,0:0:0:0:
256,192,168133,1,8,0:0:0:0:
256,192,168217,1,0,0:0:0:0:
256,192,168301,1,8,0:0:0:0:
256,192,168385,1,8,0:0:0:0:
256,192,168468,1,0,0:0:0:0:
256,192,168636,1,12,0:0:0:0:
256,192,168971,1,8,0:0:0:0:
256,192,169139,1,0,0:0:0:0:
256,192,169223,1,8,0:0:0:0:
256,192,169306,1,0,0:0:0:0:
256,192,169474,1,0,0:0:0:0:
256,192,169642,1,8,0:0:0:0:
256,192,169809,1,8,0:0:0:0:
256,192,169977,1,0,0:0:0:0:
256,192,170144,1,0,0:0:0:0:
256,192,170228,1,0,0:0:0:0:
256,192,170312,1,8,0:0:0:0:
256,192,170480,1,0,0:0:0:0:
256,192,170647,1,8,0:0:0:0:
256,192,170815,1,8,0:0:0:0:
256,192,170899,1,8,0:0:0:0:
256,192,170982,1,0,0:0:0:0:
256,192,171150,1,0,0:0:0:0:
256,192,171234,1,0,0:0:0:0:
256,192,171318,1,8,0:0:0:0:
256,192,171569,1,0,0:0:0:0:
256,192,171653,1,8,0:0:0:0:
256,192,171820,1,0,0:0:0:0:
256,192,171988,1,8,0:0:0:0:
256,192,172239,1,0,0:0:0:0:
256,192,172323,1,8,0:0:0:0:
256,192,172491,1,0,0:0:0:0:
256,192,172658,1,8,0:0:0:0:
256,192,172742,1,8,0:0:0:0:
256,192,172826,1,0,0:0:0:0:
256,192,172994,1,8,0:0:0:0:
256,192,173161,1,0,0:0:0:0:
256,192,173245,1,8,0:0:0:0:
256,192,173329,1,0,0:0:0:0:
256,192,173413,1,0,0:0:0:0:
256,192,173496,1,8,0:0:0:0:
256,192,173580,1,8,0:0:0:0:
256,192,173664,1,0,0:0:0:0:
256,192,173832,1,8,0:0:0:0:
256,192,173915,1,0,0:0:0:0:
256,192,173999,1,8,0:0:0:0:
256,192,174167,1,0,0:0:0:0:
256,192,174334,1,8,0:0:0:0:
256,192,174670,1,0,0:0:0:0:
256,192,174837,1,0,0:0:0:0:
256,192,175005,1,8,0:0:0:0:
256,192,175172,1,8,0:0:0:0:
256,192,175256,1,0,0:0:0:0:
256,192,175340,1,0,0:0:0:0:
256,192,175508,1,8,0:0:0:0:
256,192,175591,1,8,0:0:0:0:
256,192,175675,1,0,0:0:0:0:
256,192,175843,1,8,0:0:0:0:
256,192,176010,1,8,0:0:0:0:
256,192,176094,1,8,0:0:0:0:
256,192,176178,1,0,0:0:0:0:
256,192,176262,1,0,0:0:0:0:
256,192,176346,1,8,0:0:0:0:
256,192,176513,1,0,0:0:0:0:
256,192,176597,1,8,0:0:0:0:
256,192,176681,1,0,0:0:0:0:
256,192,176848,1,0,0:0:0:0:
256,192,176932,1,8,0:0:0:0:
256,192,177016,1,8,0:0:0:0:
256,192,177184,1,0,0:0:0:0:
256,192,177267,1,0,0:0:0:0:
256,192,177351,1,8,0:0:0:0:
256,192,177435,1,0,0:0:0:0:
256,192,177519,1,8,0:0:0:0:
256,192,177603,1,8,0:0:0:0:
256,192,177686,1,0,0:0:0:0:
256,192,177854,1,0,0:0:0:0:
256,192,177938,1,0,0:0:0:0:
256,192,178022,1,8,0:0:0:0:
256,192,178189,1,0,0:0:0:0:
256,192,178357,1,8,0:0:0:0:
256,192,178441,1,0,0:0:0:0:
256,192,178524,1,8,0:0:0:0:
256,192,178608,1,8,0:0:0:0:
256,192,178692,1,0,0:0:0:0:
256,192,178776,1,0,0:0:0:0:
256,192,178860,1,8,0:0:0:0:
256,192,179027,1,8,0:0:0:0:
256,192,179195,1,4,0:0:0:0:
256,192,179362,12,0,182044,0:0:0:0:
256,192,192100,5,0,0:0:0:0:
256,192,192267,1,0,0:0:0:0:
256,192,192435,1,8,0:0:0:0:
256,192,193440,1,12,0:0:0:0:
256,192,193776,1,8,0:0:0:0:
256,192,193943,1,0,0:0:0:0:
256,192,194027,1,0,0:0:0:0:
256,192,194111,1,0,0:0:0:0:
256,192,194278,1,0,0:0:0:0:
256,192,194446,1,8,0:0:0:0:
256,192,194614,1,0,0:0:0:0:
256,192,194697,1,0,0:0:0:0:
256,192,194781,1,8,0:0:0:0:
256,192,194865,1,8,0:0:0:0:
256,192,194949,1,0,0:0:0:0:
256,192,195116,1,8,0:0:0:0:
256,192,195284,1,0,0:0:0:0:
256,192,195452,1,8,0:0:0:0:
256,192,195535,1,8,0:0:0:0:
256,192,195619,1,8,0:0:0:0:
256,192,195787,1,0,0:0:0:0:
256,192,195954,1,8,0:0:0:0:
256,192,196122,1,0,0:0:0:0:
256,192,196457,1,8,0:0:0:0:
256,192,196792,1,0,0:0:0:0:
256,192,196960,1,0,0:0:0:0:
256,192,197128,1,8,0:0:0:0:
256,192,197295,1,8,0:0:0:0:
256,192,197379,1,8,0:0:0:0:
256,192,197463,1,0,0:0:0:0:
256,192,197630,1,0,0:0:0:0:
256,192,197798,1,8,0:0:0:0:
256,192,197966,1,0,0:0:0:0:
256,192,198049,1,0,0:0:0:0:
256,192,198133,1,0,0:0:0:0:
256,192,198301,1,8,0:0:0:0:
256,192,198468,1,8,0:0:0:0:
256,192,198636,1,0,0:0:0:0:
256,192,198804,1,4,0:0:0:0:
256,192,198971,1,0,0:0:0:0:
256,192,199139,1,8,0:0:0:0:
256,192,199306,1,0,0:0:0:0:
256,192,199390,1,0,0:0:0:0:
256,192,199474,1,8,0:0:0:0:
256,192,199642,1,0,0:0:0:0:
256,192,199809,1,8,0:0:0:0:
256,192,199977,1,0,0:0:0:0:
256,192,200061,1,0,0:0:0:0:
256,192,200144,1,8,0:0:0:0:
256,192,200228,1,8,0:0:0:0:
256,192,200312,1,0,0:0:0:0:
256,192,200480,1,8,0:0:0:0:
256,192,200647,1,0,0:0:0:0:
256,192,200815,1,8,0:0:0:0:
256,192,201150,1,8,0:0:0:0:
256,192,201318,1,0,0:0:0:0:
256,192,201485,1,8,0:0:0:0:
256,192,201569,1,8,0:0:0:0:
256,192,201653,1,0,0:0:0:0:
256,192,201820,1,8,0:0:0:0:
256,192,201988,1,0,0:0:0:0:
256,192,202072,1,8,0:0:0:0:
256,192,202156,1,0,0:0:0:0:
256,192,202239,1,0,0:0:0:0:
256,192,202323,1,8,0:0:0:0:
256,192,202491,1,8,0:0:0:0:
256,192,202658,1,4,0:0:0:0:
256,192,202994,1,0,0:0:0:0:
256,192,203161,1,8,0:0:0:0:
256,192,203413,1,8,0:0:0:0:
256,192,203496,1,0,0:0:0:0:
256,192,203664,1,0,0:0:0:0:
256,192,203748,1,0,0:0:0:0:
256,192,203832,1,8,0:0:0:0:
256,192,203915,1,8,0:0:0:0:
256,192,203999,1,8,0:0:0:0:
256,192,204167,1,4,0:0:0:0:
256,192,204502,1,8,0:0:0:0:
256,192,204670,1,0,0:0:0:0:
256,192,204753,1,0,0:0:0:0:
256,192,204837,1,0,0:0:0:0:
256,192,205005,1,0,0:0:0:0:
256,192,205172,1,8,0:0:0:0:
256,192,205340,1,8,0:0:0:0:
256,192,205424,1,0,0:0:0:0:
256,192,205508,1,0,0:0:0:0:
256,192,205675,1,0,0:0:0:0:
256,192,205843,1,8,0:0:0:0:
256,192,205927,1,8,0:0:0:0:
256,192,206010,1,0,0:0:0:0:
256,192,206094,1,0,0:0:0:0:
256,192,206178,1,8,0:0:0:0:
256,192,206346,1,0,0:0:0:0:
256,192,206513,1,8,0:0:0:0:
256,192,206681,1,0,0:0:0:0:
256,192,206765,1,8,0:0:0:0:
256,192,206848,1,0,0:0:0:0:
256,192,207184,1,8,0:0:0:0:
256,192,207519,1,0,0:0:0:0:
256,192,207686,1,0,0:0:0:0:
256,192,207854,1,8,0:0:0:0:
256,192,208022,1,8,0:0:0:0:
256,192,208105,1,8,0:0:0:0:
256,192,208189,1,0,0:0:0:0:
256,192,208357,1,0,0:0:0:0:
256,192,208524,1,8,0:0:0:0:
256,192,208692,1,0,0:0:0:0:
256,192,208776,1,0,0:0:0:0:
256,192,208859,1,0,0:0:0:0:
256,192,209027,1,8,0:0:0:0:
256,192,209195,1,8,0:0:0:0:
256,192,209362,1,0,0:0:0:0:
256,192,209530,1,4,0:0:0:0:
256,192,209697,1,0,0:0:0:0:
256,192,209865,1,8,0:0:0:0:
256,192,210033,1,0,0:0:0:0:
256,192,210200,1,8,0:0:0:0:
256,192,210284,1,8,0:0:0:0:
256,192,210368,1,0,0:0:0:0:
256,192,210535,1,8,0:0:0:0:
256,192,210703,1,0,0:0:0:0:
256,192,210871,1,8,0:0:0:0:
256,192,210954,1,8,0:0:0:0:
256,192,211038,1,0,0:0:0:0:
256,192,211122,1,0,0:0:0:0:
256,192,211206,1,8,0:0:0:0:
256,192,211373,1,0,0:0:0:0:
256,192,211541,1,8,0:0:0:0:
256,192,211876,1,8,0:0:0:0:
256,192,212044,1,0,0:0:0:0:
256,192,212128,1,0,0:0:0:0:
256,192,212211,1,8,0:0:0:0:
256,192,212379,1,0,0:0:0:0:
256,192,212547,1,8,0:0:0:0:
256,192,212630,1,0,0:0:0:0:
256,192,212714,1,8,0:0:0:0:
256,192,212798,1,8,0:0:0:0:
256,192,212882,1,0,0:0:0:0:
256,192,213049,1,8,0:0:0:0:
256,192,213217,1,8,0:0:0:0:
256,192,213385,1,4,0:0:0:0:
256,192,213720,1,8,0:0:0:0:
256,192,213887,1,8,0:0:0:0:
256,192,214055,1,0,0:0:0:0:
256,192,214139,1,0,0:0:0:0:
256,192,214223,1,8,0:0:0:0:
256,192,214390,1,0,0:0:0:0:
256,192,214474,1,0,0:0:0:0:
256,192,214558,1,8,0:0:0:0:
256,192,214642,1,8,0:0:0:0:
256,192,214725,1,8,0:0:0:0:
256,192,214893,1,4,0:0:0:0:
256,192,215228,1,8,0:0:0:0:
256,192,215396,1,0,0:0:0:0:
256,192,215731,1,0,0:0:0:0:
256,192,215899,1,8,0:0:0:0:
256,192,216066,1,8,0:0:0:0:
256,192,216150,1,8,0:0:0:0:
256,192,216234,1,0,0:0:0:0:
256,192,216401,1,0,0:0:0:0:
256,192,216569,1,8,0:0:0:0:
256,192,216737,1,0,0:0:0:0:
256,192,216820,1,0,0:0:0:0:
256,192,216904,1,0,0:0:0:0:
256,192,216988,1,0,0:0:0:0:
256,192,217072,1,8,0:0:0:0:
256,192,217156,1,8,0:0:0:0:
256,192,217239,1,8,0:0:0:0:
256,192,217407,1,12,0:0:0:0:
256,192,217742,1,0,0:0:0:0:
256,192,217910,1,8,0:0:0:0:
256,192,218077,1,0,0:0:0:0:
256,192,218161,1,0,0:0:0:0:
256,192,218245,1,8,0:0:0:0:
256,192,218413,1,0,0:0:0:0:
256,192,218580,1,8,0:0:0:0:
256,192,218664,1,8,0:0:0:0:
256,192,218748,1,0,0:0:0:0:
256,192,218832,1,0,0:0:0:0:
256,192,218915,1,8,0:0:0:0:
256,192,219083,1,0,0:0:0:0:
256,192,219251,1,8,0:0:0:0:
256,192,219418,1,8,0:0:0:0:
256,192,219586,1,0,0:0:0:0:
256,192,219697,1,0,0:0:0:0:
256,192,219809,1,0,0:0:0:0:
256,192,219921,1,8,0:0:0:0:
256,192,220033,1,8,0:0:0:0:
256,192,220144,1,8,0:0:0:0:
256,192,220256,1,0,0:0:0:0:
256,192,220591,1,8,0:0:0:0:
256,192,220759,1,0,0:0:0:0:
256,192,220843,1,0,0:0:0:0:
256,192,220927,1,8,0:0:0:0:
256,192,221094,1,0,0:0:0:0:
256,192,221429,1,0,0:0:0:0:
256,192,221597,1,8,0:0:0:0:
256,192,221765,1,8,0:0:0:0:
256,192,221848,1,8,0:0:0:0:
256,192,221932,1,0,0:0:0:0:
256,192,222100,1,0,0:0:0:0:
256,192,222267,1,8,0:0:0:0:
256,192,222435,1,0,0:0:0:0:
256,192,222519,1,8,0:0:0:0:
256,192,222603,1,8,0:0:0:0:
256,192,222770,1,0,0:0:0:0:
256,192,222938,1,12,0:0:0:0:
256,192,223105,1,12,0:0:0:0:
256,192,223441,1,4,0:0:0:0:
256,192,223608,1,4,0:0:0:0:
256,192,223943,1,12,0:0:0:0:
256,192,224111,1,12,0:0:0:0:
256,192,224446,1,0,0:0:0:0:
256,192,224614,1,8,0:0:0:0:
256,192,224781,1,0,0:0:0:0:
256,192,224949,1,8,0:0:0:0:
256,192,225033,1,0,0:0:0:0:
256,192,225116,1,0,0:0:0:0:
256,192,225200,1,0,0:0:0:0:
256,192,225284,1,8,0:0:0:0:
256,192,225368,1,8,0:0:0:0:
256,192,225452,1,8,0:0:0:0:
256,192,225535,1,8,0:0:0:0:
256,192,225619,1,0,0:0:0:0:
256,192,225954,1,8,0:0:0:0:
256,192,226206,1,0,0:0:0:0:
256,192,226290,1,8,0:0:0:0:
256,192,226457,1,0,0:0:0:0:
256,192,226625,1,8,0:0:0:0:
256,192,226792,1,8,0:0:0:0:
256,192,226876,1,8,0:0:0:0:
256,192,226960,1,0,0:0:0:0:
256,192,227128,1,0,0:0:0:0:
256,192,227295,1,8,0:0:0:0:
256,192,227463,1,0,0:0:0:0:
256,192,227547,1,0,0:0:0:0:
256,192,227630,1,8,0:0:0:0:
256,192,227798,1,0,0:0:0:0:
256,192,227966,1,8,0:0:0:0:
256,192,228133,1,8,0:0:0:0:
256,192,228301,1,0,0:0:0:0:
256,192,228636,1,8,0:0:0:0:
256,192,228887,1,8,0:0:0:0:
256,192,228971,1,0,0:0:0:0:
256,192,229139,1,0,0:0:0:0:
256,192,229306,1,8,0:0:0:0:
256,192,229474,1,0,0:0:0:0:
256,192,229558,1,0,0:0:0:0:
256,192,229642,1,8,0:0:0:0:
256,192,229809,1,0,0:0:0:0:
256,192,229977,1,8,0:0:0:0:
256,192,230144,1,0,0:0:0:0:
256,192,230312,1,8,0:0:0:0:
256,192,230396,1,0,0:0:0:0:
256,192,230480,1,8,0:0:0:0:
256,192,230563,1,8,0:0:0:0:
256,192,230647,1,0,0:0:0:0:
256,192,230815,1,8,0:0:0:0:
256,192,230982,1,0,0:0:0:0:
256,192,231318,1,8,0:0:0:0:
256,192,231569,1,0,0:0:0:0:
256,192,231653,1,8,0:0:0:0:
256,192,231820,1,0,0:0:0:0:
256,192,231988,1,8,0:0:0:0:
256,192,232156,1,8,0:0:0:0:
256,192,232239,1,8,0:0:0:0:
256,192,232323,1,0,0:0:0:0:
256,192,232491,1,0,0:0:0:0:
256,192,232658,1,8,0:0:0:0:
256,192,232826,1,0,0:0:0:0:
256,192,232910,1,0,0:0:0:0:
256,192,232994,1,8,0:0:0:0:
256,192,233161,1,0,0:0:0:0:
256,192,233329,1,8,0:0:0:0:
256,192,233496,1,8,0:0:0:0:
256,192,233664,1,0,0:0:0:0:
256,192,233999,1,8,0:0:0:0:
256,192,234251,1,8,0:0:0:0:
256,192,234334,1,0,0:0:0:0:
256,192,234502,1,0,0:0:0:0:
256,192,234670,1,8,0:0:0:0:
256,192,234837,1,8,0:0:0:0:
256,192,234921,1,8,0:0:0:0:
256,192,235005,1,0,0:0:0:0:
256,192,235172,1,8,0:0:0:0:
256,192,235340,1,8,0:0:0:0:
256,192,235508,1,0,0:0:0:0:
256,192,235591,1,0,0:0:0:0:
256,192,235675,1,8,0:0:0:0:
256,192,235843,1,8,0:0:0:0:
256,192,235927,1,8,0:0:0:0:
256,192,236010,1,8,0:0:0:0:
256,192,236178,1,4,0:0:0:0:
256,192,236346,12,0,244390,0:0:0:0:
