osu file format v14

[General]
AudioFilename: audio.mp3
AudioLeadIn: 0
PreviewTime: 192100
Countdown: 0
SampleSet: Normal
StackLeniency: 0.7
Mode: 1
LetterboxInBreaks: 0
WidescreenStoryboard: 1

[Editor]
Bookmarks: 11765,22491,33217,46625,57351,68077,78804,85508,96234,106960,120368,131094,141820,152547,168636,182044,193441,204167,214893,225619
DistanceSpacing: 1
BeatDivisor: 2
GridSize: 32
TimelineZoom: 0.6999999

[Metadata]
Title:crossing field
TitleUnicode:crossing field
Artist:LiSA
ArtistUnicode:LiSA
Creator:gaston_2199
Version:Futsuu
Source:ソードアート・オンライン
Tags:sword art online opening sao Nardoxyribonucleic
BeatmapID:1453141
BeatmapSetID:679269

[Difficulty]
HPDrainRate:7
CircleSize:2
OverallDifficulty:4
ApproachRate:10
SliderMultiplier:1.4
SliderTickRate:1

[Events]
//Background and Video events
0,0,"BG.jpg",0,40
//Break Periods
2,182244,191650
//Storyboard Layer 0 (Background)
//Storyboard Layer 1 (Fail)
//Storyboard Layer 2 (Pass)
//Storyboard Layer 3 (Foreground)
//Storyboard Sound Samples

[TimingPoints]
-302,335.195530726257,4,1,0,50,1,0
6401,-100,4,1,0,80,0,0
11765,-100,4,1,0,70,0,0
17128,-100,4,1,0,80,0,0
33217,-100,4,1,0,60,0,0
38580,-100,4,1,0,80,0,0
46625,-100,4,1,0,90,0,1
78804,-100,4,1,0,80,0,0
85508,-100,4,1,0,75,0,0
96234,-100,4,1,0,80,0,0
106960,-100,4,1,0,60,0,0
112323,-100,4,1,0,80,0,0
120368,-100,4,1,0,90,0,1
152547,-100,4,1,0,60,0,0
157910,-100,4,1,0,75,0,0
168636,-100,4,1,0,90,0,1
179195,-100,4,1,0,65,0,0
192770,335.195530726257,4,1,0,65,1,8
193441,335.195530726257,4,1,0,90,1,1
225619,-100,4,1,0,80,0,0
236346,-100,4,1,0,50,0,0
238357,-100,4,1,0,40,0,0
240368,-100,4,1,0,30,0,0
242379,-100,4,1,0,20,0,0
244390,-100,4,1,0,10,0,0

[HitObjects]
256,192,368,5,0,0:0:0:0:
256,192,703,1,8,0:0:0:0:
256,192,1038,1,0,0:0:0:0:
256,192,2044,1,8,0:0:0:0:
256,192,2379,1,0,0:0:0:0:
256,192,3049,1,8,0:0:0:0:
256,192,3552,1,8,0:0:0:0:
256,192,3720,1,0,0:0:0:0:
256,192,4390,1,8,0:0:0:0:
256,192,4725,1,0,0:0:0:0:
256,192,4893,1,8,0:0:0:0:
256,192,5228,1,0,0:0:0:0:
256,192,5563,1,0,0:0:0:0:
256,192,5899,1,8,0:0:0:0:
256,192,6401,1,4,0:0:0:0:
256,192,7072,1,8,0:0:0:0:
256,192,7742,1,0,0:0:0:0:
256,192,8077,1,0,0:0:0:0:
256,192,8413,1,8,0:0:0:0:
256,192,9083,1,0,0:0:0:0:
256,192,9753,1,0,0:0:0:0:
256,192,10256,1,12,0:0:0:0:
256,192,10759,1,8,0:0:0:0:
256,192,11765,1,4,0:0:0:0:
256,192,12435,1,8,0:0:0:0:
256,192,12770,1,0,0:0:0:0:
256,192,13105,1,8,0:0:0:0:
256,192,13776,1,8,0:0:0:0:
256,192,14446,1,0,0:0:0:0:
256,192,15116,1,0,0:0:0:0:
256,192,15452,1,8,0:0:0:0:
256,192,15787,1,0,0:0:0:0:
256,192,16457,1,8,0:0:0:0:
256,192,17128,1,12,0:0:0:0:
256,192,17798,1,0,0:0:0:0:
256,192,18133,1,8,0:0:0:0:
256,192,18468,1,0,0:0:0:0:
256,192,19139,1,8,0:0:0:0:
256,192,19474,1,8,0:0:0:0:
256,192,19809,1,0,0:0:0:0:
256,192,20480,1,8,0:0:0:0:
256,192,21150,1,0,0:0:0:0:
256,192,21485,1,8,0:0:0:0:
256,192,21820,1,8,0:0:0:0:
256,192,21988,1,0,0:0:0:0:
256,192,22156,1,8,0:0:0:0:
256,192,22491,1,0,0:0:0:0:
256,192,23161,1,8,0:0:0:0:
256,192,23496,1,0,0:0:0:0:
256,192,23832,1,8,0:0:0:0:
256,192,24502,1,0,0:0:0:0:
256,192,24837,1,8,0:0:0:0:
256,192,25172,1,0,0:0:0:0:
256,192,25843,1,0,0:0:0:0:
256,192,26178,1,8,0:0:0:0:
256,192,26513,1,8,0:0:0:0:
256,192,27184,1,0,0:0:0:0:
256,192,27854,1,4,0:0:0:0:
256,192,28524,1,8,0:0:0:0:
256,192,29027,1,8,0:0:0:0:
256,192,29195,1,0,0:0:0:0:
256,192,29530,1,8,0:0:0:0:
256,192,29865,1,0,0:0:0:0:
256,192,30200,1,8,0:0:0:0:
256,192,30535,1,0,0:0:0:0:
256,192,31206,1,8,0:0:0:0:
256,192,31876,1,0,0:0:0:0:
256,192,32211,1,8,0:0:0:0:
256,192,32547,1,8,0:0:0:0:
256,192,32714,1,8,0:0:0:0:
256,192,32882,1,0,0:0:0:0:
256,192,33217,1,4,0:0:0:0:
256,192,33720,1,0,0:0:0:0:
256,192,34558,1,0,0:0:0:0:
256,192,35061,1,8,0:0:0:0:
256,192,35899,1,8,0:0:0:0:
256,192,36401,1,0,0:0:0:0:
256,192,37239,1,0,0:0:0:0:
256,192,37742,1,8,0:0:0:0:
256,192,38580,1,0,0:0:0:0:
256,192,38748,1,0,0:0:0:0:
256,192,39083,1,8,0:0:0:0:
256,192,39418,1,0,0:0:0:0:
256,192,39753,1,8,0:0:0:0:
256,192,40591,1,8,0:0:0:0:
256,192,40927,1,0,0:0:0:0:
256,192,41262,1,8,0:0:0:0:
256,192,41429,1,0,0:0:0:0:
256,192,41765,1,0,0:0:0:0:
256,192,42100,1,8,0:0:0:0:
256,203,42267,1,0,0:0:0:0:
256,192,42435,1,8,0:0:0:0:
256,192,42770,1,8,0:0:0:0:
256,192,42938,1,8,0:0:0:0:
256,192,43273,1,0,0:0:0:0:
256,192,43943,1,12,0:0:0:0:
256,192,44949,1,0,0:0:0:0:
256,192,45619,1,8,0:0:0:0:
267,192,46290,1,8,0:0:0:0:
256,192,46625,1,12,0:0:0:0:
254,194,46960,1,0,0:0:0:0:
256,192,47295,1,0,0:0:0:0:
256,192,47630,1,8,0:0:0:0:
256,192,47966,1,0,0:0:0:0:
256,192,48636,5,8,0:0:0:0:
255,199,48971,1,0,0:0:0:0:
256,192,49306,1,0,0:0:0:0:
256,192,49642,1,8,0:0:0:0:
256,192,50312,1,8,0:0:0:0:
256,192,50647,1,0,0:0:0:0:
256,192,50982,1,0,0:0:0:0:
256,192,51318,1,8,0:0:0:0:
256,192,51653,1,8,0:0:0:0:
256,192,51988,1,4,0:0:0:0:
256,192,52658,1,8,0:0:0:0:
256,192,52994,1,8,0:0:0:0:
256,192,53329,1,0,0:0:0:0:
256,192,53496,1,0,0:0:0:0:
256,192,53664,1,8,0:0:0:0:
256,192,53999,1,0,0:0:0:0:
256,192,54670,1,8,0:0:0:0:
256,192,55005,1,8,0:0:0:0:
256,192,55172,1,0,0:0:0:0:
266,194,55508,1,8,0:0:0:0:
256,192,55843,1,4,0:0:0:0:
256,192,56681,1,8,0:0:0:0:
256,192,56848,1,0,0:0:0:0:
256,192,57016,1,8,0:0:0:0:
256,192,57351,1,4,0:0:0:0:
256,192,57686,1,8,0:0:0:0:
256,192,58022,1,0,0:0:0:0:
256,192,58357,1,8,0:0:0:0:
256,192,58692,1,8,0:0:0:0:
256,192,59362,1,8,0:0:0:0:
256,192,59698,1,8,0:0:0:0:
256,192,60033,1,0,0:0:0:0:
256,192,60368,1,8,0:0:0:0:
256,192,61038,1,8,0:0:0:0:
256,192,61373,1,8,0:0:0:0:
256,192,61709,1,8,0:0:0:0:
256,192,62044,1,0,0:0:0:0:
256,192,62379,1,8,0:0:0:0:
256,192,62714,1,4,0:0:0:0:
256,192,63385,1,0,0:0:0:0:
256,192,63720,1,8,0:0:0:0:
256,192,64055,1,8,0:0:0:0:
261,198,64223,1,0,0:0:0:0:
256,192,64390,1,8,0:0:0:0:
256,192,64725,1,0,0:0:0:0:
256,192,65396,1,0,0:0:0:0:
256,192,65731,1,8,0:0:0:0:
256,192,65899,1,0,0:0:0:0:
256,192,66234,1,8,0:0:0:0:
256,192,66569,1,4,0:0:0:0:
256,192,67407,1,8,0:0:0:0:
256,192,67742,1,8,0:0:0:0:
256,192,67910,1,8,0:0:0:0:
256,192,68077,1,4,0:0:0:0:
256,192,68748,1,0,0:0:0:0:
256,192,69083,1,8,0:0:0:0:
256,192,69418,1,0,0:0:0:0:
256,192,70089,1,8,0:0:0:0:
256,192,70591,1,4,0:0:0:0:
256,192,71262,1,12,0:0:0:0:
256,192,71932,1,4,0:0:0:0:
256,192,72770,1,8,0:0:0:0:
256,192,73105,1,8,0:0:0:0:
256,192,73441,1,0,0:0:0:0:
256,192,74111,1,0,0:0:0:0:
256,192,74446,1,8,0:0:0:0:
256,192,74781,1,0,0:0:0:0:
256,192,75452,1,8,0:0:0:0:
256,192,75787,1,0,0:0:0:0:
256,192,76122,1,12,0:0:0:0:
256,192,76625,1,12,0:0:0:0:
256,192,77128,1,12,0:0:0:0:
256,192,78133,1,8,0:0:0:0:
256,192,78301,1,0,0:0:0:0:
256,192,78468,1,8,0:0:0:0:
256,192,78804,5,4,0:0:0:0:
256,192,79474,5,8,0:0:0:0:
256,192,80144,1,0,0:0:0:0:
256,192,80480,1,8,0:0:0:0:
256,192,80815,1,0,0:0:0:0:
256,192,81150,1,0,0:0:0:0:
256,192,81485,1,8,0:0:0:0:
256,192,82156,1,0,0:0:0:0:
256,192,82491,1,0,0:0:0:0:
256,192,82826,1,8,0:0:0:0:
256,192,83161,1,0,0:0:0:0:
256,192,83496,1,8,0:0:0:0:
256,192,84167,1,0,0:0:0:0:
256,192,84837,1,8,0:0:0:0:
256,192,85508,1,4,0:0:0:0:
256,192,86178,1,8,0:0:0:0:
256,192,86681,1,0,0:0:0:0:
256,192,88189,1,0,0:0:0:0:
256,192,88860,1,8,0:0:0:0:
256,192,89362,1,0,0:0:0:0:
250,188,90200,1,8,0:0:0:0:
256,192,90871,1,4,0:0:0:0:
256,192,91541,1,8,0:0:0:0:
260,176,91876,1,0,0:0:0:0:
256,192,92211,1,8,0:0:0:0:
256,192,92882,1,8,0:0:0:0:
264,182,93217,1,8,0:0:0:0:
256,192,93552,1,0,0:0:0:0:
256,192,94223,1,0,0:0:0:0:
256,192,94558,1,8,0:0:0:0:
256,192,94893,1,0,0:0:0:0:
256,192,95563,1,8,0:0:0:0:
256,192,95731,1,0,0:0:0:0:
256,192,95899,1,8,0:0:0:0:
256,192,96234,1,0,0:0:0:0:
256,192,96904,1,0,0:0:0:0:
256,192,97239,1,8,0:0:0:0:
256,192,97575,1,0,0:0:0:0:
256,192,98245,1,8,0:0:0:0:
256,192,98580,1,0,0:0:0:0:
256,192,98915,1,8,0:0:0:0:
256,192,99586,1,0,0:0:0:0:
256,192,99921,1,8,0:0:0:0:
256,192,100256,1,8,0:0:0:0:
256,192,100591,1,0,0:0:0:0:
256,192,100927,1,8,0:0:0:0:
256,192,101597,1,4,0:0:0:0:
256,192,102267,1,8,0:0:0:0:
256,192,102770,1,8,0:0:0:0:
256,192,102938,1,0,0:0:0:0:
256,192,103273,1,8,0:0:0:0:
256,192,103608,1,0,0:0:0:0:
256,192,103776,1,0,0:0:0:0:
256,192,103943,1,8,0:0:0:0:
256,192,104279,1,0,0:0:0:0:
256,192,104949,1,8,0:0:0:0:
256,192,105619,1,8,0:0:0:0:
256,192,105954,1,0,0:0:0:0:
256,192,106290,1,8,0:0:0:0:
256,192,106457,1,0,0:0:0:0:
256,192,106625,1,0,0:0:0:0:
256,192,106960,1,4,0:0:0:0:
256,192,108301,1,0,0:0:0:0:
256,192,108804,1,8,0:0:0:0:
256,192,109642,1,8,0:0:0:0:
256,192,110144,1,0,0:0:0:0:
256,192,110982,1,0,0:0:0:0:
256,192,111485,1,8,0:0:0:0:
256,192,112323,1,0,0:0:0:0:
256,192,112491,1,0,0:0:0:0:
256,192,112826,1,8,0:0:0:0:
256,192,113161,1,0,0:0:0:0:
256,192,113496,1,8,0:0:0:0:
239,183,113664,1,0,0:0:0:0:
243,180,113999,1,8,0:0:0:0:
256,192,114334,1,8,0:0:0:0:
256,192,114670,1,0,0:0:0:0:
256,192,115005,1,8,0:0:0:0:
256,192,115172,1,0,0:0:0:0:
256,192,115508,1,0,0:0:0:0:
256,192,115843,1,8,0:0:0:0:
256,192,116010,1,0,0:0:0:0:
256,192,116178,1,8,0:0:0:0:
256,192,116513,1,8,0:0:0:0:
256,192,116681,1,8,0:0:0:0:
256,192,117016,1,0,0:0:0:0:
256,192,117686,1,12,0:0:0:0:
256,192,118692,1,0,0:0:0:0:
256,192,119362,1,8,0:0:0:0:
264,194,120033,1,8,0:0:0:0:
256,192,120368,1,12,0:0:0:0:
256,192,121038,1,0,0:0:0:0:
256,192,121373,1,8,0:0:0:0:
256,192,121709,1,0,0:0:0:0:
256,192,122044,1,0,0:0:0:0:
256,192,122379,5,8,0:0:0:0:
256,192,123049,1,0,0:0:0:0:
256,192,123385,1,8,0:0:0:0:
256,192,124055,1,8,0:0:0:0:
256,192,124390,1,0,0:0:0:0:
256,192,124725,1,0,0:0:0:0:
256,192,125061,1,8,0:0:0:0:
256,192,125396,1,8,0:0:0:0:
256,192,125731,1,4,0:0:0:0:
256,192,126401,1,8,0:0:0:0:
256,192,126737,1,8,0:0:0:0:
256,192,127072,1,0,0:0:0:0:
263,188,127239,1,0,0:0:0:0:
256,192,127407,1,8,0:0:0:0:
256,192,127742,1,0,0:0:0:0:
256,192,128413,1,8,0:0:0:0:
256,192,128748,1,8,0:0:0:0:
256,192,128915,1,0,0:0:0:0:
256,192,129251,1,8,0:0:0:0:
256,192,129586,1,4,0:0:0:0:
256,192,130424,1,8,0:0:0:0:
256,192,130591,1,0,0:0:0:0:
256,192,130759,1,8,0:0:0:0:
256,192,131094,1,4,0:0:0:0:
256,192,131765,1,0,0:0:0:0:
256,192,132100,1,8,0:0:0:0:
256,192,132435,1,8,0:0:0:0:
256,192,132770,1,0,0:0:0:0:
256,192,133105,1,8,0:0:0:0:
256,192,133776,1,0,0:0:0:0:
256,192,134111,1,8,0:0:0:0:
256,192,134781,1,8,0:0:0:0:
256,192,135116,1,8,0:0:0:0:
256,192,135452,1,8,0:0:0:0:
256,192,135787,1,0,0:0:0:0:
256,192,136122,1,8,0:0:0:0:
256,192,136457,1,4,0:0:0:0:
256,192,137128,1,0,0:0:0:0:
256,192,137463,1,8,0:0:0:0:
256,192,137798,1,8,0:0:0:0:
257,181,137966,1,0,0:0:0:0:
256,192,138133,1,8,0:0:0:0:
256,192,138468,1,0,0:0:0:0:
256,192,139139,1,0,0:0:0:0:
269,190,139474,1,8,0:0:0:0:
256,192,139642,1,0,0:0:0:0:
269,190,139977,1,8,0:0:0:0:
256,192,140312,1,4,0:0:0:0:
256,192,141150,1,8,0:0:0:0:
256,192,141485,1,8,0:0:0:0:
256,192,141653,1,8,0:0:0:0:
256,192,141820,1,4,0:0:0:0:
256,192,142491,1,0,0:0:0:0:
256,192,142826,1,8,0:0:0:0:
256,192,143161,1,0,0:0:0:0:
256,192,143496,1,0,0:0:0:0:
256,192,143832,1,8,0:0:0:0:
256,192,143999,1,8,0:0:0:0:
256,192,144334,1,4,0:0:0:0:
256,192,145005,1,12,0:0:0:0:
256,192,145675,1,4,0:0:0:0:
256,192,146513,1,8,0:0:0:0:
256,192,146848,1,8,0:0:0:0:
256,192,147184,1,0,0:0:0:0:
256,192,147854,1,0,0:0:0:0:
256,192,148189,1,8,0:0:0:0:
256,192,148524,1,0,0:0:0:0:
256,192,149195,1,8,0:0:0:0:
256,192,149530,1,8,0:0:0:0:
256,192,149865,1,4,0:0:0:0:
256,192,150368,1,4,0:0:0:0:
256,192,150871,1,4,0:0:0:0:
256,192,151876,1,8,0:0:0:0:
256,192,152211,1,8,0:0:0:0:
256,192,152547,5,4,0:0:0:0:
256,192,152882,12,0,156904,0:0:0:0:
256,192,157239,5,8,0:0:0:0:
256,192,157575,1,8,0:0:0:0:
256,192,157910,1,4,0:0:0:0:
256,192,158748,1,0,0:0:0:0:
256,192,159083,1,8,0:0:0:0:
256,192,159418,1,0,0:0:0:0:
256,192,159753,1,8,0:0:0:0:
256,192,160089,1,8,0:0:0:0:
256,192,160591,1,4,0:0:0:0:
256,192,161429,1,0,0:0:0:0:
256,192,161765,1,8,0:0:0:0:
256,160,162100,1,0,0:0:0:0:
256,192,162435,1,8,0:0:0:0:
264,189,162770,1,0,0:0:0:0:
256,192,163273,1,4,0:0:0:0:
256,192,164279,1,0,0:0:0:0:
256,192,165284,1,8,0:0:0:0:
224,224,165619,1,8,0:0:0:0:
256,192,165954,1,4,0:0:0:0:
256,192,166625,1,8,0:0:0:0:
256,192,166960,1,0,0:0:0:0:
256,192,167630,1,8,0:0:0:0:
256,192,167966,1,8,0:0:0:0:
256,192,168133,1,0,0:0:0:0:
256,192,168301,1,8,0:0:0:0:
256,192,168636,1,4,0:0:0:0:
247,196,168971,1,8,0:0:0:0:
256,192,169139,1,0,0:0:0:0:
256,192,169642,1,8,0:0:0:0:
256,192,169977,1,0,0:0:0:0:
256,192,170312,1,8,0:0:0:0:
256,192,170480,1,0,0:0:0:0:
247,196,170815,1,0,0:0:0:0:
256,192,170982,1,8,0:0:0:0:
256,192,171318,1,8,0:0:0:0:
256,192,171485,1,0,0:0:0:0:
256,192,171653,1,8,0:0:0:0:
256,192,171988,1,0,0:0:0:0:
256,192,172323,1,8,0:0:0:0:
256,192,172658,1,0,0:0:0:0:
256,192,172994,1,8,0:0:0:0:
256,192,173161,1,0,0:0:0:0:
256,192,173496,1,0,0:0:0:0:
256,192,173664,1,8,0:0:0:0:
256,192,173999,1,4,0:0:0:0:
256,192,174670,1,0,0:0:0:0:
256,192,175005,1,8,0:0:0:0:
256,192,175340,1,0,0:0:0:0:
256,192,175508,1,8,0:0:0:0:
256,192,175675,1,0,0:0:0:0:
256,192,176010,1,8,0:0:0:0:
256,192,176178,1,0,0:0:0:0:
256,192,176346,1,8,0:0:0:0:
256,192,176681,1,4,0:0:0:0:
256,192,177184,1,4,0:0:0:0:
256,192,177686,1,12,0:0:0:0:
136,208,178022,2,4,L|560:208,1,420
256,192,179195,1,4,0:0:0:0:
256,192,179362,12,0,182044,0:0:0:0:
256,192,192100,5,0,0:0:0:0:
256,192,192435,1,8,0:0:0:0:
256,192,193440,1,12,0:0:0:0:
256,192,194111,1,0,0:0:0:0:
256,192,194446,1,8,0:0:0:0:
256,192,194781,1,0,0:0:0:0:
256,192,194949,1,0,0:0:0:0:
256,192,195116,1,0,0:0:0:0:
256,192,195452,5,8,0:0:0:0:
256,192,196122,1,0,0:0:0:0:
256,192,196457,1,8,0:0:0:0:
256,192,197128,1,8,0:0:0:0:
256,192,197463,1,0,0:0:0:0:
256,192,197630,1,8,0:0:0:0:
256,192,197798,1,0,0:0:0:0:
256,192,198133,1,8,0:0:0:0:
256,192,198468,1,8,0:0:0:0:
256,192,198804,1,4,0:0:0:0:
256,192,199474,1,8,0:0:0:0:
256,192,199809,1,8,0:0:0:0:
256,192,200144,1,0,0:0:0:0:
256,192,200312,1,0,0:0:0:0:
256,192,200480,1,8,0:0:0:0:
256,192,200815,1,0,0:0:0:0:
256,192,201485,1,8,0:0:0:0:
260,186,201820,1,8,0:0:0:0:
256,192,201988,1,0,0:0:0:0:
260,186,202323,1,8,0:0:0:0:
256,192,202658,1,4,0:0:0:0:
256,192,203496,1,8,0:0:0:0:
256,192,203664,1,0,0:0:0:0:
256,192,203832,1,8,0:0:0:0:
256,192,204167,1,4,0:0:0:0:
256,192,204837,1,0,0:0:0:0:
256,192,205172,1,8,0:0:0:0:
256,192,205508,1,8,0:0:0:0:
256,192,205675,1,8,0:0:0:0:
256,192,205843,1,0,0:0:0:0:
256,192,206178,1,8,0:0:0:0:
256,192,206848,1,0,0:0:0:0:
256,192,207184,1,8,0:0:0:0:
256,192,207854,1,8,0:0:0:0:
256,192,208189,1,8,0:0:0:0:
256,192,208357,1,0,0:0:0:0:
256,192,208524,1,8,0:0:0:0:
256,192,208859,1,0,0:0:0:0:
256,192,209195,1,8,0:0:0:0:
256,192,209530,1,4,0:0:0:0:
256,192,210200,1,0,0:0:0:0:
256,192,210535,1,8,0:0:0:0:
256,192,210871,1,8,0:0:0:0:
256,192,211038,1,0,0:0:0:0:
256,192,211206,1,8,0:0:0:0:
256,192,211541,1,0,0:0:0:0:
256,192,212211,1,0,0:0:0:0:
260,186,212547,1,8,0:0:0:0:
256,192,212714,1,0,0:0:0:0:
260,186,213049,1,8,0:0:0:0:
256,192,213385,1,4,0:0:0:0:
256,192,214223,1,8,0:0:0:0:
256,192,214558,1,8,0:0:0:0:
256,192,214725,1,8,0:0:0:0:
256,192,214893,1,4,0:0:0:0:
256,192,215563,1,0,0:0:0:0:
256,192,215899,1,8,0:0:0:0:
256,192,216234,1,0,0:0:0:0:
256,192,216401,1,0,0:0:0:0:
256,192,216569,1,8,0:0:0:0:
256,192,216904,1,8,0:0:0:0:
256,192,217072,1,8,0:0:0:0:
256,192,217407,1,4,0:0:0:0:
256,192,217910,1,8,0:0:0:0:
256,192,218245,1,8,0:0:0:0:
256,192,218580,1,8,0:0:0:0:
256,192,218915,1,8,0:0:0:0:
256,192,219251,1,8,0:0:0:0:
256,192,219586,1,8,0:0:0:0:
256,192,220256,1,4,0:0:0:0:
256,192,220927,1,8,0:0:0:0:
256,192,221262,1,8,0:0:0:0:
256,192,221597,1,0,0:0:0:0:
256,192,222267,1,8,0:0:0:0:
256,192,222603,1,0,0:0:0:0:
256,192,222938,1,12,0:0:0:0:
256,192,223441,1,12,0:0:0:0:
256,192,223943,1,12,0:0:0:0:
256,192,224949,1,8,0:0:0:0:
256,192,225116,1,0,0:0:0:0:
256,192,225284,1,8,0:0:0:0:
256,192,225619,5,4,0:0:0:0:
256,192,226290,1,8,0:0:0:0:
256,192,226960,1,0,0:0:0:0:
256,192,227295,1,8,0:0:0:0:
256,192,227630,1,0,0:0:0:0:
256,192,227966,1,0,0:0:0:0:
256,192,228301,1,8,0:0:0:0:
256,192,228971,1,0,0:0:0:0:
256,192,229642,1,8,0:0:0:0:
256,192,229977,1,0,0:0:0:0:
256,192,230312,1,8,0:0:0:0:
256,192,230480,1,0,0:0:0:0:
256,192,230647,1,8,0:0:0:0:
256,192,230982,5,0,0:0:0:0:
256,192,231653,1,8,0:0:0:0:
256,192,232323,1,0,0:0:0:0:
256,192,232658,1,8,0:0:0:0:
256,192,232994,5,0,0:0:0:0:
256,192,233329,1,0,0:0:0:0:
256,192,233664,1,8,0:0:0:0:
256,192,234334,1,0,0:0:0:0:
256,192,235005,1,8,0:0:0:0:
256,192,235172,1,0,0:0:0:0:
256,192,235340,1,8,0:0:0:0:
256,192,235675,1,0,0:0:0:0:
256,192,236010,1,8,0:0:0:0:
256,192,236178,1,4,0:0:0:0:
256,192,236346,12,0,244390,0:0:0:0:
