osu file format v14

[General]
AudioFilename: audio.mp3
AudioLeadIn: 0
PreviewTime: 45832
Countdown: 0
SampleSet: Soft
StackLeniency: 0.7
Mode: 0
LetterboxInBreaks: 0
WidescreenStoryboard: 1

[Editor]
Bookmarks: 6363,11726,17089,22452,27815,33178,38542,46586,57312,68039,78765
DistanceSpacing: 1.6
BeatDivisor: 4
GridSize: 32
TimelineZoom: 4.099998

[Metadata]
Title:crossing field (TV Size)
TitleUnicode:crossing field (TV Size)
Artist:LiSA
ArtistUnicode:LiSA
Creator:Xahlt
Version:Xahlt x AsuKo's Hard
Source:ソードアート・オンライン
Tags:Adinda AsuKow sword art online sao season op opening 1 1st anime japanese pop jpop j-pop female vocal vocalist ost original soundtrack kirito asuna Sony Music Entertainment sme
BeatmapID:2794887
BeatmapSetID:1349638

[Difficulty]
HPDrainRate:4.5
CircleSize:3.5
OverallDifficulty:6
ApproachRate:8
SliderMultiplier:1.4
SliderTickRate:1

[Events]
//Background and Video events
0,0,"background.jpg",0,0
Video,-730,"op.mp4"
//Break Periods
//Storyboard Layer 0 (Background)
//Storyboard Layer 1 (Fail)
//Storyboard Layer 2 (Pass)
//Storyboard Layer 3 (Foreground)
//Storyboard Layer 4 (Overlay)
//Storyboard Sound Samples

[TimingPoints]
-4363,335.195530726257,4,2,1,40,1,0
329,-142.857142857143,4,2,1,40,0,0
6363,-111.111111111111,4,2,2,60,0,0
11726,-125,4,2,2,50,0,0
17089,-111.111111111111,4,2,2,60,0,0
22452,-111.111111111111,4,2,2,60,0,0
27815,-111.111111111111,4,2,2,60,0,0
33178,-142.857142857143,4,2,2,50,0,0
38542,-99.9999999999999,4,2,2,60,0,0
38961,-99.9999999999999,4,2,2,5,0,0
39044,-99.9999999999999,4,2,2,60,0,0
41223,-99.9999999999999,4,2,2,50,0,0
41558,-99.9999999999999,4,2,2,55,0,0
41642,-99.9999999999999,4,2,2,5,0,0
41726,-99.9999999999999,4,2,2,55,0,0
41893,-99.9999999999999,4,2,2,60,0,0
42229,-99.9999999999999,4,2,2,65,0,0
42564,-99.9999999999999,4,2,2,70,0,0
42731,-99.9999999999999,4,2,2,75,0,0
42899,-99.9999999999999,4,2,2,80,0,0
43905,-142.857142857143,4,2,2,55,0,0
45413,-111.111111111111,4,2,2,55,0,0
45916,-111.111111111111,4,2,2,45,0,0
46083,-111.111111111111,4,2,2,50,0,0
46251,-111.111111111111,4,2,2,60,0,0
46586,-99.9999999999999,4,2,2,80,0,1
56642,-99.9999999999999,4,2,2,80,0,0
57312,-99.9999999999999,4,2,2,80,0,1
68039,-100,4,2,2,80,0,0
77592,-111.111111111111,4,2,2,80,0,0
78765,-111.111111111111,4,2,2,70,0,0
84128,-100,4,2,2,60,0,0
84799,-100,4,2,2,50,0,0
85469,-100,4,2,2,40,0,0
86139,-100,4,2,2,30,0,0
86810,-100,4,2,2,20,0,0
87480,-100,4,2,2,10,0,0
88150,-99.9999999999999,4,2,2,5,0,0

[Colours]
Combo1 : 132,210,225
Combo2 : 199,77,74
Combo3 : 227,149,103
Combo4 : 145,166,211

[HitObjects]
41,159,329,6,0,P|41:135|40:111,2,48.9999985046387,2|2|2,0:0|0:0|0:0,0:0:0:0:
103,59,1000,6,0,B|154:34|205:62|179:85|234:108|285:78,1,195.999994018555,2|0,0:0|3:2,0:0:0:0:
386,17,2005,2,0,P|409:12|433:15,1,48.9999985046387,2|0,0:0|0:0,0:0:0:0:
492,69,2340,2,0,P|491:137|493:221,1,146.999995513916,2|0,0:0|0:0,0:0:0:0:
482,293,3011,2,0,P|440:295|380:296,1,97.9999970092774,2|0,3:2|0:0,0:0:0:0:
323,344,3514,1,2,0:0:0:0:
323,344,3681,6,0,P|261:328|251:235,1,146.999995513916,2|0,0:0|0:0,0:0:0:0:
287,190,4352,1,0,3:2:0:0:
131,235,4687,1,2,0:0:0:0:
131,235,4854,2,0,B|117:185|117:185|132:141,2,97.9999970092774,2|2|2,0:0|0:0|0:0,0:0:0:0:
206,98,5860,1,2,0:0:0:0:
218,82,6363,6,0,P|179:34|118:32,1,125.999996154785,6|0,1:2|1:2,0:0:0:0:
19,13,6866,1,0,0:0:0:0:
5,113,7033,2,0,L|19:201,1,62.9999980773926,0|0,1:2|0:0,0:0:0:0:
98,231,7368,2,0,L|112:319,1,62.9999980773926,0|0,1:2|0:0,0:0:0:0:
36,381,7704,6,0,P|97:331|162:346,1,125.999996154785,2|0,1:2|1:2,0:0:0:0:
232,375,8206,1,0,0:0:0:0:
313,316,8374,2,0,B|335:282|335:282|303:176,1,125.999996154785,2|0,1:2|1:2,0:0:0:0:
147,80,9044,6,0,P|177:83|207:75,1,62.9999980773926,2|0,1:2|0:0,0:0:0:0:
279,3,9380,2,0,P|304:20|335:26,1,62.9999980773926,2|0,1:2|0:0,0:0:0:0:
449,31,9715,2,0,P|407:74|423:131,1,125.999996154785,2|0,1:2|1:2,0:0:0:0:
508,207,10218,6,0,B|497:228|498:254|498:254|512:273|512:273|515:306|499:345,1,125.999996154785,10|0,0:0|1:2,0:0:0:0:
500,337,10637,1,0,1:2:0:0:
494,348,10720,1,10,0:0:0:0:
407,296,10888,1,0,1:2:0:0:
15,303,11726,5,6,1:2:0:0:
15,303,11893,2,0,P|41:295|68:301,1,56,2|0,0:0|1:2,0:0:0:0:
131,357,12229,2,0,P|184:354|223:297,1,112,2|2,0:0|0:0,0:0:0:0:
113,181,12899,2,0,P|95:130|113:78,1,112,2|0,0:0|0:0,0:0:0:0:
181,27,13402,1,0,1:2:0:0:
290,154,13737,6,0,B|318:161|318:161|343:152,1,56,2|0,1:2|0:0,0:0:0:0:
401,91,14073,2,0,P|428:83|473:93,1,56,2|0,1:2|0:0,0:0:0:0:
497,158,14407,2,0,P|493:188|488:229,1,56,2|0,1:2|0:0,0:0:0:0:
483,301,14743,1,2,1:2:0:0:
483,301,14910,2,0,P|461:350|409:367,1,112,2|2,0:0|0:0,0:0:0:0:
230,348,15581,2,0,P|172:353|105:361,1,112,2|0,0:0|0:0,0:0:0:0:
29,354,16083,1,0,1:2:0:0:
13,172,16419,6,0,P|39:162|60:144,1,56,2|0,1:2|0:0,0:0:0:0:
79,61,16754,1,4,0:3:0:0:
88,44,17089,6,0,P|146:28|196:76,1,125.999996154785,6|8,1:2|0:0,0:0:0:0:
252,148,17592,1,2,0:0:0:0:
331,87,17759,2,0,L|316:18,1,62.9999980773926,0|2,1:2|1:2,0:0:0:0:
418,11,18095,2,0,L|431:72,1,62.9999980773926,8|0,0:0|0:0,0:0:0:0:
505,139,18430,6,0,P|524:195|483:239,1,125.999996154785,2|8,1:2|0:0,0:0:0:0:
385,263,18933,2,0,B|361:264|331:275|331:275|326:286|326:286|300:301|258:298,1,125.999996154785,2|0,0:0|1:2,0:0:0:0:
180,251,19435,1,10,0:0:0:0:
188,233,19771,6,0,P|206:175|172:125,1,125.999996154785,2|10,1:2|0:0,0:0:0:0:
86,73,20273,1,0,0:0:0:0:
20,149,20441,2,0,P|1:206|35:256,1,125.999996154785,2|8,1:2|0:0,0:0:0:0:
205,366,21111,6,0,P|260:338|345:352,1,125.999996154785,2|8,1:2|0:0,0:0:0:0:
418,372,21614,1,0,1:2:0:0:
479,292,21782,2,0,L|467:243,3,31.4999990386963,10|6|4|4,0:0|0:3|0:3|0:3,0:0:0:0:
490,214,22117,2,0,L|478:165,3,31.4999990386963,10|10|10|10,0:0|0:0|0:0|0:0,0:0:0:0:
486,132,22452,5,6,1:2:0:0:
486,132,22620,2,0,P|455:140|424:138,1,62.9999980773926,2|8,0:0|0:0,0:0:0:0:
370,51,22955,2,0,P|338:49|308:57,1,62.9999980773926,2|0,0:0|1:2,0:0:0:0:
239,132,23290,2,0,P|238:162|234:215,1,62.9999980773926,2|8,0:0|0:0,0:0:0:0:
228,295,23625,6,0,B|171:274|171:274|111:300,1,125.999996154785,2|0,0:0|0:0,0:0:0:0:
15,332,24128,1,8,0:0:0:0:
91,138,24463,2,0,P|116:158|147:159,1,62.9999980773926,2|2,1:2|0:0,0:0:0:0:
143,58,24799,2,0,P|118:38|87:37,1,62.9999980773926,10|0,0:0|0:0,0:0:0:0:
8,97,25134,5,2,1:2:0:0:
8,97,25301,2,0,P|9:131|12:182,1,62.9999980773926,2|8,0:0|0:0,0:0:0:0:
0,263,25637,2,0,P|3:296|9:339,1,62.9999980773926,2|0,0:0|1:2,0:0:0:0:
101,367,25972,2,0,P|131:374|160:364,1,62.9999980773926,2|8,0:0|0:0,0:0:0:0:
164,262,26307,6,0,B|229:240|219:294|285:264,1,125.999996154785,2|0,0:0|0:0,0:0:0:0:
348,185,26810,2,0,P|383:232|386:258,1,62.9999980773926,10|0,0:0|0:0,0:0:0:0:
320,314,27145,2,0,P|285:267|282:241,1,62.9999980773926,2|0,1:2|0:0,0:0:0:0:
408,317,27480,1,10,0:0:0:0:
422,325,27815,6,0,P|454:317|471:279,1,62.9999980773926,6|0,1:2|0:0,0:0:0:0:
507,199,28150,2,0,P|467:207|414:136,1,125.999996154785,8|0,0:0|1:2,0:0:0:0:
363,62,28653,2,0,B|313:69|313:69|292:58|292:58|221:72,1,125.999996154785,2|8,1:2|0:0,0:0:0:0:
152,19,29156,2,0,P|135:78|165:133,1,125.999996154785,2|8,1:2|0:0,0:0:0:0:
248,188,29659,2,0,P|277:242|260:301,1,125.999996154785,2|0,0:0|1:2,0:0:0:0:
174,354,30162,1,10,0:0:0:0:
164,368,30497,6,0,B|135:354|121:328|121:328|124:312|124:312|113:283|73:265,1,125.999996154785,2|8,1:2|0:0,0:0:0:0:
9,91,31167,2,0,P|68:109|128:93,1,125.999996154785,2|0,1:2|0:0,0:0:0:0:
214,41,31670,1,8,0:0:0:0:
306,0,31838,2,0,P|367:-6|431:37,1,125.999996154785,2|8,0:0|0:0,0:0:0:0:
485,102,32340,1,2,0:0:0:0:
442,193,32508,2,0,L|436:239,3,31.4999990386963,8|8|8|8,0:0|0:0|0:0|0:0,0:0:0:0:
472,260,32843,2,0,L|466:306,3,31.4999990386963,8|4|4|4,1:3|0:3|0:3|0:3,0:0:0:0:
461,325,33178,6,0,B|399:329|399:329|376:349|376:349|321:349,1,146.999995513916,6|4,1:2|0:3,0:0:0:0:
207,177,34184,1,10,0:3:0:0:
206,157,34519,2,0,P|234:92|303:77,2,146.999995513916,2|10|10,1:2|0:3|0:3,0:0:0:0:
175,291,35860,2,0,B|119:292|119:292|80:207,1,146.999995513916,6|10,1:2|0:3,0:0:0:0:
41,82,36698,1,4,0:3:0:0:
41,82,36866,1,8,0:0:0:0:
165,19,37201,6,0,P|190:59|236:72,1,97.9999970092774,2|4,1:2|0:3,0:0:0:0:
312,49,37704,2,0,P|352:74|370:122,1,97.9999970092774,6|0,0:3|1:2,0:0:0:0:
374,198,38206,1,8,0:0:0:0:
237,346,38542,5,6,1:2:0:0:
192,251,38709,2,0,P|243:237|304:264,1,105,2|0,0:2|0:0,0:0:0:0:
305,261,39044,2,0,P|319:293|331:326,1,70,2|0,0:0|1:2,0:0:0:0:
418,376,39380,2,0,P|429:346|444:308,1,70,2|0,0:0|1:2,0:0:0:0:
508,228,39715,2,0,P|503:193|498:158,1,70,2|0,0:0|1:2,0:0:0:0:
471,56,40050,1,10,0:2:0:0:
376,101,40218,1,2,1:2:0:0:
362,113,40553,6,0,P|330:124|295:122,1,70,2|0,1:2|0:0,0:0:0:0:
216,53,40888,2,0,P|184:51|147:67,1,70,2|0,1:2|0:0,0:0:0:0:
51,26,41223,1,10,1:2:0:0:
1,119,41391,2,0,B|-11:163|-11:163|25:228,1,105,10|0,0:0|0:0,0:0:0:0:
30,221,41726,2,0,P|36:254|45:294,1,70,10|0,0:0|1:2,0:0:0:0:
129,350,42061,2,0,P|136:315|143:281,1,70,10|8,0:0|1:2,0:0:0:0:
148,268,42312,1,8,0:0:0:0:
151,256,42396,2,0,P|144:221|137:187,1,70,10|0,0:0|1:2,0:0:0:0:
231,126,42731,5,10,0:0:0:0:
320,193,42899,1,2,1:2:0:0:
323,174,43234,6,0,P|328:127|342:64,2,105,6|4|4,3:3|3:3|3:3,0:0:0:0:
352,296,43905,6,0,B|397:279|397:279|423:246|423:246|493:227,2,146.999995513916,6|2|2,0:0|0:0|0:0,0:0:0:0:
79,375,45413,1,2,1:2:0:0:
155,308,45581,1,8,0:0:0:0:
155,308,45748,1,0,1:2:0:0:
110,217,45916,2,0,L|30:220,1,62.9999980773926,2|2,0:0|0:0,0:0:0:0:
79,123,46251,1,2,0:0:0:0:
273,12,46586,6,0,P|247:75|276:137,1,140,6|8,1:2|0:0,0:0:0:0:
372,186,47089,1,0,0:0:0:0:
419,84,47257,2,0,P|385:73|351:81,1,70,0|0,1:2|0:0,0:0:0:0:
457,163,47592,2,0,P|455:198|452:263,1,70,10|0,0:0|0:0,0:0:0:0:
381,342,47927,6,0,B|340:327|314:347|318:351|284:372|247:352,1,140,2|8,1:2|0:0,0:0:0:0:
162,277,48430,1,0,0:0:0:0:
244,201,48597,2,0,P|188:162|120:173,1,140,2|8,1:2|0:0,0:0:0:0:
10,121,49100,1,8,0:0:0:0:
5,112,49184,1,8,0:0:0:0:
2,103,49268,6,0,B|34:71|71:39|71:39|94:38|118:37,1,140,2|8,1:2|0:0,0:0:0:0:
228,23,49771,1,0,0:0:0:0:
291,114,49938,2,0,P|323:124|356:112,1,70,0|0,1:2|0:0,0:0:0:0:
459,68,50273,1,10,0:0:0:0:
497,174,50441,6,0,P|501:208|493:242,1,70,2|0,0:0|1:2,0:0:0:0:
388,283,50776,2,0,P|383:248|392:208,1,70,2|8,0:0|0:0,0:0:0:0:
472,332,51111,2,0,P|450:358|417:370,1,70,2|0,0:0|1:2,0:0:0:0:
306,346,51447,2,0,P|271:346|236:347,1,70,2|8,0:0|0:0,0:0:0:0:
152,272,51782,1,2,0:0:0:0:
156,260,51866,1,2,0:0:0:0:
159,249,51949,6,0,B|210:236|210:236|245:249|245:249|305:237,1,140,6|8,1:2|0:0,0:0:0:0:
374,161,52452,1,2,0:0:0:0:
335,55,52620,2,0,P|276:90|209:76,1,140,2|8,1:2|0:0,0:0:0:0:
110,22,53123,1,2,0:0:0:0:
22,90,53290,6,0,B|-4:139|-4:139|29:228,1,140,2|8,1:2|0:0,0:0:0:0:
67,329,53793,1,2,0:0:0:0:
146,250,53961,6,0,B|187:235|213:255|209:259|243:280|280:260,1,140,2|8,1:2|0:0,0:0:0:0:
382,215,54463,1,10,0:0:0:0:
414,325,54631,6,0,P|477:301|503:239,1,140,2|10,1:2|1:2,0:0:0:0:
432,150,55134,2,0,P|466:151|497:136,1,70,2|0,0:0|1:2,0:0:0:0:
419,54,55469,2,0,P|384:52|352:66,1,70,2|8,1:2|0:0,0:0:0:0:
290,159,55804,6,0,B|235:155|235:155|203:170|203:170|154:165,1,140,6|2,1:2|1:2,0:0:0:0:
53,114,56307,1,10,0:0:0:0:
51,129,56642,5,2,1:2:0:0:
47,241,56810,1,6,0:3:0:0:
52,250,56893,1,4,0:3:0:0:
58,258,56977,2,0,P|78:254|98:250,3,35,10|8|8|8,0:0|0:0|0:0|0:0,0:0:0:0:
147,263,57312,6,0,P|212:266|260:343,1,140,6|8,1:2|0:0,0:0:0:0:
359,367,57815,1,0,0:0:0:0:
456,311,57983,2,0,P|464:278|457:244,1,70,0|0,1:2|0:0,0:0:0:0:
351,205,58318,2,0,P|342:238|349:272,1,70,10|0,0:0|0:0,0:0:0:0:
430,157,58653,6,0,P|377:113|309:120,1,140,2|8,1:2|0:0,0:0:0:0:
259,19,59156,1,0,0:0:0:0:
166,83,59324,2,0,B|132:120|132:120|161:237,1,140,2|8,1:2|0:0,0:0:0:0:
223,312,59826,1,10,0:0:0:0:
217,325,59910,1,10,0:0:0:0:
212,338,59994,6,0,B|149:320|135:366|55:331,1,140,2|8,1:2|0:0,0:0:0:0:
0,255,60497,1,0,0:0:0:0:
87,184,60664,2,0,L|165:210,1,70,0|0,1:2|0:0,0:0:0:0:
261,240,61000,1,10,0:0:0:0:
364,217,61167,6,0,P|358:182|367:149,1,70,2|0,0:0|1:2,0:0:0:0:
478,161,61502,2,0,P|483:195|474:228,1,70,2|8,0:0|0:0,0:0:0:0:
426,92,61838,2,0,P|457:77|492:77,1,70,2|0,0:0|1:2,0:0:0:0:
352,35,62173,2,0,P|320:20|285:20,1,70,2|8,0:0|0:0,0:0:0:0:
178,52,62508,1,2,0:0:0:0:
165,44,62592,1,2,0:0:0:0:
151,35,62676,6,0,B|139:52|139:81|139:81|161:105|161:105|163:133|145:163,1,140,6|8,1:2|0:0,0:0:0:0:
47,214,63178,1,2,0:0:0:0:
69,323,63346,2,0,P|126:358|190:336,1,140,2|8,1:2|0:0,0:0:0:0:
228,229,63849,1,2,0:0:0:0:
338,242,64016,6,0,P|325:310|358:370,1,140,2|8,1:2|0:0,0:0:0:0:
469,383,64519,1,2,0:0:0:0:
512,274,64687,2,0,B|528:234|528:234|486:119,1,140,2|8,1:2|0:0,0:0:0:0:
440,44,65190,1,10,0:0:0:0:
354,116,65357,6,0,B|300:131|300:131|284:158|284:158|219:175,1,140,2|10,1:2|0:0,0:0:0:0:
120,176,65860,2,0,P|139:204|147:238,1,70,2|0,0:0|1:2,0:0:0:0:
34,235,66195,2,0,P|14:206|6:172,1,70,2|8,1:2|0:0,0:0:0:0:
17,31,66530,6,0,P|51:88|116:79,1,140,6|2,1:2|0:0,0:0:0:0:
210,18,67033,2,0,L|293:27,1,70,8|2,0:0|1:2,0:0:0:0:
368,93,67368,1,10,0:0:0:0:
466,40,67536,1,6,0:3:0:0:
473,50,67620,1,6,0:3:0:0:
480,62,67704,2,0,L|477:121,3,35,10|8|10|8,0:0|0:0|0:0|0:0,0:0:0:0:
487,151,68039,6,0,P|485:213|483:297,1,140,6|10,1:2|0:0,0:0:0:0:
403,370,68542,1,2,0:0:0:0:
292,357,68709,2,0,P|263:343|224:332,1,70,0|0,1:2|0:0,0:0:0:0:
111,314,69044,1,10,0:0:0:0:
281,167,69380,6,0,P|274:205|283:235,1,70,2|0,1:2|0:0,0:0:0:0:
383,227,69715,2,0,P|384:195|369:158,1,70,10|0,0:0|0:0,0:0:0:0:
317,61,70050,1,2,1:2:0:0:
281,167,70218,2,0,P|252:147|218:145,1,70,2|8,1:2|0:0,0:0:0:0:
127,211,70553,6,0,P|140:276|159:364,1,140,6|0,1:2|1:2,0:0:0:0:
46,369,71055,1,8,0:0:0:0:
11,262,71223,2,0,P|24:196|43:109,1,140,6|0,1:2|1:2,0:0:0:0:
71,17,71726,1,8,0:0:0:0:
147,98,71893,6,0,B|196:87|196:87|227:105|227:105|288:91,1,140,6|0,1:2|1:2,0:0:0:0:
369,26,72396,1,8,0:0:0:0:
441,119,72564,1,2,1:2:0:0:
441,119,72731,2,0,P|409:116|373:132,1,70,2|2,0:0|1:2,0:0:0:0:
297,213,73067,1,10,0:0:0:0:
505,295,73402,6,0,P|469:359|407:364,1,140,6|10,1:2|0:0,0:0:0:0:
308,313,73905,2,0,P|275:300|241:306,1,70,2|0,0:0|1:2,0:0:0:0:
152,374,74240,2,0,B|134:352|118:337|118:337|130:287|141:244,1,140,2|0,0:0|0:0,0:0:0:0:
91,154,74743,6,0,P|143:195|208:177,1,140,2|10,1:2|0:0,0:0:0:0:
286,97,75245,2,0,P|292:127|301:169,1,70,2|0,0:0|1:2,0:0:0:0:
367,256,75581,1,10,0:0:0:0:
361,267,75664,1,8,0:0:0:0:
352,278,75748,2,0,P|330:300|288:303,1,70,8|0,0:0|1:2,0:0:0:0:
185,283,76083,6,0,P|191:252|181:211,2,70,6|10|0,1:2|0:0|1:2,0:0:0:0:
91,221,76586,2,0,P|82:190|96:145,2,70,6|10|0,1:2|0:0|1:2,0:0:0:0:
172,134,77089,1,6,1:2:0:0:
264,197,77257,1,10,0:0:0:0:
448,112,77592,5,0,1:2:0:0:
448,112,77759,2,0,B|479:151|479:151|453:222,1,125.999996154785,8|8,0:0|0:0,0:0:0:0:
397,307,78262,2,0,L|404:337,2,31.4999990386963,0|8|0,1:2|0:0|1:2,0:0:0:0:
303,268,78597,1,8,0:0:0:0:
300,281,78681,1,8,0:0:0:0:
297,294,78765,6,0,P|244:261|183:270,1,125.999996154785,6|10,1:2|0:0,0:0:0:0:
109,333,79268,1,0,0:0:0:0:
22,293,79435,2,0,P|24:261|31:231,1,62.9999980773926,2|2,1:2|0:0,0:0:0:0:
106,172,79771,1,8,0:0:0:0:
59,89,79938,6,0,L|143:76,1,62.9999980773926,2|0,0:0|1:2,0:0:0:0:
198,24,80273,2,0,L|281:37,1,62.9999980773926,2|8,0:0|0:0,0:0:0:0:
325,102,80609,2,0,P|291:111|262:132,1,62.9999980773926,2|0,0:0|1:2,0:0:0:0:
254,219,80944,2,0,P|221:206|186:206,1,62.9999980773926,2|8,0:0|0:0,0:0:0:0:
144,285,81279,1,2,0:0:0:0:
213,349,81447,6,0,B|260:338|260:338|284:345|284:345|352:329,1,125.999996154785,2|10,1:2|0:0,0:0:0:0:
422,369,81949,1,0,0:0:0:0:
482,296,82117,2,0,P|467:264|458:235,1,62.9999980773926,2|2,1:2|0:0,0:0:0:0:
492,148,82452,1,8,0:0:0:0:
424,63,82620,6,0,P|377:62|341:134,1,125.999996154785,10|10,0:0|0:0,0:0:0:0:
273,192,83123,1,10,0:0:0:0:
186,154,83290,2,0,P|169:122|161:93,1,62.9999980773926,2|8,0:2|0:0,0:0:0:0:
85,39,83625,2,0,P|75:64|66:98,1,62.9999980773926,10|8,0:0|0:0,0:0:0:0:
71,111,83877,1,10,0:0:0:0:
78,122,83961,5,6,1:2:0:0:
256,192,84128,12,0,88150,0:0:0:0:
