osu file format v14

[General]
AudioFilename: audio.mp3
AudioLeadIn: 0
PreviewTime: 45832
Countdown: 0
SampleSet: Soft
StackLeniency: 0.3
Mode: 0
LetterboxInBreaks: 0
WidescreenStoryboard: 0

[Editor]
DistanceSpacing: 0.8
BeatDivisor: 4
GridSize: 32
TimelineZoom: 2.4

[Metadata]
Title:crossing field (TV Size)
TitleUnicode:crossing field (TV Size)
Artist:LiSA
ArtistUnicode:LiSA
Creator:Xahlt
Version:Lightning Flash
Source:ソードアート・オンライン
Tags:Adinda AsuKow sword art online sao season op opening 1 1st anime japanese pop jpop j-pop female vocal vocalist ost original soundtrack kirito asuna Sony Music Entertainment sme
BeatmapID:2794378
BeatmapSetID:1349638

[Difficulty]
HPDrainRate:5
CircleSize:4
OverallDifficulty:8.8
ApproachRate:9.3
SliderMultiplier:1.8
SliderTickRate:1

[Events]
//Background and Video events
0,0,"background.jpg",0,0
Video,-730,"op.mp4"
//Break Periods
//Storyboard Layer 0 (Background)
//Storyboard Layer 1 (Fail)
//Storyboard Layer 2 (Pass)
//Storyboard Layer 3 (Foreground)
//Storyboard Layer 4 (Overlay)
//Storyboard Sound Samples

[TimingPoints]
-4363,335.195530726257,4,2,1,40,1,0
1000,-166.666666666667,4,2,1,40,0,0
1586,-166.666666666667,4,2,1,5,0,0
1670,-166.666666666667,4,2,1,40,0,0
2257,-166.666666666667,4,2,1,5,0,0
2340,-166.666666666667,4,2,1,40,0,0
2927,-166.666666666667,4,2,1,5,0,0
3011,-166.666666666667,4,2,1,40,0,0
4268,-166.666666666667,4,2,1,5,0,0
4352,-166.666666666667,4,2,1,40,0,0
5860,-125,4,2,1,40,0,0
6279,-125,4,2,1,5,0,0
6363,-100,4,2,2,60,0,0
7620,-100,4,2,2,5,0,0
7704,-100,4,2,2,60,0,0
8625,-100,4,2,2,5,0,0
8709,-100,4,2,2,60,0,0
10218,-90.9090909090909,4,2,2,60,0,0
11726,-142.857142857143,4,2,2,50,0,0
16419,-100,4,2,2,50,0,0
16670,-100,4,2,2,5,0,0
16754,-166.666666666667,4,2,2,50,0,0
17005,-166.666666666667,4,2,2,5,0,0
17089,-100,4,2,2,60,0,0
17340,-100,4,2,2,5,0,0
17424,-125,4,2,2,60,0,0
19687,-125,4,2,2,5,0,0
19771,-100,4,2,2,60,0,0
20022,-100,4,2,2,5,0,0
20106,-125,4,2,2,60,0,0
23877,-125,4,2,2,5,0,0
23961,-125,4,2,2,60,0,0
26726,-125,4,2,2,5,0,0
26810,-125,4,2,2,60,0,0
27396,-125,4,2,2,5,0,0
27480,-166.666666666667,4,2,2,60,0,0
27731,-166.666666666667,4,2,2,5,0,0
27815,-100,4,2,2,60,0,0
28067,-100,4,2,2,5,0,0
28150,-125,4,2,2,60,0,0
28905,-125,4,2,2,5,0,0
28988,-125,4,2,2,60,0,0
29407,-125,4,2,2,5,0,0
29491,-125,4,2,2,60,0,0
30413,-125,4,2,2,5,0,0
30497,-100,4,2,2,60,0,0
30748,-100,4,2,2,5,0,0
30832,-125,4,2,2,60,0,0
31586,-125,4,2,2,5,0,0
31670,-125,4,2,2,60,0,0
32089,-125,4,2,2,5,0,0
32173,-125,4,2,2,60,0,0
33178,-166.666666666667,4,2,2,50,0,0
34435,-166.666666666667,4,2,2,5,0,0
34519,-166.666666666667,4,2,2,50,0,0
38542,-111.111111111111,4,2,2,60,0,0
38961,-111.111111111111,4,2,2,5,0,0
39044,-111.111111111111,4,2,2,60,0,0
39380,-111.111111111111,4,2,2,60,0,0
39715,-111.111111111111,4,2,2,60,0,0
39966,-111.111111111111,4,2,2,5,0,0
40050,-111.111111111111,4,2,2,60,0,0
40804,-111.111111111111,4,2,2,5,0,0
40888,-111.111111111111,4,2,2,60,0,0
41223,-111.111111111111,4,2,2,50,0,0
41558,-111.111111111111,4,2,2,55,0,0
41893,-111.111111111111,4,2,2,60,0,0
42229,-111.111111111111,4,2,2,65,0,0
42564,-111.111111111111,4,2,2,70,0,0
42731,-111.111111111111,4,2,2,75,0,0
42899,-111.111111111111,4,2,2,80,0,0
43234,-166.666666666666,4,2,2,60,0,0
43905,-333.333333333332,4,2,2,55,0,0
44324,-333.333333333332,4,2,2,5,0,0
44407,-499.999999999997,4,2,2,55,0,0
44826,-499.999999999997,4,2,2,5,0,0
44910,-999.99999999999,4,2,2,55,0,0
45581,-125,4,2,2,55,0,0
45916,-125,4,2,2,45,0,0
46083,-125,4,2,2,50,0,0
46251,-125,4,2,2,60,0,0
46586,-71.4285714285714,4,2,2,80,0,1
46838,-71.4285714285714,4,2,2,5,0,1
46921,-83.3333333333333,4,2,2,80,0,1
47843,-83.3333333333333,4,2,2,5,0,1
47927,-83.3333333333333,4,2,2,80,0,1
48849,-83.3333333333333,4,2,2,5,0,1
48933,-83.3333333333333,4,2,2,80,0,1
49519,-83.3333333333333,4,2,2,5,0,1
49603,-83.3333333333333,4,2,2,80,0,1
50692,-83.3333333333333,4,2,2,5,0,1
50776,-83.3333333333333,4,2,2,80,0,1
51028,-83.3333333333333,4,2,2,5,0,1
51111,-83.3333333333333,4,2,2,80,0,1
51363,-83.3333333333333,4,2,2,5,0,1
51447,-83.3333333333333,4,2,2,80,0,1
51698,-83.3333333333333,4,2,2,5,0,1
51782,-83.3333333333333,4,2,2,80,0,1
54882,-83.3333333333333,4,2,2,5,0,1
54966,-83.3333333333333,4,2,2,80,0,1
55385,-83.3333333333333,4,2,2,5,0,1
55469,-83.3333333333333,4,2,2,80,0,1
55720,-83.3333333333333,4,2,2,5,0,1
55804,-55.5555555555556,4,2,2,80,0,1
56055,-55.5555555555556,4,2,2,5,0,1
56139,-55.5555555555556,4,2,2,80,0,1
56307,-62.5,4,2,2,80,0,1
56558,-62.5,4,2,2,5,0,1
56642,-83.3333333333333,4,2,2,80,0,0
57312,-71.4285714285714,4,2,2,80,0,1
57564,-71.4285714285714,4,2,2,5,0,1
57648,-83.3333333333333,4,2,2,80,0,1
58569,-83.3333333333333,4,2,2,5,0,1
58653,-83.3333333333333,4,2,2,80,0,1
59575,-83.3333333333333,4,2,2,5,0,1
59659,-83.3333333333333,4,2,2,80,0,1
60245,-83.3333333333333,4,2,2,5,0,1
60329,-83.3333333333333,4,2,2,80,0,1
61419,-83.3333333333333,4,2,2,5,0,1
61502,-83.3333333333333,4,2,2,80,0,1
61754,-83.3333333333333,4,2,2,5,0,1
61838,-83.3333333333333,4,2,2,80,0,1
62089,-83.3333333333333,4,2,2,5,0,1
62173,-83.3333333333333,4,2,2,80,0,1
62424,-83.3333333333333,4,2,2,5,0,1
62508,-83.3333333333333,4,2,2,80,0,1
65609,-83.3333333333333,4,2,2,5,0,1
65692,-83.3333333333333,4,2,2,80,0,1
66111,-83.3333333333333,4,2,2,5,0,1
66195,-83.3333333333333,4,2,2,80,0,1
66447,-83.3333333333333,4,2,2,5,0,1
66530,-71.4285714285714,4,2,2,80,0,1
66782,-71.4285714285714,4,2,2,5,0,1
66866,-71.4285714285714,4,2,2,80,0,1
67033,-83.3333333333333,4,2,2,80,0,1
68290,-83.3333333333333,4,2,2,5,0,1
68374,-83.3333333333333,4,2,2,80,0,1
69296,-83.3333333333333,4,2,2,5,0,1
69380,-83.3333333333333,4,2,2,80,0,1
69631,-83.3333333333333,4,2,2,5,0,1
69715,-83.3333333333333,4,2,2,80,0,1
69966,-83.3333333333333,4,2,2,5,0,1
70050,-83.3333333333333,4,2,2,80,0,1
73318,-83.3333333333333,4,2,2,5,0,1
73402,-83.3333333333333,4,2,2,80,0,1
73653,-83.3333333333333,4,2,2,5,0,1
73737,-83.3333333333333,4,2,2,80,0,1
74994,-83.3333333333333,4,2,2,5,0,1
75078,-83.3333333333333,4,2,2,80,0,1
78765,-90.9090909090909,4,2,2,70,0,0
79016,-90.9090909090909,4,2,2,5,0,0
79100,-90.9090909090909,4,2,2,70,0,0
81698,-90.9090909090909,4,2,2,5,0,0
81782,-90.9090909090909,4,2,2,70,0,0
84128,-90.9090909090909,4,2,2,60,0,0
84799,-90.9090909090909,4,2,2,50,0,0
85469,-90.9090909090909,4,2,2,40,0,0
86139,-90.9090909090909,4,2,2,30,0,0
86810,-90.9090909090909,4,2,2,20,0,0
87480,-90.9090909090909,4,2,2,10,0,0
88150,-90.9090909090909,4,2,2,5,0,0

[Colours]
Combo1 : 132,210,225
Combo2 : 199,77,74
Combo3 : 227,149,103
Combo4 : 145,166,211

[HitObjects]
6,6,329,5,2,0:0:0:0:
83,32,497,1,2,0:0:0:0:
22,87,664,1,2,0:0:0:0:
31,101,1000,6,0,B|93:136|93:136|110:166|110:166|187:207,1,188.999994232178,2|0,0:0|0:0,0:0:0:0:
195,210,1670,2,0,P|211:189|219:163,1,53.9999983520508,0|0,3:2|0:0,0:0:0:0:
302,289,2005,2,0,P|262:286|226:305,1,80.9999975280763,2|0,0:0|0:0,0:0:0:0:
224,318,2340,1,2,0:0:0:0:
365,384,2508,6,0,B|360:319|418:338|403:256,1,134.999995880127,0|0,3:2|0:0,0:0:0:0:
394,250,3011,2,0,P|380:205|379:183,1,53.9999983520508,2|0,3:2|0:0,0:0:0:0:
447,128,3346,1,0,0:0:0:0:
388,63,3514,1,2,0:0:0:0:
388,63,3597,1,2,0:0:0:0:
388,63,3681,6,0,P|306:20|221:54,1,188.999994232178,2|0,0:0|0:0,0:0:0:0:
212,64,4352,2,0,P|184:76|158:81,1,53.9999983520508,0|0,3:2|0:0,0:0:0:0:
82,22,4687,1,2,0:0:0:0:
26,147,4854,6,0,L|17:94,1,53.9999983520508,2|0,0:0|0:0,0:0:0:0:
117,215,5190,2,0,L|126:161,1,53.9999983520508,2|0,0:0|0:0,0:0:0:0:
27,309,5525,2,0,L|17:255,1,53.9999983520508,2|0,0:0|3:2,0:0:0:0:
165,355,5860,2,0,B|184:299|184:299|201:267|239:269|270:294|250:340,1,180,2|0,0:0|0:0,0:0:0:0:
254,348,6363,6,0,B|298:343|330:290|304:283|336:231|378:219,1,180,6|0,1:2|1:2,0:0:0:0:
480,150,6866,1,0,0:0:0:0:
385,218,7033,1,0,1:2:0:0:
488,265,7201,1,0,0:0:0:0:
391,125,7368,2,0,P|353:95|272:109,1,135,0|0,1:2|0:0,0:0:0:0:
261,117,7704,5,2,1:2:0:0:
172,187,7871,1,0,0:0:0:0:
59,69,8039,1,0,1:2:0:0:
167,90,8206,1,0,0:0:0:0:
45,176,8374,6,0,B|108:205|62:251|162:283,1,135,2|0,1:2|0:0,0:0:0:0:
145,278,8709,2,0,P|170:324|164:363,1,90,0|0,1:2|0:0,0:0:0:0:
265,269,9044,6,0,P|302:245|346:248,1,90,2|0,1:2|0:0,0:0:0:0:
486,374,9380,2,0,P|448:350|404:353,1,90,2|0,1:2|0:0,0:0:0:0:
489,250,9715,2,0,B|516:198|516:198|529:164|502:137|462:131|442:176,1,180,2|0,1:2|1:2,0:0:0:0:
346,248,10218,6,0,B|306:232|261:168|325:167|276:107|206:103,1,198.000006042481,10|0,0:0|1:2,0:0:0:0:
216,116,10637,1,0,1:2:0:0:
207,126,10720,1,10,0:0:0:0:
369,74,10888,1,0,1:2:0:0:
24,45,11726,5,6,1:2:0:0:
116,72,11893,2,0,P|122:41|114:10,1,62.9999980773926,2|0,0:0|1:2,0:0:0:0:
13,54,12229,2,0,P|5:84|11:115,1,62.9999980773926,2|0,0:0|1:2,0:0:0:0:
162,169,12564,2,0,L|101:186,1,62.9999980773926,2|0,0:0|1:2,0:0:0:0:
16,269,12899,2,0,L|155:305,1,125.999996154785,2|0,0:0|0:0,0:0:0:0:
236,325,13402,1,0,1:2:0:0:
425,376,13737,5,2,1:2:0:0:
428,364,14072,1,2,1:2:0:0:
431,352,14407,2,0,B|376:314|421:280|345:233,1,125.999996154785,2|2,1:2|1:2,0:0:0:0:
507,231,14910,2,0,P|497:260|476:283,1,62.9999980773926,2|0,0:0|1:2,0:0:0:0:
320,293,15245,2,0,P|329:263|350:240,1,62.9999980773926,2|0,0:0|1:2,0:0:0:0:
452,120,15581,2,0,P|402:155|343:140,1,125.999996154785,2|0,0:0|0:0,0:0:0:0:
270,80,16083,1,0,1:2:0:0:
264,71,16419,6,0,B|204:81|204:81|194:90|194:90|110:100,1,135,2|0,1:2|0:0,0:0:0:0:
43,88,16754,2,0,B|29:107|12:116|12:116|31:116|52:129,1,80.9999975280763,4|0,0:3|0:0,0:0:0:0:
202,208,17089,6,0,B|188:132|134:176|131:69,1,135,6|0,1:2|0:0,0:0:0:0:
139,86,17424,2,0,P|144:51|131:18,1,72,8|2,0:0|0:0,0:0:0:0:
48,127,17759,1,0,1:2:0:0:
96,209,17927,1,2,1:2:0:0:
20,295,18095,1,8,0:0:0:0:
31,307,18430,6,0,B|111:323|58:370|172:385,1,144,2|8,1:2|0:0,0:0:0:0:
245,217,18933,2,0,P|177:233|154:298,1,144,2|0,0:0|1:2,0:0:0:0:
328,379,19435,2,0,B|337:358|338:335|338:335|330:316|330:316|327:285|346:250,1,108,10|0,0:0|0:0,0:0:0:0:
423,223,19771,6,0,L|402:66,1,135,2|0,1:2|0:0,0:0:0:0:
403,72,20106,2,0,P|433:53|467:58,1,72,10|0,0:0|0:0,0:0:0:0:
316,124,20441,1,2,1:2:0:0:
240,36,20609,1,0,1:2:0:0:
176,181,20776,1,8,0:0:0:0:
179,169,21111,5,2,1:2:0:0:
311,115,21279,1,0,1:2:0:0:
152,76,21447,1,8,0:0:0:0:
60,212,21614,1,0,1:2:0:0:
181,323,21782,5,10,0:0:0:0:
179,314,21866,1,6,0:3:0:0:
178,305,21949,1,4,0:3:0:0:
176,296,22033,1,4,0:3:0:0:
175,287,22117,1,10,0:0:0:0:
215,252,22201,1,10,0:0:0:0:
268,247,22285,1,10,0:0:0:0:
314,274,22368,1,10,0:0:0:0:
337,322,22452,5,6,1:2:0:0:
471,247,22620,2,0,L|387:265,1,72,2|8,0:0|0:0,0:0:0:0:
250,148,22955,1,2,0:0:0:0:
284,159,23039,1,8,0:0:0:0:
318,170,23123,1,0,1:2:0:0:
444,90,23290,2,0,P|450:55|434:24,1,72,2|8,0:0|0:0,0:0:0:0:
313,77,23625,6,0,P|292:125|318:170,1,108,2|0,0:0|0:0,0:0:0:0:
333,167,23961,1,0,0:0:0:0:
222,60,24128,2,0,L|137:75,1,72,8|0,0:0|0:0,0:0:0:0:
144,81,24380,1,0,0:0:0:0:
137,89,24463,2,0,P|106:70|70:67,1,72,2|2,1:2|0:0,0:0:0:0:
5,189,24799,2,0,P|35:170|71:167,1,72,10|0,0:0|0:0,0:0:0:0:
166,252,25134,5,2,1:2:0:0:
42,355,25301,2,0,P|53:320|64:268,1,72,2|8,0:0|0:0,0:0:0:0:
158,172,25637,1,2,0:0:0:0:
169,205,25720,1,8,0:0:0:0:
179,239,25804,1,0,1:2:0:0:
281,360,25972,2,0,P|292:325|303:273,1,72,2|8,0:0|0:0,0:0:0:0:
276,196,26307,1,2,0:0:0:0:
452,157,26474,6,0,B|400:175|427:199|360:226,1,108,0|0,1:2|0:0,0:0:0:0:
363,213,26810,2,0,P|398:212|433:223,1,72,10|0,0:0|0:0,0:0:0:0:
336,127,27145,2,0,P|305:103|232:119,1,108,2|0,1:2|0:0,0:0:0:0:
160,166,27480,2,0,B|159:187|149:204|149:204|165:194|190:195,1,80.9999975280763,10|0,0:0|0:0,0:0:0:0:
140,27,27815,6,0,B|176:94|214:36|250:137,1,135,6|0,1:2|0:0,0:0:0:0:
240,124,28150,2,0,P|256:164|284:186,1,72,8|0,0:0|0:0,0:0:0:0:
378,285,28486,1,0,1:2:0:0:
240,290,28653,2,0,P|191:289|146:327,1,108,2|0,1:2|0:0,0:0:0:0:
144,339,28988,1,8,0:0:0:0:
0,199,29156,6,0,P|49:198|94:236,1,108,2|0,1:2|0:0,0:0:0:0:
95,248,29491,1,8,0:0:0:0:
214,52,29659,2,0,B|207:108|207:108|190:133|190:133|182:189,1,144,2|0,0:0|1:2,0:0:0:0:
216,36,30162,2,0,P|259:5|311:13,1,108,10|0,0:0|0:0,0:0:0:0:
355,130,30497,6,0,B|382:125|409:136|409:136|423:155|423:155|440:170|475:171,1,135,2|0,1:2|0:0,0:0:0:0:
490,171,30832,2,0,P|511:142|510:107,1,72,8|0,0:0|0:0,0:0:0:0:
314,224,31167,2,0,B|287:163|287:163|274:129|301:102|343:98|361:141,1,180,2|0,1:2|0:0,0:0:0:0:
362,140,31670,1,8,0:0:0:0:
476,307,31838,6,0,B|448:300|431:310|431:310|420:322|420:322|391:337|352:331,1,108,2|0,0:0|0:0,0:0:0:0:
364,321,32173,2,0,P|328:306|286:315,1,72,8|0,0:0|0:0,0:0:0:0:
172,239,32508,5,8,0:0:0:0:
203,269,32592,1,8,0:0:0:0:
206,312,32676,1,8,0:0:0:0:
179,347,32759,1,8,0:0:0:0:
135,353,32843,1,8,1:3:0:0:
130,345,32927,1,4,0:3:0:0:
125,338,33011,1,4,0:3:0:0:
120,331,33095,1,4,0:3:0:0:
115,323,33178,6,0,B|90:275|90:275|90:228|90:228|54:160,1,161.999995056153,6|4,1:2|0:3,0:0:0:0:
76,16,34016,1,4,0:3:0:0:
33,83,34184,2,0,P|70:97|109:88,1,80.9999975280763,10|0,0:3|0:0,0:0:0:0:
202,56,34519,6,0,P|185:135|171:215,2,161.999995056153,2|10|10,1:2|0:3|0:3,0:0:0:0:
398,34,35860,6,0,P|348:47|324:94,1,107.999996704102,6|4,1:2|3:3,0:0:0:0:
453,107,36363,2,0,P|428:153|378:166,1,107.999996704102,10|4,0:3|0:3,0:0:0:0:
290,174,36866,1,8,0:0:0:0:
279,165,37201,6,0,P|295:227|300:272,1,107.999996704102,2|4,1:2|0:3,0:0:0:0:
231,343,37704,1,6,0:3:0:0:
306,280,37871,1,8,0:3:0:0:
379,347,38039,1,0,1:2:0:0:
497,365,38206,1,8,0:0:0:0:
507,355,38542,5,6,1:2:0:0:
479,185,38709,2,0,P|439:188|400:266,1,121.499996292114,2|0,0:2|0:0,0:0:0:0:
402,264,39044,2,0,P|364:273|317:289,1,80.9999975280763,2|0,0:0|1:2,0:0:0:0:
178,346,39380,2,0,P|218:352|257:361,1,80.9999975280763,2|0,0:0|1:2,0:0:0:0:
78,384,39715,6,0,B|56:363|49:346|49:346|98:257,1,121.499996292114,2|0,0:0|0:0,0:0:0:0:
101,277,40050,1,10,0:2:0:0:
11,180,40218,1,2,1:2:0:0:
4,168,40553,6,0,P|41:124|105:135,1,121.499996292114,2|0,1:2|0:0,0:0:0:0:
112,145,40888,2,0,P|149:135|199:128,1,80.9999975280763,2|0,1:2|0:0,0:0:0:0:
309,14,41223,5,10,1:2:0:0:
336,6,41307,1,8,0:0:0:0:
364,10,41391,1,10,0:0:0:0:
388,23,41474,1,8,0:0:0:0:
403,45,41558,2,0,P|397:64|391:83,1,40.4999987640381,8|8,1:2|0:0,0:0:0:0:
306,180,41726,6,0,P|300:160|295:140,3,40.4999987640381,10|8|8|8,0:0|0:0|1:2|0:0,0:0:0:0:
436,220,42061,2,0,P|441:200|446:180,3,40.4999987640381,10|8|8|8,0:0|0:0|1:2|0:0,0:0:0:0:
231,327,42396,5,10,0:0:0:0:
257,308,42480,1,8,0:0:0:0:
289,309,42564,1,8,1:2:0:0:
315,328,42648,1,8,0:0:0:0:
334,354,42731,2,0,L|389:346,1,40.4999987640381,10|8,0:0|0:0,0:0:0:0:
505,277,42899,5,2,1:2:0:0:
509,293,43234,6,0,P|502:333|496:377,2,80.9999975280763,6|4|4,3:3|3:3|3:3,0:0:0:0:
502,155,43905,6,0,L|490:84,1,67.4999979400635,6|0,0:0|0:0,0:0:0:0:
420,53,44407,6,0,L|414:103,1,45,2|0,0:0|0:0,0:0:0:0:
344,136,44910,6,0,L|338:109,1,27,2|2,0:0|1:2,0:0:0:0:
317,35,45581,1,8,0:0:0:0:
257,167,45748,1,0,1:2:0:0:
176,18,45916,5,2,0:0:0:0:
227,75,46083,1,2,0:0:0:0:
148,94,46251,2,0,L|134:97,12,9,2|0|0|0|0|0|0|0|0|0|0|0|0,0:0|0:0|0:0|0:0|0:0|0:0|0:0|0:0|0:0|0:0|0:0|0:0|0:0,0:0:0:0:
23,188,46586,6,0,B|65:189|93:217|93:217|101:243|101:243|129:279|186:280,1,188.999994232178,6|0,1:2|0:0,0:0:0:0:
184,273,46921,2,0,P|140:321|147:358,1,107.999996704102,8|0,0:0|0:0,0:0:0:0:
346,366,47257,1,0,1:2:0:0:
241,339,47424,1,0,0:0:0:0:
402,212,47592,2,0,B|402:180|376:165|338:170|329:208|329:208|319:264,1,161.999995056153,10|0,0:0|0:0,0:0:0:0:
404,225,47927,6,0,P|443:258|494:246,1,107.999996704102,2|0,1:2|0:0,0:0:0:0:
428,84,48262,2,0,P|384:54|335:71,1,107.999996704102,8|0,0:0|0:0,0:0:0:0:
237,205,48597,2,0,B|226:136|226:136|211:120|211:120|199:43,1,161.999995056153,2|0,1:2|0:0,0:0:0:0:
208,41,48933,1,8,0:0:0:0:
95,92,49100,2,0,P|106:64|105:35,1,53.9999983520508,8|8,0:0|0:0,0:0:0:0:
17,151,49268,6,0,B|107:169|57:233|172:245,1,161.999995056153,2|0,1:2|0:0,0:0:0:0:
155,231,49603,2,0,P|99:240|67:280,1,107.999996704102,8|0,0:0|0:0,0:0:0:0:
282,348,49938,1,0,1:2:0:0:
157,326,50106,1,0,0:0:0:0:
295,233,50273,1,10,0:0:0:0:
427,354,50441,6,0,B|409:323|418:288|418:288|436:270|436:270|447:230|411:185,1,161.999995056153,2|0,0:0|0:0,0:0:0:0:
345,150,50776,2,0,B|367:117|363:72|363:72|392:108|450:114,1,161.999995056153,2|0,0:0|0:0,0:0:0:0:
264,91,51111,6,0,B|234:64|226:21|226:21|207:62|153:83,1,161.999995056153,2|0,0:0|0:0,0:0:0:0:
200,154,51447,2,0,B|136:175|136:175|121:195|121:195|55:216,1,161.999995056153,2|0,0:0|0:0,0:0:0:0:
0,304,51782,2,0,L|54:318,1,53.9999983520508,2|2,0:0|0:0,0:0:0:0:
232,375,51949,6,0,P|263:314|153:310,1,215.999993408203,6|8,1:2|0:0,0:0:0:0:
54,216,52452,5,2,0:0:0:0:
138,52,52620,2,0,B|157:12|192:11|243:34|220:97|220:97|194:170,1,215.999993408203,2|8,1:2|0:0,0:0:0:0:
156,300,53123,5,2,0:0:0:0:
334,364,53290,2,0,P|430:332|424:232,1,215.999993408203,2|8,1:2|0:0,0:0:0:0:
272,200,53793,5,2,0:0:0:0:
317,69,53961,2,0,B|419:89|404:-22|534:4,1,215.999993408203,2|8,1:2|0:0,0:0:0:0:
298,66,54463,6,0,P|285:39|292:5,1,53.9999983520508,2|2,0:0|0:0,0:0:0:0:
493,97,54631,2,0,P|523:158|495:257,1,161.999995056153,2|0,1:2|0:0,0:0:0:0:
490,251,54966,5,10,1:2:0:0:
315,316,55134,2,0,B|371:318|402:260|402:260|405:291|442:324,1,161.999995056153,2|0,0:0|0:0,0:0:0:0:
231,373,55469,2,0,B|214:345|207:307|207:307|217:285|217:285|214:248|183:194,1,161.999995056153,2|0,1:2|0:0,0:0:0:0:
122,135,55804,6,0,B|95:130|95:130|126:94|129:44|129:44|160:76|214:81|214:81|186:124,1,242.999992584229,6|0,1:2|0:0,0:0:0:0:
200,117,56139,1,2,1:2:0:0:
1,288,56307,2,0,B|96:213|116:310|205:212,1,216,10|0,0:0|0:0,0:0:0:0:
302,137,56642,5,2,1:2:0:0:
311,144,56726,1,4,0:3:0:0:
322,153,56810,1,6,0:3:0:0:
332,162,56893,1,4,0:3:0:0:
344,170,56977,1,10,0:0:0:0:
420,163,57061,1,8,0:0:0:0:
454,92,57145,1,8,0:0:0:0:
412,28,57229,1,8,0:0:0:0:
334,31,57312,6,0,B|298:53|259:44|259:44|238:27|238:27|195:12|147:42,1,188.999994232178,6|0,1:2|0:0,0:0:0:0:
149,46,57648,2,0,P|98:57|59:22,1,107.999996704102,8|0,0:0|0:0,0:0:0:0:
0,172,57983,1,0,1:2:0:0:
112,136,58150,1,0,0:0:0:0:
163,287,58318,2,0,B|163:319|137:334|99:329|90:291|90:291|82:241,1,161.999995056153,10|0,0:0|0:0,0:0:0:0:
166,273,58653,6,0,P|211:247|258:268,1,107.999996704102,2|0,1:2|0:0,0:0:0:0:
406,356,58988,2,0,P|361:329|355:277,1,107.999996704102,8|0,0:0|0:0,0:0:0:0:
512,134,59324,2,0,B|512:210|433:189|444:278,1,161.999995056153,2|0,1:2|0:0,0:0:0:0:
453,282,59659,1,8,0:0:0:0:
357,190,59826,2,0,P|332:178|306:176,1,53.9999983520508,10|10,0:0|0:0,0:0:0:0:
169,256,59994,6,0,B|210:196|160:142|160:142|109:172,1,161.999995056153,2|0,1:2|0:0,0:0:0:0:
117,166,60329,2,0,P|68:147|56:96,1,107.999996704102,8|0,0:0|0:0,0:0:0:0:
257,15,60664,1,0,1:2:0:0:
123,10,60832,1,0,0:0:0:0:
258,122,61000,1,10,0:0:0:0:
380,14,61167,6,0,B|377:93|463:68|451:158,1,161.999995056153,2|0,0:0|0:0,0:0:0:0:
391,231,61502,2,0,B|421:258|429:301|429:301|448:260|502:239,1,161.999995056153,2|0,0:0|0:0,0:0:0:0:
297,211,61838,6,0,B|257:203|232:165|232:165|230:209|205:240,1,161.999995056153,2|0,0:0|0:0,0:0:0:0:
176,344,62173,2,0,B|198:315|233:311|233:311|257:321|257:321|297:318|327:268,1,161.999995056153,2|0,0:0|0:0,0:0:0:0:
361,142,62508,2,0,L|298:129,1,53.9999983520508,2|2,0:0|0:0,0:0:0:0:
187,0,62676,6,0,P|240:69|152:73,1,215.999993408203,6|8,1:2|0:0,0:0:0:0:
45,0,63178,5,2,0:0:0:0:
0,152,63346,2,0,B|-31:258|40:299|40:299|74:294|80:238,1,215.999993408203,2|8,1:2|0:0,0:0:0:0:
197,189,63849,5,2,0:0:0:0:
317,366,64016,2,0,B|202:316|302:229|141:184,1,215.999993408203,2|8,1:2|0:0,0:0:0:0:
131,76,64519,5,2,0:0:0:0:
300,23,64687,2,0,P|398:43|400:143,1,215.999993408203,2|8,1:2|0:0,0:0:0:0:
233,74,65190,6,0,P|215:53|211:27,1,53.9999983520508,10|10,0:0|0:0,0:0:0:0:
313,113,65357,2,0,B|327:176|327:176|321:201|321:201|347:295,1,161.999995056153,2|0,1:2|0:0,0:0:0:0:
355,277,65692,5,10,0:0:0:0:
160,270,65860,2,0,B|117:231|120:173|120:173|101:205|58:205,1,161.999995056153,2|0,0:0|0:0,0:0:0:0:
45,356,66195,2,0,B|72:337|107:341|107:341|130:355|130:355|174:366|219:331,1,161.999995056153,2|0,1:2|0:0,0:0:0:0:
279,268,66530,6,0,B|283:251|283:251|313:278|355:277|355:277|330:312|336:350|336:350|301:337,1,188.999994232178,6|0,1:2|0:0,0:0:0:0:
304,347,66866,1,2,0:0:0:0:
210,173,67033,5,8,0:0:0:0:
436,249,67201,1,2,1:2:0:0:
374,33,67368,5,10,0:0:0:0:
133,87,67536,1,6,0:3:0:0:
130,73,67620,1,6,0:3:0:0:
126,59,67704,1,10,0:0:0:0:
86,31,67787,1,8,0:0:0:0:
38,41,67871,1,10,0:0:0:0:
15,84,67955,1,8,0:0:0:0:
29,130,68039,6,0,B|111:155|58:215|172:245,1,161.999995056153,6|0,1:2|0:0,0:0:0:0:
159,231,68374,1,10,0:0:0:0:
318,349,68542,2,0,B|294:372|259:378|225:344|238:302|238:302|274:195,1,215.999993408203,2|0,0:0|0:0,0:0:0:0:
289,4,69044,6,0,B|249:10|210:-10|210:-10|230:30|212:85,1,161.999995056153,10|0,0:0|0:0,0:0:0:0:
388,118,69380,2,0,B|402:80|439:57|439:57|394:54|355:11,1,161.999995056153,2|0,1:2|0:0,0:0:0:0:
239,147,69715,2,0,B|264:178|265:222|265:222|290:184|347:172,1,161.999995056153,10|0,0:0|0:0,0:0:0:0:
319,168,70050,1,2,1:2:0:0:
438,300,70218,1,2,1:2:0:0:
472,137,70385,1,8,0:0:0:0:
345,325,70553,6,0,B|309:298|260:308|260:308|236:329|236:329|181:339|125:278,1,215.999993408203,6|0,1:2|1:2,0:0:0:0:
153,179,71055,1,8,0:0:0:0:
37,365,71223,6,0,B|-14:326|-14:326|-10:251|25:167,1,215.999993408203,6|0,1:2|1:2,0:0:0:0:
133,0,71726,1,8,0:0:0:0:
294,120,71893,6,0,B|315:145|319:180|284:212|242:197|242:197|137:155,1,215.999993408203,6|0,1:2|1:2,0:0:0:0:
4,47,72396,1,8,0:0:0:0:
152,178,72564,5,2,1:2:0:0:
10,196,72731,1,2,0:0:0:0:
115,82,72899,1,2,1:2:0:0:
258,151,73067,2,0,B|273:221|273:221|265:241|265:241|284:330,1,161.999995056153,10|0,0:0|0:0,0:0:0:0:
401,366,73402,6,0,B|415:298|415:298|407:278|407:278|422:208,1,161.999995056153,6|0,1:2|0:0,0:0:0:0:
435,199,73737,1,10,0:0:0:0:
501,53,73905,2,0,P|466:89|394:78,1,107.999996704102,2|0,0:0|1:2,0:0:0:0:
226,6,74240,2,0,P|274:18|252:152,1,215.999993408203,2|0,0:0|0:0,0:0:0:0:
31,291,74743,6,0,B|58:310|93:306|93:306|116:292|116:292|160:281|205:316,1,161.999995056153,2|0,1:2|0:0,0:0:0:0:
190,314,75078,1,10,0:0:0:0:
338,375,75245,1,2,0:0:0:0:
413,210,75413,1,0,1:2:0:0:
292,250,75581,1,10,0:0:0:0:
290,260,75664,1,8,0:0:0:0:
288,270,75748,1,8,0:0:0:0:
487,337,75916,1,0,1:2:0:0:
478,134,76083,5,6,1:2:0:0:
218,176,76251,1,10,0:0:0:0:
224,165,76586,5,6,1:2:0:0:
402,34,76754,1,10,0:0:0:0:
399,22,77089,5,6,1:2:0:0:
441,266,77257,1,10,0:0:0:0:
448,256,77592,5,0,1:2:0:0:
357,155,77759,1,8,0:0:0:0:
308,317,77927,5,0,1:2:0:0:
302,307,78011,1,0,1:2:0:0:
296,297,78095,1,8,0:0:0:0:
157,180,78262,5,0,1:2:0:0:
151,190,78346,1,8,0:0:0:0:
145,200,78430,1,0,1:2:0:0:
49,379,78597,5,8,0:0:0:0:
8,345,78681,1,8,0:0:0:0:
6,293,78765,6,0,B|65:290|65:290|91:303|91:303|171:294,1,148.50000453186,6|0,1:2|0:0,0:0:0:0:
174,291,79100,2,0,P|216:268|232:222,1,99.0000030212403,10|0,0:0|0:0,0:0:0:0:
159,79,79435,1,2,1:2:0:0:
268,130,79603,1,2,0:0:0:0:
145,200,79771,1,8,0:0:0:0:
257,35,79938,6,0,P|315:43|351:87,1,99.0000030212403,2|0,0:0|1:2,0:0:0:0:
370,258,80273,2,0,P|349:214|358:167,1,99.0000030212403,2|8,0:0|0:0,0:0:0:0:
507,48,80609,2,0,P|479:89|434:106,1,99.0000030212403,2|0,0:0|1:2,0:0:0:0:
282,231,80944,2,0,P|330:230|370:258,1,99.0000030212403,2|8,0:0|0:0,0:0:0:0:
401,368,81279,1,2,0:0:0:0:
194,297,81447,6,0,B|160:263|160:263|183:164,1,148.50000453186,2|0,1:2|0:0,0:0:0:0:
201,148,81782,2,0,P|167:110|174:56,1,99.0000030212403,10|0,0:0|0:0,0:0:0:0:
349,48,82117,1,2,1:2:0:0:
260,78,82285,1,2,0:0:0:0:
89,5,82452,5,8,0:0:0:0:
8,107,82620,2,0,L|30:203,1,99.0000030212403,10|2,0:0|1:2,0:0:0:0:
216,307,82955,5,10,0:0:0:0:
105,333,83123,2,0,L|127:236,1,99.0000030212403,10|2,0:0|0:2,0:0:0:0:
263,105,83458,5,8,0:0:0:0:
472,308,83625,1,10,0:0:0:0:
429,283,83709,1,8,0:0:0:0:
381,286,83793,1,8,0:0:0:0:
341,315,83877,1,10,0:0:0:0:
325,360,83961,5,6,1:2:0:0:
256,192,84044,12,0,88150,0:0:0:0:
