osu file format v14

[General]
AudioFilename: audio.mp3
AudioLeadIn: 0
PreviewTime: 118268
Countdown: 0
SampleSet: Soft
StackLeniency: 0.7
Mode: 0
LetterboxInBreaks: 0
WidescreenStoryboard: 0

[Editor]
Bookmarks: 105442,119688,151866,162425
DistanceSpacing: 1.3
BeatDivisor: 4
GridSize: 4
TimelineZoom: 1.4

[Metadata]
Title:crossing field
TitleUnicode:crossing field
Artist:LiSA
ArtistUnicode:LiSA
Creator:Sotarks
Version:Kyuukai's Hard
Source:ソードアート・オンライン
Tags:opening op sword art online kirito asuna ascendance spectator akitoshi corinn mugiwarasekai irohas kyuukai yaleufeu
BeatmapID:1483063
BeatmapSetID:700024

[Difficulty]
HPDrainRate:4.5
CircleSize:3.6
OverallDifficulty:7
ApproachRate:8
SliderMultiplier:1.4
SliderTickRate:1

[Events]
//Background and Video events
0,0,"lolis.jpg",0,0
//Break Periods
2,79004,94152
2,108291,118957
//Storyboard Layer 0 (Background)
//Storyboard Layer 1 (Fail)
//Storyboard Layer 2 (Pass)
//Storyboard Layer 3 (Foreground)
//Storyboard Sound Samples

[TimingPoints]
-312,335.195530726257,4,2,22,32,1,0
358,-166.666666666667,4,2,22,32,0,0
1028,-133.333333333333,4,2,22,42,0,0
2285,-133.333333333333,4,2,22,5,0,0
2369,-133.333333333333,4,2,22,42,0,0
4632,-133.333333333333,4,2,22,5,0,0
4715,-133.333333333333,4,2,22,42,0,0
4883,-133.333333333333,4,2,22,52,0,0
5134,-133.333333333333,4,2,22,5,0,0
5218,-133.333333333333,4,2,22,52,0,0
5470,-133.333333333333,4,2,22,5,0,0
5553,-133.333333333333,4,2,22,52,0,0
5721,-133.333333333333,4,2,22,62,0,0
6391,-100,4,2,22,72,0,0
11755,-111.111111111111,4,2,22,52,0,0
14017,-111.111111111111,4,2,22,5,0,0
14101,-111.111111111111,4,2,22,52,0,0
14352,-111.111111111111,4,2,22,5,0,0
14436,-111.111111111111,4,2,22,52,0,0
16699,-111.111111111111,4,2,22,5,0,0
16782,-111.111111111111,4,2,22,52,0,0
17034,-111.111111111111,4,2,22,5,0,0
17118,-100,4,2,22,62,0,0
19715,-100,4,2,22,5,0,0
19799,-100,4,2,22,62,0,0
21056,-100,4,2,22,5,0,0
21140,-100,4,2,22,62,0,0
27425,-100,4,2,22,5,0,0
27509,-100,4,2,22,72,0,0
27760,-100,4,2,22,5,0,0
27844,-111.111111111111,4,2,22,52,0,0
28095,-111.111111111111,4,2,22,5,0,0
28179,-111.111111111111,4,2,22,52,0,0
33207,-125,4,2,22,52,0,0
38486,-125,4,2,22,5,0,0
38570,-111.111111111111,4,2,22,62,0,0
43263,-111.111111111111,4,2,22,52,0,0
43933,-133.333333333333,4,2,22,42,0,0
46280,-133.333333333333,4,2,22,72,0,0
46531,-133.333333333333,4,2,22,5,0,0
46615,-100,4,2,22,82,0,1
71922,-100,4,2,22,92,0,1
72593,-100,4,2,22,82,0,1
73431,-100,4,2,22,62,0,1
76112,-100,4,2,22,72,0,1
77620,-100,4,2,22,52,0,1
78804,335.195530726257,4,2,22,52,1,0
78804,-100,4,2,22,52,0,0
83506,335.195530726257,4,2,22,52,1,0
84176,335.195530726257,4,2,22,62,1,0
84692,335.195530726257,4,2,22,62,1,0
86870,335.195530726257,4,2,22,62,1,0
88356,335.195530726257,4,2,22,62,1,0
89529,335.195530726257,4,2,22,62,1,0
94902,335.195530726257,4,2,22,72,1,0
94902,-100,4,2,22,72,0,0
105280,335.195530726257,4,2,22,72,1,0
119707,335.195530726257,4,2,22,82,1,1
143654,-100,4,2,22,92,0,1
145684,-100,4,2,22,72,0,1
146522,-111.111111111111,4,2,22,62,0,0
149204,-111.111111111111,4,2,22,72,0,0
150880,-111.111111111111,4,2,22,62,0,0
151885,-100,4,2,22,62,0,0
162425,-100,4,2,22,52,0,0
162528,-100,4,2,22,42,0,0
165963,-100,4,2,22,32,0,0
166634,-100,4,2,22,22,0,0
167975,-100,4,2,22,12,0,0
171159,-100,4,2,22,5,0,0

[Colours]
Combo1 : 109,77,147
Combo2 : 44,91,143
Combo3 : 244,217,187

[HitObjects]
128,316,358,6,0,L|80:320,2,41.9999987182618,2|2|2,0:0|0:0|0:0,0:0:0:0:
220,364,1028,6,0,L|324:356,1,105.000004005432,2|0,3:0|0:0,0:0:0:0:
408,352,1531,1,0,0:0:0:0:
408,352,1699,2,0,L|416:288,1,52.5000020027161,0|0,3:0|0:0,0:0:0:0:
480,248,2034,2,0,L|472:184,1,52.5000020027161,2|0,0:0|0:0,0:0:0:0:
464,112,2369,5,2,3:0:0:0:
464,112,2537,2,0,L|360:104,1,105.000004005432,0|0,3:0|0:0,0:0:0:0:
292,56,3039,2,0,L|188:64,1,105.000004005432,2|0,3:0|0:0,0:0:0:0:
108,36,3542,1,2,0:0:0:0:
108,36,3626,1,2,0:0:0:0:
108,36,3710,1,2,3:0:0:0:
32,148,4045,6,0,L|28:200,1,52.5000020027161,0|0,3:0|3:0,0:0:0:0:
60,276,4380,2,0,P|112:272|172:296,1,105.000004005432,0|2,3:0|0:0,0:0:0:0:
216,352,4883,5,2,3:0:0:0:
296,368,5218,1,2,3:0:0:0:
384,332,5553,1,2,3:0:0:0:
436,224,5889,1,2,3:0:0:0:
432,88,6224,5,0,0:0:0:0:
432,88,6308,1,0,0:0:0:0:
432,88,6391,2,0,L|362:97,1,70,6|0,1:0|0:0,0:0:0:0:
296,160,6727,2,0,L|226:169,1,70,0|0,1:0|0:0,0:0:0:0:
156,112,7062,2,0,P|140:160|144:204,1,70,0|0,1:0|0:0,0:0:0:0:
56,216,7397,2,0,P|89:253|129:272,1,70,0|0,1:0|0:0,0:0:0:0:
192,296,7732,2,0,L|184:372,2,70,2|0|0,1:0|0:0|1:0,0:0:0:0:
256,232,8235,1,0,0:0:0:0:
256,232,8403,2,0,L|336:236,1,70,2|0,1:0|0:0,0:0:0:0:
392,300,8738,2,0,L|472:296,1,70,0|0,1:0|0:0,0:0:0:0:
500,212,9073,6,0,L|480:60,1,140,2|0,1:0|1:0,0:0:0:0:
396,40,9576,1,0,0:0:0:0:
396,40,9743,2,0,P|356:48|320:44,1,70,0|0,1:0|0:0,0:0:0:0:
240,16,10079,1,0,1:0:0:0:
240,16,10246,2,0,L|164:20,1,70,14|0,0:0|0:0,0:0:0:0:
84,48,10581,2,0,L|77:13,2,35,2|0|10,1:0|0:0|0:0,0:0:0:0:
44,132,10917,1,4,3:0:0:0:
48,136,11755,5,2,1:0:0:0:
48,136,11922,2,0,L|52:216,1,62.9999980773926,2|0,0:0|1:0,0:0:0:0:
100,264,12257,2,0,P|136:256|180:260,1,62.9999980773926,2|0,0:0|0:0,0:0:0:0:
232,300,12593,2,0,P|262:307|293:307,1,62.9999980773926,2|0,0:0|0:0,0:0:0:0:
372,332,12928,2,0,B|384:284|372:192,1,125.999996154785,2|0,0:0|0:0,0:0:0:0:
308,156,13431,2,0,L|310:93,1,62.9999980773926,0|0,1:0|0:0,0:0:0:0:
368,32,13766,2,0,P|400:28|436:36,1,62.9999980773926,2|0,1:0|0:0,0:0:0:0:
488,92,14101,2,0,L|490:154,1,62.9999980773926,2|0,1:0|0:0,0:0:0:0:
492,236,14436,6,0,P|428:228|352:248,1,125.999996154785,2|0,1:0|1:0,0:0:0:0:
312,300,14939,2,0,P|268:304|224:296,1,62.9999980773926,2|0,0:0|1:0,0:0:0:0:
184,352,15274,2,0,P|143:333|109:304,1,62.9999980773926,2|0,0:0|1:0,0:0:0:0:
48,320,15609,2,0,P|40:256|44:192,1,125.999996154785,2|0,0:0|0:0,0:0:0:0:
112,152,16112,2,0,P|116:124|112:80,1,62.9999980773926,0|0,1:0|0:0,0:0:0:0:
64,24,16447,5,6,3:0:0:0:
220,76,16782,5,10,3:0:0:0:
220,76,17118,6,0,P|288:56|368:72,1,140,6|10,1:0|0:0,0:0:0:0:
432,20,17620,1,0,0:0:0:0:
432,20,17788,2,0,P|444:60|436:100,1,70,0|2,1:0|1:0,0:0:0:0:
380,156,18123,2,0,L|384:232,1,70,10|0,0:0|0:0,0:0:0:0:
420,308,18458,2,0,P|384:316|340:308,1,70,2|0,1:0|0:0,0:0:0:0:
276,260,18794,2,0,P|240:252|196:260,1,70,8|2,0:0|0:0,0:0:0:0:
132,304,19129,1,0,1:0:0:0:
132,304,19296,1,0,1:0:0:0:
56,256,19464,2,0,L|52:172,1,70,10|0,0:0|0:0,0:0:0:0:
96,104,19799,6,0,L|16:96,2,70,0|0|8,1:0|0:0|0:0,0:0:0:0:
172,152,20302,1,0,3:0:0:0:
172,152,20470,2,0,L|318:136,1,140,2|8,1:0|0:0,0:0:0:0:
384,188,20972,1,0,0:0:0:0:
384,188,21140,2,0,P|400:144|396:108,1,70,2|0,1:0|1:0,0:0:0:0:
340,52,21475,2,0,L|270:58,1,70,8|0,0:0|1:0,0:0:0:0:
180,68,21810,1,10,0:0:0:0:
96,32,21978,1,0,1:0:0:0:
20,84,22146,2,0,L|0:40,2,35,8|8|8,0:0|0:0|0:0,0:0:0:0:
4,172,22481,5,2,1:0:0:0:
4,172,22648,2,0,P|36:168|92:176,1,70,2|8,0:0|0:0,0:0:0:0:
144,228,22984,2,0,P|176:232|232:224,1,70,2|0,1:0|1:0,0:0:0:0:
296,188,23319,2,0,P|304:232|300:264,1,70,2|8,0:0|0:0,0:0:0:0:
272,344,23654,2,0,P|316:332|424:356,1,140,2|0,0:0|0:0,0:0:0:0:
492,380,24157,2,0,P|496:344|484:300,1,70,10|0,0:0|0:0,0:0:0:0:
416,256,24492,2,0,L|420:176,1,70,2|2,1:0|0:0,0:0:0:0:
472,112,24827,2,0,P|416:96|392:100,1,70,10|0,0:0|0:0,0:0:0:0:
320,128,25162,5,2,1:0:0:0:
320,128,25330,2,0,L|224:124,1,70,2|8,0:0|0:0,0:0:0:0:
176,72,25665,2,0,L|106:74,1,70,2|0,1:0|1:0,0:0:0:0:
52,148,26000,2,0,P|60:188|54:217,1,70,2|8,0:0|0:0,0:0:0:0:
24,304,26336,2,0,P|92:296|160:332,1,140,2|0,0:0|0:0,0:0:0:0:
232,376,26838,2,0,L|245:307,1,70,10|0,0:0|0:0,0:0:0:0:
332,276,27174,2,0,L|345:344,1,70,2|0,1:0|0:0,0:0:0:0:
432,372,27509,1,10,3:0:0:0:
432,372,27844,6,0,L|444:236,1,125.999996154785,6|10,3:0|3:0,0:0:0:0:
452,164,28347,1,0,0:0:0:0:
452,164,28514,2,0,L|384:156,1,62.9999980773926,4|6,3:0|3:0,0:0:0:0:
332,100,28850,1,0,0:0:0:0:
332,100,29017,2,0,L|206:115,1,125.999996154785,10|4,3:0|3:0,0:0:0:0:
158,48,29520,2,0,P|126:96|126:176,1,125.999996154785,10|4,3:0|3:0,0:0:0:0:
114,244,30023,1,4,3:0:0:0:
114,244,30190,1,10,3:0:0:0:
260,317,30525,6,0,L|268:391,2,62.9999980773926,4|0|8,3:0|0:0|3:0,0:0:0:0:
226,241,31028,1,0,0:0:0:0:
226,241,31196,2,0,P|286:234|334:297,1,125.999996154785,6|0,3:0|0:0,0:0:0:0:
358,354,31699,1,8,3:0:0:0:
358,354,31866,2,0,P|374:290|434:250,1,125.999996154785,2|8,0:0|3:0,0:0:0:0:
482,201,32369,1,0,0:0:0:0:
482,201,32537,2,0,L|474:53,1,125.999996154785,10|4,3:0|3:0,0:0:0:0:
412,32,33039,1,4,3:0:0:0:
412,32,33207,6,0,P|352:44|288:40,1,112,6|0,1:0|0:0,0:0:0:0:
220,16,33710,2,0,P|164:14|109:26,1,112,8|0,3:0|1:0,0:0:0:0:
40,72,34213,1,10,0:0:0:0:
40,72,34548,6,0,L|32:192,1,112,2|0,1:0|0:0,0:0:0:0:
28,268,35051,2,0,P|84:264|136:288,1,112,10|4,3:0|3:0,0:0:0:0:
192,348,35553,1,10,0:0:0:0:
192,348,35889,6,0,P|248:352|300:328,1,112,6|0,1:0|3:0,0:0:0:0:
360,272,36391,2,0,L|368:152,1,112,10|0,3:0|1:0,0:0:0:0:
372,76,36894,1,8,0:0:0:0:
372,76,37229,6,0,L|236:84,1,112,2|0,1:0|3:0,0:0:0:0:
208,148,37732,2,0,L|96:141,1,112,10|0,3:0|1:0,0:0:0:0:
12,132,38235,1,12,0:0:0:0:
12,132,38570,5,6,1:0:0:0:
12,132,38738,2,0,L|16:216,1,62.9999980773926,2|8,1:0|0:0,0:0:0:0:
80,244,39073,2,0,L|84:328,1,62.9999980773926,2|0,1:0|0:0,0:0:0:0:
164,324,39408,2,0,L|166:261,1,62.9999980773926,2|8,1:0|0:0,0:0:0:0:
224,200,39743,2,0,P|284:188|368:208,1,125.999996154785,2|0,1:0|1:0,0:0:0:0:
408,256,40246,2,0,P|428:224|428:184,1,62.9999980773926,8|0,0:0|1:0,0:0:0:0:
392,128,40581,2,0,L|388:56,1,62.9999980773926,10|0,0:0|1:0,0:0:0:0:
308,44,40917,2,0,L|304:106,1,62.9999980773926,10|0,0:0|0:0,0:0:0:0:
248,164,41252,5,10,0:0:0:0:
248,164,41419,2,0,P|208:168|164:152,1,62.9999980773926,2|8,1:0|0:0,0:0:0:0:
108,132,41755,2,0,P|104:172|120:216,1,62.9999980773926,2|8,1:0|0:0,0:0:0:0:
48,248,42090,2,0,P|51:288|74:328,1,62.9999980773926,10|8,0:0|0:0,0:0:0:0:
120,364,42425,2,0,P|176:344|256:352,1,125.999996154785,10|10,0:0|0:0,0:0:0:0:
320,368,42928,1,6,1:0:0:0:
320,368,43263,6,0,L|424:356,2,94.499997116089,8|8|8,3:0|3:0|3:0,0:0:0:0:
241,347,43933,6,0,L|237:231,1,105.000004005432,2|0,0:0|0:0,0:0:0:0:
168,196,44436,2,0,L|171:91,1,105.000004005432,2|0,0:0|0:0,0:0:0:0:
248,60,44939,2,0,P|296:80|400:56,1,157.500006008148,2|0,0:0|1:0,0:0:0:0:
464,8,45609,1,8,0:0:0:0:
504,84,45777,5,0,1:0:0:0:
504,84,46280,5,4,1:0:0:0:
504,84,46615,6,0,L|492:256,1,140,2|8,1:0|0:0,0:0:0:0:
432,288,47118,1,0,3:0:0:0:
432,288,47285,2,0,P|392:284|344:296,1,70,0|0,1:0|3:0,0:0:0:0:
300,356,47620,2,0,L|208:356,1,70,10|0,0:0|3:0,0:0:0:0:
140,356,47956,2,0,P|152:284|128:204,1,140,2|8,1:0|0:0,0:0:0:0:
84,144,48458,1,0,3:0:0:0:
84,144,48626,2,0,L|236:136,1,140,2|8,1:0|0:0,0:0:0:0:
276,60,49129,1,2,3:0:0:0:
276,60,49296,6,0,L|415:67,1,140,0|8,1:0|0:0,0:0:0:0:
496,20,49799,1,0,3:0:0:0:
496,20,49967,2,0,P|508:68|504:92,1,70,0|0,1:0|3:0,0:0:0:0:
468,172,50302,1,10,0:0:0:0:
468,172,50470,2,0,L|468:272,1,70,2|0,3:0|1:0,0:0:0:0:
432,328,50805,2,0,P|388:332|336:320,1,70,2|8,3:0|0:0,0:0:0:0:
292,268,51140,2,0,P|248:264|196:276,1,70,2|0,3:0|1:0,0:0:0:0:
148,324,51475,2,0,P|104:328|52:316,1,70,2|8,3:0|0:0,0:0:0:0:
8,268,51810,1,2,3:0:0:0:
8,268,51978,6,0,L|12:112,1,140,6|8,1:0|0:0,0:0:0:0:
64,52,52481,1,2,3:0:0:0:
64,52,52648,2,0,P|120:40|208:56,1,140,6|8,1:0|0:0,0:0:0:0:
276,108,53151,1,2,3:0:0:0:
276,108,53318,2,0,P|332:120|420:104,1,140,6|8,1:0|0:0,0:0:0:0:
500,80,53822,1,2,3:0:0:0:
500,80,53989,2,0,L|496:219,1,140,6|8,1:0|0:0,0:0:0:0:
492,312,54492,1,2,3:0:0:0:
492,312,54660,6,0,P|436:300|348:316,1,140,6|10,1:0|0:0,0:0:0:0:
328,228,55162,2,0,P|296:248|272:296,1,70,2|0,3:0|1:0,0:0:0:0:
224,348,55498,2,0,P|200:312|160:296,1,70,2|8,1:0|0:0,0:0:0:0:
96,340,55833,2,0,L|76:180,1,140,6|2,1:0|1:0,0:0:0:0:
68,112,56336,1,10,0:0:0:0:
248,112,56671,2,0,L|236:32,2,70,2|2|10,1:0|1:0|0:0,0:0:0:0:
184,176,57174,1,8,0:0:0:0:
184,176,57257,1,8,0:0:0:0:
184,176,57341,6,0,L|206:313,1,140,6|8,1:0|0:0,0:0:0:0:
276,372,57844,1,0,3:0:0:0:
276,372,58012,2,0,P|320:352|368:356,1,70,0|0,1:0|3:0,0:0:0:0:
428,380,58347,2,0,P|432:336|420:300,1,70,10|0,0:0|3:0,0:0:0:0:
352,256,58682,2,0,L|356:104,1,140,2|8,1:0|0:0,0:0:0:0:
440,80,59185,1,0,3:0:0:0:
440,80,59352,2,0,L|443:219,1,140,2|8,1:0|0:0,0:0:0:0:
425,311,59855,1,2,3:0:0:0:
425,311,60023,6,0,P|352:296|288:312,1,140,0|8,1:0|0:0,0:0:0:0:
216,364,60525,1,0,3:0:0:0:
216,364,60693,2,0,P|160:368|120:356,1,70,0|0,1:0|3:0,0:0:0:0:
56,348,61028,1,10,0:0:0:0:
56,348,61196,2,0,L|48:248,1,70,2|0,3:0|1:0,0:0:0:0:
112,212,61531,2,0,L|106:142,1,70,2|8,3:0|0:0,0:0:0:0:
197,142,61866,2,0,L|191:211,1,70,2|0,3:0|1:0,0:0:0:0:
253,278,62201,2,0,L|247:347,1,70,2|8,3:0|0:0,0:0:0:0:
332,380,62537,1,2,3:0:0:0:
332,380,62704,6,0,L|344:229,1,140,6|8,1:0|0:0,0:0:0:0:
424,200,63207,1,2,3:0:0:0:
424,200,63375,2,0,P|352:196|280:160,1,140,6|8,1:0|0:0,0:0:0:0:
224,108,63877,1,2,3:0:0:0:
224,108,64045,2,0,P|152:112|80:148,1,140,6|8,1:0|0:0,0:0:0:0:
20,84,64548,1,2,3:0:0:0:
20,84,64715,2,0,P|44:136|48:224,1,140,6|8,1:0|0:0,0:0:0:0:
28,308,65218,1,2,3:0:0:0:
28,308,65386,6,0,P|96:292|184:316,1,140,6|10,1:0|0:0,0:0:0:0:
220,376,65889,2,0,L|300:368,1,70,2|0,3:0|1:0,0:0:0:0:
356,308,66224,2,0,L|436:300,1,70,2|8,1:0|0:0,0:0:0:0:
504,252,66559,2,0,P|508:176|488:104,1,140,6|0,1:0|1:0,0:0:0:0:
440,40,67062,1,8,0:0:0:0:
440,40,67229,2,0,P|480:28|516:28,2,70,2|10|2,1:0|0:0|1:0,0:0:0:0:
372,104,67732,2,0,L|375:138,3,35,10|8|10|8,0:0|0:0|0:0|0:0,0:0:0:0:
352,176,68067,6,0,P|280:160|188:184,1,140,2|10,1:0|0:0,0:0:0:0:
148,112,68570,1,2,3:0:0:0:
148,112,68738,2,0,P|128:152|128:184,1,70,0|0,1:0|3:0,0:0:0:0:
48,220,69073,2,0,P|44:185|26:155,1,70,10|0,0:0|0:0,0:0:0:0:
60,72,69408,2,0,P|100:32|196:32,1,140,2|10,1:0|0:0,0:0:0:0:
260,72,69911,1,0,3:0:0:0:
260,72,70079,2,0,P|296:60|336:64,1,70,2|2,1:0|1:0,0:0:0:0:
412,96,70414,1,8,0:0:0:0:
412,96,70581,6,0,L|396:235,1,140,6|0,1:0|1:0,0:0:0:0:
388,324,71084,1,8,0:0:0:0:
388,324,71251,2,0,P|320:336|240:320,1,140,6|0,1:0|1:0,0:0:0:0:
164,356,71755,1,8,0:0:0:0:
164,356,71922,2,0,L|148:208,1,140,6|0,1:0|1:0,0:0:0:0:
140,124,72425,1,8,0:0:0:0:
208,64,72593,1,2,1:0:0:0:
208,64,72760,2,0,L|276:52,1,70,2|2,0:0|1:0,0:0:0:0:
368,32,73095,1,10,0:0:0:0:
368,32,73431,6,0,P|436:68|460:140,1,140,6|10,1:0|0:0,0:0:0:0:
508,200,73933,2,0,P|440:236|416:308,1,140,2|2,3:0|3:0,0:0:0:0:
408,384,74436,2,0,P|364:360|320:356,1,70,8|0,0:0|3:0,0:0:0:0:
256,376,74771,2,0,L|104:360,1,140,2|10,1:0|0:0,0:0:0:0:
80,280,75274,2,0,L|232:264,1,140,2|2,3:0|3:0,0:0:0:0:
264,260,75693,1,0,0:0:0:0:
264,260,75777,1,8,0:0:0:0:
444,240,76112,5,10,0:0:0:0:
444,240,76280,2,0,L|452:156,1,70,10|0,0:0|1:0,0:0:0:0:
360,156,76615,1,10,0:0:0:0:
360,156,76783,2,0,L|368:72,1,70,10|0,0:0|1:0,0:0:0:0:
276,72,77118,1,10,0:0:0:0:
276,72,77286,2,0,L|284:-12,1,70,10|0,0:0|0:0,0:0:0:0:
108,48,77788,2,0,L|114:117,1,70,10|0,0:0|0:0,0:0:0:0:
120,164,78039,1,0,1:0:0:0:
120,164,78123,1,8,0:0:0:0:
56,284,78458,5,8,3:0:0:0:
220,200,78804,5,2,0:0:0:0:
44,88,94902,6,0,B|80:96|80:96|144:84,1,70,2|0,1:0|1:0,0:0:0:0:
184,40,95236,1,10,0:2:0:0:
184,40,95404,2,0,B|248:56|248:56|323:45,1,140,2|2,3:0|1:0,0:0:0:0:
400,0,95907,2,0,P|412:44|404:80,1,70,10|2,0:0|3:0,0:0:0:0:
344,132,96242,2,0,B|324:200|324:200|340:284,1,140,0|10,1:0|0:0,0:0:0:0:
348,360,96745,2,0,B|276:340|276:340|196:340,1,140,2|8,3:0|0:0,0:0:0:0:
164,344,97164,1,8,0:0:0:0:
164,344,97247,1,2,0:0:0:0:
80,380,97415,1,10,0:0:0:0:
88,288,97583,6,0,B|36:300|36:300|-4:348,2,105,2|2|2,1:0|3:0|1:0,0:0:0:0:
92,196,98254,2,0,B|80:144|80:144|32:104,2,105,2|2|2,1:0|3:0|1:0,0:0:0:0:
172,244,98924,2,0,B|224:256|224:256|264:304,2,105,10|0|0,0:0|0:0|0:0,0:0:0:0:
92,196,99594,5,0,1:0:0:0:
156,132,99762,2,0,L|144:72,2,35,8|8|8,0:0|0:0|0:0,0:0:0:0:
244,164,100097,1,8,0:0:0:0:
244,164,100180,1,8,0:0:0:0:
244,164,100264,6,0,B|308:148|308:148|388:160,1,140,6|8,1:0|0:0,0:0:0:0:
456,108,100767,1,2,3:0:0:0:
456,108,100935,2,0,P|472:156|468:192,1,70,0|0,1:0|1:0,0:0:0:0:
452,264,101270,1,10,0:0:0:0:
452,264,101437,1,2,3:0:0:0:
368,304,101605,5,8,3:0:0:0:
280,320,101773,2,0,L|288:368,2,35,8|8|4,0:0|0:0|3:0,0:0:0:0:
212,256,102108,1,8,0:0:0:0:
212,256,102276,2,0,L|217:221,2,35,8|8|4,0:0|0:0|3:0,0:0:0:0:
152,324,102611,2,0,P|88:336|36:316,1,105,8|8,0:0|0:0,0:0:0:0:
12,300,102946,6,0,B|4:232|4:232|8:156,1,140,2|10,1:0|0:0,0:0:0:0:
68,92,103449,2,0,B|136:76|136:76|212:88,1,140,6|10,3:0|0:0,0:0:0:0:
276,144,103952,2,0,B|312:148|312:148|356:144,1,70,6|10,3:0|0:0,0:0:0:0:
416,88,104287,2,0,B|436:132|436:132|424:228,1,140,2|10,1:0|1:2,0:0:0:0:
400,312,104789,1,8,0:0:0:0:
400,312,104873,1,8,0:0:0:0:
400,312,104957,1,10,1:2:0:0:
328,364,105124,1,8,0:0:0:0:
328,364,105208,1,8,0:0:0:0:
328,364,105280,1,10,0:0:0:0:
244,332,105447,5,10,0:0:0:0:
72,104,119707,6,0,P|136:88|232:116,1,140,2|8,1:0|0:0,0:0:0:0:
260,176,120209,1,0,3:0:0:0:
260,176,120377,2,0,P|296:180|340:172,1,70,0|0,1:0|3:0,0:0:0:0:
416,140,120712,2,0,P|420:176|412:220,1,70,10|0,0:0|3:0,0:0:0:0:
356,280,121047,2,0,P|292:264|196:292,1,140,2|8,1:0|0:0,0:0:0:0:
148,332,121550,1,0,3:0:0:0:
148,332,121718,2,0,P|112:264|104:176,1,140,2|8,1:0|0:0,0:0:0:0:
48,128,122220,1,2,3:0:0:0:
48,128,122388,6,0,L|196:92,1,140,0|8,1:0|0:0,0:0:0:0:
252,36,122891,1,0,3:0:0:0:
252,36,123058,2,0,L|340:40,1,70,0|0,1:0|3:0,0:0:0:0:
408,12,123394,1,10,0:0:0:0:
408,12,123561,2,0,L|488:40,1,70,2|0,3:0|1:0,0:0:0:0:
512,120,123896,2,0,L|432:148,1,70,2|8,3:0|0:0,0:0:0:0:
408,228,124232,2,0,L|488:256,1,70,2|0,3:0|1:0,0:0:0:0:
512,336,124567,2,0,L|432:364,1,70,2|8,3:0|0:0,0:0:0:0:
364,320,124902,1,2,3:0:0:0:
364,320,125070,6,0,P|284:308|204:328,1,140,6|8,1:0|0:0,0:0:0:0:
140,348,125572,1,2,3:0:0:0:
140,348,125740,2,0,P|128:268|148:188,1,140,6|8,1:0|0:0,0:0:0:0:
88,136,126243,1,2,3:0:0:0:
88,136,126410,2,0,P|168:164|252:160,1,140,6|8,1:0|0:0,0:0:0:0:
296,112,126913,1,2,3:0:0:0:
296,112,127080,2,0,P|376:84|460:88,1,140,6|8,1:0|0:0,0:0:0:0:
508,132,127584,1,2,3:0:0:0:
508,132,127751,6,0,L|500:280,1,140,6|10,1:0|0:0,0:0:0:0:
496,364,128254,2,0,L|416:344,1,70,2|0,3:0|1:0,0:0:0:0:
380,268,128589,2,0,L|300:248,1,70,2|8,1:0|0:0,0:0:0:0:
236,300,128924,2,0,L|200:144,1,140,6|2,1:0|1:0,0:0:0:0:
184,76,129427,1,10,0:0:0:0:
56,208,129762,2,0,L|72:275,2,70,2|2|10,1:0|1:0|0:0,0:0:0:0:
49,114,130265,1,8,0:0:0:0:
49,114,130349,1,8,0:0:0:0:
49,114,130433,6,0,L|205:70,1,140,6|8,1:0|0:0,0:0:0:0:
252,16,130936,1,0,3:0:0:0:
252,16,131103,2,0,P|272:64|272:88,1,70,0|0,1:0|3:0,0:0:0:0:
224,160,131438,2,0,L|240:236,1,70,10|0,0:0|3:0,0:0:0:0:
196,312,131774,2,0,L|356:324,1,140,2|8,1:0|0:0,0:0:0:0:
416,364,132276,1,0,3:0:0:0:
416,364,132444,2,0,L|432:208,1,140,2|8,1:0|0:0,0:0:0:0:
392,144,132947,1,2,3:0:0:0:
392,144,133114,6,0,L|232:132,1,140,0|8,1:0|0:0,0:0:0:0:
176,80,133617,1,0,3:0:0:0:
176,80,133785,2,0,L|100:88,1,70,0|0,1:0|3:0,0:0:0:0:
40,148,134120,1,10,0:0:0:0:
40,148,134288,2,0,L|48:224,1,70,2|0,3:0|1:0,0:0:0:0:
128,260,134623,2,0,L|135:190,1,70,2|8,3:0|0:0,0:0:0:0:
220,152,134958,2,0,L|228:228,1,70,2|0,3:0|1:0,0:0:0:0:
308,264,135293,2,0,L|315:194,1,70,2|8,3:0|0:0,0:0:0:0:
324,104,135628,1,2,3:0:0:0:
324,104,135796,6,0,L|484:96,1,140,6|8,1:0|0:0,0:0:0:0:
455,187,136299,1,2,3:0:0:0:
455,187,136467,2,0,L|295:195,1,140,6|8,1:0|0:0,0:0:0:0:
236,148,136969,1,2,3:0:0:0:
236,148,137137,2,0,L|76:156,1,140,6|8,1:0|0:0,0:0:0:0:
96,244,137639,1,2,3:0:0:0:
96,244,137807,2,0,L|256:236,1,140,6|8,1:0|0:0,0:0:0:0:
315,193,138310,1,2,3:0:0:0:
314,193,138477,6,0,P|324:125|287:67,1,140,6|10,1:0|0:0,0:0:0:0:
200,40,138980,2,0,P|168:36|108:40,1,70,2|0,3:0|1:0,0:0:0:0:
44,68,139315,2,0,P|24:93|-2:147,1,70,2|8,1:0|0:0,0:0:0:0:
32,216,139651,2,0,P|112:208|180:232,1,140,6|0,1:0|1:0,0:0:0:0:
240,280,140153,1,8,0:0:0:0:
316,228,140321,2,0,L|308:148,2,70,2|10|2,1:0|0:0|1:0,0:0:0:0:
324,320,140824,1,10,0:0:0:0:
404,280,140991,1,10,0:0:0:0:
404,280,141075,1,8,0:0:0:0:
404,280,141159,6,0,L|424:132,1,140,2|10,1:0|0:0,0:0:0:0:
436,52,141662,1,2,3:0:0:0:
436,52,141829,2,0,L|352:48,1,70,0|0,1:0|3:0,0:0:0:0:
284,8,142165,2,0,L|214:11,1,70,10|0,0:0|0:0,0:0:0:0:
124,16,142500,2,0,P|144:64|136:156,1,140,2|10,1:0|0:0,0:0:0:0:
72,212,143003,1,0,3:0:0:0:
72,212,143170,2,0,L|80:296,1,70,2|2,1:0|1:0,0:0:0:0:
140,348,143505,1,8,0:0:0:0:
140,348,143589,1,8,0:0:0:0:
140,348,143673,6,0,P|212:332|292:356,1,140,6|0,1:0|1:0,0:0:0:0:
360,380,144176,2,0,P|368:340|356:300,1,70,12|2,0:0|1:0,0:0:0:0:
288,256,144511,2,0,L|292:160,1,70,8|0,0:0|1:0,0:0:0:0:
328,104,144846,2,0,P|288:96|248:108,1,70,14|2,0:0|1:0,0:0:0:0:
200,172,145181,2,0,L|104:168,1,70,12|2,0:0|1:0,0:0:0:0:
116,80,145517,1,12,0:0:0:0:
44,132,145684,1,2,0:0:0:0:
44,132,145852,2,0,P|36:165|44:200,1,70,2|0,1:0|0:0,0:0:0:0:
112,260,146187,2,0,P|119:293|112:327,1,70,10|0,0:0|0:0,0:0:0:0:
188,376,146522,6,0,L|344:368,1,125.999996154785,6|2,1:0|0:0,0:0:0:0:
404,368,147025,1,2,1:0:0:0:
404,368,147193,1,8,0:0:0:0:
456,296,147360,2,0,L|456:144,1,125.999996154785,2|0,1:0|0:0,0:0:0:0:
396,104,147863,2,0,L|270:97,1,125.999996154785,2|2,1:0|0:0,0:0:0:0:
196,48,148366,2,0,L|133:51,1,62.9999980773926,2|8,1:0|0:0,0:0:0:0:
56,96,148701,2,0,L|56:222,1,125.999996154785,2|0,1:0|0:0,0:0:0:0:
56,312,149204,5,10,0:0:0:0:
56,312,149371,1,10,0:0:0:0:
212,224,149707,5,10,0:0:0:0:
212,224,149874,1,10,0:0:0:0:
368,308,150209,5,10,0:0:0:0:
368,308,150376,1,10,0:0:0:0:
460,60,150880,5,12,0:0:0:0:
380,92,151047,2,0,L|384:128,2,31.4999990386963,0|0|10,0:0|1:0|0:0,0:0:0:0:
304,44,151382,2,0,L|307:12,2,31.4999990386963,0|8|2,1:0|0:0|1:0,0:0:0:0:
232,96,151718,1,8,0:0:0:0:
232,96,151801,1,8,0:0:0:0:
232,96,151885,6,0,L|136:92,1,70,6|0,1:0|0:0,0:0:0:0:
80,52,152220,2,0,P|72:92|84:144,1,70,10|0,0:0|3:0,0:0:0:0:
108,208,152556,1,2,1:0:0:0:
108,208,152723,2,0,L|177:210,1,70,2|8,3:0|0:0,0:0:0:0:
244,276,153058,2,0,L|313:273,1,70,2|0,3:0|1:0,0:0:0:0:
396,312,153394,2,0,P|404:272|392:220,1,70,2|8,3:0|0:0,0:0:0:0:
332,184,153729,2,0,L|336:92,1,70,2|0,3:0|1:0,0:0:0:0:
276,44,154064,2,0,P|240:40|184:48,1,70,2|8,3:0|0:0,0:0:0:0:
120,12,154399,1,2,3:0:0:0:
120,12,154567,6,0,L|116:96,1,70,0|0,1:0|0:0,0:0:0:0:
48,144,154902,2,0,L|52:228,1,70,10|0,0:0|3:0,0:0:0:0:
24,300,155237,1,2,1:0:0:0:
24,300,155405,2,0,L|108:292,1,70,2|8,3:0|0:0,0:0:0:0:
172,244,155740,2,0,L|241:250,1,70,2|0,3:0|1:0,0:0:0:0:
324,292,156075,2,0,P|332:260|330:222,1,70,2|8,3:0|0:0,0:0:0:0:
264,160,156410,2,0,L|194:153,1,70,2|0,3:0|1:0,0:0:0:0:
112,196,156746,2,0,P|104:164|105:126,1,70,2|8,3:0|0:0,0:0:0:0:
172,64,157081,1,2,3:0:0:0:
172,64,157248,6,0,L|241:57,1,70,0|0,1:0|0:0,0:0:0:0:
324,16,157584,2,0,L|393:23,1,70,10|0,0:0|3:0,0:0:0:0:
484,36,157919,1,2,1:0:0:0:
484,36,158086,2,0,P|472:84|468:120,1,70,2|8,3:0|0:0,0:0:0:0:
500,192,158422,2,0,P|494:226|485:260,1,70,2|0,3:0|1:0,0:0:0:0:
440,340,158757,2,0,L|352:332,1,70,0|8,3:0|0:0,0:0:0:0:
284,304,159092,2,0,L|214:310,1,70,2|0,3:0|1:0,0:0:0:0:
136,360,159427,2,0,L|66:353,1,70,2|8,3:0|0:0,0:0:0:0:
8,284,159762,1,2,3:0:0:0:
8,284,159930,6,0,L|4:200,1,70,4|0,1:0|0:0,0:0:0:0:
80,160,160265,2,0,L|76:76,1,70,10|0,0:0|3:0,0:0:0:0:
132,20,160600,1,2,1:0:0:0:
132,20,160768,2,0,L|216:16,1,70,2|8,3:0|0:0,0:0:0:0:
256,92,161103,2,0,L|340:88,1,70,10|0,0:0|1:0,0:0:0:0:
404,40,161438,2,0,P|416:84|412:124,1,70,10|8,0:0|0:0,0:0:0:0:
352,176,161774,2,0,L|352:248,1,70,2|0,0:0|1:0,0:0:0:0:
288,312,162109,2,0,P|252:316|216:312,1,70,10|8,0:0|0:0,0:0:0:0:
132,288,162444,5,6,1:0:0:0:
256,192,162612,12,0,171159,0:0:0:0:
