osu file format v14

[General]
AudioFilename: audio.mp3
AudioLeadIn: 0
PreviewTime: 118268
Countdown: 0
SampleSet: Soft
StackLeniency: 0.7
Mode: 2
LetterboxInBreaks: 0
WidescreenStoryboard: 1

[Editor]
Bookmarks: 358,6391,11755,17118,22481,27844,33207,38570,43933,46615,70581,78794,105442
DistanceSpacing: 0.9
BeatDivisor: 4
GridSize: 4
TimelineZoom: 1.4

[Metadata]
Title:crossing field
TitleUnicode:crossing field
Artist:LiSA
ArtistUnicode:LiSA
Creator:Sotarks
Version:Ascendance & Spec's Rain
Source:ソードアート・オンライン
Tags:opening op sword art online kirito asuna ascendance spectator akitoshi corinn mugiwarasekai irohas kyuukai yaleufeu
BeatmapID:1490577
BeatmapSetID:700024

[Difficulty]
HPDrainRate:6
CircleSize:3.8
OverallDifficulty:9
ApproachRate:9
SliderMultiplier:1.96
SliderTickRate:2

[Events]
//Background and Video events
0,0,"BG.jpg",0,0
//Break Periods
2,108291,117752
//Storyboard Layer 0 (Background)
//Storyboard Layer 1 (Fail)
//Storyboard Layer 2 (Pass)
//Storyboard Layer 3 (Foreground)
//Storyboard Sound Samples

[TimingPoints]
-312,335.195530726257,4,2,22,32,1,0
1028,-100,4,2,22,42,0,0
2285,-100,4,2,22,5,0,0
2369,-100,4,2,22,42,0,0
4632,-100,4,2,22,5,0,0
4715,-100,4,2,22,42,0,0
4883,-100,4,2,22,52,0,0
5134,-100,4,2,22,5,0,0
5218,-100,4,2,22,52,0,0
5470,-100,4,2,22,5,0,0
5553,-100,4,2,22,52,0,0
5721,-100,4,2,22,62,0,0
6391,-100,4,2,22,72,0,0
11755,-100,4,2,22,52,0,0
14017,-100,4,2,22,5,0,0
14101,-100,4,2,22,52,0,0
14352,-100,4,2,22,5,0,0
14436,-100,4,2,22,52,0,0
16447,-100,4,2,22,52,0,0
16699,-100,4,2,22,5,0,0
16782,-100,4,2,22,52,0,0
17034,-100,4,2,22,5,0,0
17118,-100,4,2,22,62,0,0
19715,-100,4,2,22,5,0,0
19799,-100,4,2,22,62,0,0
21056,-100,4,2,22,5,0,0
21140,-100,4,2,22,62,0,0
27425,-100,4,2,22,5,0,0
27509,-100,4,2,22,72,0,0
27760,-100,4,2,22,5,0,0
27844,-100,4,2,22,52,0,0
28095,-100,4,2,22,5,0,0
28179,-100,4,2,22,52,0,0
33207,-100,4,2,22,52,0,0
38235,-100,4,2,22,52,0,0
38486,-100,4,2,22,5,0,0
38570,-100,4,2,22,62,0,0
43263,-100,4,2,22,52,0,0
43933,-100,4,2,22,42,0,0
46280,-100,4,2,7,72,0,0
46531,-100,4,2,22,5,0,0
46615,-100,4,2,22,82,0,0
70581,-100,4,2,22,82,0,0
71252,-100,4,2,22,82,0,0
71922,-100,4,2,22,92,0,0
72593,-100,4,2,22,82,0,0
73431,-100,4,2,22,62,0,0
76112,-100,4,2,22,72,0,0
77620,-100,4,2,22,52,0,0
78804,335.195530726257,4,2,22,52,1,0
83506,335.195530726257,4,2,22,52,1,0
84176,335.195530726257,4,2,22,62,1,0
84692,335.195530726257,4,2,22,62,1,0
86870,335.195530726257,4,2,22,62,1,0
88356,335.195530726257,4,2,22,62,1,0
89529,335.195530726257,4,2,22,62,1,0
94902,335.195530726257,4,2,22,72,1,1
94902,-100,4,2,22,72,0,1
105280,335.195530726257,4,2,22,72,1,1
105447,-100,4,2,22,72,0,0
118352,-100,4,2,22,52,0,0
118939,-100,4,2,22,5,0,0
119023,-100,4,2,22,52,0,0
119274,-100,4,2,22,5,0,0
119358,-100,4,1,7,52,0,0
119609,-100,4,2,22,5,0,0
119707,335.195530726257,4,2,22,82,1,0
143673,-100,4,2,22,92,0,1
145684,-100,4,2,22,72,0,0
146522,-100,4,2,22,62,0,0
149204,-100,4,2,22,72,0,0
150880,-100,4,2,22,62,0,0
151885,-100,4,2,22,62,0,0
162444,-100,4,2,22,52,0,0
162528,-100,4,2,22,42,0,0
165963,-100,4,2,22,32,0,0
166634,-100,4,2,22,22,0,0
167975,-100,4,2,22,12,0,0
171159,-100,4,2,22,5,0,0

[Colours]
Combo1 : 101,90,122
Combo2 : 54,77,119
Combo3 : 243,217,184
SliderBorder : 176,224,251
SliderTrackOverride : 5,20,48

[HitObjects]
142,268,358,6,0,L|38:281,2,98,2|2|2,0:0|0:0|0:0,0:0:0:0:
401,336,1028,2,0,P|448:257|363:189,1,196,2|0,3:0|0:0,0:0:0:0:
196,162,1699,2,0,L|394:131,1,196,0|2,3:0|0:0,0:0:0:0:
259,83,2201,1,0,0:0:0:0:
401,156,2369,6,0,L|394:267,1,98,2|0,3:0|3:0,0:0:0:0:
234,241,2704,2,0,L|228:354,1,98,0|0,0:0|0:0,0:0:0:0:
386,211,3039,2,0,L|146:200,1,196,2|0,3:0|0:0,0:0:0:0:
67,284,3542,1,2,0:0:0:0:
63,235,3625,1,2,0:0:0:0:
59,186,3709,5,2,3:0:0:0:
198,222,3877,1,0,3:0:0:0:
56,172,4045,2,0,L|48:65,1,98,0|0,3:0|3:0,0:0:0:0:
225,117,4380,2,0,L|366:105,2,98,0|0|2,3:0|0:0|0:0,0:0:0:0:
360,273,4883,6,0,L|376:165,1,98,2|0,3:0|0:0,0:0:0:0:
220,230,5218,2,0,L|116:217,1,98,2|0,3:0|0:0,0:0:0:0:
393,331,5553,2,0,L|494:348,2,98,2|0|2,3:0|3:0|3:0,0:0:0:0:
113,350,6056,1,0,0:0:0:0:
83,304,6139,1,0,0:0:0:0:
93,256,6223,1,0,0:0:0:0:
139,224,6307,1,0,0:0:0:0:
362,278,6391,6,0,L|379:175,1,98,6|0,1:0|0:0,0:0:0:0:
238,192,6727,2,0,L|133:177,1,98,0|0,1:0|0:0,0:0:0:0:
324,83,7062,1,0,1:0:0:0:
217,143,7229,1,0,0:0:0:0:
212,237,7397,1,0,1:0:0:0:
314,286,7564,1,0,0:0:0:0:
471,277,7732,6,0,L|363:283,1,98,2|0,1:0|0:0,0:0:0:0:
210,350,8067,2,0,L|197:243,1,98,0|0,1:0|0:0,0:0:0:0:
484,130,8403,2,0,L|278:123,1,196,2|0,1:0|1:0,0:0:0:0:
410,212,8905,1,0,0:0:0:0:
105,348,9073,6,0,P|70:270|157:187,1,196,2|0,1:0|1:0,0:0:0:0:
272,239,9576,2,0,L|279:114,1,98,0|0,0:0|1:0,0:0:0:0:
21,72,9911,1,0,0:0:0:0:
69,65,9994,1,0,0:0:0:0:
118,59,10078,1,0,1:0:0:0:
423,159,10246,6,0,L|209:140,1,196,14|2,0:0|1:0,0:0:0:0:
359,272,10749,2,0,L|374:170,1,98,10|4,0:0|3:0,0:0:0:0:
241,227,11084,2,0,L|130:227,1,98,0|0,0:0|0:0,0:0:0:0:
273,315,11419,2,0,L|406:314,1,98,0|0,0:0|0:0,0:0:0:0:
96,349,11755,6,0,L|91:240,1,98,2|2,1:0|0:0,0:0:0:0:
228,209,12090,1,0,1:0:0:0:
82,112,12257,2,0,L|294:137,2,196,2|2|2,0:0|0:0|0:0,0:0:0:0:
210,255,13095,6,0,L|231:150,1,98,0|0,1:0|0:0,0:0:0:0:
391,168,13431,2,0,L|416:55,1,98,0|0,1:0|0:0,0:0:0:0:
238,108,13766,2,0,P|180:179|248:258,1,196,2|2,1:0|1:0,0:0:0:0:
378,262,14269,1,0,0:0:0:0:
85,325,14436,6,0,L|200:326,2,98,2|0|0,1:0|0:0|1:0,0:0:0:0:
234,360,14939,2,0,L|248:258,1,98,2|0,0:0|1:0,0:0:0:0:
102,227,15274,2,0,L|115:123,1,98,2|0,0:0|1:0,0:0:0:0:
270,109,15609,6,0,L|53:87,1,196,2|0,0:0|0:0,0:0:0:0:
209,202,16112,2,0,L|331:197,1,98,0|0,1:0|0:0,0:0:0:0:
132,285,16447,2,0,P|113:192|163:158,1,147,6|0,3:0|0:0,0:0:0:0:
396,204,16782,2,0,L|411:95,1,98,10|0,3:0|0:0,0:0:0:0:
86,63,17118,6,0,L|301:52,1,196,6|10,1:0|0:0,0:0:0:0:
154,192,17620,2,0,L|141:88,1,98,0|0,0:0|1:0,0:0:0:0:
297,142,17956,1,2,1:0:0:0:
40,268,18123,2,0,L|144:280,1,98,10|0,0:0|0:0,0:0:0:0:
279,359,18458,6,0,L|292:248,1,98,2|0,1:0|0:0,0:0:0:0:
144,282,18794,1,8,0:0:0:0:
306,217,18961,2,0,L|101:195,1,196,2|0,0:0|1:0,0:0:0:0:
270,119,19464,2,0,L|406:142,1,98,10|0,0:0|0:0,0:0:0:0:
229,295,19799,6,0,P|177:217|265:149,1,196,0|8,1:0|0:0,0:0:0:0:
361,148,20302,1,0,3:0:0:0:
235,123,20470,2,0,L|122:123,1,98,2|0,1:0|1:0,0:0:0:0:
286,59,20805,2,0,L|393:59,1,98,8|0,0:0|0:0,0:0:0:0:
76,39,21140,5,2,1:0:0:0:
212,122,21308,2,0,L|264:110,2,49,0|0|8,1:0|0:0|0:0,0:0:0:0:
87,226,21643,2,0,L|78:162,1,49,0|0,1:0|0:0,0:0:0:0:
285,347,21810,1,10,0:0:0:0:
328,326,21893,1,0,0:0:0:0:
358,287,21977,1,0,1:0:0:0:
366,239,22061,1,0,1:0:0:0:
351,193,22145,1,8,0:0:0:0:
317,159,22228,1,8,0:0:0:0:
270,145,22312,1,8,0:0:0:0:
25,212,22481,6,0,L|38:98,1,98,2|2,1:0|0:0,0:0:0:0:
190,142,22816,1,8,0:0:0:0:
42,63,22984,1,2,1:0:0:0:
90,58,23067,1,8,0:0:0:0:
139,54,23151,1,0,1:0:0:0:
272,38,23319,1,2,0:0:0:0:
139,202,23486,2,0,L|126:80,1,98,8|2,0:0|0:0,0:0:0:0:
467,226,23822,6,0,L|358:236,2,98,0|0|10,1:0|0:0|0:0,0:0:0:0:
336,349,24324,1,0,0:0:0:0:
329,300,24407,1,2,0:0:0:0:
322,251,24491,1,2,1:0:0:0:
451,206,24660,1,2,0:0:0:0:
305,170,24827,2,0,L|198:184,1,98,10|0,0:0|0:0,0:0:0:0:
477,58,25162,6,0,L|378:70,1,98,2|2,1:0|0:0,0:0:0:0:
234,96,25498,1,8,0:0:0:0:
365,184,25665,1,2,1:0:0:0:
316,181,25748,1,8,0:0:0:0:
267,179,25832,1,0,1:0:0:0:
130,175,26000,1,2,0:0:0:0:
288,228,26168,1,8,0:0:0:0:
46,323,26336,6,0,P|22:239|116:180,1,196,2|0,0:0|0:0,0:0:0:0:
229,242,26838,2,0,L|251:142,1,98,10|0,0:0|0:0,0:0:0:0:
120,144,27174,2,0,L|16:126,1,98,2|0,1:0|0:0,0:0:0:0:
387,252,27509,2,0,P|422:172|361:117,1,147,10|0,3:0|0:0,0:0:0:0:
176,307,27844,6,0,P|141:226|230:150,1,196,6|10,3:0|3:0,0:0:0:0:
356,202,28347,1,0,0:0:0:0:
360,153,28430,1,0,0:0:0:0:
364,104,28514,1,4,3:0:0:0:
220,64,28682,1,6,3:0:0:0:
379,24,28850,1,0,0:0:0:0:
86,31,29017,6,0,P|26:100|100:182,1,196,10|4,3:0|3:0,0:0:0:0:
393,258,29520,1,10,3:0:0:0:
255,211,29688,1,0,0:0:0:0:
262,162,29771,1,0,0:0:0:0:
269,114,29855,1,4,3:0:0:0:
408,77,30023,1,4,3:0:0:0:
76,189,30190,2,0,L|188:190,1,98,10|0,3:0|0:0,0:0:0:0:
350,309,30525,6,0,L|363:191,1,98,4|0,3:0|0:0,0:0:0:0:
75,189,30861,1,8,3:0:0:0:
213,146,31028,2,0,L|277:146,2,49,0|0|6,0:0|0:0|3:0,0:0:0:0:
49,207,31363,2,0,L|44:101,1,98,4|0,3:0|0:0,0:0:0:0:
366,73,31699,1,8,3:0:0:0:
222,135,31866,6,0,L|227:248,1,98,2|4,0:0|3:0,0:0:0:0:
366,324,32201,2,0,L|258:332,1,98,8|0,3:0|0:0,0:0:0:0:
101,344,32537,2,0,L|86:271,1,49,10|8,3:0|3:0,0:0:0:0:
260,240,32704,2,0,L|269:179,1,49,8|0,3:0|0:0,0:0:0:0:
104,140,32872,2,0,L|40:140,1,49,4|4,3:0|3:0,0:0:0:0:
105,123,33039,2,0,L|167:122,1,49,4|4,3:0|3:0,0:0:0:0:
412,54,33207,6,0,P|474:116|400:196,1,196,6|0,1:0|0:0,0:0:0:0:
300,314,33710,2,0,L|292:197,1,98,8|0,3:0|0:0,0:0:0:0:
429,176,34045,1,0,1:0:0:0:
284,77,34213,2,0,L|387:67,1,98,10|0,0:0|0:0,0:0:0:0:
68,307,34548,6,0,P|44:224|136:154,1,196,2|0,1:0|0:0,0:0:0:0:
264,248,35051,2,0,L|283:41,1,196,10|4,3:0|3:0,0:0:0:0:
140,148,35553,2,0,L|44:131,1,98,10|0,0:0|3:0,0:0:0:0:
376,230,35889,6,0,L|170:261,1,196,6|0,1:0|3:0,0:0:0:0:
264,124,36391,2,0,L|465:148,1,196,10|0,3:0|1:0,0:0:0:0:
197,273,36894,2,0,L|308:267,1,98,8|0,0:0|3:0,0:0:0:0:
140,341,37229,6,0,P|114:251|216:191,1,196,2|0,1:0|3:0,0:0:0:0:
311,233,37732,2,0,P|342:144|242:77,1,196,10|0,3:0|1:0,0:0:0:0:
25,45,38235,2,0,L|31:167,1,98,12|0,0:0|0:0,0:0:0:0:
332,265,38570,6,0,L|470:253,2,98,6|2|8,1:0|1:0|0:0,0:0:0:0:
56,345,39073,2,0,L|66:239,1,98,2|0,1:0|0:0,0:0:0:0:
372,249,39408,2,0,L|390:143,1,98,2|8,1:0|0:0,0:0:0:0:
86,70,39743,6,0,L|300:55,1,196,2|0,1:0|1:0,0:0:0:0:
55,227,40246,1,8,0:0:0:0:
51,178,40329,1,0,1:0:0:0:
48,129,40413,1,0,1:0:0:0:
181,80,40581,1,10,0:0:0:0:
28,29,40749,1,0,1:0:0:0:
331,239,40917,2,0,L|436:230,1,98,10|0,0:0|0:0,0:0:0:0:
175,343,41252,6,0,L|171:274,1,49,10|0,0:0|0:0,0:0:0:0:
255,262,41419,2,0,L|256:196,1,49,2|0,1:0|0:0,0:0:0:0:
83,157,41587,2,0,L|24:157,1,49,8|0,0:0|0:0,0:0:0:0:
86,103,41755,2,0,L|147:102,1,49,2|0,1:0|1:0,0:0:0:0:
403,204,41922,6,0,L|411:139,1,49,8|0,0:0|1:0,0:0:0:0:
377,103,42090,2,0,L|321:93,1,49,10|0,0:0|1:0,0:0:0:0:
109,204,42257,2,0,L|101:139,1,49,8|8,0:0|0:0,0:0:0:0:
135,103,42425,2,0,L|191:93,1,49,10|8,0:0|0:0,0:0:0:0:
464,185,42593,6,0,L|343:178,2,98,8|10|6,0:0|0:0|1:0,0:0:0:0:
213,311,43263,2,0,L|393:291,2,147,8|8|8,3:0|3:0|3:0,0:0:0:0:
450,349,43933,6,0,P|498:273|368:148,1,294,2|2,0:0|0:0,0:0:0:0:
123,61,44939,2,0,L|420:92,1,294,2|0,0:0|1:0,0:0:0:0:
85,250,45609,2,0,L|71:145,1,98,8|0,0:0|1:0,0:0:0:0:
221,182,45944,2,0,L|332:188,1,98,0|0,0:0|0:0,0:0:0:0:
58,341,46280,2,0,P|31:271|112:206,1,147,4|0,1:0|0:0,0:0:0:0:
317,257,46615,6,0,P|362:187|272:104,1,196,2|8,1:0|0:0,0:0:0:0:
169,167,47118,2,0,L|161:46,1,98,0|0,3:0|1:0,0:0:0:0:
315,64,47453,1,0,3:0:0:0:
46,263,47620,2,0,L|157:254,1,98,10|0,0:0|3:0,0:0:0:0:
447,348,47956,6,0,P|486:263|391:192,1,196,2|8,1:0|0:0,0:0:0:0:
277,237,48458,2,0,L|276:124,1,98,0|2,3:0|1:0,0:0:0:0:
411,174,48794,1,0,3:0:0:0:
143,275,48961,2,0,L|25:273,1,98,8|2,0:0|3:0,0:0:0:0:
329,357,49296,6,0,L|339:249,1,98,0|0,1:0|3:0,0:0:0:0:
209,196,49632,1,8,0:0:0:0:
342,162,49799,2,0,L|404:167,2,49,0|0|0,3:0|0:0|1:0,0:0:0:0:
193,202,50134,1,0,3:0:0:0:
355,142,50302,1,10,0:0:0:0:
72,292,50470,6,0,L|57:177,1,98,2|0,3:0|1:0,0:0:0:0:
200,222,50805,2,0,L|308:206,1,98,2|8,3:0|0:0,0:0:0:0:
156,143,51140,2,0,L|53:154,1,98,2|0,3:0|1:0,0:0:0:0:
421,290,51475,2,0,L|434:179,1,98,2|8,3:0|0:0,0:0:0:0:
310,142,51810,1,2,3:0:0:0:
41,258,51978,6,0,L|143:258,1,98,6|0,1:0|0:0,0:0:0:0:
279,261,52313,1,8,0:0:0:0:
149,261,52481,1,2,3:0:0:0:
198,257,52564,1,0,0:0:0:0:
247,254,52648,1,6,1:0:0:0:
409,246,52816,1,0,0:0:0:0:
61,198,52984,2,0,L|55:87,1,98,8|2,0:0|3:0,0:0:0:0:
341,83,53319,6,0,L|212:92,2,98,6|0|8,1:0|0:0|0:0,0:0:0:0:
62,240,53822,1,2,3:0:0:0:
59,191,53905,1,0,0:0:0:0:
56,142,53989,1,6,1:0:0:0:
195,186,54157,1,0,0:0:0:0:
66,351,54324,2,0,L|60:251,1,98,8|2,0:0|3:0,0:0:0:0:
347,178,54660,6,0,L|214:167,1,98,6|0,1:0|0:0,0:0:0:0:
116,152,54995,1,10,0:0:0:0:
400,291,55162,2,0,L|422:194,1,98,2|0,3:0|1:0,0:0:0:0:
152,257,55498,2,0,L|49:247,1,98,2|8,1:0|0:0,0:0:0:0:
384,57,55833,6,0,L|164:84,1,196,6|2,1:0|1:0,0:0:0:0:
476,239,56336,2,0,L|481:131,1,98,10|0,0:0|0:0,0:0:0:0:
150,356,56671,1,2,1:0:0:0:
115,321,56754,1,0,1:0:0:0:
97,276,56838,1,2,1:0:0:0:
99,227,56922,1,0,1:0:0:0:
119,183,57006,1,10,0:0:0:0:
156,151,57089,1,8,0:0:0:0:
202,135,57173,1,8,0:0:0:0:
478,232,57341,6,0,P|520:153|414:78,1,196,6|8,1:0|0:0,0:0:0:0:
327,53,57844,2,0,L|225:62,1,98,0|0,3:0|1:0,0:0:0:0:
366,18,58179,1,0,3:0:0:0:
83,224,58347,2,0,L|77:120,1,98,10|0,0:0|3:0,0:0:0:0:
230,120,58682,6,0,L|22:91,1,196,2|8,1:0|0:0,0:0:0:0:
186,27,59185,1,0,3:0:0:0:
486,130,59352,2,0,L|486:241,1,98,2|0,1:0|3:0,0:0:0:0:
376,270,59688,1,8,0:0:0:0:
74,143,59855,6,0,L|307:160,1,196,2|0,3:0|0:0,0:0:0:0:
98,273,60358,2,0,L|91:170,1,98,8|0,0:0|3:0,0:0:0:0:
208,113,60693,1,0,1:0:0:0:
81,76,60861,1,0,3:0:0:0:
430,356,61028,1,10,0:0:0:0:
85,282,61196,6,0,L|194:279,1,98,2|0,3:0|1:0,0:0:0:0:
314,242,61531,2,0,L|328:137,1,98,2|8,3:0|0:0,0:0:0:0:
32,198,61866,2,0,L|141:195,1,98,2|0,3:0|1:0,0:0:0:0:
261,158,62201,2,0,L|275:53,1,98,2|8,3:0|0:0,0:0:0:0:
147,88,62537,1,2,3:0:0:0:
470,104,62704,6,0,L|356:113,2,98,6|0|8,1:0|0:0|0:0,0:0:0:0:
160,320,63207,1,2,3:0:0:0:
163,271,63290,1,0,0:0:0:0:
166,222,63374,1,6,1:0:0:0:
300,180,63542,1,0,0:0:0:0:
33,162,63710,2,0,L|38:51,1,98,8|2,0:0|3:0,0:0:0:0:
367,55,64045,5,6,1:0:0:0:
269,64,64212,1,0,0:0:0:0:
171,73,64380,1,8,0:0:0:0:
470,238,64548,1,2,3:0:0:0:
474,189,64631,1,0,0:0:0:0:
479,140,64715,1,6,1:0:0:0:
353,57,64883,1,0,0:0:0:0:
77,213,65051,2,0,L|69:105,1,98,8|2,0:0|3:0,0:0:0:0:
393,166,65386,6,0,L|176:186,1,196,6|10,1:0|0:0,0:0:0:0:
338,311,65889,2,0,L|354:198,1,98,2|0,3:0|1:0,0:0:0:0:
51,197,66224,2,0,L|154:180,1,98,2|8,1:0|0:0,0:0:0:0:
454,132,66559,6,0,L|234:121,1,196,6|0,1:0|1:0,0:0:0:0:
131,237,67062,2,0,L|112:125,1,98,8|2,0:0|1:0,0:0:0:0:
409,56,67397,1,10,0:0:0:0:
292,103,67565,2,0,L|302:175,1,49,2|0,1:0|1:0,0:0:0:0:
475,242,67732,2,0,L|416:254,1,49,10|8,0:0|0:0,0:0:0:0:
206,325,67900,2,0,L|121:339,1,49,10|8,0:0|0:0,0:0:0:0:
418,366,68067,6,0,P|470:286|389:219,1,196,2|10,1:0|0:0,0:0:0:0:
256,266,68570,2,0,L|257:64,1,196,2|0,3:0|3:0,0:0:0:0:
402,160,69073,2,0,L|506:142,1,98,10|0,0:0|0:0,0:0:0:0:
161,328,69408,6,0,L|167:212,1,98,2|0,1:0|3:0,0:0:0:0:
350,172,69743,2,0,L|240:152,1,98,10|0,0:0|3:0,0:0:0:0:
116,172,70079,2,0,L|142:66,1,98,2|2,1:0|1:0,0:0:0:0:
293,46,70414,1,8,0:0:0:0:
43,132,70581,6,0,L|259:120,1,196,6|0,1:0|1:0,0:0:0:0:
112,48,71084,1,8,0:0:0:0:
376,248,71252,2,0,L|174:248,1,196,6|0,1:0|1:0,0:0:0:0:
55,249,71755,1,8,0:0:0:0:
469,132,71922,6,0,L|253:120,1,196,6|0,1:0|1:0,0:0:0:0:
400,48,72425,1,8,0:0:0:0:
157,268,72593,2,0,L|144:155,1,98,2|2,1:0|0:0,0:0:0:0:
270,100,72928,1,2,1:0:0:0:
122,84,73095,2,0,L|21:98,1,98,10|2,0:0|1:0,0:0:0:0:
389,325,73431,6,0,P|441:248|359:176,1,196,6|10,1:0|0:0,0:0:0:0:
244,241,73933,2,0,L|238:138,1,98,2|0,3:0|1:0,0:0:0:0:
390,81,74269,2,0,L|164:62,1,196,2|0,3:0|3:0,0:0:0:0:
455,21,74771,6,0,L|256:41,1,196,2|10,1:0|0:0,0:0:0:0:
399,96,75274,1,2,3:0:0:0:
157,321,75442,2,0,L|153:262,1,49,0|0,1:0|0:0,0:0:0:0:
230,248,75609,2,0,L|229:191,1,49,2|0,3:0|0:0,0:0:0:0:
159,166,75777,2,0,L|102:169,1,49,8|0,0:0|0:0,0:0:0:0:
161,136,75944,2,0,L|216:133,1,49,0|0,0:0|0:0,0:0:0:0:
427,224,76112,6,0,L|440:122,1,98,10|10,0:0|0:0,0:0:0:0:
212,134,76615,2,0,L|198:32,1,98,10|10,0:0|0:0,0:0:0:0:
354,57,77118,1,10,0:0:0:0:
56,38,77285,5,10,0:0:0:0:
229,90,77620,2,0,L|216:198,1,98,2|10,0:0|0:0,0:0:0:0:
79,230,77956,1,0,0:0:0:0:
230,304,78123,6,0,L|301:304,2,65.3333333333333,8|0|0,0:0|1:0|1:0,0:0:0:0:
111,249,78458,2,0,L|44:248,2,65.3333333333333,8|4|4,3:0|3:0|3:0,0:0:0:0:
384,338,78804,6,0,L|399:237,1,98,2|2,0:0|0:0,0:0:0:0:
221,205,79306,2,0,L|205:101,1,98,2|2,0:0|0:0,0:0:0:0:
425,142,79809,2,0,L|325:132,1,98,2|2,0:0|0:0,0:0:0:0:
148,261,80312,2,0,L|260:245,1,98,2|2,0:0|0:0,0:0:0:0:
84,341,80814,6,0,L|69:126,1,196,0|0,3:0|0:0,0:0:0:0:
255,161,81485,6,0,L|360:144,1,98,2|2,0:0|0:0,0:0:0:0:
213,261,81988,2,0,L|100:255,1,98,2|2,0:0|0:0,0:0:0:0:
302,347,82491,2,0,L|321:248,1,98,2|2,0:0|0:0,0:0:0:0:
136,194,82993,2,0,L|155:83,1,98,2|2,0:0|3:0,0:0:0:0:
409,71,83506,6,0,L|289:76,1,98,10|2,0:0|1:0,0:0:0:0:
184,159,83841,2,0,L|78:160,1,98,2|10,0:0|0:0,0:0:0:0:
438,335,84176,6,0,L|446:211,1,98,6|0,1:0|0:0,0:0:0:0:
204,141,84692,2,0,L|404:122,1,196,2|2,1:0|0:0,0:0:0:0:
80,73,85362,6,0,L|279:91,1,196,2|10,1:0|0:0,0:0:0:0:
120,280,86032,2,0,P|85:199|151:120,1,196,2|6,0:0|1:0,0:0:0:0:
347,85,86870,6,0,L|129:71,1,196,6|0,1:0|0:0,0:0:0:0:
289,269,87372,2,0,P|335:190|267:116,1,196,2|2,1:0|0:0,0:0:0:0:
155,181,87875,2,0,L|142:76,1,98,2|2,1:0|1:0,0:0:0:0:
316,97,88356,1,8,0:0:0:0:
126,28,88691,2,0,L|351:49,1,196,10|6,0:0|1:0,0:0:0:0:
101,318,89529,6,0,P|79:237|242:122,1,294,6|2,1:0|1:0,0:0:0:0:
403,98,90534,2,0,L|92:98,1,294,2|10,1:0|0:0,0:0:0:0:
323,181,91540,1,10,0:0:0:0:
76,298,91708,2,0,P|44:210|149:144,1,196,4|8,1:0|0:0,0:0:0:0:
415,275,92210,6,0,P|464:197|336:67,1,294,6|2,1:0|1:0,0:0:0:0:
216,47,93048,2,0,L|413:62,1,196,2|2,0:0|1:0,0:0:0:0:
126,255,93719,2,0,L|124:118,1,98,10|4,0:0|1:0,0:0:0:0:
247,138,94054,2,0,L|307:131,2,49,2|8|8,1:0|0:0|0:0,0:0:0:0:
89,197,94389,2,0,L|83:133,1,49,2|0,0:0|0:0,0:0:0:0:
243,91,94557,2,0,L|294:81,1,49,8|8,0:0|0:0,0:0:0:0:
80,81,94724,2,0,L|73:21,1,49,8|8,0:0|0:0,0:0:0:0:
419,308,94902,6,0,P|461:216|376:162,1,196,2|10,1:0|0:2,0:0:0:0:
93,308,95405,2,0,P|51:216|136:162,1,196,2|2,3:0|1:0,0:0:0:0:
249,212,95908,2,0,L|366:211,1,98,10|2,0:0|3:0,0:0:0:0:
93,308,96243,6,0,P|51:216|136:162,1,196,0|10,1:0|0:0,0:0:0:0:
419,308,96746,2,0,P|461:216|376:162,1,196,2|8,3:0|0:0,0:0:0:0:
350,160,97165,1,8,0:0:0:0:
300,158,97249,1,2,0:0:0:0:
177,159,97416,1,10,0:0:0:0:
426,74,97584,6,0,L|240:76,2,147,2|2|2,1:0|3:0|1:0,0:0:0:0:
261,151,98254,2,0,L|98:153,2,147,2|2|2,1:0|3:0|1:0,0:0:0:0:
410,213,98924,6,0,L|469:214,2,49,10|8|0,0:0|0:0|1:0,0:0:0:0:
269,212,99260,1,10,0:0:0:0:
111,208,99427,2,0,L|56:208,2,49,0|10|0,0:0|0:0|1:0,0:0:0:0:
248,213,99762,2,0,L|299:213,2,49,8|8|8,0:0|0:0|0:0,0:0:0:0:
173,224,100014,2,0,L|121:224,2,49,0|8|8,0:0|0:0|0:0,0:0:0:0:
350,273,100265,6,0,P|400:187|322:123,1,196,6|8,1:0|0:0,0:0:0:0:
210,207,100768,2,0,L|205:90,1,98,2|0,3:0|1:0,0:0:0:0:
317,197,101103,1,0,1:0:0:0:
217,289,101271,2,0,L|109:296,1,98,10|2,0:0|3:0,0:0:0:0:
441,335,101606,5,8,3:0:0:0:
288,256,101774,1,8,0:0:0:0:
281,207,101857,1,8,0:0:0:0:
275,158,101941,1,4,3:0:0:0:
134,213,102109,2,0,L|121:154,1,49,8|0,0:0|0:0,0:0:0:0:
269,113,102276,2,0,L|324:100,1,49,8|8,0:0|0:0,0:0:0:0:
101,76,102444,2,0,L|-3:96,2,98,4|8|0,3:0|0:0|0:0,0:0:0:0:
405,104,102947,5,2,1:0:0:0:
261,138,103114,1,0,0:0:0:0:
220,163,103197,1,8,0:0:0:0:
200,207,103281,1,10,0:0:0:0:
207,255,103365,1,8,0:0:0:0:
240,291,103449,1,6,3:0:0:0:
394,323,103617,1,0,0:0:0:0:
240,291,103785,1,10,0:0:0:0:
191,290,103868,1,8,0:0:0:0:
142,290,103952,1,6,3:0:0:0:
278,218,104120,2,0,L|346:217,1,49,10|0,0:0|0:0,0:0:0:0:
74,216,104288,6,0,L|74:105,1,98,2|8,1:0|0:0,0:0:0:0:
137,102,104539,1,8,0:0:0:0:
324,96,104623,2,0,L|386:96,1,49,10|8,1:2|0:0,0:0:0:0:
178,168,104790,2,0,L|124:168,1,49,8|8,0:0|0:0,0:0:0:0:
326,132,104958,2,0,L|391:132,1,49,10|8,1:2|0:0,0:0:0:0:
145,235,105125,1,0,0:0:0:0:
47,235,105280,1,0,1:0:0:0:
380,301,105447,5,10,0:0:0:0:
108,291,118352,6,0,L|95:186,1,98,0|0,0:0|0:0,0:0:0:0:
255,208,118687,2,0,L|407:201,1,147,0|0,0:0|0:0,0:0:0:0:
352,201,119023,2,0,L|190:207,1,147,0|0,0:0|0:0,0:0:0:0:
249,186,119358,2,0,L|406:182,1,147,0|0,0:0|0:0,0:0:0:0:
175,286,119707,6,0,L|52:291,1,98,2|0,1:0|3:0,0:0:0:0:
336,329,120042,2,0,L|444:343,1,98,8|0,0:0|3:0,0:0:0:0:
185,221,120377,1,0,1:0:0:0:
64,128,120544,1,0,3:0:0:0:
195,44,120712,2,0,L|89:45,1,98,10|0,0:0|3:0,0:0:0:0:
376,317,121047,6,0,P|430:278|414:149,1,196,2|8,1:0|0:0,0:0:0:0:
303,169,121550,1,0,3:0:0:0:
176,273,121718,2,0,L|162:172,1,98,2|0,1:0|3:0,0:0:0:0:
313,87,122053,2,0,L|438:88,1,98,8|2,0:0|3:0,0:0:0:0:
278,298,122388,6,2,P|217:244|287:166,1,196,0|8,1:0|0:0,0:0:0:0:
415,231,122891,2,0,P|476:177|406:99,1,196,0|0,3:0|3:0,0:0:0:0:
289,100,123394,1,10,0:0:0:0:
36,306,123561,6,0,P|95:285|155:288,1,98,2|0,3:0|1:0,0:0:0:0:
276,212,123896,2,0,L|261:308,1,98,2|8,3:0|0:0,0:0:0:0:
128,128,124232,2,0,P|187:107|247:110,1,98,2|0,3:0|1:0,0:0:0:0:
352,96,124567,2,0,P|293:75|233:78,2,98,2|8|2,3:0|0:0|3:0,0:0:0:0:
112,274,125070,6,0,P|124:200|246:154,1,196,6|8,1:0|0:0,0:0:0:0:
120,150,125572,1,2,3:0:0:0:
365,250,125740,2,0,P|356:183|234:120,1,196,6|8,1:0|0:0,0:0:0:0:
141,119,126243,1,2,3:0:0:0:
400,274,126410,6,0,P|388:200|266:154,1,196,6|8,1:0|0:0,0:0:0:0:
392,150,126912,1,0,0:0:0:0:
147,250,127080,2,0,P|156:183|278:120,1,196,6|8,1:0|0:0,0:0:0:0:
383,120,127583,1,2,3:0:0:0:
104,331,127751,6,0,L|95:218,1,98,6|0,1:0|0:0,0:0:0:0:
221,233,128086,1,10,0:0:0:0:
373,208,128254,2,0,L|269:211,1,98,2|0,3:0|1:0,0:0:0:0:
23,117,128589,2,0,L|144:113,1,98,2|8,1:0|0:0,0:0:0:0:
374,333,128924,6,0,P|431:292|360:205,1,196,6|2,1:0|1:0,0:0:0:0:
256,125,129427,2,0,L|385:126,1,98,10|0,0:0|0:0,0:0:0:0:
195,245,129762,1,2,1:0:0:0:
163,207,129846,1,0,1:0:0:0:
176,159,129930,1,2,1:0:0:0:
217,132,130014,1,0,1:0:0:0:
390,154,130098,1,10,0:0:0:0:
397,106,130181,1,8,0:0:0:0:
371,63,130265,1,8,0:0:0:0:
325,44,130349,1,8,0:0:0:0:
181,326,130433,6,0,P|81:315|-20:323,2,196,6|8|0,1:0|0:0|1:0,0:0:0:0:
448,287,131438,2,0,L|456:161,1,98,10|0,0:0|3:0,0:0:0:0:
193,127,131774,6,0,L|51:114,2,98,2|0|8,1:0|3:0|0:0,0:0:0:0:
321,50,132276,2,0,L|209:39,1,98,0|2,3:0|1:0,0:0:0:0:
86,258,132612,2,0,L|72:143,1,98,0|8,3:0|0:0,0:0:0:0:
202,158,132947,1,2,3:0:0:0:
463,282,133114,6,0,P|455:216|348:151,1,196,0|8,1:0|0:0,0:0:0:0:
234,153,133617,2,0,L|436:131,1,196,0|0,3:0|3:0,0:0:0:0:
317,135,134120,1,10,0:0:0:0:
73,284,134288,6,0,L|59:174,1,98,2|0,3:0|1:0,0:0:0:0:
185,112,134623,2,0,L|76:111,1,98,2|8,3:0|0:0,0:0:0:0:
229,238,134958,2,0,L|246:105,1,98,2|0,3:0|1:0,0:0:0:0:
116,78,135293,2,0,L|229:76,2,98,2|8|2,3:0|0:0|3:0,0:0:0:0:
414,277,135796,6,0,P|482:224|405:138,1,196,6|8,1:0|0:0,0:0:0:0:
326,141,136299,1,2,3:0:0:0:
91,279,136466,2,0,P|23:226|100:140,1,196,6|8,1:0|0:0,0:0:0:0:
216,139,136969,1,2,3:0:0:0:
461,148,137137,6,0,L|253:143,1,196,6|8,1:0|0:0,0:0:0:0:
372,145,137639,1,2,3:0:0:0:
143,290,137807,1,6,1:0:0:0:
30,225,137975,1,0,0:0:0:0:
30,225,138142,1,8,0:0:0:0:
143,290,138310,1,2,3:0:0:0:
454,300,138477,6,0,L|463:184,1,98,6|0,1:0|0:0,0:0:0:0:
346,198,138813,1,10,0:0:0:0:
96,256,138980,2,0,L|214:242,1,98,2|0,3:0|1:0,0:0:0:0:
460,100,139315,2,0,L|347:88,1,98,2|8,1:0|0:0,0:0:0:0:
98,344,139651,6,0,P|52:288|143:234,1,196,6|0,1:0|1:0,0:0:0:0:
260,230,140153,2,0,L|153:235,1,98,8|2,0:0|1:0,0:0:0:0:
452,297,140489,2,0,L|484:189,1,98,10|2,0:0|1:0,0:0:0:0:
154,179,140824,2,0,L|129:80,1,98,10|10,0:0|0:0,0:0:0:0:
186,40,141075,1,8,0:0:0:0:
388,230,141159,6,0,L|500:218,1,98,2|0,1:0|3:0,0:0:0:0:
352,352,141494,1,10,0:0:0:0:
291,287,141662,1,2,3:0:0:0:
286,199,141829,1,0,1:0:0:0:
345,133,141997,1,0,3:0:0:0:
461,80,142165,2,0,L|342:83,1,98,10|0,0:0|0:0,0:0:0:0:
63,334,142500,6,0,L|54:220,1,98,2|0,1:0|3:0,0:0:0:0:
195,239,142835,2,0,L|326:221,1,98,10|0,0:0|3:0,0:0:0:0:
431,135,143170,2,0,L|328:120,1,98,2|2,1:0|1:0,0:0:0:0:
192,160,143505,2,0,L|175:91,1,49,8|8,0:0|0:0,0:0:0:0:
421,304,143673,6,0,P|456:255|369:180,1,196,6|0,1:0|1:0,0:0:0:0:
110,308,144176,2,0,L|234:289,1,98,12|2,0:0|1:0,0:0:0:0:
319,201,144511,2,0,L|218:188,1,98,8|0,0:0|1:0,0:0:0:0:
94,220,144846,2,0,L|75:106,1,98,14|2,0:0|1:0,0:0:0:0:
343,104,145181,6,0,L|451:105,1,98,12|2,0:0|1:0,0:0:0:0:
145,251,145517,2,0,L|36:252,1,98,12|2,0:0|0:0,0:0:0:0:
448,237,145852,2,0,L|276:219,1,130.666666666667,2|8,1:0|0:0,0:0:0:0:
134,182,146187,2,0,L|38:197,2,65.3333333333333,10|8|8,0:0|0:0|0:0,0:0:0:0:
379,336,146522,6,0,L|386:223,1,98,6|0,1:0|0:0,0:0:0:0:
256,222,146857,2,0,L|246:120,1,98,2|2,0:0|1:0,0:0:0:0:
381,127,147193,1,8,0:0:0:0:
260,126,147360,1,2,1:0:0:0:
444,125,147695,1,0,0:0:0:0:
148,308,147863,2,0,L|45:283,1,98,2|8,1:0|0:0,0:0:0:0:
171,215,148198,2,0,L|301:187,1,98,2|2,0:0|1:0,0:0:0:0:
149,126,148533,1,8,0:0:0:0:
261,243,148701,2,0,P|273:165|154:113,1,196,2|0,1:0|0:0,0:0:0:0:
63,107,149204,5,10,0:0:0:0:
336,109,149371,1,10,0:0:0:0:
449,107,149707,1,10,0:0:0:0:
176,109,149874,1,10,0:0:0:0:
87,111,150209,1,10,0:0:0:0:
455,105,150377,1,10,0:0:0:0:
189,108,150712,6,0,L|80:113,2,98,2|12|0,1:0|0:0|0:0,0:0:0:0:
322,111,151215,2,0,L|337:47,2,49,10|0|0,0:0|0:0|1:0,0:0:0:0:
195,290,151550,2,0,L|184:185,1,98,2|8,1:0|0:0,0:0:0:0:
245,169,151801,1,8,0:0:0:0:
444,246,151885,6,0,L|473:121,1,98,6|0,1:0|0:0,0:0:0:0:
335,120,152220,2,0,L|447:101,1,98,10|0,0:0|3:0,0:0:0:0:
298,227,152556,2,0,L|186:216,2,98,2|2|8,1:0|3:0|0:0,0:0:0:0:
443,283,153058,2,0,L|336:296,1,98,2|0,3:0|1:0,0:0:0:0:
109,338,153394,2,0,L|220:354,1,98,2|8,3:0|0:0,0:0:0:0:
348,241,153729,2,0,L|237:257,1,98,2|0,3:0|1:0,0:0:0:0:
101,144,154064,2,0,L|212:160,1,98,2|8,3:0|0:0,0:0:0:0:
321,129,154399,1,2,3:0:0:0:
62,294,154567,6,0,P|49:225|143:157,1,196,0|10,1:0|0:0,0:0:0:0:
257,156,155070,1,0,3:0:0:0:
120,101,155237,2,0,L|21:88,2,98,2|2|8,1:0|3:0|0:0,0:0:0:0:
393,324,155740,6,0,L|401:218,1,98,2|0,3:0|1:0,0:0:0:0:
262,224,156075,2,0,L|254:120,1,98,2|8,3:0|0:0,0:0:0:0:
424,274,156410,2,0,L|432:168,1,98,2|0,3:0|1:0,0:0:0:0:
293,174,156745,2,0,L|285:70,1,98,2|8,3:0|0:0,0:0:0:0:
437,56,157081,2,0,L|346:47,1,49,2|0,3:0|3:0,0:0:0:0:
145,293,157248,6,0,P|111:224|231:169,1,196,0|10,1:0|0:0,0:0:0:0:
322,155,157751,1,0,3:0:0:0:
172,153,157919,2,0,L|45:152,2,98,2|2|8,1:0|3:0|0:0,0:0:0:0:
413,322,158422,2,0,L|520:317,1,98,2|0,3:0|1:0,0:0:0:0:
368,240,158757,2,0,L|261:235,1,98,0|8,3:0|0:0,0:0:0:0:
400,125,159092,2,0,L|507:120,1,98,2|0,3:0|1:0,0:0:0:0:
355,43,159427,2,0,L|248:38,1,98,2|8,3:0|0:0,0:0:0:0:
396,169,159762,1,2,3:0:0:0:
128,320,159930,6,0,L|330:293,1,196,4|10,1:0|0:0,0:0:0:0:
436,341,160433,1,0,3:0:0:0:
186,245,160600,2,0,L|160:111,1,98,2|2,1:0|3:0,0:0:0:0:
292,99,160936,1,8,0:0:0:0:
172,91,161103,1,10,0:0:0:0:
462,214,161271,5,0,1:0:0:0:
342,235,161438,2,0,L|327:177,1,49,10|0,0:0|0:0,0:0:0:0:
373,118,161606,1,8,0:0:0:0:
500,116,161774,1,2,0:0:0:0:
138,306,161941,1,0,1:0:0:0:
106,274,162025,1,0,0:0:0:0:
119,232,162109,1,10,0:0:0:0:
160,218,162193,1,8,0:0:0:0:
364,226,162276,2,0,L|304:227,1,49,8|8,0:0|0:0,0:0:0:0:
110,232,162444,1,6,1:0:0:0:
256,192,162612,12,0,171159,0:0:0:0:
