osu file format v14

[General]
AudioFilename: audio.mp3
AudioLeadIn: 0
PreviewTime: 118268
Countdown: 0
SampleSet: Soft
StackLeniency: 0.7
Mode: 0
LetterboxInBreaks: 0
WidescreenStoryboard: 0

[Editor]
Bookmarks: 84157,94883,105442,108291,113654,117509,162425,171308
DistanceSpacing: 1
BeatDivisor: 4
GridSize: 32
TimelineZoom: 1.4

[Metadata]
Title:crossing field
TitleUnicode:crossing field
Artist:LiSA
ArtistUnicode:LiSA
Creator:Sotarks
Version:Akitoshi's Normal
Source:ソードアート・オンライン
Tags:opening op sword art online kirito asuna ascendance spectator akitoshi corinn mugiwarasekai irohas kyuukai yaleufeu
BeatmapID:1482115
BeatmapSetID:700024

[Difficulty]
HPDrainRate:4
CircleSize:3
OverallDifficulty:4
ApproachRate:5
SliderMultiplier:0.999999999999999
SliderTickRate:1

[Events]
//Background and Video events
0,0,"BG.jpg",0,0
//Break Periods
2,84157,93702
2,108291,112459
//Storyboard Layer 0 (Background)
//Storyboard Layer 1 (Fail)
//Storyboard Layer 2 (Pass)
//Storyboard Layer 3 (Foreground)
//Storyboard Sound Samples

[TimingPoints]
-312,335.195530726257,4,2,22,32,1,0
358,-111.111111111111,4,2,22,30,0,0
6391,-100,4,2,22,70,0,0
11755,-100,4,2,22,50,0,0
17118,-100,4,2,22,70,0,0
33207,-100,4,2,22,60,0,0
38570,-100,4,2,22,70,0,0
43933,-100,4,2,22,60,0,0
46615,-95.2380952380952,4,2,22,80,0,1
77285,-100,4,2,22,30,0,0
78804,335.195530726257,4,2,22,52,1,0
83506,335.195530726257,4,2,22,52,1,0
84176,335.195530726257,4,2,22,62,1,0
84692,335.195530726257,4,2,22,62,1,0
86870,335.195530726257,4,2,22,62,1,0
88356,335.195530726257,4,2,22,62,1,0
89529,335.195530726257,4,2,22,62,1,0
94902,335.195530726257,4,2,22,72,1,0
105280,335.195530726257,4,2,22,72,1,0
119707,335.195530726257,4,2,22,82,1,1
119707,-95.2380952380952,4,2,22,82,0,1
150377,-100,4,2,22,62,0,0

[Colours]
Combo1 : 109,77,147
Combo2 : 44,91,143
Combo3 : 244,217,187

[HitObjects]
200,202,358,6,0,L|247:199,2,44.999998626709,2|2|2,0:0|0:0|0:0,0:0:0:0:
137,138,1028,6,0,P|74:116|119:226,1,269.999991760254,2|2,3:0|0:0,0:0:0:0:
200,202,2369,2,0,B|294:173|286:251|385:220,1,179.999994506836,2|2,3:0|3:0,0:0:0:0:
474,74,3710,6,0,P|408:39|291:54,1,179.999994506836,2|0,3:0|3:0,0:0:0:0:
176,87,4883,2,0,L|79:80,2,89.999997253418,2|2|2,3:0|3:0|3:0,0:0:0:0:
224,163,5889,2,0,P|243:211|241:269,1,89.999997253418,2|0,3:0|0:0,0:0:0:0:
236,298,6391,6,0,L|353:291,1,99.9999999999999,6|0,1:0|1:0,0:0:0:0:
435,283,7062,1,0,1:0:0:0:
490,199,7397,1,0,1:0:0:0:
444,109,7732,2,0,P|398:93|333:101,1,99.9999999999999,2|0,1:0|1:0,0:0:0:0:
259,143,8403,2,0,P|213:159|148:151,1,99.9999999999999,2|0,1:0|1:0,0:0:0:0:
68,121,9073,6,0,L|63:224,1,99.9999999999999,2|0,1:0|1:0,0:0:0:0:
89,317,9743,2,0,P|139:328|191:318,1,99.9999999999999,0|0,1:0|1:0,0:0:0:0:
228,291,10246,2,0,P|278:280|330:290,1,99.9999999999999,14|2,0:0|1:0,0:0:0:0:
374,316,10749,1,10,0:0:0:0:
374,316,10917,1,4,3:0:0:0:
172,168,11755,6,0,L|61:173,2,99.9999999999999,2|0|0,1:0|1:0|0:0,0:0:0:0:
264,129,12760,1,0,0:0:0:0:
358,97,13095,2,0,L|469:102,2,99.9999999999999,0|0|2,1:0|1:0|1:0,0:0:0:0:
264,129,14101,1,2,1:0:0:0:
192,59,14436,6,0,P|134:48|84:63,2,99.9999999999999,2|0|0,1:0|1:0|1:0,0:0:0:0:
264,129,15442,1,0,1:0:0:0:
337,196,15777,2,0,P|395:207|445:192,1,99.9999999999999,0|0,1:0|1:0,0:0:0:0:
510,133,16447,1,6,3:0:0:0:
475,39,16782,1,10,3:0:0:0:
375,27,17118,6,0,P|332:42|265:31,1,99.9999999999999,6|10,1:0|0:0,0:0:0:0:
231,21,17620,2,0,L|227:179,1,150,0|10,0:0|0:0,0:0:0:0:
222,271,18458,2,0,P|179:291|112:289,1,99.9999999999999,2|8,1:0|0:0,0:0:0:0:
78,279,18961,2,0,L|67:120,1,150,2|10,0:0|0:0,0:0:0:0:
127,48,19799,6,0,P|177:36|232:54,2,99.9999999999999,0|8|2,1:0|0:0|1:0,0:0:0:0:
176,135,20805,1,8,0:0:0:0:
229,219,21140,2,0,L|341:209,1,99.9999999999999,2|8,1:0|0:0,0:0:0:0:
414,159,21810,2,0,B|441:204|418:255|418:255|431:315,1,150,10|8,0:0|0:0,0:0:0:0:
435,353,22481,6,0,P|388:371|276:342,1,150,2|2,1:0|1:0,0:0:0:0:
216,287,23319,1,2,0:0:0:0:
279,210,23654,2,0,P|326:192|438:221,1,150,2|10,0:0|0:0,0:0:0:0:
500,147,24492,2,0,P|508:93|493:47,1,99.9999999999999,2|10,1:0|0:0,0:0:0:0:
396,35,25162,6,0,B|297:51|297:51|238:39,1,150,2|2,1:0|1:0,0:0:0:0:
150,18,26000,1,2,0:0:0:0:
62,66,26336,2,0,P|35:126|50:206,1,150,2|10,0:0|0:0,0:0:0:0:
122,275,27174,2,0,L|229:266,1,99.9999999999999,2|10,1:0|3:0,0:0:0:0:
286,190,27844,6,0,L|442:204,2,150,6|0|0,3:0|0:0|0:0,0:0:0:0:
248,167,29017,1,10,3:0:0:0:
248,167,29185,2,0,P|237:111|249:61,1,99.9999999999999,0|10,0:0|3:0,0:0:0:0:
327,13,29855,2,0,P|380:31|418:66,1,99.9999999999999,4|10,3:0|3:0,0:0:0:0:
457,148,30525,6,0,L|451:259,1,99.9999999999999,4|8,3:0|3:0,0:0:0:0:
391,328,31196,2,0,P|348:296|204:304,1,200,6|2,3:0|0:0,0:0:0:0:
132,366,32201,1,8,3:0:0:0:
51,306,32537,2,0,B|43:257|43:257|65:212|65:212|52:141,1,150,10|4,3:0|3:0,0:0:0:0:
56,112,33207,6,0,P|122:67|200:86,2,150,6|8|10,1:0|3:0|0:0,0:0:0:0:
140,166,34548,2,0,L|128:328,2,150,2|10|10,1:0|3:0|0:0,0:0:0:0:
187,77,35889,6,0,P|253:32|331:51,2,150,6|10|8,1:0|3:0|0:0,0:0:0:0:
271,131,37230,2,0,L|259:293,2,150,2|10|12,1:0|3:0|0:0,0:0:0:0:
318,42,38570,6,0,P|388:39|462:97,1,150,6|2,1:0|1:0,0:0:0:0:
482,177,39408,1,2,1:0:0:0:
412,249,39743,2,0,L|244:231,1,150,2|8,1:0|0:0,0:0:0:0:
200,154,40581,2,0,L|85:166,1,99.9999999999999,10|10,0:0|0:0,0:0:0:0:
15,217,41252,6,0,P|14:294|66:351,1,150,10|2,0:0|1:0,0:0:0:0:
156,371,42090,1,10,0:0:0:0:
224,298,42425,2,0,P|302:293|367:333,1,150,10|6,0:0|1:0,0:0:0:0:
447,275,43263,2,0,L|439:189,2,74.9999999999999,8|8|8,3:0|3:0|3:0,0:0:0:0:
486,305,43933,5,2,0:0:0:0:
260,106,44939,2,0,P|206:130|110:110,1,150,2|0,0:0|1:0,0:0:0:0:
80,93,45609,1,8,0:0:0:0:
80,93,45777,1,0,1:0:0:0:
335,34,46615,6,0,L|450:42,2,104.999996795654,2|8|0,1:0|0:0|1:0,0:0:0:0:
230,26,47620,1,10,0:0:0:0:
144,87,47956,2,0,P|133:135|150:198,1,104.999996795654,2|8,1:0|0:0,0:0:0:0:
199,278,48626,2,0,B|253:269|253:269|310:282,1,104.999996795654,2|8,1:0|0:0,0:0:0:0:
351,299,49129,6,0,B|360:249|360:249|345:197|345:197|355:138,1,157.499995193481,2|8,3:0|0:0,0:0:0:0:
370,41,49967,1,0,1:0:0:0:
269,31,50302,1,10,0:0:0:0:
269,31,50470,2,0,P|221:51|158:46,1,104.999996795654,2|2,3:0|3:0,0:0:0:0:
67,21,51140,1,2,3:0:0:0:
2,103,51475,2,0,L|12:222,1,104.999996795654,2|2,3:0|3:0,0:0:0:0:
44,248,51978,6,0,P|92:228|155:233,1,104.999996795654,6|8,1:0|0:0,0:0:0:0:
247,250,52648,2,0,P|295:230|358:235,1,104.999996795654,6|8,1:0|0:0,0:0:0:0:
365,335,53319,2,0,P|317:355|254:350,1,104.999996795654,6|8,1:0|0:0,0:0:0:0:
162,333,53989,2,0,P|114:353|51:348,1,104.999996795654,6|8,1:0|0:0,0:0:0:0:
24,252,54660,6,0,L|32:85,1,157.499995193481,6|2,1:0|3:0,0:0:0:0:
115,31,55498,1,2,1:0:0:0:
217,59,55833,2,0,B|260:81|260:81|383:63,1,157.499995193481,6|10,1:0|0:0,0:0:0:0:
473,59,56671,2,0,P|503:130|464:218,1,157.499995193481,2|8,1:0|0:0,0:0:0:0:
442,241,57341,6,0,P|465:295|467:344,2,104.999996795654,6|8|0,1:0|0:0|1:0,0:0:0:0:
354,181,58347,1,10,0:0:0:0:
268,241,58682,2,0,L|146:236,1,104.999996795654,2|8,1:0|0:0,0:0:0:0:
71,185,59352,2,0,B|55:136|55:136|71:83,1,104.999996795654,2|8,1:0|0:0,0:0:0:0:
96,39,59855,6,0,B|155:48|155:48|197:32|197:32|260:41,1,157.499995193481,2|8,3:0|0:0,0:0:0:0:
353,54,60693,1,0,1:0:0:0:
430,133,61028,1,10,0:0:0:0:
430,133,61196,2,0,P|442:189|429:240,1,104.999996795654,2|2,3:0|3:0,0:0:0:0:
372,321,61866,1,2,3:0:0:0:
267,306,62201,2,0,P|211:294|160:307,1,104.999996795654,2|2,3:0|3:0,0:0:0:0:
117,325,62704,6,0,L|107:218,1,104.999996795654,6|8,1:0|0:0,0:0:0:0:
20,160,63375,2,0,L|30:53,1,104.999996795654,6|8,1:0|0:0,0:0:0:0:
129,21,64045,2,0,L|139:128,1,104.999996795654,6|8,1:0|0:0,0:0:0:0:
226,186,64716,2,0,L|216:293,1,104.999996795654,6|0,1:0|0:0,0:0:0:0:
279,374,65386,6,0,P|340:344|436:358,1,157.499995193481,6|2,1:0|3:0,0:0:0:0:
504,282,66224,1,2,1:0:0:0:
449,192,66559,2,0,B|345:208|345:208|281:182,1,157.499995193481,6|8,1:0|0:0,0:0:0:0:
204,137,67397,2,0,P|124:135|60:184,1,157.499995193481,10|10,0:0|0:0,0:0:0:0:
21,210,68067,6,0,L|11:103,1,104.999996795654,2|10,1:0|0:0,0:0:0:0:
85,31,68738,1,0,1:0:0:0:
189,31,69073,1,10,0:0:0:0:
263,105,69408,2,0,P|313:116|376:103,1,104.999996795654,2|10,1:0|0:0,0:0:0:0:
461,64,70079,2,0,L|474:177,1,104.999996795654,2|8,1:0|0:0,0:0:0:0:
464,219,70581,6,0,P|403:253|303:240,1,157.499995193481,6|8,1:0|0:0,0:0:0:0:
269,225,71252,2,0,P|208:191|108:204,1,157.499995193481,6|8,1:0|0:0,0:0:0:0:
73,215,71922,2,0,B|46:140|46:140|72:66,1,157.499995193481,6|8,1:0|0:0,0:0:0:0:
99,20,72593,2,0,B|173:46|173:46|247:20,1,157.499995193481,2|10,1:0|0:0,0:0:0:0:
352,18,73431,6,0,L|340:191,1,157.499995193481,6|2,1:0|3:0,0:0:0:0:
327,279,74269,2,0,P|377:296|434:286,1,104.999996795654,2|0,3:0|3:0,0:0:0:0:
478,274,74771,2,0,L|467:116,1,157.499995193481,2|2,1:0|3:0,0:0:0:0:
393,41,75609,2,0,P|343:24|286:34,1,104.999996795654,2|0,3:0|0:0,0:0:0:0:
246,58,76112,6,0,L|239:164,1,104.999996795654,10|0,0:0|1:0,0:0:0:0:
193,188,76615,2,0,L|200:294,1,104.999996795654,10|0,0:0|1:0,0:0:0:0:
235,339,77118,1,10,0:0:0:0:
235,339,77285,6,0,P|307:346|383:297,1,150,10|10,0:0|0:0,0:0:0:0:
385,209,78123,2,0,P|335:180|282:178,1,99.9999999999999,8|8,0:0|3:0,0:0:0:0:
193,188,78804,1,2,0:0:0:0:
256,192,78971,12,10,83506,0:0:0:0:
213,131,94902,6,0,B|135:108|146:162|58:137,2,150,2|2|10,1:0|3:0|0:0,0:0:0:0:
300,179,96243,2,0,B|378:156|367:210|455:185,2,150,0|2|2,1:0|3:0|0:0,0:0:0:0:
240,259,97584,6,0,B|202:289|202:289|93:276,1,150,2|2,1:0|1:0,0:0:0:0:
51,267,98254,1,2,1:0:0:0:
15,173,98589,1,8,0:0:0:0:
70,89,98924,2,0,L|176:83,1,99.9999999999999,10|10,0:0|0:0,0:0:0:0:
249,22,99595,2,0,L|355:28,1,99.9999999999999,0|8,1:0|0:0,0:0:0:0:
432,82,100265,6,0,P|446:135|429:194,2,99.9999999999999,6|8|0,1:0|0:0|1:0,0:0:0:0:
347,135,101271,1,10,0:0:0:0:
347,135,101438,2,0,P|278:154|201:127,1,150,2|4,3:0|3:0,0:0:0:0:
128,66,102276,2,0,P|107:109|112:169,1,99.9999999999999,8|8,0:0|0:0,0:0:0:0:
144,253,102947,6,0,L|251:260,1,99.9999999999999,2|10,1:0|0:0,0:0:0:0:
277,297,103450,2,0,L|384:290,1,99.9999999999999,6|10,3:0|0:0,0:0:0:0:
426,288,103952,1,6,3:0:0:0:
491,211,104288,1,2,1:0:0:0:
256,192,104455,12,10,105447,0:0:0:0:
256,192,113659,12,0,117514,0:0:0:0:
251,189,119023,6,0,B|199:171|154:197|154:197|133:178|95:170,1,150,0|0,0:0|0:0,0:0:0:0:
57,173,119707,6,0,L|67:287,2,104.999996795654,2|8|0,1:0|0:0|1:0,0:0:0:0:
53,68,120712,1,10,0:0:0:0:
150,29,121047,2,0,P|209:25|262:52,1,104.999996795654,2|8,1:0|0:0,0:0:0:0:
325,116,121718,2,0,B|375:106|375:106|431:120,1,104.999996795654,2|8,1:0|0:0,0:0:0:0:
473,143,122220,6,0,B|461:197|461:197|479:243|479:243|468:312,1,157.499995193481,2|8,3:0|0:0,0:0:0:0:
397,370,123058,1,0,1:0:0:0:
309,322,123394,1,10,0:0:0:0:
309,322,123561,2,0,P|258:312|195:328,1,104.999996795654,2|2,3:0|3:0,0:0:0:0:
108,360,124232,1,2,3:0:0:0:
27,292,124567,2,0,L|30:168,1,104.999996795654,2|2,3:0|3:0,0:0:0:0:
36,134,125070,6,0,P|81:115|154:118,1,104.999996795654,6|8,1:0|0:0,0:0:0:0:
239,135,125740,2,0,P|284:116|357:119,1,104.999996795654,6|8,1:0|0:0,0:0:0:0:
359,217,126410,2,0,P|314:236|241:233,1,104.999996795654,6|8,1:0|0:0,0:0:0:0:
156,216,127080,2,0,P|111:235|38:232,1,104.999996795654,6|8,1:0|0:0,0:0:0:0:
6,143,127751,6,0,B|2:88|2:88|31:38|112:45,1,157.499995193481,6|2,1:0|3:0,0:0:0:0:
187,81,128589,1,2,1:0:0:0:
248,166,128924,2,0,B|218:213|218:213|245:331,1,157.499995193481,6|10,1:0|0:0,0:0:0:0:
328,369,129762,2,0,P|411:373|481:339,1,157.499995193481,2|8,1:0|0:0,0:0:0:0:
501,294,130433,6,0,L|504:187,2,104.999996795654,6|8|0,1:0|0:0|1:0,0:0:0:0:
399,269,131438,1,10,0:0:0:0:
334,186,131774,2,0,P|330:128|346:84,1,104.999996795654,2|8,1:0|0:0,0:0:0:0:
257,28,132444,2,0,B|209:45|209:45|141:31,1,104.999996795654,2|8,1:0|0:0,0:0:0:0:
104,22,132947,6,0,B|81:75|81:75|88:122|88:122|62:177,1,157.499995193481,2|8,3:0|0:0,0:0:0:0:
14,261,133785,1,0,1:0:0:0:
66,357,134120,1,10,0:0:0:0:
66,357,134288,2,0,P|120:369|172:356,1,104.999996795654,2|2,3:0|3:0,0:0:0:0:
256,302,134958,1,2,3:0:0:0:
324,222,135293,2,0,P|336:168|323:116,1,104.999996795654,2|2,3:0|3:0,0:0:0:0:
297,75,135796,6,0,L|180:78,1,104.999996795654,6|8,1:0|0:0,0:0:0:0:
105,17,136466,2,0,L|-12:20,1,104.999996795654,6|8,1:0|0:0,0:0:0:0:
0,124,137137,2,0,L|117:121,1,104.999996795654,6|8,1:0|0:0,0:0:0:0:
192,182,137807,2,0,L|309:179,1,104.999996795654,6|8,1:0|0:0,0:0:0:0:
401,171,138477,6,0,B|436:221|435:268|435:268|393:313,1,157.499995193481,6|2,1:0|3:0,0:0:0:0:
310,363,139315,1,2,1:0:0:0:
216,313,139651,2,0,B|168:302|168:302|121:344|63:322,1,157.499995193481,6|8,1:0|0:0,0:0:0:0:
19,230,140489,2,0,P|4:161|49:81,1,157.499995193481,10|10,0:0|0:0,0:0:0:0:
87,60,141159,6,0,P|136:78|188:73,1,104.999996795654,2|10,1:0|0:0,0:0:0:0:
286,37,141829,1,0,1:0:0:0:
387,66,142165,1,10,0:0:0:0:
447,151,142500,2,0,L|440:269,1,104.999996795654,2|10,1:0|0:0,0:0:0:0:
335,255,143170,2,0,L|328:150,1,104.999996795654,2|8,1:0|0:0,0:0:0:0:
298,107,143673,6,0,P|240:99|177:121,1,104.999996795654,6|0,1:0|1:0,0:0:0:0:
145,125,144176,2,0,P|153:67|131:4,2,104.999996795654,12|8|14,0:0|0:0|0:0,0:0:0:0:
55,180,145181,1,12,0:0:0:0:
30,282,145517,1,12,0:0:0:0:
100,360,145852,2,0,L|211:350,1,104.999996795654,2|10,1:0|0:0,0:0:0:0:
275,273,146522,6,0,P|341:251|426:286,1,157.499995193481,6|2,1:0|1:0,0:0:0:0:
493,204,147360,2,0,L|476:95,1,104.999996795654,2|0,1:0|0:0,0:0:0:0:
457,51,147863,2,0,P|391:73|306:38,1,157.499995193481,2|2,1:0|1:0,0:0:0:0:
208,24,148701,2,0,L|101:32,1,104.999996795654,2|0,1:0|0:0,0:0:0:0:
52,43,149204,6,0,P|37:96|53:155,1,104.999996795654,10|0,0:0|1:0,0:0:0:0:
88,176,149707,2,0,P|103:229|87:288,1,104.999996795654,10|0,0:0|1:0,0:0:0:0:
64,322,150209,1,10,0:0:0:0:
64,322,150377,6,0,P|121:306|205:333,1,150,10|12,0:0|0:0,0:0:0:0:
299,367,151215,2,0,L|308:255,1,99.9999999999999,10|2,0:0|1:0,0:0:0:0:
323,168,151885,6,0,P|372:158|423:173,1,99.9999999999999,6|10,1:0|0:0,0:0:0:0:
488,243,152556,2,0,P|462:183|495:93,1,150,2|2,1:0|3:0,0:0:0:0:
434,17,153394,1,2,3:0:0:0:
341,54,153729,2,0,L|224:49,1,99.9999999999999,2|2,3:0|3:0,0:0:0:0:
141,37,154399,6,0,P|106:89|118:189,1,150,2|10,3:0|0:0,0:0:0:0:
194,227,155237,2,0,B|266:209|274:256|350:233,1,150,2|2,1:0|3:0,0:0:0:0:
429,187,156075,1,2,3:0:0:0:
511,244,156410,2,0,L|503:352,1,99.9999999999999,2|2,3:0|3:0,0:0:0:0:
405,365,157081,6,0,P|343:340|259:356,1,150,2|10,3:0|0:0,0:0:0:0:
165,378,157919,2,0,B|133:329|133:329|145:220,1,150,2|2,1:0|3:0,0:0:0:0:
161,139,158757,1,0,3:0:0:0:
130,43,159092,2,0,P|85:23|21:30,1,99.9999999999999,2|2,3:0|3:0,0:0:0:0:
5,120,159762,6,0,L|14:278,1,150,2|10,3:0|0:0,0:0:0:0:
82,342,160600,2,0,P|134:312|239:315,1,150,2|10,1:0|0:0,0:0:0:0:
315,347,161438,1,10,0:0:0:0:
389,279,161774,2,0,L|381:172,1,99.9999999999999,2|10,0:0|0:0,0:0:0:0:
374,79,162444,5,6,1:0:0:0:
256,192,162612,12,0,164958,0:0:0:0:
