osu file format v14

[General]
AudioFilename: audio.mp3
AudioLeadIn: 0
PreviewTime: 118268
Countdown: 0
SampleSet: Soft
StackLeniency: 0.7
Mode: 0
LetterboxInBreaks: 0
WidescreenStoryboard: 0

[Editor]
DistanceSpacing: 1.7
BeatDivisor: 4
GridSize: 32
TimelineZoom: 2.4

[Metadata]
Title:crossing field
TitleUnicode:crossing field
Artist:LiSA
ArtistUnicode:LiSA
Creator:Sotarks
Version:Expert
Source:ソードアート・オンライン
Tags:opening op sword art online kirito asuna ascendance spectator akitoshi corinn mugiwarasekai irohas kyuukai yaleufeu
BeatmapID:1482116
BeatmapSetID:700024

[Difficulty]
HPDrainRate:5.2
CircleSize:3.8
OverallDifficulty:9
ApproachRate:9.2
SliderMultiplier:1.82
SliderTickRate:1

[Events]
//Background and Video events
0,0,"BG.jpg",0,0
//Break Periods
2,108291,115665
//Storyboard Layer 0 (Background)
//Storyboard Layer 1 (Fail)
//Storyboard Layer 2 (Pass)
//Storyboard Layer 3 (Foreground)
//Storyboard Sound Samples

[TimingPoints]
-312,335.195530726257,4,2,22,32,1,0
1028,-138.888888888889,4,2,22,42,0,0
2285,-138.888888888889,4,2,22,5,0,0
2369,-138.888888888889,4,2,22,42,0,0
4632,-138.888888888889,4,2,22,5,0,0
4715,-138.888888888889,4,2,22,42,0,0
4883,-121.951219512195,4,2,22,52,0,0
5134,-121.951219512195,4,2,22,5,0,0
5218,-108.695652173913,4,2,22,52,0,0
5470,-108.695652173913,4,2,22,5,0,0
5553,-108.695652173913,4,2,22,52,0,0
5721,-98.0392156862745,4,2,22,62,0,0
6391,-89.2857142857143,4,2,22,72,0,0
11755,-108.695652173913,4,2,22,52,0,0
14017,-108.695652173913,4,2,22,5,0,0
14101,-108.695652173913,4,2,22,52,0,0
14352,-108.695652173913,4,2,22,5,0,0
14436,-108.695652173913,4,2,22,52,0,0
16447,-98.0392156862745,4,2,22,52,0,0
16699,-98.0392156862745,4,2,22,5,0,0
16782,-75.7575757575758,4,2,22,52,0,0
17034,-75.7575757575758,4,2,22,5,0,0
17118,-89.2857142857143,4,2,22,62,0,0
19715,-89.2857142857143,4,2,22,5,0,0
19799,-89.2857142857143,4,2,22,62,0,0
21056,-89.2857142857143,4,2,22,5,0,0
21140,-89.2857142857143,4,2,22,62,0,0
27425,-89.2857142857143,4,2,22,5,0,0
27509,-75.7575757575758,4,2,22,72,0,0
27760,-75.7575757575758,4,2,22,5,0,0
27844,-138.888888888889,4,2,22,52,0,0
28095,-138.888888888889,4,2,22,5,0,0
28179,-108.695652173913,4,2,22,52,0,0
33207,-138.888888888889,4,2,22,52,0,0
38235,-108.695652173913,4,2,22,52,0,0
38486,-108.695652173913,4,2,22,5,0,0
38570,-98.0392156862745,4,2,22,62,0,0
43263,-81.9672131147541,4,2,22,52,0,0
43933,-192.307692307692,4,2,22,42,0,0
46280,-70.4225352112676,4,2,7,72,0,0
46531,-70.4225352112676,4,2,22,5,0,0
46615,-81.9672131147541,4,2,22,82,0,0
70581,-75.7575757575758,4,2,22,82,0,0
71252,-70.4225352112676,4,2,22,82,0,0
71922,-65.7894736842105,4,2,22,92,0,0
72593,-65.7894736842105,4,2,22,82,0,0
73431,-89.2857142857143,4,2,22,62,0,0
76112,-70.4225352112676,4,2,22,72,0,0
77620,-98.0392156862745,4,2,22,52,0,0
78804,335.195530726257,4,2,22,52,1,0
78804,-161.290322580645,4,2,22,52,0,0
83506,335.195530726257,4,2,22,52,1,0
83506,-121.951219512195,4,2,22,52,0,0
84176,335.195530726257,4,2,22,62,1,0
84176,-108.695652173913,4,2,22,62,0,0
84692,335.195530726257,4,2,22,62,1,0
84692,-108.695652173913,4,2,22,62,0,0
86870,335.195530726257,4,2,22,62,1,0
86870,-108.695652173913,4,2,22,62,0,0
88356,335.195530726257,4,2,22,62,1,0
88356,-108.695652173913,4,2,22,62,0,0
89529,335.195530726257,4,2,22,62,1,0
89529,-108.695652173913,4,2,22,62,0,0
94902,335.195530726257,4,2,22,72,1,1
94902,-81.9672131147541,4,2,22,72,0,1
105280,335.195530726257,4,2,22,72,1,1
105447,-81.9672131147541,4,2,22,72,0,0
118185,-81.9672131147541,4,2,22,12,0,0
118352,-138.888888888889,4,2,22,52,0,0
118939,-138.888888888889,4,2,22,5,0,0
119023,-192.307692307692,4,2,22,52,0,0
119274,-192.307692307692,4,2,22,5,0,0
119358,-98.0392156862745,4,1,7,52,0,0
119609,-98.0392156862745,4,2,22,5,0,0
119707,335.195530726257,4,2,22,82,1,0
119707,-81.9672131147541,4,2,22,82,0,0
143673,-70.4225352112676,4,2,22,92,0,1
145684,-70.4225352112676,4,2,22,72,0,0
146522,-121.951219512195,4,2,22,62,0,0
148869,-89.2857142857143,4,2,22,62,0,0
149204,-70.4225352112676,4,2,22,72,0,0
150880,-81.9672131147541,4,2,22,62,0,0
151886,-75.7575757575758,4,2,22,62,0,0
162444,-450.307692307692,4,2,22,52,0,0
162529,-450.307692307692,4,2,22,42,0,0
165964,-450.307692307692,4,2,22,32,0,0
166635,-450.307692307692,4,2,22,22,0,0
167976,-450.307692307692,4,2,22,12,0,0
171160,-450.307692307692,4,2,22,5,0,0

[Colours]
Combo1 : 101,90,122
Combo2 : 54,77,119
Combo3 : 243,217,184
SliderBorder : 176,224,251
SliderTrackOverride : 5,20,48

[HitObjects]
251,191,358,5,2,0:0:0:0:
303,120,525,1,2,0:0:0:0:
366,182,693,1,2,0:0:0:0:
366,182,1028,6,0,L|361:334,1,131.040003199219,2|0,3:0|0:0,0:0:0:0:
256,248,1531,1,0,0:0:0:0:
261,259,1699,2,0,L|269:350,1,65.5200015996094,0|0,3:0|0:0,0:0:0:0:
175,222,2034,2,0,P|126:210|71:206,1,98.2800023994141,2|0,0:0|0:0,0:0:0:0:
62,209,2369,5,2,3:0:0:0:
175,138,2537,2,0,P|224:126|320:122,1,131.040003199219,0|0,3:0|0:0,0:0:0:0:
424,222,3039,2,0,P|389:192|428:112,1,131.040003199219,2|0,3:0|0:0,0:0:0:0:
508,237,3542,5,2,0:0:0:0:
508,254,3626,1,2,0:0:0:0:
508,269,3710,2,0,L|516:344,2,65.5200015996094,2|0|0,3:0|3:0|3:0,0:0:0:0:
428,315,4213,1,0,3:0:0:0:
325,217,4380,2,0,P|271:229|229:279,1,98.2800023994141,0|0,3:0|0:0,0:0:0:0:
233,273,4715,1,2,0:0:0:0:
215,152,4883,6,0,P|189:110|113:105,1,111.930001707916,2|0,3:0|0:0,0:0:0:0:
115,107,5218,2,0,L|132:253,1,125.579995784363,2|0,3:0|0:0,0:0:0:0:
131,247,5553,1,2,3:0:0:0:
215,152,5721,1,0,3:0:0:0:
273,220,5889,2,0,P|355:177|448:231,1,185.640001133057,2|0,3:0|0:0,0:0:0:0:
281,321,6391,6,0,P|340:294|393:298,1,101.920001244141,6|0,1:0|0:0,0:0:0:0:
177,193,6727,2,0,P|221:216|272:219,1,101.920001244141,0|0,1:0|0:0,0:0:0:0:
125,373,7062,2,0,P|159:318|206:292,1,101.920001244141,0|0,1:0|0:0,0:0:0:0:
20,156,7397,2,0,P|54:210|101:236,1,101.920001244141,0|0,1:0|0:0,0:0:0:0:
215,58,7732,2,0,P|149:43|92:49,1,101.920001244141,2|0,1:0|0:0,0:0:0:0:
290,153,8067,2,0,P|239:153|190:166,1,101.920001244141,0|0,1:0|0:0,0:0:0:0:
382,9,8403,2,0,P|323:43|285:86,1,101.920001244141,2|0,1:0|0:0,0:0:0:0:
482,171,8738,2,0,P|444:136|399:112,1,101.920001244141,0|0,1:0|0:0,0:0:0:0:
466,296,9073,5,2,1:0:0:0:
290,153,9408,1,0,1:0:0:0:
466,296,9743,1,0,1:0:0:0:
290,153,10079,5,0,1:0:0:0:
466,296,10246,1,14,0:0:0:0:
290,153,10581,5,2,1:0:0:0:
466,296,10749,1,10,0:0:0:0:
173,236,10917,1,4,3:0:0:0:
173,236,11755,5,2,1:0:0:0:
142,154,11922,2,0,P|158:86|182:46,1,83.7199971895753,2|0,0:0|1:0,0:0:0:0:
252,216,12257,2,0,P|249:275|136:312,2,167.439994379151,2|2|2,0:0|0:0|0:0,0:0:0:0:
317,88,13095,2,0,P|380:94|413:79,1,83.7199971895753,0|0,1:0|0:0,0:0:0:0:
448,200,13431,2,0,P|385:194|352:209,1,83.7199971895753,0|0,1:0|0:0,0:0:0:0:
306,322,13766,2,0,P|284:246|231:205,1,125.579995784363,2|0,1:0|0:0,0:0:0:0:
233,216,14101,2,0,B|184:234|184:234|96:190,1,125.579995784363,2|0,1:0|0:0,0:0:0:0:
108,190,14436,6,0,B|74:105|149:118|108:21,1,167.439994379151,2|0,1:0|1:0,0:0:0:0:
19,138,14939,2,0,P|30:197|31:234,1,83.7199971895753,2|0,0:0|1:0,0:0:0:0:
181,246,15274,2,0,P|184:204|193:163,1,83.7199971895753,2|0,0:0|1:0,0:0:0:0:
110,27,15609,1,2,0:0:0:0:
254,108,15777,1,0,1:0:0:0:
13,300,16112,1,0,1:0:0:0:
406,204,16447,6,0,P|346:176|261:233,1,139.230000849792,6|0,3:0|0:0,0:0:0:0:
262,181,16782,2,0,P|343:152|430:198,1,180.179999450134,10|0,3:0|0:0,0:0:0:0:
479,121,17118,6,0,P|428:115|378:104,1,101.920001244141,6|0,1:0|0:0,0:0:0:0:
188,40,17453,2,0,P|120:58|68:192,1,203.840002488281,10|0,0:0|1:0,0:0:0:0:
144,320,17956,1,2,1:0:0:0:
333,199,18123,2,0,P|269:161|218:158,1,101.920001244141,10|0,0:0|0:0,0:0:0:0:
363,332,18458,6,0,P|368:263|427:120,1,203.840002488281,2|8,1:0|0:0,0:0:0:0:
292,11,18961,2,0,P|323:77|329:115,1,101.920001244141,2|0,0:0|1:0,0:0:0:0:
270,262,19296,1,0,1:0:0:0:
165,58,19464,2,0,P|88:64|58:162,1,152.880001866211,10|0,0:0|0:0,0:0:0:0:
57,144,19799,6,0,L|67:257,1,101.920001244141,0|0,1:0|0:0,0:0:0:0:
178,361,20134,2,0,L|186:259,1,101.920001244141,8|0,0:0|3:0,0:0:0:0:
189,240,20386,1,0,3:0:0:0:
191,222,20470,1,2,1:0:0:0:
76,327,20637,1,0,1:0:0:0:
146,158,20805,2,0,P|209:144|266:226,1,152.880001866211,8|0,0:0|0:0,0:0:0:0:
269,222,21140,5,2,1:0:0:0:
216,67,21308,1,0,1:0:0:0:
86,216,21475,5,8,0:0:0:0:
369,181,21643,1,0,1:0:0:0:
81,112,21810,5,10,0:0:0:0:
338,280,21978,2,0,P|389:285|407:278,1,50.9600006220703,0|0,1:0|1:0,0:0:0:0:
445,127,22146,1,8,0:0:0:0:
401,100,22229,1,8,0:0:0:0:
351,99,22313,1,8,0:0:0:0:
307,124,22397,1,8,0:0:0:0:
282,168,22481,5,2,1:0:0:0:
138,296,22648,2,0,P|75:294|40:255,1,101.920001244141,2|8,0:0|0:0,0:0:0:0:
146,84,22984,1,2,1:0:0:0:
161,99,23067,1,8,0:0:0:0:
170,119,23151,1,0,1:0:0:0:
264,265,23319,2,0,P|287:198|329:175,1,101.920001244141,2|8,0:0|0:0,0:0:0:0:
202,21,23654,6,0,P|238:55|248:104,1,101.920001244141,2|0,0:0|1:0,0:0:0:0:
174,204,23989,1,0,0:0:0:0:
322,154,24157,2,0,L|430:171,1,101.920001244141,10|0,0:0|0:0,0:0:0:0:
469,240,24408,1,2,0:0:0:0:
457,253,24492,2,0,P|431:304|431:326,1,50.9600006220703,2|0,1:0|0:0,0:0:0:0:
328,284,24660,2,0,P|343:303|352:327,1,50.9600006220703,2|0,0:0|0:0,0:0:0:0:
244,261,24827,1,10,0:0:0:0:
380,210,24995,1,0,0:0:0:0:
263,344,25162,5,2,1:0:0:0:
167,220,25330,2,0,P|176:149|202:111,1,101.920001244141,2|8,0:0|0:0,0:0:0:0:
157,322,25665,1,2,1:0:0:0:
136,329,25749,1,8,0:0:0:0:
115,327,25833,1,0,1:0:0:0:
112,102,26000,2,0,P|156:50|203:49,1,101.920001244141,2|8,0:0|0:0,0:0:0:0:
339,113,26336,5,2,0:0:0:0:
124,196,26503,2,0,L|5:180,1,101.920001244141,0|0,1:0|0:0,0:0:0:0:
320,248,26838,2,0,L|439:232,1,101.920001244141,10|0,0:0|0:0,0:0:0:0:
190,123,27174,2,0,P|218:187|229:305,1,152.880001866211,2|0,1:0|0:0,0:0:0:0:
211,310,27509,2,0,P|221:247|334:282,1,180.179999450134,10|0,3:0|0:0,0:0:0:0:
341,285,27844,6,0,P|386:293|444:269,1,98.2800023994141,6|0,3:0|0:0,0:0:0:0:
487,255,28179,2,0,L|297:246,1,167.439994379151,10|4,3:0|3:0,0:0:0:0:
398,84,28682,2,0,P|403:157|429:196,1,83.7199971895753,6|0,3:0|0:0,0:0:0:0:
267,97,29017,2,0,P|314:161|318:251,1,167.439994379151,10|4,3:0|3:0,0:0:0:0:
180,110,29520,2,0,P|135:87|59:172,1,167.439994379151,10|4,3:0|3:0,0:0:0:0:
83,308,30023,1,4,3:0:0:0:
243,169,30190,1,10,3:0:0:0:
243,169,30525,6,0,P|314:189|338:193,1,83.7199971895753,4|0,3:0|0:0,0:0:0:0:
488,141,30861,2,0,P|427:179|372:267,1,167.439994379151,8|6,3:0|3:0,0:0:0:0:
369,120,31363,2,0,P|355:67|331:25,1,83.7199971895753,4|0,3:0|0:0,0:0:0:0:
243,169,31699,1,8,3:0:0:0:
243,169,31866,2,0,P|252:209|269:247,1,83.7199971895753,2|4,0:0|3:0,0:0:0:0:
230,59,32201,2,0,P|163:56|104:106,1,125.579995784363,8|0,3:0|0:0,0:0:0:0:
48,132,32537,2,0,P|50:178|60:205,1,41.8599985947876,10|8,3:0|3:0,0:0:0:0:
16,244,32704,2,0,P|40:283|61:302,1,41.8599985947876,8|0,3:0|0:0,0:0:0:0:
73,351,32872,1,4,3:0:0:0:
99,362,32955,1,4,3:0:0:0:
128,368,33039,1,4,3:0:0:0:
157,368,33123,1,4,3:0:0:0:
186,362,33207,6,0,P|237:342|331:346,1,131.040003199219,6|0,1:0|0:0,0:0:0:0:
413,256,33710,2,0,P|347:257|286:234,1,131.040003199219,8|0,3:0|1:0,0:0:0:0:
198,141,34213,1,10,0:0:0:0:
198,141,34548,2,0,P|176:89|104:67,1,131.040003199219,2|0,1:0|0:0,0:0:0:0:
44,215,35051,2,0,P|66:267|138:289,1,131.040003199219,10|4,3:0|3:0,0:0:0:0:
276,233,35553,1,10,0:0:0:0:
423,327,35721,1,0,3:0:0:0:
414,332,35805,1,0,3:0:0:0:
405,336,35889,6,0,L|404:187,1,131.040003199219,6|0,1:0|3:0,0:0:0:0:
276,101,36391,2,0,L|275:232,1,131.040003199219,10|0,3:0|1:0,0:0:0:0:
170,108,36894,2,0,L|92:89,1,65.5200015996094,8|0,0:0|3:0,0:0:0:0:
33,164,37146,1,0,3:0:0:0:
42,173,37229,2,0,P|70:222|65:302,1,131.040003199219,2|0,1:0|3:0,0:0:0:0:
184,219,37732,2,0,P|227:217|258:230,1,65.5200015996094,10|0,3:0|0:0,0:0:0:0:
321,278,38067,1,0,1:0:0:0:
447,179,38235,2,0,P|407:198|315:170,1,125.579995784363,12|0,0:0|0:0,0:0:0:0:
313,169,38570,5,6,1:0:0:0:
212,67,38738,2,0,P|150:83|111:115,1,92.8200005665283,2|8,1:0|0:0,0:0:0:0:
386,118,39073,2,0,P|346:94|300:86,1,92.8200005665283,2|0,1:0|0:0,0:0:0:0:
438,293,39408,2,0,P|436:246|419:203,1,92.8200005665283,2|8,1:0|0:0,0:0:0:0:
354,345,39743,1,2,1:0:0:0:
349,353,39827,1,8,0:0:0:0:
344,364,39911,2,0,P|271:348|229:345,1,92.8200005665283,0|0,1:0|1:0,0:0:0:0:
112,279,40246,2,0,P|139:331|140:341,3,46.4100002832642,8|0|0|0,0:0|1:0|1:0|1:0,0:0:0:0:
205,250,40581,2,0,P|178:198|177:188,3,46.4100002832642,10|0|0|0,0:0|1:0|1:0|1:0,0:0:0:0:
270,192,40917,2,0,P|325:186|379:202,1,92.8200005665283,10|0,0:0|0:0,0:0:0:0:
375,201,41168,1,8,0:0:0:0:
386,213,41252,5,10,0:0:0:0:
359,92,41419,2,0,P|304:98|250:82,1,92.8200005665283,2|8,1:0|0:0,0:0:0:0:
93,58,41755,1,2,1:0:0:0:
111,70,41838,1,0,1:0:0:0:
130,86,41922,2,0,P|138:138|138:148,1,46.4100002832642,8|0,0:0|1:0,0:0:0:0:
193,242,42090,2,0,P|195:218|200:196,1,46.4100002832642,10|0,0:0|1:0,0:0:0:0:
304,168,42257,1,8,0:0:0:0:
347,181,42340,1,8,0:0:0:0:
377,216,42424,1,10,0:0:0:0:
385,261,42508,1,8,0:0:0:0:
367,304,42593,6,0,L|294:313,1,46.4100002832642,8|8,0:0|0:0,0:0:0:0:
146,236,42760,2,0,L|219:244,1,46.4100002832642,10|8,0:0|0:0,0:0:0:0:
416,135,42928,1,6,1:0:0:0:
416,135,43263,6,0,B|312:156|353:96|222:129,2,166.529993139176,8|8|8,3:0|3:0|3:0,0:0:0:0:
235,49,43933,6,0,P|191:75|180:131,1,94.6399994223633,2|0,0:0|0:0,0:0:0:0:
103,103,44436,2,0,P|111:155|161:188,1,94.6399994223633,2|0,0:0|0:0,0:0:0:0:
92,244,44939,2,0,P|138:263|191:240,1,94.6399994223633,2|0,0:0|0:0,0:0:0:0:
319,126,45442,1,0,1:0:0:0:
381,337,45609,1,8,0:0:0:0:
272,236,45777,1,0,1:0:0:0:
272,236,46280,6,0,B|368:196|368:294|478:236,1,193.829990239884,4|0,1:0|0:0,0:0:0:0:
444,155,46615,6,0,P|410:157|338:115,1,111.019995426117,2|0,1:0|3:0,0:0:0:0:
176,208,46950,2,0,P|238:207|282:168,1,111.019995426117,8|0,0:0|3:0,0:0:0:0:
161,117,47285,2,0,P|107:143|97:154,1,55.5099977130586,0|0,1:0|0:0,0:0:0:0:
37,244,47453,2,0,P|91:218|101:207,1,55.5099977130586,0|0,3:0|0:0,0:0:0:0:
245,93,47620,2,0,P|307:94|351:133,1,111.019995426117,10|0,0:0|3:0,0:0:0:0:
496,213,47956,2,0,P|434:214|390:253,1,111.019995426117,2|0,1:0|3:0,0:0:0:0:
204,304,48291,1,8,0:0:0:0:
302,333,48458,1,0,3:0:0:0:
148,188,48626,2,0,P|81:218|55:258,1,111.019995426117,2|0,1:0|3:0,0:0:0:0:
247,219,48961,1,8,0:0:0:0:
114,56,49129,1,2,3:0:0:0:
251,320,49296,6,0,P|318:290|344:250,1,111.019995426117,0|0,1:0|3:0,0:0:0:0:
224,28,49632,2,0,P|209:84|218:141,1,111.019995426117,8|0,0:0|3:0,0:0:0:0:
463,199,49967,2,0,P|409:169|349:172,1,111.019995426117,0|0,1:0|3:0,0:0:0:0:
184,267,50302,1,10,0:0:0:0:
270,143,50470,6,0,P|207:137|193:142,1,55.5099977130586,2|0,3:0|0:0,0:0:0:0:
133,164,50637,1,0,1:0:0:0:
245,105,50805,6,0,P|185:126|174:136,1,55.5099977130586,2|0,3:0|0:0,0:0:0:0:
129,181,50972,1,8,0:0:0:0:
208,85,51140,6,0,P|161:127|155:141,1,55.5099977130586,2|0,3:0|0:0,0:0:0:0:
130,200,51308,1,0,1:0:0:0:
150,76,51475,6,0,P|129:136|131:150,1,55.5099977130586,2|0,3:0|0:0,0:0:0:0:
137,215,51642,1,8,0:0:0:0:
103,95,51810,6,0,P|114:157|123:169,1,55.5099977130586,2|0,3:0|0:0,0:0:0:0:
330,174,51978,6,0,P|348:244|264:312,1,166.529993139176,6|0,1:0|0:0,0:0:0:0:
162,296,52313,2,0,P|224:278|235:270,1,55.5099977130586,8|0,0:0|0:0,0:0:0:0:
270,224,52481,1,2,3:0:0:0:
162,296,52648,6,0,P|90:282|64:177,1,166.529993139176,6|0,1:0|0:0,0:0:0:0:
118,87,52983,2,0,P|108:150|110:164,1,55.5099977130586,8|0,0:0|0:0,0:0:0:0:
137,215,53151,1,2,3:0:0:0:
118,87,53319,6,0,P|152:23|260:31,1,166.529993139176,6|0,1:0|0:0,0:0:0:0:
329,109,53654,2,0,P|271:79|257:78,1,55.5099977130586,8|0,0:0|0:0,0:0:0:0:
202,87,53822,1,2,3:0:0:0:
329,109,53989,6,0,P|366:170|306:260,1,166.529993139176,6|0,1:0|0:0,0:0:0:0:
203,280,54324,2,0,P|257:244|265:233,1,55.5099977130586,8|0,0:0|0:0,0:0:0:0:
286,182,54492,1,2,3:0:0:0:
94,189,54660,6,0,P|166:201|201:290,1,166.529993139176,6|0,1:0|0:0,0:0:0:0:
285,346,54995,2,0,P|310:287|328:278,1,55.5099977130586,10|0,0:0|0:0,0:0:0:0:
400,205,55162,2,0,P|385:274|410:324,1,111.019995426117,2|0,3:0|1:0,0:0:0:0:
291,190,55498,1,2,1:0:0:0:
204,367,55665,1,8,0:0:0:0:
217,143,55833,6,0,P|280:104|370:178,1,166.529993139176,6|0,1:0|0:0,0:0:0:0:
352,243,56168,2,0,P|296:271|273:266,1,55.5099977130586,2|0,1:0|0:0,0:0:0:0:
181,223,56336,2,0,P|102:212|40:303,1,166.529993139176,10|0,0:0|0:0,0:0:0:0:
118,344,56671,6,0,P|128:310|122:282,1,55.5099977130586,2|0,1:0|1:0,0:0:0:0:
88,188,56838,2,0,P|78:154|84:126,1,55.5099977130586,2|0,1:0|1:0,0:0:0:0:
135,43,57006,1,10,0:0:0:0:
184,35,57089,1,8,0:0:0:0:
230,53,57173,1,8,0:0:0:0:
263,90,57257,1,8,0:0:0:0:
274,138,57341,6,0,P|302:215|359:252,1,111.019995426117,6|0,1:0|3:0,0:0:0:0:
243,353,57676,2,0,P|215:276|158:239,1,111.019995426117,8|0,0:0|3:0,0:0:0:0:
329,313,58012,2,0,P|381:289|391:277,1,55.5099977130586,0|0,1:0|0:0,0:0:0:0:
371,211,58179,2,0,P|319:235|309:247,1,55.5099977130586,0|0,3:0|0:0,0:0:0:0:
195,257,58347,2,0,P|132:250|84:184,1,111.019995426117,10|0,0:0|3:0,0:0:0:0:
247,175,58682,5,2,1:0:0:0:
243,353,58850,1,0,3:0:0:0:
170,174,59017,2,0,L|162:41,1,111.019995426117,8|0,0:0|3:0,0:0:0:0:
97,219,59352,2,0,L|29:235,1,55.5099977130586,2|0,1:0|0:0,0:0:0:0:
43,325,59520,2,0,L|111:309,1,55.5099977130586,0|0,3:0|0:0,0:0:0:0:
170,175,59688,1,8,0:0:0:0:
219,336,59855,1,2,3:0:0:0:
98,124,60023,6,0,P|172:89|252:173,1,166.529993139176,0|0,1:0|0:0,0:0:0:0:
273,213,60358,2,0,P|337:200|344:194,1,55.5099977130586,8|0,0:0|0:0,0:0:0:0:
336,108,60525,1,0,3:0:0:0:
170,175,60693,2,0,P|172:254|219:304,1,111.019995426117,0|0,1:0|3:0,0:0:0:0:
355,290,61028,1,10,0:0:0:0:
254,131,61196,6,0,L|200:96,1,55.5099977130586,2|0,3:0|0:0,0:0:0:0:
116,93,61363,1,0,1:0:0:0:
226,138,61531,6,0,L|162:131,1,55.5099977130586,2|0,3:0|0:0,0:0:0:0:
86,167,61698,1,8,0:0:0:0:
205,157,61866,6,0,L|145:180,1,55.5099977130586,2|0,3:0|0:0,0:0:0:0:
93,247,62034,1,0,1:0:0:0:
195,186,62201,6,0,L|153:235,1,55.5099977130586,2|0,3:0|0:0,0:0:0:0:
140,318,62369,1,8,0:0:0:0:
208,230,62537,6,0,L|213:294,1,55.5099977130586,2|0,3:0|0:0,0:0:0:0:
401,306,62704,6,0,L|386:123,1,166.529993139176,6|0,1:0|0:0,0:0:0:0:
302,75,63039,2,0,L|308:162,1,55.5099977130586,8|0,0:0|0:0,0:0:0:0:
313,219,63207,1,2,3:0:0:0:
146,214,63375,6,0,L|329:219,1,166.529993139176,6|0,1:0|0:0,0:0:0:0:
381,300,63710,2,0,L|293:298,1,55.5099977130586,8|0,0:0|0:0,0:0:0:0:
237,297,63878,1,2,3:0:0:0:
231,131,64045,6,0,L|238:314,1,166.529993139176,6|0,1:0|0:0,0:0:0:0:
161,371,64380,2,0,L|156:283,1,55.5099977130586,8|0,0:0|0:0,0:0:0:0:
154,227,64548,1,2,3:0:0:0:
320,226,64715,6,0,L|136:227,1,166.529993139176,6|0,1:0|0:0,0:0:0:0:
87,134,65050,2,0,L|174:132,1,55.5099977130586,8|0,0:0|0:0,0:0:0:0:
231,131,65218,1,2,3:0:0:0:
463,53,65386,6,0,L|279:54,1,166.529993139176,6|0,1:0|0:0,0:0:0:0:
165,44,65721,2,0,L|269:41,1,55.5099977130586,10|0,0:0|0:0,0:0:0:0:
342,130,65889,2,0,L|219:131,1,111.019995426117,2|0,3:0|1:0,0:0:0:0:
390,200,66224,1,2,1:0:0:0:
147,131,66391,1,8,0:0:0:0:
440,124,66559,6,0,B|480:183|480:183|445:344,1,222.039990852234,6|0,1:0|1:0,0:0:0:0:
198,219,67062,1,8,0:0:0:0:
317,182,67229,1,2,1:0:0:0:
95,313,67397,1,10,0:0:0:0:
214,350,67565,2,0,L|284:329,1,55.5099977130586,2|0,1:0|1:0,0:0:0:0:
364,151,67732,1,10,0:0:0:0:
310,165,67815,1,8,0:0:0:0:
257,180,67899,1,10,0:0:0:0:
203,195,67983,1,8,0:0:0:0:
150,210,68067,6,0,P|134:147|110:102,1,111.019995426117,2|0,1:0|3:0,0:0:0:0:
237,268,68403,1,10,0:0:0:0:
278,86,68570,1,2,3:0:0:0:
278,86,68654,1,0,3:0:0:0:
278,86,68738,2,0,P|333:113|401:127,1,111.019995426117,0|0,1:0|3:0,0:0:0:0:
178,50,69073,2,0,P|103:68|9:145,1,166.529993139176,10|0,0:0|0:0,0:0:0:0:
28,153,69408,2,0,P|39:224|34:289,1,111.019995426117,2|0,1:0|3:0,0:0:0:0:
208,131,69743,2,0,P|197:202|202:267,1,111.019995426117,10|0,0:0|3:0,0:0:0:0:
361,112,70079,1,2,1:0:0:0:
308,301,70246,1,2,1:0:0:0:
232,44,70414,1,8,0:0:0:0:
107,211,70581,6,0,B|296:188|296:188|217:155,1,240.239999266846,6|0,1:0|1:0,0:0:0:0:
387,211,71084,1,8,0:0:0:0:
97,206,71252,6,0,B|286:183|286:183|193:148,1,258.439986986512,6|0,1:0|1:0,0:0:0:0:
401,215,71755,1,8,0:0:0:0:
88,199,71922,6,0,B|277:176|277:176|171:137,1,276.639996623047,6|0,1:0|1:0,0:0:0:0:
421,220,72425,1,8,0:0:0:0:
76,192,72593,5,2,1:0:0:0:
277,250,72760,1,2,0:0:0:0:
155,81,72928,1,2,1:0:0:0:
215,306,73095,1,10,0:0:0:0:
336,196,73263,1,2,1:0:0:0:
81,272,73431,6,0,P|36:214|43:102,1,152.880001866211,6|0,1:0|0:0,0:0:0:0:
121,92,73766,2,0,P|105:149|105:166,1,50.9600006220703,10|0,0:0|0:0,0:0:0:0:
91,279,73933,2,0,P|129:216|168:198,1,101.920001244141,2|0,3:0|1:0,0:0:0:0:
126,78,74269,1,2,3:0:0:0:
179,284,74436,1,8,0:0:0:0:
201,124,74604,1,0,3:0:0:0:
314,264,74771,6,0,P|359:206|352:94,1,152.880001866211,2|0,1:0|0:0,0:0:0:0:
274,84,75106,2,0,P|290:141|290:158,1,50.9600006220703,10|0,0:0|0:0,0:0:0:0:
304,271,75274,2,0,P|266:208|227:190,1,101.920001244141,2|0,3:0|1:0,0:0:0:0:
267,346,75609,1,2,3:0:0:0:
306,355,75693,1,0,0:0:0:0:
347,344,75777,2,0,P|387:293|377:232,1,101.920001244141,8|0,0:0|0:0,0:0:0:0:
157,284,76112,6,0,L|245:268,1,64.609996746628,10|0,0:0|0:0,0:0:0:0:
374,167,76280,1,10,0:0:0:0:
289,132,76447,1,0,1:0:0:0:
466,321,76615,2,0,L|472:217,1,64.609996746628,10|0,0:0|0:0,0:0:0:0:
390,81,76782,1,10,0:0:0:0:
374,167,76950,1,0,1:0:0:0:
164,72,77118,2,0,L|76:66,1,64.609996746628,10|0,0:0|0:0,0:0:0:0:
27,253,77285,1,10,0:0:0:0:
27,253,77620,5,2,0:0:0:0:
81,324,77788,2,0,P|172:298|187:298,1,92.8200005665283,10|0,0:0|0:0,0:0:0:0:
263,321,78039,1,0,1:0:0:0:
263,321,78123,2,0,P|249:255|249:249,2,61.8800003776855,8|0|0,0:0|1:0|1:0,0:0:0:0:
336,248,78458,2,0,P|344:181|346:175,2,61.8800003776855,8|4|4,3:0|3:0|3:0,0:0:0:0:
423,170,78804,5,2,0:0:0:0:
382,95,78971,2,0,P|345:89|306:89,1,56.4199977616578,2|0,0:0|0:0,0:0:0:0:
264,166,79306,1,2,0:0:0:0:
223,91,79474,2,0,P|186:85|147:85,1,56.4199977616578,2|0,0:0|0:0,0:0:0:0:
104,160,79809,1,2,0:0:0:0:
104,160,79977,1,2,0:0:0:0:
335,217,80312,1,2,0:0:0:0:
335,217,80480,1,2,0:0:0:0:
104,160,80815,5,0,3:0:0:0:
335,217,81150,1,0,0:0:0:0:
92,330,81485,5,2,0:0:0:0:
148,259,81653,2,0,L|215:265,1,56.4199977616578,2|0,0:0|0:0,0:0:0:0:
251,342,81988,1,2,0:0:0:0:
307,271,82156,2,0,L|374:277,1,56.4199977616578,2|0,0:0|0:0,0:0:0:0:
429,353,82491,1,2,0:0:0:0:
429,353,82658,1,2,0:0:0:0:
369,130,82994,1,2,0:0:0:0:
317,193,83161,2,0,P|282:181|220:171,1,84.6299966424867,2|0,3:0|0:0,0:0:0:0:
165,209,83506,5,10,0:0:0:0:
98,145,83673,2,0,P|105:92|92:57,1,74.6200011386109,2|2,1:0|0:0,0:0:0:0:
96,253,84008,1,10,0:0:0:0:
183,98,84176,6,0,B|276:66|246:132|363:96,1,167.439994379151,6|0,1:0|0:0,0:0:0:0:
397,170,84692,1,2,1:0:0:0:
301,26,84859,1,8,0:0:0:0:
301,26,85027,2,0,P|360:19|394:19,1,83.7199971895753,2|0,0:0|1:0,0:0:0:0:
512,108,85362,2,0,P|436:95|336:103,1,167.439994379151,2|10,1:0|0:0,0:0:0:0:
239,194,85865,2,0,P|315:181|415:189,1,167.439994379151,6|8,1:0|0:0,0:0:0:0:
232,104,86367,2,0,P|169:138|164:241,1,167.439994379151,6|8,1:0|0:0,0:0:0:0:
237,359,86870,6,0,P|226:277|243:181,1,167.439994379151,6|0,1:0|0:0,0:0:0:0:
306,298,87372,1,2,1:0:0:0:
306,298,87540,2,0,P|309:227|323:190,1,83.7199971895753,8|2,0:0|0:0,0:0:0:0:
413,102,87875,1,2,1:0:0:0:
461,259,88043,2,0,P|454:199|433:151,1,83.7199971895753,2|2,1:0|0:0,0:0:0:0:
315,50,88356,1,8,0:0:0:0:
386,279,88523,1,4,1:0:0:0:
249,122,88691,1,10,0:0:0:0:
473,48,88858,1,8,0:0:0:0:
342,195,89026,2,0,P|274:166|154:162,1,167.439994379151,6|0,1:0|0:0,0:0:0:0:
55,292,89529,6,0,P|89:251|215:264,1,167.439994379151,6|0,1:0|0:0,0:0:0:0:
295,334,90032,1,2,1:0:0:0:
448,267,90199,2,0,P|394:257|349:229,1,83.7199971895753,8|0,0:0|0:0,0:0:0:0:
236,133,90534,1,2,1:0:0:0:
332,147,90702,2,0,P|373:141|411:124,1,83.7199971895753,0|0,1:0|0:0,0:0:0:0:
170,45,91037,2,0,P|150:108|156:217,1,167.439994379151,10|0,0:0|1:0,0:0:0:0:
160,226,91456,1,0,1:0:0:0:
172,241,91540,1,10,0:0:0:0:
255,78,91708,2,0,P|309:56|367:51,1,83.7199971895753,4|2,1:0|0:0,0:0:0:0:
177,35,92043,1,8,0:0:0:0:
401,108,92210,6,0,P|434:153|418:287,1,167.439994379151,6|0,1:0|0:0,0:0:0:0:
326,345,92713,2,0,P|342:294|342:252,1,83.7199971895753,2|8,1:0|0:0,0:0:0:0:
237,113,93048,2,0,P|250:152|254:193,1,83.7199971895753,2|8,0:0|0:0,0:0:0:0:
114,342,93384,2,0,P|155:270|146:189,1,167.439994379151,2|10,1:0|0:0,0:0:0:0:
39,51,93886,2,0,P|52:90|56:131,1,83.7199971895753,4|2,1:0|1:0,0:0:0:0:
157,104,94138,1,8,0:0:0:0:
174,96,94222,2,0,P|177:54|191:15,1,83.7199971895753,8|2,0:0|0:0,0:0:0:0:
336,199,94557,1,8,0:0:0:0:
305,226,94640,1,8,0:0:0:0:
264,228,94724,1,8,0:0:0:0:
231,204,94808,1,8,0:0:0:0:
220,164,94902,5,2,1:0:0:0:
350,117,95070,1,0,1:0:0:0:
317,317,95237,1,10,0:2:0:0:
137,138,95404,2,0,P|72:120|18:117,1,111.019995426117,2|0,0:0|1:0,0:0:0:0:
190,281,95740,1,2,1:0:0:0:
306,48,95908,1,10,0:0:0:0:
390,271,96075,1,2,3:0:0:0:
378,96,96242,6,0,P|418:44|471:6,1,111.019995426117,2|0,1:0|1:0,1:0:0:0:
289,272,96578,1,10,0:0:0:0:
156,94,96746,1,2,3:0:0:0:
383,179,96913,1,0,1:0:0:0:
206,298,97081,1,8,0:0:0:0:
165,285,97164,1,8,0:0:0:0:
125,273,97248,1,2,0:0:0:0:
259,64,97416,2,0,L|262:141,1,55.5099977130586,10|8,0:0|0:0,0:0:0:0:
291,314,97584,6,0,L|287:193,1,111.019995426117,2|0,1:0|3:0,0:0:0:0:
353,156,97835,1,2,3:0:0:0:
353,156,97919,1,8,0:0:0:0:
206,205,98086,2,0,L|110:192,1,55.5099977130586,2|0,1:0|0:0,0:0:0:0:
51,69,98254,2,0,L|171:81,1,111.019995426117,2|0,1:0|3:0,0:0:0:0:
234,126,98505,1,2,3:0:0:0:
234,126,98589,1,8,0:0:0:0:
91,252,98757,1,2,1:0:0:0:
287,203,98924,5,10,0:0:0:0:
325,216,99007,1,8,0:0:0:0:
365,230,99091,1,0,1:0:0:0:
165,325,99260,2,0,L|33:343,1,111.019995426117,10|0,0:0|0:0,0:0:0:0:
100,244,99511,1,10,0:0:0:0:
108,230,99595,2,0,L|240:248,1,111.019995426117,0|8,1:0|0:0,0:0:0:0:
265,318,99846,1,8,0:0:0:0:
265,318,99930,1,8,0:0:0:0:
403,243,100098,5,8,0:0:0:0:
365,230,100181,1,8,0:0:0:0:
325,216,100265,2,0,B|296:52|296:52|249:128,1,222.039990852234,6|8,1:0|0:0,0:0:0:0:
201,259,100768,2,0,L|121:241,1,55.5099977130586,2|0,3:0|0:0,0:0:0:0:
88,133,100936,1,0,1:0:0:0:
59,300,101103,1,0,1:0:0:0:
233,179,101271,1,10,0:0:0:0:
266,359,101438,2,0,L|346:341,1,55.5099977130586,2|0,3:0|0:0,0:0:0:0:
370,220,101606,6,0,L|291:197,1,55.5099977130586,8|0,3:0|0:0,0:0:0:0:
186,110,101774,1,8,0:0:0:0:
225,98,101857,1,8,0:0:0:0:
265,87,101941,2,0,L|318:102,1,55.5099977130586,4|0,3:0|0:0,0:0:0:0:
176,233,102109,2,0,L|122:217,1,55.5099977130586,8|0,0:0|0:0,0:0:0:0:
30,75,102276,1,8,0:0:0:0:
20,112,102360,1,8,0:0:0:0:
12,151,102444,2,0,L|21:220,1,55.5099977130586,4|0,3:0|0:0,0:0:0:0:
140,327,102612,2,0,L|119:199,1,111.019995426117,8|0,0:0|0:0,0:0:0:0:
163,122,102863,1,8,0:0:0:0:
170,107,102947,6,0,L|288:93,1,111.019995426117,2|0,1:0|0:0,0:0:0:0:
371,148,103198,1,8,0:0:0:0:
362,169,103282,2,0,L|359:234,1,55.5099977130586,10|8,0:0|0:0,0:0:0:0:
295,340,103450,2,0,L|269:201,1,111.019995426117,6|0,3:0|0:0,0:0:0:0:
162,190,103701,1,8,0:0:0:0:
171,211,103785,2,0,L|174:276,1,55.5099977130586,10|8,0:0|0:0,0:0:0:0:
50,350,103952,2,0,L|76:211,1,111.019995426117,6|10,3:0|0:0,0:0:0:0:
182,80,104288,6,0,L|156:219,1,111.019995426117,2|8,1:0|0:0,0:0:0:0:
77,129,104539,1,8,0:0:0:0:
67,101,104623,2,0,L|82:26,1,55.5099977130586,10|8,1:2|0:0,0:0:0:0:
193,85,104790,1,8,0:0:0:0:
248,105,104873,1,8,0:0:0:0:
304,92,104958,1,10,1:2:0:0:
339,54,105041,1,8,0:0:0:0:
385,29,105125,1,8,0:0:0:0:
441,16,105209,1,8,0:0:0:0:
496,36,105280,5,10,0:0:0:0:
451,277,105447,1,10,0:0:0:0:
256,192,116341,12,0,118184,0:0:0:0:
141,143,118352,5,0,0:0:0:0:
141,143,118520,1,0,0:0:0:0:
92,55,118687,6,0,P|148:65|216:59,1,98.2800023994141,2|0,0:0|0:0,0:0:0:0:
138,36,119023,6,0,P|171:47|206:48,1,70.9799995667725,2|0,0:0|0:0,0:0:0:0:
275,126,119358,6,0,P|224:145|118:151,1,139.230000849792,12|0,0:0|0:0,0:0:0:0:
68,196,119707,6,0,B|115:194|115:194|174:236,1,111.019995426117,2|0,1:0|3:0,0:0:0:0:
337,165,120042,2,0,B|285:162|285:162|231:205,1,111.019995426117,8|0,0:0|3:0,0:0:0:0:
362,269,120377,2,0,L|426:232,1,55.5099977130586,0|0,1:0|0:0,0:0:0:0:
476,129,120545,2,0,L|412:166,1,55.5099977130586,0|0,3:0|0:0,0:0:0:0:
268,280,120712,2,0,P|206:279|162:240,1,111.019995426117,10|0,0:0|3:0,0:0:0:0:
17,160,121048,2,0,P|79:159|123:120,1,111.019995426117,2|0,1:0|3:0,0:0:0:0:
309,69,121383,1,8,0:0:0:0:
211,40,121550,1,0,3:0:0:0:
365,185,121718,2,0,B|408:179|408:179|458:115,1,111.019995426117,2|0,1:0|3:0,0:0:0:0:
266,154,122053,1,8,0:0:0:0:
399,317,122221,1,2,3:0:0:0:
262,53,122388,6,0,P|195:83|169:123,1,111.019995426117,0|0,1:0|3:0,0:0:0:0:
289,345,122724,2,0,P|304:289|295:232,1,111.019995426117,8|0,0:0|3:0,0:0:0:0:
50,174,123059,2,0,P|104:204|164:201,1,111.019995426117,0|0,1:0|3:0,0:0:0:0:
329,106,123394,1,10,0:0:0:0:
243,230,123562,6,0,L|320:231,1,55.5099977130586,2|0,3:0|0:0,0:0:0:0:
380,209,123729,1,0,1:0:0:0:
268,268,123897,6,0,L|339:237,1,55.5099977130586,2|0,3:0|0:0,0:0:0:0:
384,192,124064,1,8,0:0:0:0:
305,288,124232,6,0,L|358:232,1,55.5099977130586,2|0,3:0|0:0,0:0:0:0:
383,173,124399,1,0,1:0:0:0:
363,297,124567,6,0,L|382:223,1,55.5099977130586,2|0,3:0|0:0,0:0:0:0:
376,158,124734,1,8,0:0:0:0:
410,278,124902,6,0,L|390:204,1,55.5099977130586,2|0,3:0|0:0,0:0:0:0:
173,182,125070,6,0,B|151:127|151:127|239:44,1,166.529993139176,6|0,1:0|0:0,0:0:0:0:
351,77,125405,2,0,L|278:103,1,55.5099977130586,8|0,0:0|0:0,0:0:0:0:
243,149,125573,1,2,3:0:0:0:
351,77,125740,6,0,B|416:81|416:81|472:184,1,166.529993139176,6|0,1:0|0:0,0:0:0:0:
395,286,126075,2,0,L|403:209,1,55.5099977130586,8|0,0:0|0:0,0:0:0:0:
376,158,126243,1,2,3:0:0:0:
395,286,126411,6,0,B|374:342|374:342|251:361,1,166.529993139176,6|0,1:0|0:0,0:0:0:0:
184,264,126746,2,0,L|256:295,1,55.5099977130586,8|0,0:0|0:0,0:0:0:0:
315,271,126914,1,2,3:0:0:0:
184,264,127081,6,0,B|145:225|145:225|172:89,1,166.529993139176,6|0,1:0|0:0,0:0:0:0:
310,93,127416,2,0,L|248:140,1,55.5099977130586,8|0,0:0|0:0,0:0:0:0:
227,191,127584,1,2,3:0:0:0:
428,181,127752,6,0,B|369:182|369:182|302:82,1,166.529993139176,6|0,1:0|0:0,0:0:0:0:
228,27,128087,2,0,B|225:53|225:53|185:95,1,55.5099977130586,10|0,0:0|0:0,0:0:0:0:
113,168,128254,2,0,B|124:131|124:131|103:49,1,111.019995426117,2|0,3:0|1:0,0:0:0:0:
222,183,128590,1,2,1:0:0:0:
309,7,128757,1,8,0:0:0:0:
292,227,128925,6,0,B|261:266|261:266|181:285|130:208,1,166.529993139176,6|0,1:0|0:0,0:0:0:0:
167,118,129260,2,0,L|246:95,1,55.5099977130586,2|0,1:0|0:0,0:0:0:0:
332,150,129428,2,0,B|411:161|411:161|494:105,1,166.529993139176,10|0,0:0|0:0,0:0:0:0:
395,29,129763,6,0,L|391:91,1,55.5099977130586,2|0,1:0|1:0,0:0:0:0:
425,185,129930,2,0,L|429:247,1,55.5099977130586,2|0,1:0|1:0,0:0:0:0:
378,330,130098,1,10,0:0:0:0:
329,338,130181,1,8,0:0:0:0:
283,320,130265,1,8,0:0:0:0:
250,283,130349,1,8,0:0:0:0:
239,235,130433,6,0,P|211:158|154:121,1,111.019995426117,6|0,1:0|3:0,0:0:0:0:
269,19,130768,2,0,P|297:96|354:133,1,111.019995426117,8|0,0:0|3:0,0:0:0:0:
183,59,131104,2,0,P|131:83|121:95,1,55.5099977130586,0|0,1:0|0:0,0:0:0:0:
141,161,131271,2,0,P|193:137|203:125,1,55.5099977130586,0|0,3:0|0:0,0:0:0:0:
317,115,131439,2,0,P|380:122|428:188,1,111.019995426117,10|0,0:0|3:0,0:0:0:0:
265,197,131774,5,2,1:0:0:0:
269,19,131942,1,0,3:0:0:0:
342,198,132109,2,0,L|350:331,1,111.019995426117,8|0,0:0|3:0,0:0:0:0:
415,153,132444,2,0,L|483:137,1,55.5099977130586,2|0,1:0|0:0,0:0:0:0:
469,47,132612,2,0,L|401:63,1,55.5099977130586,0|0,3:0|0:0,0:0:0:0:
342,197,132780,1,8,0:0:0:0:
293,36,132947,1,2,3:0:0:0:
412,248,133115,6,0,P|338:283|258:199,1,166.529993139176,0|0,1:0|0:0,0:0:0:0:
239,159,133450,2,0,P|175:172|168:178,1,55.5099977130586,8|0,0:0|0:0,0:0:0:0:
176,264,133617,1,0,3:0:0:0:
342,197,133785,2,0,P|340:118|293:68,1,111.019995426117,0|0,1:0|3:0,0:0:0:0:
157,82,134120,1,10,0:0:0:0:
258,241,134288,6,0,P|281:266|312:276,1,55.5099977130586,2|0,3:0|0:0,0:0:0:0:
396,279,134455,1,0,1:0:0:0:
286,234,134623,6,0,P|315:243|350:241,1,55.5099977130586,2|0,3:0|0:0,0:0:0:0:
426,205,134790,1,8,0:0:0:0:
307,215,134958,6,0,P|343:205|367:192,1,55.5099977130586,2|0,3:0|0:0,0:0:0:0:
419,125,135125,1,0,1:0:0:0:
317,186,135293,6,0,P|344:163|359:137,1,55.5099977130586,2|0,3:0|0:0,0:0:0:0:
372,54,135460,1,8,0:0:0:0:
304,142,135629,6,0,P|309:108|299:78,1,55.5099977130586,2|0,3:0|0:0,0:0:0:0:
111,66,135796,6,0,B|108:129|108:129|123:179|123:179|126:249,1,166.529993139176,6|0,1:0|0:0,0:0:0:0:
210,297,136131,2,0,L|204:210,1,55.5099977130586,8|0,0:0|0:0,0:0:0:0:
199,153,136299,1,2,3:0:0:0:
362,159,136467,6,0,B|304:166|304:166|256:149|256:149|179:154,1,166.529993139176,6|0,1:0|0:0,0:0:0:0:
131,72,136802,2,0,L|219:74,1,55.5099977130586,8|0,0:0|0:0,0:0:0:0:
275,75,136970,1,2,3:0:0:0:
282,238,137137,6,0,B|289:175|289:175|272:126|272:126|275:55,1,166.529993139176,6|0,1:0|0:0,0:0:0:0:
351,1,137472,2,0,L|356:89,1,55.5099977130586,8|0,0:0|0:0,0:0:0:0:
356,152,137640,1,2,3:0:0:0:
192,146,137807,6,0,B|246:153|246:153|299:144|299:144|374:155,1,166.529993139176,6|0,1:0|0:0,0:0:0:0:
425,238,138142,2,0,L|338:240,1,55.5099977130586,8|0,0:0|0:0,0:0:0:0:
281,241,138310,1,2,3:0:0:0:
49,319,138478,6,0,L|233:318,1,166.529993139176,6|0,1:0|0:0,0:0:0:0:
347,328,138813,2,0,L|243:331,1,55.5099977130586,10|0,0:0|0:0,0:0:0:0:
170,242,138981,2,0,L|293:241,1,111.019995426117,2|0,3:0|1:0,0:0:0:0:
122,172,139316,1,2,1:0:0:0:
365,241,139483,1,8,0:0:0:0:
72,248,139651,6,0,B|32:189|32:189|67:28,1,222.039990852234,6|0,1:0|1:0,0:0:0:0:
314,153,140154,1,8,0:0:0:0:
195,190,140321,1,2,1:0:0:0:
417,59,140489,1,10,0:0:0:0:
298,22,140657,2,0,P|265:27|228:43,1,55.5099977130586,2|0,1:0|1:0,0:0:0:0:
148,221,140824,1,10,0:0:0:0:
204,240,140907,1,8,0:0:0:0:
261,236,140991,1,10,0:0:0:0:
308,204,141075,1,8,0:0:0:0:
327,160,141159,6,0,P|374:126|437:108,1,111.019995426117,2|0,1:0|3:0,0:0:0:0:
223,149,141494,1,10,0:0:0:0:
377,250,141662,1,2,3:0:0:0:
282,86,141829,1,0,1:0:0:0:
308,204,141997,1,0,3:0:0:0:
157,101,142165,2,0,L|19:118,1,111.019995426117,10|0,0:0|0:0,0:0:0:0:
190,273,142500,2,0,L|328:290,1,111.019995426117,2|0,1:0|3:0,0:0:0:0:
392,99,142835,2,0,L|281:85,1,111.019995426117,10|0,0:0|3:0,0:0:0:0:
389,288,143170,6,0,L|385:230,1,55.5099977130586,2|0,1:0|0:0,0:0:0:0:
458,209,143338,2,0,L|466:149,1,55.5099977130586,2|8,1:0|0:0,0:0:0:0:
401,39,143505,1,8,0:0:0:0:
392,99,143589,1,8,0:0:0:0:
382,151,143673,6,0,L|243:135,1,129.219993493256,6|0,1:0|0:0,0:0:0:0:
162,198,144008,1,0,1:0:0:0:
331,232,144176,5,12,0:0:0:0:
141,194,144343,1,2,1:0:0:0:
382,151,144511,5,8,0:0:0:0:
99,257,144679,1,0,1:0:0:0:
416,258,144846,5,14,0:0:0:0:
67,163,145014,1,2,1:0:0:0:
409,132,145181,5,12,0:0:0:0:
75,272,145349,1,2,1:0:0:0:
195,48,145517,5,12,0:0:0:0:
320,302,145684,1,2,0:0:0:0:
324,23,145852,6,0,P|283:96|275:199,1,172.293324657675,2|8,1:0|0:0,0:0:0:0:
280,218,146187,2,0,P|200:238|190:242,2,86.1466623288373,10|8|8,0:0|0:0|0:0,0:0:0:0:
366,275,146522,6,0,P|373:205|427:138,1,149.240002277222,6|2,1:0|0:0,0:0:0:0:
288,66,147025,2,0,P|310:118|315:152,1,74.6200011386109,2|8,1:0|0:0,0:0:0:0:
176,42,147360,2,0,P|118:55|61:125,1,149.240002277222,2|0,1:0|0:0,0:0:0:0:
66,290,147863,1,2,1:0:0:0:
118,213,148031,2,0,P|161:224|199:224,1,74.6200011386109,8|2,0:0|0:0,0:0:0:0:
318,298,148366,1,2,1:0:0:0:
318,298,148450,1,0,1:0:0:0:
318,298,148533,1,8,0:0:0:0:
172,138,148701,1,2,1:0:0:0:
243,343,148869,2,0,L|414:318,1,152.880001866211,12|0,0:0|0:0,0:0:0:0:
451,263,149204,6,0,P|425:200|418:192,1,64.609996746628,10|0,0:0|0:0,0:0:0:0:
280,79,149371,1,10,0:0:0:0:
346,225,149539,1,0,1:0:0:0:
370,41,149707,2,0,P|441:25|456:26,1,64.609996746628,10|0,0:0|0:0,0:0:0:0:
345,138,149874,1,10,0:0:0:0:
185,61,150042,1,0,1:0:0:0:
222,300,150209,2,0,P|221:231|227:220,1,64.609996746628,10|0,0:0|0:0,0:0:0:0:
280,79,150377,2,0,P|241:146|234:202,1,129.219993493256,10|0,0:0|0:0,0:0:0:0:
293,344,150712,1,2,1:0:0:0:
345,138,150880,6,0,P|311:235|311:255,1,111.019995426117,12|0,0:0|0:0,0:0:0:0:
382,287,151131,1,0,1:0:0:0:
382,287,151215,2,0,L|470:282,1,55.5099977130586,10|0,0:0|0:0,0:0:0:0:
496,201,151382,1,0,1:0:0:0:
496,201,151466,1,8,0:0:0:0:
496,201,151550,2,0,L|408:196,1,55.5099977130586,2|0,1:0|0:0,0:0:0:0:
369,124,151718,1,8,0:0:0:0:
336,120,151801,1,8,0:0:0:0:
301,141,151885,6,0,B|231:138|231:138|201:156|201:156|121:153,1,180.179999450134,6|0,1:0|0:0,0:0:0:0:
111,140,152220,2,0,P|126:201|132:260,1,120.119999633423,10|0,0:0|3:0,0:0:0:0:
173,71,152556,1,2,1:0:0:0:
217,264,152723,1,2,3:0:0:0:
217,264,152807,1,0,3:0:0:0:
217,264,152891,1,8,0:0:0:0:
356,148,153058,2,0,P|267:141|233:144,1,120.119999633423,2|0,3:0|1:0,0:0:0:0:
397,76,153394,2,0,P|436:133|434:148,1,60.0599998167114,2|0,3:0|3:0,0:0:0:0:
365,267,153561,2,0,P|363:190|352:132,1,120.119999633423,8|2,0:0|3:0,0:0:0:0:
221,59,153896,1,0,1:0:0:0:
156,193,154064,1,2,3:0:0:0:
156,193,154148,1,0,3:0:0:0:
161,197,154232,1,8,0:0:0:0:
290,102,154399,1,2,3:0:0:0:
96,128,154567,6,0,P|70:199|134:279,1,180.179999450134,0|0,1:0|0:0,0:0:0:0:
142,284,154902,2,0,L|273:275,1,120.119999633423,10|0,0:0|3:0,0:0:0:0:
427,211,155237,1,2,1:0:0:0:
247,182,155405,1,2,3:0:0:0:
247,182,155489,1,0,3:0:0:0:
251,185,155573,1,8,0:0:0:0:
428,126,155740,1,2,3:0:0:0:
426,292,155908,1,0,1:0:0:0:
332,155,156075,2,0,L|315:84,1,60.0599998167114,2|0,3:0|3:0,0:0:0:0:
138,94,156243,2,0,L|173:222,1,120.119999633423,8|2,0:0|3:0,0:0:0:0:
386,217,156578,1,0,1:0:0:0:
251,185,156746,1,2,3:0:0:0:
460,181,156913,2,0,P|466:253|414:292,1,120.119999633423,8|2,0:0|3:0,0:0:0:0:
345,321,157165,1,0,3:0:0:0:
322,303,157248,6,0,B|202:288|265:355|101:329,1,180.179999450134,0|0,1:0|0:0,0:0:0:0:
132,328,157584,2,0,P|152:260|127:185,1,120.119999633423,10|0,0:0|3:0,0:0:0:0:
51,67,157919,1,2,1:0:0:0:
62,262,158086,1,2,3:0:0:0:
62,262,158170,1,0,3:0:0:0:
62,262,158254,1,8,0:0:0:0:
149,124,158422,2,0,P|216:113|288:112,1,120.119999633423,2|0,3:0|1:0,0:0:0:0:
386,206,158757,1,0,3:0:0:0:
386,206,158841,1,0,3:0:0:0:
386,206,158924,2,0,P|319:195|247:194,1,120.119999633423,8|2,0:0|3:0,0:0:0:0:
413,85,159260,2,0,P|446:148|448:154,1,60.0599998167114,0|0,1:0|3:0,0:0:0:0:
512,162,159427,2,0,P|479:225|477:231,1,60.0599998167114,2|0,3:0|3:0,0:0:0:0:
470,318,159595,1,8,0:0:0:0:
386,206,159762,1,2,3:0:0:0:
272,340,159930,6,0,P|218:271|105:238,1,180.179999450134,4|0,1:0|0:0,0:0:0:0:
115,249,160265,2,0,L|98:108,1,120.119999633423,10|0,0:0|3:0,0:0:0:0:
210,21,160600,1,2,1:0:0:0:
259,154,160768,2,0,P|329:122|395:122,1,120.119999633423,2|8,3:0|0:0,0:0:0:0:
423,331,161103,2,0,P|353:299|287:299,1,120.119999633423,10|0,0:0|1:0,0:0:0:0:
472,201,161438,1,10,0:0:0:0:
183,246,161606,2,0,P|123:238|70:210,1,120.119999633423,8|2,0:0|0:0,0:0:0:0:
365,142,161941,1,0,1:0:0:0:
69,131,162109,2,0,P|7:166|1:179,1,60.0599998167114,10|8,0:0|0:0,0:0:0:0:
102,332,162276,2,0,P|163:363|171:363,1,60.0599998167114,8|8,0:0|0:0,0:0:0:0:
329,324,162444,6,0,B|377:280|484:295|484:295|423:257|423:257|504:251|504:251|416:211|416:211|537:209|537:209|396:179|393:94|230:113|258:175|240:331|95:228|68:208,1,1050.83706737513,6|0,1:0|0:0,0:0:0:0:
