osu file format v14

[General]
AudioFilename: audio.mp3
AudioLeadIn: 0
PreviewTime: 48096
Countdown: 0
SampleSet: Soft
StackLeniency: 0.3
Mode: 0
LetterboxInBreaks: 0
EpilepsyWarning: 1
WidescreenStoryboard: 1

[Editor]
Bookmarks: 16964,60795
DistanceSpacing: 1.1
BeatDivisor: 4
GridSize: 8
TimelineZoom: 2.2

[Metadata]
Title:crossing field (DJ A.H.'s Remix)
TitleUnicode:crossing field (DJ A.H.'s Remix)
Artist:LiSA
ArtistUnicode:LiSA
Creator:freestyler
Version:sukii's hard
Source:ソードアート・オンライン
Tags:vetoed sinyus20 'n' drum and bass dnb & electronic anime instrumental sao sword art online op opening newgrounds sukii take blarpblarp
BeatmapID:4135922
BeatmapSetID:1983598

[Difficulty]
HPDrainRate:4
CircleSize:3.8
OverallDifficulty:6
ApproachRate:7.5
SliderMultiplier:1.4
SliderTickRate:1

[Events]
//Background and Video events
0,0,"47493635_p0_master1200.jpg",0,0
//Break Periods
//Storyboard Layer 0 (Background)
//Storyboard Layer 1 (Fail)
//Storyboard Layer 2 (Pass)
//Storyboard Layer 3 (Foreground)
Sprite,Foreground,Centre,"sb\pl.png",0,0 C,0,112,,141,141,141 M,0,112,156,327,362,324.013,375.7078 F,2,112,1014,1,0 S,2,112,1014,2.5,0.5 P,0,112,1014,A M,0,156,200,324.013,375.7078,320.4353,389.2713 M,0,200,244,320.4353,389.2713,316.141,402.6299 M,0,244,288,316.141,402.6299,310.9442,415.6612 M,0,288,332,310.9442,415.6612,316.141,402.6299 M,0,332,376,316.141,402.6299,320.4353,389.2713 M,0,376,420,320.4353,389.2713,324.013,375.7078 M,0,420,464,324.013,375.7078,327,362
Sprite,Foreground,Centre,"sb\pl.png",0,0 C,0,817,,211,211,211 M,0,817,861,289,250,283.4376,239.0656 F,2,817,2072,1,0 S,2,817,2072,2.5,0.5 P,0,817,2072,A M,0,861,905,283.4376,239.0656,279.9279,227.3124 M,0,905,949,279.9279,227.3124,278.6666,215.1131 M,0,949,993,278.6666,215.1131,279.8116,202.904 M,0,993,1037,279.8116,202.904,283.4677,191.2008 M,0,1037,1081,283.4677,191.2008,289.4753,180.5098 M,0,1081,1125,289.4753,180.5098,297.3263,171.077 M,0,1125,1169,297.3263,171.077,306.2022,162.5872 M,0,1169,1214,306.2022,162.5872,315.2388,154.2657 M,0,1214,1258,315.2388,154.2657,323.5917,145.2684 M,0,1258,1302,323.5917,145.2684,330.4679,135.1089 M,0,1302,1346,330.4679,135.1089,335.3034,123.8374 M,0,1346,1390,335.3034,123.8374,337.8794,111.8449 M,0,1390,1434,337.8794,111.8449,338.2488,99.58229 M,0,1434,1478,338.2488,99.58229,336.4833,87.44102 M,0,1478,1522,336.4833,87.44102,332.6885,75.77467
Sprite,Foreground,Centre,"sb\pl.png",0,0 C,0,79876,,211,211,211 M,0,79876,79920,216,105,208.3772,124.6033 F,2,79876,80778,1,0 S,2,79876,80778,2.5,0.5 P,0,79876,80778,A M,0,79920,79964,208.3772,124.6033,201.3429,144.4252 M,0,79964,80008,201.3429,144.4252,195.0156,164.4839 M,0,80008,80052,195.0156,164.4839,189.3121,184.7283 M,0,80052,80096,189.3121,184.7283,184.2645,205.1472 M,0,80096,80140,184.2645,205.1472,179.9595,225.735 M,0,80140,80184,179.9595,225.735,176.2778,246.4432 M,0,80184,80228,176.2778,246.4432,173.3254,267.2678
Sprite,Foreground,Centre,"sb\pl.png",0,0 C,0,80406,,211,211,211 M,0,80406,80450,254,266,267.032,282.5093 F,2,80406,81308,1,0 S,2,80406,81308,2.5,0.5 P,0,80406,81308,A M,0,80450,80494,267.032,282.5093,280.576,298.6008 M,0,80494,80538,280.576,298.6008,294.7073,314.1791 M,0,80538,80582,294.7073,314.1791,309.3395,329.2872 M,0,80582,80626,309.3395,329.2872,324.4765,343.8907 M,0,80626,80670,324.4765,343.8907,340.1534,357.9128 M,0,80670,80714,340.1534,357.9128,356.2709,371.4255 M,0,80714,80758,356.2709,371.4255,372.8706,384.3414
Sprite,Foreground,Centre,"sb\pl.png",0,0 C,0,80935,,211,211,211 M,0,80935,80979,412,313,427.7354,311.7721 F,2,80935,82190,1,0 S,2,80935,82190,2.5,0.5 P,0,80935,82190,A M,0,80979,81023,427.7354,311.7721,443.3859,309.7295 M,0,81023,81067,443.3859,309.7295,458.9108,306.8854 M,0,81067,81111,458.9108,306.8854,474.2719,303.2593 M,0,81111,81155,474.2719,303.2593,489.4351,298.8781 M,0,81155,81199,489.4351,298.8781,504.3708,293.775 M,0,81199,81243,504.3708,293.775,519.0546,287.9862 M,0,81243,81287,519.0546,287.9862,533.467,281.5512 M,0,81287,81332,533.467,281.5512,547.5942,274.5118 M,0,81332,81376,547.5942,274.5118,561.4266,266.9093 M,0,81376,81420,561.4266,266.9093,550.7388,259.3277 M,0,81420,81464,550.7388,259.3277,538.1311,249.8621 M,0,81464,81508,538.1311,249.8621,527.5375,238.1976 M,0,81508,81552,527.5375,238.1976,519.6783,224.5453 M,0,81552,81596,519.6783,224.5453,514.9091,209.5273 M,0,81596,81640,514.9091,209.5273,513.0489,193.8718
Sprite,Foreground,Centre,"sb\pl.png",347.2624,152.2624 C,0,81994,,141,141,141 F,2,81994,82544,1,0 S,2,81994,82544,2.5,0.5 P,0,81994,82544,A
Sprite,Foreground,Centre,"sb\pl.png",351,156 C,0,82170,,141,141,141 F,2,82170,82720,1,0 S,2,82170,82720,2.5,0.5 P,0,82170,82720,A
Sprite,Foreground,Centre,"sb\pl.png",439,156 C,0,82347,,211,211,211 F,2,82347,82897,1,0 S,2,82347,82897,2.5,0.5 P,0,82347,82897,A
Sprite,Foreground,Centre,"sb\pl.png",444,136 C,0,82435,,211,211,211 F,2,82435,82985,1,0 S,2,82435,82985,2.5,0.5 P,0,82435,82985,A
Sprite,Foreground,Centre,"sb\pl.png",449,115 C,0,82523,,211,211,211 F,2,82523,83073,1,0 S,2,82523,83073,2.5,0.5 P,0,82523,83073,A
Sprite,Foreground,Centre,"sb\pl.png",454,95 C,0,82611,,211,211,211 F,2,82611,83161,1,0 S,2,82611,83161,2.5,0.5 P,0,82611,83161,A
Sprite,Foreground,Centre,"sb\pl.png",0,0 C,0,82700,,211,211,211 M,0,82700,82744,460,75,442.7839,71.69813 F,2,82700,83426,1,0 S,2,82700,83426,2.5,0.5 P,0,82700,83426,A M,0,82744,82788,442.7839,71.69813,425.8257,67.26585 M,0,82788,82832,425.8257,67.26585,409.199,61.72267 M,0,82832,82876,409.199,61.72267,392.9763,55.09286
Sprite,Foreground,Centre,"sb\pl.png",0,0 C,0,34700,,141,141,141 M,0,34700,34744,239,323,223.4203,325.5031 F,2,34700,36308,1,0 S,2,34700,36308,2.5,0.5 P,0,34700,36308,A M,0,34744,34788,223.4203,325.5031,207.9886,328.779 M,0,34788,34832,207.9886,328.779,192.7715,332.94 M,0,34832,34876,192.7715,332.94,177.8195,337.9722 M,0,34876,34920,177.8195,337.9722,163.1825,343.859 M,0,34920,34964,163.1825,343.859,148.9091,350.5809 M,0,34964,35008,148.9091,350.5809,135.0467,358.1155 M,0,35008,35052,135.0467,358.1155,121.6417,366.4379 M,0,35052,35097,121.6417,366.4379,108.7385,375.5204 M,0,35097,35141,108.7385,375.5204,96.38026,385.3331 M,0,35141,35185,96.38026,385.3331,84.60806,395.8431 M,0,35185,35229,84.60806,395.8431,73.45969,407.0146 M,0,35229,35273,73.45969,407.0146,84.60806,395.8431 M,0,35273,35317,84.60806,395.8431,96.38026,385.3331 M,0,35317,35361,96.38026,385.3331,108.7385,375.5204 M,0,35361,35405,108.7385,375.5204,121.6417,366.4379 M,0,35405,35450,121.6417,366.4379,135.0467,358.1155 M,0,35450,35494,135.0467,358.1155,148.9091,350.5809 M,0,35494,35538,148.9091,350.5809,163.1825,343.859 M,0,35538,35582,163.1825,343.859,177.8195,337.9722 M,0,35582,35626,177.8195,337.9722,192.7715,332.94 M,0,35626,35670,192.7715,332.94,207.9886,328.779 M,0,35670,35714,207.9886,328.779,223.4203,325.5031 M,0,35714,35758,223.4203,325.5031,239,323
Sprite,Foreground,Centre,"sb\pl.png",0,0 C,0,36111,,211,211,211 M,0,36111,36155,320,393,333.8297,395.3575 F,2,36111,37013,1,0 S,2,36111,37013,2.5,0.5 P,0,36111,37013,A M,0,36155,36199,333.8297,395.3575,347.1985,399.5611 M,0,36199,36243,347.1985,399.5611,359.0853,406.9147 M,0,36243,36287,359.0853,406.9147,368.873,416.9617 M,0,36287,36331,368.873,416.9617,379.4477,426.1424 M,0,36331,36375,379.4477,426.1424,391.8346,432.6875 M,0,36375,36419,391.8346,432.6875,405.1252,437.1693 M,0,36419,36463,405.1252,437.1693,418.7898,440.3566
Sprite,Foreground,Centre,"sb\pl.png",0,0 C,0,36641,,211,211,211 M,0,36641,36685,444,397,457.791,394.4258 F,2,36641,37543,1,0 S,2,36641,37543,2.5,0.5 P,0,36641,37543,A M,0,36685,36729,457.791,394.4258,471.0933,390.015 M,0,36729,36773,471.0933,390.015,482.8987,382.5272 M,0,36773,36817,482.8987,382.5272,492.6201,372.4167 M,0,36817,36861,492.6201,372.4167,503.0987,363.1252 M,0,36861,36905,503.0987,363.1252,515.4371,356.4915 M,0,36905,36949,515.4371,356.4915,528.7053,351.9452 M,0,36949,36993,528.7053,351.9452,542.3624,348.7256
Sprite,Foreground,Centre,"sb\pl.png",576,366 C,0,37170,,211,211,211 F,2,37170,37720,1,0 S,2,37170,37720,2.5,0.5 P,0,37170,37720,A
Sprite,Foreground,Centre,"sb\pl.png",0,0 C,0,37523,,141,141,141 M,0,37523,37567,542,262,530.0131,259.3116 F,2,37523,39131,1,0 S,2,37523,39131,2.5,0.5 P,0,37523,39131,A M,0,37567,37611,530.0131,259.3116,518.0604,256.4755 M,0,37611,37655,518.0604,256.4755,506.1436,253.4934 M,0,37655,37699,506.1436,253.4934,494.2742,250.3269 M,0,37699,37743,494.2742,250.3269,482.4443,247.0161 M,0,37743,37787,482.4443,247.0161,470.6673,243.5216 M,0,37787,37831,470.6673,243.5216,458.9337,239.8847 M,0,37831,37875,458.9337,239.8847,447.2581,236.0648 M,0,37875,37920,447.2581,236.0648,435.6296,232.1045 M,0,37920,37964,435.6296,232.1045,424.0645,227.9623 M,0,37964,38008,424.0645,227.9623,412.55,223.6817 M,0,38008,38052,412.55,223.6817,401.1043,219.2203 M,0,38052,38096,401.1043,219.2203,412.55,223.6817 M,0,38096,38140,412.55,223.6817,424.0645,227.9623 M,0,38140,38184,424.0645,227.9623,435.6296,232.1045 M,0,38184,38228,435.6296,232.1045,447.2581,236.0648 M,0,38228,38273,447.2581,236.0648,458.9337,239.8847 M,0,38273,38317,458.9337,239.8847,470.6673,243.5216 M,0,38317,38361,470.6673,243.5216,482.4444,247.0161 M,0,38361,38405,482.4444,247.0161,494.2742,250.3269 M,0,38405,38449,494.2742,250.3269,506.1436,253.4934 M,0,38449,38493,506.1436,253.4934,518.0604,256.4755 M,0,38493,38537,518.0604,256.4755,530.0131,259.3116 M,0,38537,38581,530.0131,259.3116,542,262
Sprite,Foreground,Centre,"sb\pl.png",0,0 C,0,38935,,211,211,211 M,0,38935,38979,542,150,530.1686,146.7131 F,2,38935,39837,1,0 S,2,38935,39837,2.5,0.5 P,0,38935,39837,A M,0,38979,39023,530.1686,146.7131,518.8574,141.9572 M,0,39023,39067,518.8574,141.9572,508.7114,135.0806 M,0,39067,39111,508.7114,135.0806,500.1946,126.2443 M,0,39111,39155,500.1946,126.2443,491.9392,117.1537 M,0,39155,39199,491.9392,117.1537,482.3293,109.5364 M,0,39199,39243,482.3293,109.5364,471.4695,103.8238 M,0,39243,39287,471.4695,103.8238,459.9456,99.58552
Sprite,Foreground,Centre,"sb\pl.png",0,0 C,0,39464,,211,211,211 M,0,39464,39508,430,114,417.9664,116.4708 F,2,39464,40543,1,0 S,2,39464,40543,2.5,0.5 P,0,39464,40543,A M,0,39508,39552,417.9664,116.4708,405.9672,119.1025 M,0,39552,39596,405.9672,119.1025,394.0028,121.8876 M,0,39596,39640,394.0028,121.8876,382.088,124.8783 M,0,39640,39684,382.088,124.8783,370.2113,128.0168 M,0,39684,39728,370.2113,128.0168,358.3916,131.3638 M,0,39728,39772,358.3916,131.3638,346.6132,134.853 M,0,39772,39816,346.6132,134.853,334.8993,138.5534 M,0,39816,39861,334.8993,138.5534,323.2294,142.39 M,0,39861,39905,323.2294,142.39,311.6318,146.4404 M,0,39905,39949,311.6318,146.4404,300.0807,150.6213 M,0,39949,39993,300.0807,150.6213,288.5996,154.9919
Sprite,Foreground,Centre,"sb\pl.png",292.2624,277.2624 C,0,40347,,160,131,199 F,2,40347,40897,1,0 S,2,40347,40897,2.5,0.5 P,0,40347,40897,A
Sprite,Foreground,Centre,"sb\pl.png",0,0 C,0,40523,,160,131,199 M,0,40523,40567,296,281,300.3932,265.84 F,2,40523,41249,1,0 S,2,40523,41249,2.5,0.5 P,0,40523,41249,A M,0,40567,40611,300.3932,265.84,304.4174,250.5788 M,0,40611,40655,304.4174,250.5788,308.0135,235.2111 M,0,40655,40699,308.0135,235.2111,311.1789,219.7489
Sprite,Foreground,Centre,"sb\pl.png",0,0 C,0,40876,,160,131,199 M,0,40876,40920,275,151,290.3427,147.2976 F,2,40876,41602,1,0 S,2,40876,41602,2.5,0.5 P,0,40876,41602,A M,0,40920,40964,290.3427,147.2976,305.5626,143.1249 M,0,40964,41008,305.5626,143.1249,320.6256,138.4167 M,0,41008,41052,320.6256,138.4167,335.5126,133.1789
Sprite,Foreground,Centre,"sb\pl.png",0,0 C,0,41229,,160,131,199 M,0,41229,41273,376,66,386.9938,77.32611 F,2,41229,41955,1,0 S,2,41229,41955,2.5,0.5 P,0,41229,41955,A M,0,41273,41317,386.9938,77.32611,398.1908,88.45078 M,0,41317,41361,398.1908,88.45078,409.6168,99.34003 M,0,41361,41405,409.6168,99.34003,421.2669,109.9892
Sprite,Foreground,Centre,"sb\pl.png",395,194 C,0,41582,,194,199,130 F,2,41582,42132,1,0 S,2,41582,42132,2.5,0.5 P,0,41582,42132,A
Sprite,Foreground,Centre,"sb\pl.png",383,315 C,0,42464,,141,141,141 F,2,42464,43014,1,0 S,2,42464,43014,2.5,0.5 P,0,42464,43014,A
Sprite,Foreground,Centre,"sb\pl.png",387,330 C,0,42641,,141,141,141 F,2,42641,43191,1,0 S,2,42641,43191,2.5,0.5 P,0,42641,43191,A
Sprite,Foreground,Centre,"sb\pl.png",459,299 C,0,42817,,211,211,211 F,2,42817,43367,1,0 S,2,42817,43367,2.5,0.5 P,0,42817,43367,A
Sprite,Foreground,Centre,"sb\pl.png",463,314 C,0,42994,,211,211,211 F,2,42994,43544,1,0 S,2,42994,43544,2.5,0.5 P,0,42994,43544,A
Sprite,Foreground,Centre,"sb\pl.png",541,301 C,0,43170,,194,199,130 F,2,43170,43720,1,0 S,2,43170,43720,2.5,0.5 P,0,43170,43720,A
Sprite,Foreground,Centre,"sb\pl.png",0,0 C,0,43347,,194,199,130 M,0,43347,43391,545,316,540.7601,331.1999 F,2,43347,44073,1,0 S,2,43347,44073,2.5,0.5 P,0,43347,44073,A M,0,43391,43435,540.7601,331.1999,537.2038,346.5706 M,0,43435,43479,537.2038,346.5706,534.4572,362.1072 M,0,43479,43523,534.4572,362.1072,532.4811,377.7638
Sprite,Foreground,Centre,"sb\pl.png",0,0 C,0,43700,,194,199,130 M,0,43700,43744,458,397,442.6497,400.6509 F,2,43700,44426,1,0 S,2,43700,44426,2.5,0.5 P,0,43700,44426,A M,0,43744,43788,442.6497,400.6509,427.5096,405.0784 M,0,43788,43832,427.5096,405.0784,412.6611,410.4059 M,0,43832,43876,412.6611,410.4059,398.1358,416.5714
Sprite,Foreground,Centre,"sb\pl.png",0,0 C,0,44053,,194,199,130 M,0,44053,44097,344,362,332.8999,350.7834 F,2,44053,44779,1,0 S,2,44053,44779,2.5,0.5 P,0,44053,44779,A M,0,44097,44141,332.8999,350.7834,321.3372,340.0486 M,0,44141,44185,321.3372,340.0486,309.2537,329.9025 M,0,44185,44229,309.2537,329.9025,296.7011,320.3378
Sprite,Foreground,Centre,"sb\pl.png",320,248 C,0,44406,,160,131,199 F,2,44406,44956,1,0 S,2,44406,44956,2.5,0.5 P,0,44406,44956,A
Sprite,Foreground,Centre,"sb\pl.png",320,248 C,0,45288,,141,141,141 F,2,45288,45838,1,0 S,2,45288,45838,2.5,0.5 P,0,45288,45838,A
Sprite,Foreground,Centre,"sb\pl.png",320,56 C,0,45994,,211,211,211 F,2,45994,46544,1,0 S,2,45994,46544,2.5,0.5 P,0,45994,46544,A
Sprite,Foreground,Centre,"sb\pl.png",0,0 C,0,48111,,141,141,141 M,0,48111,48155,320,440,319.7342,424.228 F,2,48111,49013,1,0 S,2,48111,49013,2.5,0.5 P,0,48111,49013,A M,0,48155,48199,319.7342,424.228,320.5062,408.4798 M,0,48199,48243,320.5062,408.4798,322.4933,392.8367 M,0,48243,48287,322.4933,392.8367,325.6219,377.3741 M,0,48287,48331,325.6219,377.3741,322.4933,392.8367 M,0,48331,48375,322.4933,392.8367,320.5062,408.4798 M,0,48375,48419,320.5062,408.4798,319.7342,424.228 M,0,48419,48463,319.7342,424.228,320,440
Sprite,Foreground,Centre,"sb\pl.png",0,0 C,0,48817,,194,199,130 M,0,48817,48861,295,304,308.0436,287.766 F,2,48817,49543,1,0 S,2,48817,49543,2.5,0.5 P,0,48817,49543,A M,0,48861,48905,308.0436,287.766,325.7625,276.9634 M,0,48905,48949,325.7625,276.9634,346.0432,272.702 M,0,48949,48993,346.0432,272.702,366.4935,276.2668
Sprite,Foreground,Centre,"sb\pl.png",0,0 C,0,49170,,194,199,130 M,0,49170,49214,416,349,429.0436,365.234 F,2,49170,49896,1,0 S,2,49170,49896,2.5,0.5 P,0,49170,49896,A M,0,49214,49258,429.0436,365.234,446.7625,376.0366 M,0,49258,49302,446.7625,376.0366,467.0432,380.298 M,0,49302,49346,467.0432,380.298,487.4935,376.7332
Sprite,Foreground,Centre,"sb\pl.png",569,325 C,0,49523,,194,199,130 F,2,49523,50073,1,0 S,2,49523,50073,2.5,0.5 P,0,49523,50073,A
Sprite,Foreground,Centre,"sb\pl.png",531,259 C,0,49700,,194,199,130 F,2,49700,50250,1,0 S,2,49700,50250,2.5,0.5 P,0,49700,50250,A
Sprite,Foreground,Centre,"sb\pl.png",0,0 C,0,49876,,194,199,130 M,0,49876,49920,452,271,456.9585,250.565 F,2,49876,50602,1,0 S,2,49876,50602,2.5,0.5 P,0,49876,50602,A M,0,49920,49964,456.9585,250.565,460.7139,229.8747 M,0,49964,50008,460.7139,229.8747,462.9592,208.9674 M,0,50008,50052,462.9592,208.9674,463.9783,187.9638
Sprite,Foreground,Centre,"sb\pl.png",0,0 C,0,50229,,135,207,174 M,0,50229,50273,467,109,448.0596,99.94615 F,2,50229,51131,1,0 S,2,50229,51131,2.5,0.5 P,0,50229,51131,A M,0,50273,50317,448.0596,99.94615,427.4946,95.86504 M,0,50317,50361,427.4946,95.86504,406.6286,97.84602 M,0,50361,50405,406.6286,97.84602,387.0234,105.3249 M,0,50405,50449,387.0234,105.3249,369.3709,116.7138 M,0,50449,50493,369.3709,116.7138,364.4274,136.9725 M,0,50493,50537,364.4274,136.9725,352.922,154.4097 M,0,50537,50581,352.922,154.4097,336,166
Sprite,Foreground,Centre,"sb\pl.png",250,189 C,0,50759,,135,207,174 F,2,50759,51309,1,0 S,2,50759,51309,2.5,0.5 P,0,50759,51309,A
Sprite,Foreground,Centre,"sb\pl.png",0,0 C,0,50935,,135,207,174 M,0,50935,50979,221,110,235.0051,94.73701 F,2,50935,51661,1,0 S,2,50935,51661,2.5,0.5 P,0,50935,51661,A M,0,50979,51023,235.0051,94.73701,254.0065,86.78922 M,0,51023,51067,254.0065,86.78922,274.604,87.14297 M,0,51067,51111,274.604,87.14297,292.7163,97.02568
Sprite,Foreground,Centre,"sb\pl.png",0,0 C,0,51288,,135,207,174 M,0,51288,51332,332,179,326.0442,199.1676 F,2,51288,52014,1,0 S,2,51288,52014,2.5,0.5 P,0,51288,52014,A M,0,51332,51376,326.0442,199.1676,321.3135,219.6549 M,0,51376,51420,321.3135,219.6549,317.8024,240.3852 M,0,51420,51464,317.8024,240.3852,315.6675,261.3032
Sprite,Foreground,Centre,"sb\pl.png",0,0 C,0,51641,,149,214,219 M,0,51641,51685,239,311,220.1911,301.8621 F,2,51641,52367,1,0 S,2,51641,52367,2.5,0.5 P,0,51641,52367,A M,0,51685,51729,220.1911,301.8621,204.1116,288.4559 M,0,51729,51773,204.1116,288.4559,192.864,270.8282 M,0,51773,51817,192.864,270.8282,186.1812,250.9903
Sprite,Foreground,Centre,"sb\pl.png",0,0 C,0,51994,,149,214,219 M,0,51994,52038,169,175,165.6049,195.7516 F,2,51994,52896,1,0 S,2,51994,52896,2.5,0.5 P,0,51994,52896,A M,0,52038,52082,165.6049,195.7516,160.9635,216.2608 M,0,52082,52126,160.9635,216.2608,154.8065,236.3661 M,0,52126,52170,154.8065,236.3661,147.4284,256.0558 M,0,52170,52214,147.4284,256.0558,138.6217,275.149 M,0,52214,52258,138.6217,275.149,128.6432,293.6559 M,0,52258,52302,128.6432,293.6559,117.3472,311.3899 M,0,52302,52346,117.3472,311.3899,104.9527,328.3727
Sprite,Foreground,Centre,"sb\pl.png",64,400 C,0,52523,,149,214,219 F,2,52523,53073,1,0 S,2,52523,53073,2.5,0.5 P,0,52523,53073,A
Sprite,Foreground,Centre,"sb\pl.png",140,436 C,0,52700,,131,150,219 F,2,52700,53250,1,0 S,2,52700,53250,2.5,0.5 P,0,52700,53250,A
Sprite,Foreground,Centre,"sb\pl.png",0,0 C,0,52876,,131,150,219 M,0,52876,52920,193,375,209.6064,362.1622 F,2,52876,53602,1,0 S,2,52876,53602,2.5,0.5 P,0,52876,53602,A M,0,52920,52964,209.6064,362.1622,228.0441,352.1652 M,0,52964,53008,228.0441,352.1652,247.7996,345.121 M,0,53008,53052,247.7996,345.121,268.502,341.7283
Sprite,Foreground,Centre,"sb\pl.png",0,0 C,0,53229,,131,150,219 M,0,53229,53273,311,278,327.6064,290.8378 F,2,53229,53955,1,0 S,2,53229,53955,2.5,0.5 P,0,53229,53955,A M,0,53273,53317,327.6064,290.8378,346.0441,300.8348 M,0,53317,53361,346.0441,300.8348,365.7996,307.879 M,0,53361,53405,365.7996,307.879,386.502,311.2717
Sprite,Foreground,Centre,"sb\pl.png",0,0 C,0,53582,,131,150,219 M,0,53582,53626,393,405,409.6064,392.1622 F,2,53582,54308,1,0 S,2,53582,54308,2.5,0.5 P,0,53582,54308,A M,0,53626,53670,409.6064,392.1622,428.0441,382.1653 M,0,53670,53714,428.0441,382.1653,447.7996,375.121 M,0,53714,53758,447.7996,375.121,468.502,371.7283
Sprite,Foreground,Centre,"sb\pl.png",0,0 C,0,53935,,131,150,219 M,0,53935,53979,487,290,503.6064,302.8378 F,2,53935,54661,1,0 S,2,53935,54661,2.5,0.5 P,0,53935,54661,A M,0,53979,54023,503.6064,302.8378,522.0441,312.8347 M,0,54023,54067,522.0441,312.8347,541.7996,319.879 M,0,54067,54111,541.7996,319.879,562.502,323.2717
Sprite,Foreground,Centre,"sb\pl.png",0,0 C,0,54288,,160,131,199 M,0,54288,54332,549,193,528.0087,191.7837 F,2,54288,55190,1,0 S,2,54288,55190,2.5,0.5 P,0,54288,55190,A M,0,54332,54376,528.0087,191.7837,507.0537,193.2892 M,0,54376,54420,507.0537,193.2892,486.9949,199.3934 M,0,54420,54464,486.9949,199.3934,469.0451,210.3097 M,0,54464,54508,469.0451,210.3097,450.7597,220.6147 M,0,54508,54552,450.7597,220.6147,430.3829,225.5646 M,0,54552,54596,430.3829,225.5646,409.3776,226.127 M,0,54596,54640,409.3776,226.127,388.4387,224.1952
Sprite,Foreground,Centre,"sb\pl.png",328,154 C,0,54817,,211,211,211 F,2,54817,55367,1,0 S,2,54817,55367,2.5,0.5 P,0,54817,55367,A
Sprite,Foreground,Centre,"sb\pl.png",314,76 C,0,54994,,211,211,211 F,2,54994,55544,1,0 S,2,54994,55544,2.5,0.5 P,0,54994,55544,A
Sprite,Foreground,Centre,"sb\pl.png",0,0 C,0,55170,,211,211,211 M,0,55170,55214,395,65,390.3178,85.50499 F,2,55170,56072,1,0 S,2,55170,56072,2.5,0.5 P,0,55170,56072,A M,0,55214,55258,390.3178,85.50499,386.3098,106.1525 M,0,55258,55302,386.3098,106.1525,383.1479,126.9462 M,0,55302,55346,383.1479,126.9462,380.6767,147.8332 M,0,55346,55390,380.6767,147.8332,379.0523,168.8029 M,0,55390,55434,379.0523,168.8029,378.1315,189.8152 M,0,55434,55478,378.1315,189.8152,378.0533,210.8475 M,0,55478,55522,378.0533,210.8475,378.6721,231.8711
Sprite,Foreground,Centre,"sb\pl.png",300,291 C,0,55700,,194,199,130 F,2,55700,56250,1,0 S,2,55700,56250,2.5,0.5 P,0,55700,56250,A
Sprite,Foreground,Centre,"sb\pl.png",0,0 C,0,55876,,194,199,130 M,0,55876,55920,218,258,222.6822,237.495 F,2,55876,56778,1,0 S,2,55876,56778,2.5,0.5 P,0,55876,56778,A M,0,55920,55964,222.6822,237.495,226.6902,216.8474 M,0,55964,56008,226.6902,216.8474,229.852,196.0538 M,0,56008,56052,229.852,196.0538,232.3232,175.1668 M,0,56052,56096,232.3232,175.1668,233.9476,154.1971 M,0,56096,56140,233.9476,154.1971,234.8685,133.1848 M,0,56140,56184,234.8685,133.1848,234.9466,112.1525 M,0,56184,56228,234.9466,112.1525,234.3279,91.12889
Sprite,Foreground,Centre,"sb\pl.png",159,56 C,0,56406,,135,207,174 F,2,56406,56956,1,0 S,2,56406,56956,2.5,0.5 P,0,56406,56956,A
Sprite,Foreground,Centre,"sb\pl.png",0,0 C,0,56582,,135,207,174 M,0,56582,56626,80,81,75.31778,101.505 F,2,56582,57484,1,0 S,2,56582,57484,2.5,0.5 P,0,56582,57484,A M,0,56626,56670,75.31778,101.505,71.30975,122.1525 M,0,56670,56714,71.30975,122.1525,68.14793,142.9462 M,0,56714,56758,68.14793,142.9462,65.67672,163.8332 M,0,56758,56802,65.67672,163.8332,64.05234,184.8029 M,0,56802,56846,64.05234,184.8029,63.13152,205.8152 M,0,56846,56890,63.13152,205.8152,63.05333,226.8475 M,0,56890,56934,63.05333,226.8475,63.67205,247.8711
Sprite,Foreground,Centre,"sb\pl.png",73,331 C,0,57111,,149,214,219 F,2,57111,57661,1,0 S,2,57111,57661,2.5,0.5 P,0,57111,57661,A
Sprite,Foreground,Centre,"sb\pl.png",0,0 C,0,57288,,149,214,219 M,0,57288,57332,134,388,154.4353,383.0369 F,2,57288,58014,1,0 S,2,57288,58014,2.5,0.5 P,0,57288,58014,A M,0,57332,57376,154.4353,383.0369,175.1056,379.1718 M,0,57376,57420,175.1056,379.1718,195.9783,376.6163 M,0,57420,57464,195.9783,376.6163,216.9592,375.2234
Sprite,Foreground,Centre,"sb\pl.png",249,283 C,0,57641,,149,214,219 F,2,57641,58191,1,0 S,2,57641,58191,2.5,0.5 P,0,57641,58191,A
Sprite,Foreground,Centre,"sb\pl.png",0,0 C,0,57817,,149,214,219 M,0,57817,57861,221,205,200.2451,205.2709 F,2,57817,58543,1,0 S,2,57817,58543,2.5,0.5 P,0,57817,58543,A M,0,57861,57905,200.2451,205.2709,180.9232,212.9681 M,0,57905,57949,180.9232,212.9681,167.0627,228.4087 M,0,57949,57993,167.0627,228.4087,159.6708,247.8318
Sprite,Foreground,Centre,"sb\pl.png",254,298 C,0,58170,,131,150,219 F,2,58170,58720,1,0 S,2,58170,58720,2.5,0.5 P,0,58170,58720,A
Sprite,Foreground,Centre,"sb\pl.png",327,271 C,0,58347,,131,150,219 F,2,58347,58897,1,0 S,2,58347,58897,2.5,0.5 P,0,58347,58897,A
Sprite,Foreground,Centre,"sb\pl.png",0,0 C,0,58523,,131,150,219 M,0,58523,58567,357,343,362.8145,363.2011 F,2,58523,59602,1,0 S,2,58523,59602,2.5,0.5 P,0,58523,59602,A M,0,58567,58611,362.8145,363.2011,367.0456,383.8041 M,0,58611,58655,367.0456,383.8041,370.965,385.5321 M,0,58655,58699,370.965,385.5321,375.7191,365.0424 M,0,58699,58743,375.7191,365.0424,381.1586,344.724 M,0,58743,58787,381.1586,344.724,387.3129,324.6106 M,0,58787,58831,387.3129,324.6106,394.2129,304.7408 M,0,58831,58875,394.2129,304.7408,401.884,285.156 M,0,58875,58920,401.884,285.156,410.35,265.9016 M,0,58920,58964,410.35,265.9016,419.6295,247.0258 M,0,58964,59008,419.6295,247.0258,429.7357,228.5797 M,0,59008,59052,429.7357,228.5797,440.675,210.6151
Sprite,Foreground,Centre,"sb\pl.png",0,0 C,0,59406,,141,141,141 M,0,59406,59450,576,98,560.228,98.26579 F,2,59406,60308,1,0 S,2,59406,60308,2.5,0.5 P,0,59406,60308,A M,0,59450,59494,560.228,98.26579,544.4799,97.4938 M,0,59494,59538,544.4799,97.4938,528.8367,95.50674 M,0,59538,59582,528.8367,95.50674,513.374,92.37805 M,0,59582,59626,513.374,92.37805,528.8367,95.50674 M,0,59626,59670,528.8367,95.50674,544.4799,97.4938 M,0,59670,59714,544.4799,97.4938,560.228,98.26579 M,0,59714,59758,560.228,98.26579,576,98
Sprite,Foreground,Centre,"sb\pl.png",0,0 C,0,60111,,194,199,130 M,0,60111,60155,387,129,373.9564,145.234 F,2,60111,60837,1,0 S,2,60111,60837,2.5,0.5 P,0,60111,60837,A M,0,60155,60199,373.9564,145.234,356.2375,156.0366 M,0,60199,60243,356.2375,156.0366,335.9568,160.298 M,0,60243,60287,335.9568,160.298,315.5065,156.7332
Sprite,Foreground,Centre,"sb\pl.png",0,0 C,0,60464,,194,199,130 M,0,60464,60508,266,84,252.9564,67.766 F,2,60464,61190,1,0 S,2,60464,61190,2.5,0.5 P,0,60464,61190,A M,0,60508,60552,252.9564,67.766,235.2375,56.96344 M,0,60552,60596,235.2375,56.96344,214.9568,52.70199 M,0,60596,60640,214.9568,52.70199,194.5065,56.26678
Sprite,Foreground,Centre,"sb\pl.png",114,98 C,0,60817,,194,199,130 F,2,60817,61367,1,0 S,2,60817,61367,2.5,0.5 P,0,60817,61367,A
Sprite,Foreground,Centre,"sb\pl.png",95,171 C,0,60994,,194,199,130 F,2,60994,61544,1,0 S,2,60994,61544,2.5,0.5 P,0,60994,61544,A
Sprite,Foreground,Centre,"sb\pl.png",0,0 C,0,61170,,194,199,130 M,0,61170,61214,162,212,157.0415,232.435 F,2,61170,61896,1,0 S,2,61170,61896,2.5,0.5 P,0,61170,61896,A M,0,61214,61258,157.0415,232.435,153.2861,253.1253 M,0,61258,61302,153.2861,253.1253,151.0408,274.0326 M,0,61302,61346,151.0408,274.0326,150.0217,295.0363
Sprite,Foreground,Centre,"sb\pl.png",0,0 C,0,61523,,199,130,147 M,0,61523,61567,75,348,94.13943,356.6118 F,2,61523,62425,1,0 S,2,61523,62425,2.5,0.5 P,0,61523,62425,A M,0,61567,61611,94.13943,356.6118,114.8602,359.6795 M,0,61611,61655,114.8602,359.6795,135.4308,355.7856 M,0,61655,61699,135.4308,355.7856,153.9312,345.905 M,0,61699,61743,153.9312,345.905,169.8435,332.1914 M,0,61743,61787,169.8435,332.1914,190.1286,328.2248 M,0,61787,61831,190.1286,328.2248,210.9313,330.7952 M,0,61831,61875,210.9313,330.7952,230.2275,339.0175
Sprite,Foreground,Centre,"sb\pl.png",257,414 C,0,62053,,199,130,147 F,2,62053,62603,1,0 S,2,62053,62603,2.5,0.5 P,0,62053,62603,A
Sprite,Foreground,Centre,"sb\pl.png",0,0 C,0,62229,,199,130,147 M,0,62229,62273,170,439,154.9008,424.7969 F,2,62229,62955,1,0 S,2,62229,62955,2.5,0.5 P,0,62229,62955,A M,0,62273,62317,154.9008,424.7969,146.4474,405.9144 M,0,62317,62361,146.4474,405.9144,147.4112,385.2533 M,0,62361,62405,147.4112,385.2533,156.4965,366.757
Sprite,Foreground,Centre,"sb\pl.png",0,0 C,0,62582,,199,130,147 M,0,62582,62626,241,320,261.6019,315.8306 F,2,62582,63308,1,0 S,2,62582,63308,2.5,0.5 P,0,62582,63308,A M,0,62626,62670,261.6019,315.8306,281.7631,309.8855 M,0,62670,62714,281.7631,309.8855,301.1782,301.835 M,0,62714,62758,301.1782,301.835,319.8211,292.1259
Sprite,Foreground,Centre,"sb\pl.png",0,0 C,0,62935,,149,214,219 M,0,62935,62979,432,296,432.4938,316.9187 F,2,62935,63661,1,0 S,2,62935,63661,2.5,0.5 P,0,62935,63661,A M,0,62979,63023,432.4938,316.9187,428.1833,337.4059 M,0,63023,63067,428.1833,337.4059,418.2359,355.8081 M,0,63067,63111,418.2359,355.8081,404.3001,371.4153
Sprite,Foreground,Centre,"sb\pl.png",0,0 C,0,63288,,149,214,219 M,0,63288,63332,323,374,343.7066,377.6746 F,2,63288,64190,1,0 S,2,63288,64190,2.5,0.5 P,0,63288,64190,A M,0,63332,63376,343.7066,377.6746,364.2099,382.3527 M,0,63376,63420,364.2099,382.3527,384.3977,388.2436 M,0,63420,63464,384.3977,388.2436,404.2673,395.1302 M,0,63464,63508,404.2673,395.1302,423.6998,403.1683 M,0,63508,63552,423.6998,403.1683,442.6989,412.1812 M,0,63552,63596,442.6989,412.1812,461.1485,422.2723 M,0,63596,63640,461.1485,422.2723,479.0505,433.3037
Sprite,Foreground,Centre,"sb\pl.png",545,391 C,0,63817,,149,214,219 F,2,63817,64367,1,0 S,2,63817,64367,2.5,0.5 P,0,63817,64367,A
Sprite,Foreground,Centre,"sb\pl.png",575,310 C,0,63994,,131,150,219 F,2,63994,64544,1,0 S,2,63994,64544,2.5,0.5 P,0,63994,64544,A
Sprite,Foreground,Centre,"sb\pl.png",0,0 C,0,64170,,131,150,219 M,0,64170,64214,537,241,520.3936,228.1622 F,2,64170,64896,1,0 S,2,64170,64896,2.5,0.5 P,0,64170,64896,A M,0,64214,64258,520.3936,228.1622,501.9559,218.1652 M,0,64258,64302,501.9559,218.1652,482.2004,211.121 M,0,64302,64346,482.2004,211.121,461.498,207.7283
Sprite,Foreground,Centre,"sb\pl.png",0,0 C,0,64523,,131,150,219 M,0,64523,64567,418,136,401.3936,148.8378 F,2,64523,65249,1,0 S,2,64523,65249,2.5,0.5 P,0,64523,65249,A M,0,64567,64611,401.3936,148.8378,382.9559,158.8348 M,0,64611,64655,382.9559,158.8348,363.2004,165.879 M,0,64655,64699,363.2004,165.879,342.498,169.2717
Sprite,Foreground,Centre,"sb\pl.png",0,0 C,0,64876,,131,150,219 M,0,64876,64920,284,227,263.4971,223.619 F,2,64876,65602,1,0 S,2,64876,65602,2.5,0.5 P,0,64876,65602,A M,0,64920,64964,263.4971,223.619,245.4885,213.283 M,0,64964,65008,245.4885,213.283,233.4525,196.3828 M,0,65008,65052,233.4525,196.3828,228.0928,176.3163
Sprite,Foreground,Centre,"sb\pl.png",0,0 C,0,65229,,131,150,219 M,0,65229,65273,158,68,164.85,87.62623 F,2,65229,65955,1,0 S,2,65229,65955,2.5,0.5 P,0,65229,65955,A M,0,65273,65317,164.85,87.62623,164.4541,108.3795 M,0,65317,65361,164.4541,108.3795,155.6061,127.1496 M,0,65361,65405,155.6061,127.1496,140.7693,141.6847
Sprite,Foreground,Centre,"sb\pl.png",0,0 C,0,65582,,160,131,199 M,0,65582,65626,71,254,91.99128,255.2162 F,2,65582,66484,1,0 S,2,65582,66484,2.5,0.5 P,0,65582,66484,A M,0,65626,65670,91.99128,255.2162,112.9463,253.7107 M,0,65670,65714,112.9463,253.7107,133.0051,247.6066 M,0,65714,65758,133.0051,247.6066,150.9549,236.6903 M,0,65758,65802,150.9549,236.6903,169.2402,226.3853 M,0,65802,65846,169.2402,226.3853,189.617,221.4354 M,0,65846,65890,189.617,221.4354,210.6223,220.873 M,0,65890,65934,210.6223,220.873,231.5612,222.8048
Sprite,Foreground,Centre,"sb\pl.png",313,289 C,0,66111,,211,211,211 F,2,66111,66661,1,0 S,2,66111,66661,2.5,0.5 P,0,66111,66661,A
Sprite,Foreground,Centre,"sb\pl.png",288,369 C,0,66288,,211,211,211 F,2,66288,66838,1,0 S,2,66288,66838,2.5,0.5 P,0,66288,66838,A
Sprite,Foreground,Centre,"sb\pl.png",0,0 C,0,66464,,211,211,211 M,0,66464,66508,206,376,210.6822,355.495 F,2,66464,67366,1,0 S,2,66464,67366,2.5,0.5 P,0,66464,67366,A M,0,66508,66552,210.6822,355.495,214.6902,334.8474 M,0,66552,66596,214.6902,334.8474,217.852,314.0538 M,0,66596,66640,217.852,314.0538,220.3232,293.1668 M,0,66640,66684,220.3232,293.1668,221.9476,272.1971 M,0,66684,66728,221.9476,272.1971,222.8685,251.1848 M,0,66728,66772,222.8685,251.1848,222.9466,230.1525 M,0,66772,66816,222.9466,230.1525,222.3279,209.1289
Sprite,Foreground,Centre,"sb\pl.png",320,183 C,0,66994,,194,199,130 F,2,66994,67544,1,0 S,2,66994,67544,2.5,0.5 P,0,66994,67544,A
Sprite,Foreground,Centre,"sb\pl.png",0,0 C,0,67170,,194,199,130 M,0,67170,67214,401,232,396.3178,252.505 F,2,67170,68072,1,0 S,2,67170,68072,2.5,0.5 P,0,67170,68072,A M,0,67214,67258,396.3178,252.505,392.3098,273.1526 M,0,67258,67302,392.3098,273.1526,389.1479,293.9462 M,0,67302,67346,389.1479,293.9462,386.6768,314.8332 M,0,67346,67390,386.6768,314.8332,385.0523,335.8029 M,0,67390,67434,385.0523,335.8029,384.1315,356.8152 M,0,67434,67478,384.1315,356.8152,384.0533,377.8475 M,0,67478,67522,384.0533,377.8475,384.6721,398.8711
Sprite,Foreground,Centre,"sb\pl.png",464,435 C,0,67700,,199,130,147 F,2,67700,68250,1,0 S,2,67700,68250,2.5,0.5 P,0,67700,68250,A
Sprite,Foreground,Centre,"sb\pl.png",0,0 C,0,67876,,199,130,147 M,0,67876,67920,532,399,536.1797,378.3897 F,2,67876,68602,1,0 S,2,67876,68602,2.5,0.5 P,0,67876,68602,A M,0,67920,67964,536.1797,378.3897,539.2379,357.5852 M,0,67964,68008,539.2379,357.5852,541.1937,336.6488 M,0,68008,68052,541.1937,336.6488,541.9767,315.6325
Sprite,Foreground,Centre,"sb\pl.png",519,242 C,0,68229,,199,130,147 F,2,68229,68779,1,0 S,2,68229,68779,2.5,0.5 P,0,68229,68779,A
Sprite,Foreground,Centre,"sb\pl.png",564,159 C,0,68406,,149,214,219 F,2,68406,68956,1,0 S,2,68406,68956,2.5,0.5 P,0,68406,68956,A
Sprite,Foreground,Centre,"sb\pl.png",0,0 C,0,68582,,149,214,219 M,0,68582,68626,508,96,488.2365,89.77644 F,2,68582,69308,1,0 S,2,68582,69308,2.5,0.5 P,0,68582,69308,A M,0,68626,68670,488.2365,89.77644,467.6261,91.69092 M,0,68670,68714,467.6261,91.69092,450.2273,102.8695 M,0,68714,68758,450.2273,102.8695,438.7445,120.0002
Sprite,Foreground,Centre,"sb\pl.png",404,191 C,0,68935,,149,214,219 F,2,68935,69485,1,0 S,2,68935,69485,2.5,0.5 P,0,68935,69485,A
Sprite,Foreground,Centre,"sb\pl.png",0,0 C,0,69111,,149,214,219 M,0,69111,69155,451,260,470.5964,252.372 F,2,69111,69837,1,0 S,2,69111,69837,2.5,0.5 P,0,69111,69837,A M,0,69155,69199,470.5964,252.372,490.5924,245.8658 M,0,69199,69243,490.5924,245.8658,510.9806,240.7192 M,0,69243,69287,510.9806,240.7192,531.634,236.7777
Sprite,Foreground,Centre,"sb\pl.png",453,341 C,0,69464,,131,150,219 F,2,69464,70014,1,0 S,2,69464,70014,2.5,0.5 P,0,69464,70014,A
Sprite,Foreground,Centre,"sb\pl.png",377,379 C,0,69641,,131,150,219 F,2,69641,70191,1,0 S,2,69641,70191,2.5,0.5 P,0,69641,70191,A
Sprite,Foreground,Centre,"sb\pl.png",0,0 C,0,69817,,131,150,219 M,0,69817,69861,334,308,317.2224,295.4282 F,2,69817,70896,1,0 S,2,69817,70896,2.5,0.5 P,0,69817,70896,A M,0,69861,69905,317.2224,295.4282,297.6913,287.7757 M,0,69905,69949,297.6913,287.7757,276.8821,285.0412 M,0,69949,69993,276.8821,285.0412,255.9756,286.9565 M,0,69993,70037,255.9756,286.9565,235.9491,293.2587 M,0,70037,70081,235.9491,293.2587,217.7473,303.7162 M,0,70081,70125,217.7473,303.7162,202.3497,317.9785 M,0,70125,70169,202.3497,317.9785,190.6525,335.4036 M,0,70169,70214,190.6525,335.4036,188.6442,355.8078 M,0,70214,70258,188.6442,355.8078,184.41,376.3168 M,0,70258,70302,184.41,376.3168,173.472,394.1582 M,0,70302,70346,173.472,394.1582,157.509,407.7564
Sprite,Foreground,Centre,"sb\pl.png",77,384 C,0,70523,,160,131,199 F,2,70523,71073,1,0 S,2,70523,71073,2.5,0.5 P,0,70523,71073,A
Sprite,Foreground,Centre,"sb\pl.png",68,304 C,0,70700,,160,131,199 F,2,70700,71250,1,0 S,2,70700,71250,2.5,0.5 P,0,70700,71250,A
Sprite,Foreground,Centre,"sb\pl.png",122,245 C,0,70876,,160,131,199 F,2,70876,71426,1,0 S,2,70876,71426,2.5,0.5 P,0,70876,71426,A
Sprite,Foreground,Centre,"sb\pl.png",202,247 C,0,71053,,160,131,199 F,2,71053,71603,1,0 S,2,71053,71603,2.5,0.5 P,0,71053,71603,A
Sprite,Foreground,Centre,"sb\pl.png",0,0 C,0,71229,,141,141,141 M,0,71229,71273,242,317,236.4693,306.046 F,2,71229,72661,1,0 S,2,71229,72661,2.5,0.5 P,0,71229,72661,A M,0,71273,71317,236.4693,306.046,232.6842,294.3701 M,0,71317,71361,232.6842,294.3701,230.5708,282.2785 M,0,71361,71405,230.5708,282.2785,230.1855,270.0106 M,0,71405,71449,230.1855,270.0106,231.653,257.8273 M,0,71449,71493,231.653,257.8273,235.1071,246.054 M,0,71493,71537,235.1071,246.054,240.526,235.0448 M,0,71537,71581,240.526,235.0448,247.5515,224.9778 M,0,71581,71626,247.5515,224.9778,255.5701,215.6742 M,0,71626,71670,255.5701,215.6742,263.9262,206.669 M,0,71670,71714,263.9262,206.669,272.0172,197.4272 M,0,71714,71758,272.0172,197.4272,279.2858,187.5314 M,0,71758,71802,279.2858,187.5314,285.2261,176.791 M,0,71802,71846,285.2261,176.791,289.4583,165.2727 M,0,71846,71890,289.4583,165.2727,291.7803,153.2234 M,0,71890,71934,291.7803,153.2234,292.2016,140.9582 M,0,71934,71979,292.2016,140.9582,290.8249,128.7614 M,0,71979,72023,290.8249,128.7614,287.8425,116.8536 M,0,72023,72067,287.8425,116.8536,283.4316,105.3962 M,0,72067,72111,283.4316,105.3962,277.769,94.50191
Sprite,Foreground,Centre,"sb\pl.png",0,0 C,0,74053,,211,211,211 M,0,74053,74097,530,224,531.2145,236.2215 F,2,74053,75132,1,0 S,2,74053,75132,2.5,0.5 P,0,74053,75132,A M,0,74097,74141,531.2145,236.2215,532.7921,248.4024 M,0,74141,74185,532.7921,248.4024,535.0396,260.4766 M,0,74185,74229,535.0396,260.4766,537.6597,272.4757 M,0,74229,74273,537.6597,272.4757,540.924,284.3154 M,0,74273,74317,540.924,284.3154,544.5673,296.0438 M,0,74317,74361,544.5673,296.0438,548.8245,307.5635 M,0,74361,74405,548.8245,307.5635,553.4637,318.9341 M,0,74405,74450,553.4637,318.9341,558.6835,330.0508 M,0,74450,74494,558.6835,330.0508,564.2842,340.9794 M,0,74494,74538,564.2842,340.9794,570.4285,351.6128 M,0,74538,74582,570.4285,351.6128,576.9491,362.0182
Sprite,Foreground,Centre,"sb\pl.png",0,0 C,0,74759,,211,211,211 M,0,74759,74803,525,434,513.8882,428.7692 F,2,74759,75838,1,0 S,2,74759,75838,2.5,0.5 P,0,74759,75838,A M,0,74803,74847,513.8882,428.7692,502.6196,423.8826 M,0,74847,74891,502.6196,423.8826,491.0885,419.6561 M,0,74891,74935,491.0885,419.6561,479.428,415.799 M,0,74935,74979,479.428,415.799,467.5682,412.61 M,0,74979,75023,467.5682,412.61,455.6096,409.8133 M,0,75023,75067,455.6096,409.8133,443.5142,407.6869 M,0,75067,75111,443.5142,407.6869,431.3537,405.973 M,0,75111,75156,431.3537,405.973,419.1176,404.9257 M,0,75156,75200,419.1176,404.9257,406.8531,404.3083 M,0,75200,75244,406.8531,404.3083,394.5724,404.3485 M,0,75244,75288,394.5724,404.3485,382.3023,404.8323
Sprite,Foreground,Centre,"sb\pl.png",0,0 C,0,75464,,211,211,211 M,0,75464,75508,345,324,354.8951,316.7248 F,2,75464,76543,1,0 S,2,75464,76543,2.5,0.5 P,0,75464,76543,A M,0,75508,75552,354.8951,316.7248,364.5082,309.0828 M,0,75552,75596,364.5082,309.0828,373.8433,301.1053 M,0,75596,75640,373.8433,301.1053,382.7781,292.6801 M,0,75640,75684,382.7781,292.6801,391.4207,283.9565 M,0,75684,75728,391.4207,283.9565,399.6137,274.808 M,0,75728,75772,399.6137,274.808,407.5044,265.3979 M,0,75772,75816,407.5044,265.3979,414.8971,255.5913 M,0,75816,75861,414.8971,255.5913,421.9817,245.5594 M,0,75861,75905,421.9817,245.5594,428.5216,235.1643 M,0,75905,75949,428.5216,235.1643,434.7512,224.5792 M,0,75949,75993,434.7512,224.5792,440.3917,213.6697
Sprite,Foreground,Centre,"sb\pl.png",456,137 C,0,76170,,141,141,141 F,2,76170,76720,1,0 S,2,76170,76720,2.5,0.5 P,0,76170,76720,A
Sprite,Foreground,Centre,"sb\pl.png",0,0 C,0,76347,,141,141,141 M,0,76347,76391,469,122,467.0359,109.873 F,2,76347,77073,1,0 S,2,76347,77073,2.5,0.5 P,0,76347,77073,A M,0,76391,76435,467.0359,109.873,465.0257,97.75369 M,0,76435,76479,465.0257,97.75369,462.9782,85.64055 M,0,76479,76523,462.9782,85.64055,460.8653,73.53865
Sprite,Foreground,Centre,"sb\pl.png",0,0 C,0,76700,,141,141,141 M,0,76700,76744,545,68,545.8841,80.23766 F,2,76700,77426,1,0 S,2,76700,77426,2.5,0.5 P,0,76700,77426,A M,0,76744,76788,545.8841,80.23766,547.7735,92.35439 M,0,76788,76832,547.7735,92.35439,550.4481,104.3269 M,0,76832,76876,550.4481,104.3269,554.5105,115.9016
Sprite,Foreground,Centre,"sb\pl.png",538,195 C,0,77053,,211,211,211 F,2,77053,77603,1,0 S,2,77053,77603,2.5,0.5 P,0,77053,77603,A
Sprite,Foreground,Centre,"sb\pl.png",311,128 C,0,87817,,131,150,219 F,2,87817,88367,1,0 S,2,87817,88367,2.5,0.5 P,0,87817,88367,A
Sprite,Foreground,Centre,"sb\pl.png",352,56 C,0,87994,,131,150,219 F,2,87994,88544,1,0 S,2,87994,88544,2.5,0.5 P,0,87994,88544,A
Sprite,Foreground,Centre,"sb\pl.png",426,99 C,0,88170,,131,150,219 F,2,88170,88720,1,0 S,2,88170,88720,2.5,0.5 P,0,88170,88720,A
Sprite,Foreground,Centre,"sb\pl.png",447.2624,426.2624 C,0,11406,,149,214,219 F,2,11406,11956,1,0 S,2,11406,11956,2.5,0.5 P,0,11406,11956,A
Sprite,Foreground,Centre,"sb\pl.png",451,430 C,0,11582,,149,214,219 F,2,11582,12132,1,0 S,2,11582,12132,2.5,0.5 P,0,11582,12132,A
Sprite,Foreground,Centre,"sb\pl.png",368,408 C,0,11759,,211,211,211 F,2,11759,12309,1,0 S,2,11759,12309,2.5,0.5 P,0,11759,12309,A
Sprite,Foreground,Centre,"sb\pl.png",385,326 C,0,11935,,211,211,211 F,2,11935,12485,1,0 S,2,11935,12485,2.5,0.5 P,0,11935,12485,A
Sprite,Foreground,Centre,"sb\pl.png",306.2624,298.2624 C,0,12111,,135,207,174 F,2,12111,12661,1,0 S,2,12111,12661,2.5,0.5 P,0,12111,12661,A
Sprite,Foreground,Centre,"sb\pl.png",0,0 C,0,17759,,141,141,141 M,0,17759,17803,330,60,342.1601,61.72866 F,2,17759,18838,1,0 S,2,17759,18838,2.5,0.5 P,0,17759,18838,A M,0,17803,17847,342.1601,61.72866,354.1317,64.46043 M,0,17847,17891,354.1317,64.46043,365.6624,68.66299 M,0,17891,17935,365.6624,68.66299,376.2411,74.86292 M,0,17935,17979,376.2411,74.86292,385.2571,83.17535 M,0,17979,18023,385.2571,83.17535,393.0189,92.69435 M,0,18023,18067,393.0189,92.69435,401.0099,102.0166 M,0,18067,18111,401.0099,102.0166,410.3788,109.9315 M,0,18111,18156,410.3788,109.9315,421.0752,115.9396 M,0,18156,18200,421.0752,115.9396,432.5645,120.2636 M,0,18200,18244,432.5645,120.2636,444.4537,123.3386 M,0,18244,18288,444.4537,123.3386,456.5425,125.5126
Sprite,Foreground,Centre,"sb\pl.png",523,92 C,0,18464,,141,141,141 F,2,18464,19014,1,0 S,2,18464,19014,2.5,0.5 P,0,18464,19014,A
Sprite,Foreground,Centre,"sb\pl.png",326.2624,180.2624 C,0,19170,,211,211,211 F,2,19170,19720,1,0 S,2,19170,19720,2.5,0.5 P,0,19170,19720,A
Sprite,Foreground,Centre,"sb\pl.png",330,184 C,0,19347,,211,211,211 F,2,19347,19897,1,0 S,2,19347,19897,2.5,0.5 P,0,19347,19897,A
Sprite,Foreground,Centre,"sb\pl.png",430.2624,224.2624 C,0,19700,,211,211,211 F,2,19700,20250,1,0 S,2,19700,20250,2.5,0.5 P,0,19700,20250,A
Sprite,Foreground,Centre,"sb\pl.png",434,228 C,0,19876,,211,211,211 F,2,19876,20426,1,0 S,2,19876,20426,2.5,0.5 P,0,19876,20426,A
Sprite,Foreground,Centre,"sb\pl.png",354,286 C,0,20229,,211,211,211 F,2,20229,20779,1,0 S,2,20229,20779,2.5,0.5 P,0,20229,20779,A
Sprite,Foreground,Centre,"sb\pl.png",401,387 C,0,20582,,141,141,141 F,2,20582,21132,1,0 S,2,20582,21132,2.5,0.5 P,0,20582,21132,A
Sprite,Foreground,Centre,"sb\pl.png",0,0 C,0,21288,,211,211,211 M,0,21288,21332,239,309,226.9605,306.6085 F,2,21288,22367,1,0 S,2,21288,22367,2.5,0.5 P,0,21288,22367,A M,0,21332,21376,226.9605,306.6085,214.7003,306.1066 M,0,21376,21420,214.7003,306.1066,202.5491,307.7885 M,0,21420,21464,202.5491,307.7885,190.9293,311.72 M,0,21464,21508,190.9293,311.72,180.2006,317.6737 M,0,21508,21552,180.2006,317.6737,170.5359,325.2401 M,0,21552,21596,170.5359,325.2401,161.9339,334.0009 M,0,21596,21640,161.9339,334.0009,156.4777,344.4853 M,0,21640,21685,156.4777,344.4853,153.5284,356.3895 M,0,21685,21729,153.5284,356.3895,148.0275,367.3401 M,0,21729,21773,148.0275,367.3401,139.9965,376.5938 M,0,21773,21817,139.9965,376.5938,130.02,383.7211
Sprite,Foreground,Centre,"sb\pl.png",73.2624,324.2624 C,0,21994,,141,141,141 F,2,21994,22544,1,0 S,2,21994,22544,2.5,0.5 P,0,21994,22544,A
Sprite,Foreground,Centre,"sb\pl.png",77,328 C,0,22170,,141,141,141 F,2,22170,22720,1,0 S,2,22170,22720,2.5,0.5 P,0,22170,22720,A
Sprite,Foreground,Centre,"sb\pl.png",141.2624,227.2624 C,0,22523,,141,141,141 F,2,22523,23073,1,0 S,2,22523,23073,2.5,0.5 P,0,22523,23073,A
Sprite,Foreground,Centre,"sb\pl.png",0,0 C,0,22700,,141,141,141 M,0,22700,22744,145,231,148.2324,242.8521 F,2,22700,23426,1,0 S,2,22700,23426,2.5,0.5 P,0,22700,23426,A M,0,22744,22788,148.2324,242.8521,151.4648,254.7043 M,0,22788,22832,151.4648,254.7043,154.6972,266.5564 M,0,22832,22876,154.6972,266.5564,157.9296,278.4085
Sprite,Foreground,Centre,"sb\pl.png",249,315 C,0,23053,,211,211,211 F,2,23053,23603,1,0 S,2,23053,23603,2.5,0.5 P,0,23053,23603,A
Sprite,Foreground,Centre,"sb\pl.png",244,335 C,0,23141,,211,211,211 F,2,23141,23691,1,0 S,2,23141,23691,2.5,0.5 P,0,23141,23691,A
Sprite,Foreground,Centre,"sb\pl.png",239,356 C,0,23229,,211,211,211 F,2,23229,23779,1,0 S,2,23229,23779,2.5,0.5 P,0,23229,23779,A
Sprite,Foreground,Centre,"sb\pl.png",234,376 C,0,23317,,211,211,211 F,2,23317,23867,1,0 S,2,23317,23867,2.5,0.5 P,0,23317,23867,A
Sprite,Foreground,Centre,"sb\pl.png",0,0 C,0,23406,,211,211,211 M,0,23406,23450,228,396,245.4531,397.6453 F,2,23406,24308,1,0 S,2,23406,24308,2.5,0.5 P,0,23406,24308,A M,0,23450,23494,245.4531,397.6453,262.7545,400.4606 M,0,23494,23538,262.7545,400.4606,279.8263,404.433 M,0,23538,23582,279.8263,404.433,296.5911,409.5444 M,0,23582,23626,296.5911,409.5444,312.9731,415.7716 M,0,23626,23670,312.9731,415.7716,328.8986,423.0862 M,0,23670,23714,328.8986,423.0862,344.2953,431.4552 M,0,23714,23758,344.2953,431.4552,359.1503,440.759
//Storyboard Layer 4 (Overlay)
//Storyboard Sound Samples

[TimingPoints]
-594,352.941176470588,4,2,1,55,1,0
112,-124.688279301746,4,2,1,55,0,0
288,-124.688279301746,4,2,2,55,0,0
464,-124.688279301746,4,2,3,55,0,0
817,-142.450142450143,4,2,4,55,0,0
1522,-142.450142450143,4,2,1,55,0,0
2229,-124.688279301746,4,2,5,55,0,0
2935,-124.688279301746,4,2,6,55,0,0
3464,-124.688279301746,4,2,7,55,0,0
3552,-124.688279301746,4,2,6,55,0,0
3641,-124.688279301746,4,2,4,55,0,0
4347,-124.688279301746,4,2,3,55,0,0
4876,-124.688279301746,4,2,8,55,0,0
5052,-124.688279301746,4,2,3,55,0,0
5582,-124.688279301746,4,2,2,55,0,0
5935,-124.688279301746,4,2,3,55,0,0
6287,-124.688279301746,4,2,9,55,0,0
6376,-124.688279301746,4,2,10,55,0,0
6464,-124.688279301746,4,2,11,55,0,0
7876,-124.688279301746,4,2,12,55,0,0
8582,-124.688279301746,4,2,13,55,0,0
9288,-99.800399201597,4,2,14,55,0,0
10523,-99.800399201597,4,2,15,55,0,0
11406,-99.800399201597,4,2,21,55,0,0
12111,-99.800399201597,4,2,1,70,0,0
12288,-99.800399201597,4,2,20,70,0,0
12464,-99.800399201597,4,2,21,70,0,0
12641,-99.800399201597,4,2,22,70,0,0
12817,-99.800399201597,4,2,21,70,0,0
12994,-99.800399201597,4,2,23,70,0,0
13170,-99.800399201597,4,2,21,70,0,0
13347,-99.800399201597,4,2,24,70,0,0
13523,-99.800399201597,4,2,21,70,0,0
13699,-99.800399201597,4,2,21,70,0,0
14229,-99.800399201597,4,2,25,70,0,0
14405,-99.800399201597,4,2,21,70,0,0
14582,-99.800399201597,4,2,26,70,0,0
14758,-99.800399201597,4,2,21,70,0,0
14935,-99.800399201597,4,2,22,70,0,0
15111,-99.800399201597,4,2,27,70,0,0
15287,-99.800399201597,4,2,28,70,0,0
15464,-99.800399201597,4,2,22,70,0,0
15640,-99.800399201597,4,2,21,70,0,0
15817,-99.800399201597,4,2,23,70,0,0
15994,-99.800399201597,4,2,21,70,0,0
16170,-99.800399201597,4,2,24,70,0,0
16347,-99.800399201597,4,2,21,70,0,0
16522,-99.800399201597,4,2,21,70,0,0
16876,-99.800399201597,4,2,28,70,0,0
17053,-99.800399201597,4,2,24,70,0,0
17229,-99.800399201597,4,2,21,70,0,0
17406,-99.800399201597,4,2,22,70,0,0
17582,-99.800399201597,4,2,21,70,0,0
17759,-142.450142450143,4,2,29,55,0,0
18288,-142.450142450143,4,2,30,55,0,0
18464,-142.450142450143,4,2,1,55,0,0
19170,-142.450142450143,4,2,31,55,0,0
19347,-142.450142450143,4,2,6,55,0,0
20229,-142.450142450143,4,2,32,55,0,0
20582,-142.450142450143,4,2,33,55,0,0
21288,-142.450142450143,4,2,20,55,0,0
21994,-142.450142450143,4,2,10,55,0,0
22170,-142.450142450143,4,2,1,55,0,0
22700,-142.450142450143,4,2,34,55,0,0
22876,-142.450142450143,4,2,1,55,0,0
23406,-99.800399201597,4,2,1,70,0,0
23582,-99.800399201597,4,2,26,70,0,0
23758,-99.800399201597,4,2,21,70,0,0
23935,-99.800399201597,4,2,22,70,0,0
24111,-99.800399201597,4,2,21,70,0,0
24288,-99.800399201597,4,2,23,70,0,0
24465,-99.800399201597,4,2,21,70,0,0
24641,-99.800399201597,4,2,24,70,0,0
24818,-99.800399201597,4,2,21,70,0,0
24993,-99.800399201597,4,2,21,70,0,0
25523,-99.800399201597,4,2,25,70,0,0
25699,-99.800399201597,4,2,21,70,0,0
25876,-99.800399201597,4,2,26,70,0,0
26052,-99.800399201597,4,2,21,70,0,0
26229,-99.800399201597,4,2,22,70,0,0
26406,-99.800399201597,4,2,27,70,0,0
26582,-99.800399201597,4,2,28,70,0,0
26759,-99.800399201597,4,2,22,70,0,0
26935,-99.800399201597,4,2,21,70,0,0
27111,-99.800399201597,4,2,23,70,0,0
27288,-99.800399201597,4,2,21,70,0,0
27464,-99.800399201597,4,2,29,70,0,0
27641,-99.800399201597,4,2,21,70,0,0
27816,-99.800399201597,4,2,21,70,0,0
27994,-99.800399201597,4,2,29,70,0,0
28170,-99.800399201597,4,2,21,70,0,0
28347,-99.800399201597,4,2,22,70,0,0
28523,-99.800399201597,4,2,21,70,0,0
28700,-99.800399201597,4,2,22,70,0,0
28876,-99.800399201597,4,2,21,70,0,0
29053,-99.800399201597,4,2,23,55,0,0
29229,-99.800399201597,4,2,21,55,0,0
29405,-99.800399201597,4,2,21,55,0,0
29582,-99.800399201597,4,2,35,55,0,0
29759,-99.800399201597,4,2,28,55,0,0
29935,-99.800399201597,4,2,21,55,0,0
30464,-99.800399201597,4,2,36,55,0,0
30641,-99.800399201597,4,2,21,55,0,0
30816,-99.800399201597,4,2,21,55,0,0
30994,-99.800399201597,4,2,37,55,0,0
31170,-99.800399201597,4,2,21,55,0,0
31346,-99.800399201597,4,2,21,55,0,0
31523,-99.800399201597,4,2,38,55,0,0
31700,-99.800399201597,4,2,21,55,0,0
31876,-99.800399201597,4,2,28,55,0,0
32053,-99.800399201597,4,2,21,55,0,0
32228,-99.800399201597,4,2,21,55,0,0
32582,-99.800399201597,4,2,39,55,0,0
32758,-99.800399201597,4,2,21,55,0,0
33288,-99.800399201597,4,2,40,55,0,0
33465,-99.800399201597,4,2,21,55,0,0
33640,-99.800399201597,4,2,21,55,0,0
33994,-99.800399201597,4,2,41,55,0,0
34170,-99.800399201597,4,2,21,55,0,0
34700,-110.864745011086,4,2,42,55,0,0
35229,-110.864745011086,4,2,43,55,0,0
36111,-124.688279301746,4,2,44,55,0,0
36641,-124.688279301746,4,2,45,55,0,0
37170,-124.688279301746,4,2,46,55,0,0
37523,-142.450142450143,4,2,47,55,0,0
38052,-142.450142450143,4,2,48,55,0,0
38935,-142.450142450143,4,2,49,55,0,0
39464,-142.450142450143,4,2,1,55,0,0
40347,-142.450142450143,4,2,50,65,0,0
40523,-110.864745011087,4,2,1,65,0,0
40699,-110.864745011087,4,2,21,65,0,0
40876,-110.864745011087,4,2,50,65,0,0
41052,-110.864745011087,4,2,21,65,0,0
41229,-110.864745011087,4,2,3,65,0,0
41405,-110.864745011087,4,2,21,65,0,0
41582,-110.864745011087,4,2,51,65,0,0
42464,-110.864745011087,4,2,2,65,0,0
42641,-110.864745011087,4,2,1,65,0,0
43170,-110.864745011087,4,2,50,65,0,0
43347,-110.864745011087,4,2,1,65,0,0
43523,-110.864745011087,4,2,21,65,0,0
43700,-110.864745011087,4,2,50,65,0,0
43876,-110.864745011087,4,2,21,65,0,0
44053,-110.864745011087,4,2,7,65,0,0
44229,-110.864745011087,4,2,21,65,0,0
44406,-110.864745011087,4,2,51,65,0,0
44582,-110.864745011087,4,2,21,65,0,0
45288,-110.864745011087,4,2,23,65,0,0
45994,-110.864745011087,4,2,3,65,0,0
46523,-110.864745011087,4,2,1,65,0,0
47053,-110.864745011087,4,2,52,65,0,0
48111,-110.864745011087,4,2,1,65,0,0
48287,-110.864745011087,4,2,2,65,0,0
48463,-110.864745011087,4,2,3,65,0,0
48817,-83.1946755407654,4,2,4,85,0,1
49170,-83.1946755407654,4,2,21,85,0,1
49876,-83.1946755407654,4,2,22,85,0,1
50053,-83.1946755407654,4,2,21,85,0,1
50229,-83.1946755407654,4,2,39,85,0,1
50406,-83.1946755407654,4,2,21,85,0,1
50581,-83.1946755407654,4,2,21,85,0,1
50935,-83.1946755407654,4,2,37,85,0,1
51111,-83.1946755407654,4,2,21,85,0,1
51641,-83.1946755407654,4,2,53,85,0,1
51817,-83.1946755407654,4,2,21,85,0,1
52700,-83.1946755407654,4,2,54,85,0,1
52876,-83.1946755407654,4,2,55,85,0,1
53052,-83.1946755407654,4,2,21,85,0,1
53229,-83.1946755407654,4,2,54,85,0,1
53405,-83.1946755407654,4,2,21,85,0,1
53582,-83.1946755407654,4,2,23,85,0,1
53758,-83.1946755407654,4,2,21,85,0,1
53935,-83.1946755407654,4,2,55,85,0,1
54111,-83.1946755407654,4,2,21,85,0,1
54288,-83.1946755407654,4,2,54,85,0,1
54465,-83.1946755407654,4,2,28,85,0,1
54641,-83.1946755407654,4,2,21,85,0,1
54817,-83.1946755407654,4,2,21,85,0,1
54994,-83.1946755407654,4,2,23,85,0,1
55170,-83.1946755407654,4,2,54,85,0,1
55347,-83.1946755407654,4,2,21,85,0,1
55522,-83.1946755407654,4,2,21,85,0,1
55700,-83.1946755407654,4,2,23,85,0,1
55876,-83.1946755407654,4,2,54,85,0,1
56053,-83.1946755407654,4,2,21,85,0,1
56228,-83.1946755407654,4,2,21,85,0,1
56406,-83.1946755407654,4,2,23,85,0,1
56582,-83.1946755407654,4,2,54,85,0,1
56759,-83.1946755407654,4,2,21,85,0,1
56934,-83.1946755407654,4,2,21,85,0,1
57111,-83.1946755407654,4,2,23,85,0,1
57288,-83.1946755407654,4,2,54,85,0,1
57464,-83.1946755407654,4,2,21,85,0,1
57641,-83.1946755407654,4,2,55,85,0,1
57817,-83.1946755407654,4,2,54,85,0,1
57993,-83.1946755407654,4,2,21,85,0,1
58170,-83.1946755407654,4,2,37,85,0,1
58347,-83.1946755407654,4,2,21,85,0,1
58523,-83.1946755407654,4,2,56,85,0,1
58700,-83.1946755407654,4,2,21,85,0,1
59052,-83.1946755407654,4,2,21,85,0,1
59405,-110.864745011087,4,2,22,85,0,0
59582,-110.864745011087,4,2,23,85,0,0
59758,-110.864745011087,4,2,54,85,0,0
59935,-110.864745011087,4,2,21,85,0,0
60111,-83.1946755407657,4,2,53,85,0,1
60287,-83.1946755407657,4,2,21,85,0,1
61170,-83.1946755407657,4,2,22,85,0,1
61347,-83.1946755407657,4,2,21,85,0,1
61523,-83.1946755407657,4,2,39,85,0,1
61700,-83.1946755407657,4,2,21,85,0,1
61875,-83.1946755407657,4,2,21,85,0,1
62229,-83.1946755407657,4,2,37,85,0,1
62405,-83.1946755407657,4,2,21,85,0,1
62935,-83.1946755407657,4,2,53,85,0,1
63111,-83.1946755407657,4,2,21,85,0,1
63994,-83.1946755407657,4,2,54,85,0,1
64170,-83.1946755407657,4,2,55,85,0,1
64346,-83.1946755407657,4,2,21,85,0,1
64523,-83.1946755407657,4,2,54,85,0,1
64699,-83.1946755407657,4,2,21,85,0,1
64876,-83.1946755407657,4,2,23,85,0,1
65052,-83.1946755407657,4,2,21,85,0,1
65229,-83.1946755407657,4,2,29,85,0,1
65405,-83.1946755407657,4,2,21,85,0,1
65582,-83.1946755407657,4,2,54,85,0,1
65759,-83.1946755407657,4,2,28,85,0,1
65935,-83.1946755407657,4,2,21,85,0,1
66111,-83.1946755407657,4,2,21,85,0,1
66288,-83.1946755407657,4,2,23,85,0,1
66464,-83.1946755407657,4,2,54,85,0,1
66641,-83.1946755407657,4,2,21,85,0,1
66816,-83.1946755407657,4,2,21,85,0,1
66994,-83.1946755407657,4,2,23,85,0,1
67170,-83.1946755407657,4,2,54,85,0,1
67347,-83.1946755407657,4,2,21,85,0,1
67522,-83.1946755407657,4,2,21,85,0,1
67700,-83.1946755407657,4,2,23,85,0,1
67876,-83.1946755407657,4,2,54,85,0,1
68053,-83.1946755407657,4,2,21,85,0,1
68229,-83.1946755407657,4,2,21,85,0,1
68406,-83.1946755407657,4,2,23,85,0,1
68582,-83.1946755407657,4,2,29,85,0,1
68758,-83.1946755407657,4,2,21,85,0,1
68935,-83.1946755407657,4,2,55,85,0,1
69111,-83.1946755407657,4,2,54,85,0,1
69287,-83.1946755407657,4,2,21,85,0,1
69464,-83.1946755407657,4,2,37,85,0,1
69641,-83.1946755407657,4,2,21,85,0,1
69817,-83.1946755407657,4,2,23,85,0,1
69994,-83.1946755407657,4,2,21,85,0,1
70346,-83.1946755407657,4,2,21,85,0,1
70523,-83.1946755407657,4,2,22,85,0,1
70700,-83.1946755407657,4,2,23,85,0,1
70876,-83.1946755407657,4,2,22,85,0,1
71053,-83.1946755407657,4,2,29,85,0,1
71229,-142.450142450142,4,2,57,55,0,0
72111,-142.450142450142,4,2,21,55,0,0
72464,-142.450142450142,4,2,8,55,0,0
72817,-142.450142450142,4,2,54,55,0,0
73169,-142.450142450142,4,2,2,55,0,0
73523,-142.450142450142,4,2,23,55,0,0
73700,-142.450142450142,4,2,3,55,0,0
74053,-142.450142450142,4,2,58,70,0,0
74759,-142.450142450142,4,2,59,70,0,0
75464,-142.450142450142,4,2,60,70,0,0
75993,-142.450142450142,4,2,60,55,0,0
76170,-142.450142450142,4,2,3,55,0,0
77053,-142.450142450142,4,2,61,70,0,0
77406,-142.450142450142,4,2,2,55,0,0
77582,-142.450142450142,4,2,1,55,0,0
77758,-142.450142450142,4,2,21,55,0,0
77935,-142.450142450142,4,2,34,55,0,0
78464,-142.450142450142,4,2,41,55,0,0
78817,-142.450142450142,4,2,1,55,0,0
78994,-142.450142450142,4,2,20,55,0,0
79170,-142.450142450142,4,2,21,55,0,0
79347,-142.450142450142,4,2,34,55,0,0
79876,-83.1946755407657,4,2,62,70,0,0
80228,-83.1946755407657,4,2,1,55,0,0
80406,-83.1946755407657,4,2,62,70,0,0
80758,-83.1946755407657,4,2,1,60,0,0
80935,-110.864745011086,4,2,63,70,0,0
81640,-110.864745011086,4,2,63,5,0,0
81994,-110.864745011086,4,2,23,55,0,0
82700,-99.8003992015967,4,2,23,70,0,0
83053,-90.7441016333938,4,2,23,70,0,0
83229,-90.7441016333938,4,2,21,70,0,0
83406,-90.7441016333938,4,2,22,70,0,0
83582,-90.7441016333938,4,2,25,70,0,0
83758,-90.7441016333938,4,2,21,70,0,0
83935,-90.7441016333938,4,2,23,70,0,0
84111,-90.7441016333938,4,2,21,70,0,0
84288,-90.7441016333938,4,2,22,70,0,0
84464,-90.7441016333938,4,2,21,70,0,0
84641,-90.7441016333938,4,2,25,70,0,0
84817,-90.7441016333938,4,2,21,70,0,0
84994,-90.7441016333938,4,2,26,70,0,0
85170,-90.7441016333938,4,2,21,70,0,0
85347,-90.7441016333938,4,2,22,70,0,0
85523,-90.7441016333938,4,2,21,70,0,0
85699,-90.7441016333938,4,2,21,70,0,0
85876,-90.7441016333938,4,2,23,70,0,0
86052,-90.7441016333938,4,2,21,70,0,0
86229,-90.7441016333938,4,2,22,70,0,0
86406,-90.7441016333938,4,2,25,70,0,0
86582,-90.7441016333938,4,2,21,70,0,0
86759,-90.7441016333938,4,2,23,70,0,0
86935,-90.7441016333938,4,2,21,70,0,0
87111,-90.7441016333938,4,2,22,70,0,0
87287,-90.7441016333938,4,2,21,70,0,0
87464,-90.7441016333938,4,2,25,70,0,0
87640,-90.7441016333938,4,2,21,70,0,0
87817,-90.7441016333938,4,2,64,70,0,0
87994,-90.7441016333938,4,2,21,70,0,0
88170,-90.7441016333938,4,2,65,70,0,0

[Colours]
Combo1 : 211,211,211
Combo2 : 135,207,174
Combo3 : 141,141,141
Combo4 : 149,214,219
Combo5 : 131,150,219
Combo6 : 160,131,199
Combo7 : 199,130,147
Combo8 : 194,199,130

[HitObjects]
263,306,112,22,0,P|256:335|239:377,2,56.1399999999998,2|2|2,2:2|2:2|2:2,0:0:0:0:
225,194,817,86,0,B|193:143|234:86|258:124|296:60|263:9,1,196.559999999999,2|8,1:2|2:2,0:0:0:0:
159,39,1876,21,2,2:2:0:0:
99,133,2229,2,0,B|155:100|207:142|207:142|197:176|221:209,1,168.42,2|0,1:2|0:0,0:0:0:0:
279,229,2935,85,10,2:2:0:0:
420,172,3464,22,0,L|426:137,2,28.0699999999999,2|2|2,2:2|2:2|1:2,0:0:0:0:
258,7,4347,85,8,2:2:0:0:
305,114,4700,21,2,2:2:0:0:
305,114,4876,2,0,L|364:97,1,56.1399999999998,2|0,2:2|1:1,0:0:0:0:
424,137,5229,2,0,L|407:196,1,56.1399999999998,2|0,2:2|0:0,0:0:0:0:
342,229,5582,2,0,L|283:212,1,56.1399999999998,2|8,2:2|2:2,0:0:0:0:
257,281,5935,2,0,L|140:313,1,112.28,2|2,2:2|2:2,0:0:0:0:
88,355,6464,85,6,1:2:0:0:
63,262,6817,1,0,1:1:0:0:
39,169,7170,1,0,1:1:0:0:
15,76,7523,1,0,1:1:0:0:
70,5,7876,37,2,1:2:0:0:
152,39,8229,1,0,1:1:0:0:
183,123,8582,69,2,1:2:0:0:
266,91,8935,1,0,1:1:0:0:
327,14,9288,38,0,P|372:31|400:35,1,70.1399999999999,6|0,1:2|1:1,0:0:0:0:
462,76,9641,1,0,1:1:0:0:
462,76,9817,1,0,1:1:0:0:
409,135,9994,2,0,P|364:152|336:156,1,70.1399999999999,0|0,1:1|1:1,0:0:0:0:
287,212,10347,1,0,1:1:0:0:
349,264,10523,70,0,P|403:247|488:234,1,140.28,6|6,1:2|1:2,0:0:0:0:
512,313,11053,2,0,P|477:312|440:320,1,70.1399995933044,6|0,1:2|0:0,0:0:0:0:
387,374,11406,37,8,2:2:0:0:
387,374,11582,1,0,1:2:0:0:
304,352,11759,69,8,2:2:0:0:
321,270,11935,1,8,2:2:0:0:
246,246,12111,5,6,1:2:0:0:
246,246,12288,2,0,P|198:260|154:257,1,70.1399999999999,2|10,2:2|2:2,0:0:0:0:
108,302,12641,2,0,P|60:288|16:291,1,70.1399999999999,2|2,2:2|2:2,0:0:0:0:
17,212,12994,1,2,1:2:0:0:
8,76,13347,38,0,P|38:85|150:96,1,140.28,2|2,2:2|2:2,0:0:0:0:
217,71,13876,2,0,P|216:36|226:-1,1,70.1399999999999,10|2,2:2|1:2,0:0:0:0:
297,41,14229,2,0,P|324:32|373:26,1,70.1399999999999,2|2,2:2|1:2,0:0:0:0:
424,77,14582,2,0,P|451:86|500:92,1,70.1399999999999,10|2,2:2|2:2,0:0:0:0:
485,175,14935,69,2,1:2:0:0:
485,175,15111,2,0,P|448:179|412:190,1,70.1399999999999,2|8,2:2|2:2,0:0:0:0:
353,233,15464,2,0,P|316:220|279:216,1,70.1399999999999,2|2,2:2|2:2,0:0:0:0:
232,162,15817,1,2,1:2:0:0:
89,203,16170,38,0,P|101:260|114:345,1,140.28,2|2,2:2|2:2,0:0:0:0:
179,378,16700,2,0,P|218:373|235:347,1,70.1399999999999,10|0,2:2|1:2,0:0:0:0:
229,275,17053,1,2,2:2:0:0:
245,139,17406,1,10,2:2:0:0:
266,4,17759,86,0,B|349:13|306:58|396:70,1,147.419999999999,6|2,1:2|2:2,0:0:0:0:
459,36,18464,1,8,2:2:0:0:
266,128,19170,85,2,1:2:0:0:
266,128,19347,1,8,2:2:0:0:
370,172,19700,1,2,1:2:0:0:
370,172,19876,1,8,2:2:0:0:
290,230,20229,1,2,1:2:0:0:
337,331,20582,21,6,1:2:0:0:
175,253,21288,86,0,B|127:240|93:284|93:284|90:319|57:332,1,147.419999999999,10|0,2:2|0:0,0:0:0:0:
13,272,21994,21,2,1:2:0:0:
13,272,22170,1,8,2:2:0:0:
81,175,22523,1,0,1:1:0:0:
81,175,22700,2,0,L|96:230,1,49.1399999999998,10|0,2:2|1:1,0:0:0:0:
185,259,23053,85,8,2:2:0:0:
180,279,23141,1,8,2:2:0:0:
175,300,23229,1,8,2:2:0:0:
170,320,23317,1,8,2:2:0:0:
164,340,23406,2,0,P|225:351|297:386,1,140.28,6|10,1:2|2:2,0:0:0:0:
303,296,23935,2,0,P|351:282|395:285,1,70.1399999999999,2|2,2:2|2:2,0:0:0:0:
419,345,24288,1,2,1:2:0:0:
497,241,24641,6,0,P|488:211|477:99,1,140.28,2|2,2:2|2:2,0:0:0:0:
408,68,25170,2,0,P|409:33|399:-4,1,70.1399999999999,10|2,2:2|1:2,0:0:0:0:
328,44,25523,2,0,P|301:35|252:29,1,70.1399999999999,2|2,2:2|1:2,0:0:0:0:
201,80,25876,2,0,P|174:89|125:95,1,70.1399999999999,10|2,2:2|2:2,0:0:0:0:
60,70,26229,37,2,1:2:0:0:
60,70,26406,2,0,P|56:107|45:143,1,70.1399999999999,2|8,2:2|2:2,0:0:0:0:
100,191,26759,2,0,P|113:228|117:265,1,70.1399999999999,2|2,2:2|2:2,0:0:0:0:
68,321,27111,1,2,1:2:0:0:
198,384,27464,70,0,P|208:314|222:245,1,140.28,2|2,2:2|2:2,0:0:0:0:
264,184,27994,2,0,P|303:189|320:215,1,70.1399999999999,10|2,2:2|1:2,0:0:0:0:
332,289,28347,1,2,2:2:0:0:
403,168,28700,1,10,2:2:0:0:
451,39,29053,102,0,B|368:48|414:87|321:105,1,140.28,2|10,1:2|2:2,0:0:0:0:
287,43,29582,1,2,2:2:0:0:
287,43,29759,2,0,P|255:31|204:31,1,70.1399999999999,0|2,2:2|1:2,0:0:0:0:
147,58,30111,1,10,2:2:0:0:
268,149,30464,38,0,B|220:136|186:180|186:180|183:215|150:228,1,140.28,2|10,1:2|2:2,0:0:0:0:
93,242,30994,2,0,P|61:226|61:121,1,140.28,2|2,1:2|1:2,0:0:0:0:
126,134,31523,1,10,2:2:0:0:
0,18,31876,70,0,P|62:29|142:54,1,140.28,0|10,1:2|2:2,0:0:0:0:
285,4,32582,38,0,P|246:8|219:45,1,70.1399999999999,2|2,2:2|1:2,0:0:0:0:
197,102,32935,1,10,2:2:0:0:
342,191,33288,70,0,P|348:140|277:82,1,140.28,2|10,1:2|2:2,0:0:0:0:
130,150,33994,38,0,P|160:179|202:177,1,70.1399999999999,2|2,2:2|1:2,0:0:0:0:
261,167,34347,1,10,2:2:0:0:
175,267,34700,102,0,P|119:280|4:357,2,189.420000000001,6|8|10,1:2|2:2|2:2,0:0:0:0:
256,337,36111,86,0,B|320:345|283:373|364:386,1,112.28,2|0,1:2|0:0,0:0:0:0:
380,341,36641,2,0,B|444:332|407:304|488:291,1,112.28,10|0,2:2|0:0,0:0:0:0:
512,310,37170,1,10,2:2:0:0:
478,206,37523,22,0,P|444:198|329:160,2,147.419992666791,2|10|8,1:2|2:2|2:2,0:0:0:0:
478,94,38935,86,0,B|421:81|450:54|378:39,1,98.2799999999996,2|0,1:2|0:0,0:0:0:0:
366,58,39464,2,0,P|299:74|222:100,1,147.419999999999,10|8,2:2|2:2,0:0:0:0:
232,225,40347,69,14,1:2:0:0:
232,225,40523,2,0,P|243:184|249:154,1,63.1399999999997,6|2,1:2|2:2,0:0:0:0:
211,95,40876,2,0,P|252:84|280:74,1,63.1399999999997,2|2,1:2|2:2,0:0:0:0:
312,10,41229,2,0,P|342:40|364:60,1,63.1399999999997,2|2,1:2|2:2,0:0:0:0:
331,138,41582,21,10,2:2:0:0:
319,259,42464,37,10,2:2:0:0:
323,274,42641,1,0,1:1:0:0:
395,243,42817,85,10,2:2:0:0:
399,258,42994,1,0,1:1:0:0:
477,245,43170,101,14,1:2:0:0:
481,260,43347,2,0,P|471:302|468:327,1,63.1399999999997,6|2,1:2|2:2,0:0:0:0:
394,341,43700,2,0,P|352:353|329:363,1,63.1399999999997,2|2,1:2|2:2,0:0:0:0:
280,306,44053,2,0,P|248:276|228:261,1,63.1399999999997,2|2,1:2|2:2,0:0:0:0:
256,192,44406,85,10,2:2:0:0:
256,192,45288,69,2,2:2:0:0:
256,0,45994,85,6,2:2:0:0:
256,384,48111,22,0,P|258:339|263:316,2,63.1399999999997,2|2|2,2:2|2:2|2:2,0:0:0:0:
231,248,48817,70,0,P|274:217|325:234,1,84.14,6|0,1:2|0:0,0:0:0:0:
352,293,49170,2,0,P|395:324|446:307,1,84.14,10|2,2:2|2:2,0:0:0:0:
505,269,49523,1,2,2:2:0:0:
467,203,49700,1,2,1:2:0:0:
388,215,49876,2,0,P|398:164|400:125,1,84.14,10|0,2:2|0:0,0:0:0:0:
403,53,50229,22,0,B|354:23|305:61|305:61|302:96|272:110,1,168.28,2|10,1:2|2:2,0:0:0:0:
186,133,50759,1,2,2:2:0:0:
157,54,50935,2,0,P|190:30|237:49,1,84.14,2|2,2:2|1:2,0:0:0:0:
268,123,51288,2,0,P|256:170|251:215,1,84.1399962382479,10|0,0:0|0:0,0:0:0:0:
175,255,51641,22,0,P|133:223|122:170,1,84.14,2|0,1:2|0:0,0:0:0:0:
105,119,51994,2,0,P|90:183|27:289,1,168.28,10|2,2:2|2:2,0:0:0:0:
0,344,52523,1,2,1:2:0:0:
76,380,52700,5,10,2:2:0:0:
129,319,52876,2,0,P|166:295|216:285,1,84.14,2|2,2:2|1:2,0:0:0:0:
247,222,53229,2,0,P|284:246|334:256,1,84.14,2|10,2:2|2:2,0:0:0:0:
329,349,53582,2,0,P|366:325|416:315,1,84.14,2|2,2:2|2:2,0:0:0:0:
423,234,53935,2,0,P|460:258|510:268,1,84.14,2|10,1:2|2:2,0:0:0:0:
485,137,54288,6,0,B|388:127|424:182|323:168,1,168.28,2|0,2:2|0:0,0:0:0:0:
264,98,54817,37,10,2:2:0:0:
250,20,54994,1,2,2:2:0:0:
331,9,55170,2,0,P|321:58|315:182,1,168.28,2|10,2:2|2:2,0:0:0:0:
236,235,55700,101,2,2:2:0:0:
154,202,55876,2,0,P|164:153|170:29,1,168.28,2|10,1:2|2:2,0:0:0:0:
95,0,56406,21,2,2:2:0:0:
16,25,56582,2,0,P|6:74|0:198,1,168.28,2|10,2:2|2:2,0:0:0:0:
9,275,57111,21,2,2:2:0:0:
70,332,57288,2,0,P|119:322|173:319,1,84.14,2|2,1:2|2:2,0:0:0:0:
185,227,57641,1,10,2:2:0:0:
157,149,57817,2,0,P|107:166|96:208,1,84.14,2|2,2:2|2:2,0:0:0:0:
190,242,58170,5,2,1:2:0:0:
263,215,58347,1,10,2:2:0:0:
293,287,58523,2,0,B|299:303|305:339|305:339|327:229|381:148,1,252.42,2|10,2:2|2:2,0:0:0:0:
512,42,59406,86,0,P|467:40|444:35,2,63.1399999999997,2|2|10,2:2|1:2|2:2,0:0:0:0:
323,73,60111,70,0,P|280:104|229:87,1,84.1399999999997,6|0,1:2|0:0,0:0:0:0:
202,28,60464,2,0,P|159:-3|108:14,1,84.1399999999997,10|2,2:2|2:2,0:0:0:0:
50,42,60817,1,2,2:2:0:0:
31,115,60994,1,2,1:2:0:0:
98,156,61170,2,0,P|88:207|86:246,1,84.1399999999997,10|0,2:2|0:0,0:0:0:0:
11,292,61523,102,0,B|62:322|107:275|107:275|141:266|171:286,1,168.279999999999,2|10,1:2|2:2,0:0:0:0:
193,358,62053,1,2,2:2:0:0:
106,383,62229,2,0,P|82:349|101:302,1,84.1399999999997,2|2,2:2|1:2,0:0:0:0:
177,264,62582,2,0,P|223:252|261:233,1,84.1399962382479,10|0,0:0|0:0,0:0:0:0:
368,240,62935,70,0,P|360:291|320:328,1,84.1399999999997,2|0,1:2|0:0,0:0:0:0:
259,318,63288,2,0,P|323:333|432:389,1,168.279992476496,10|2,2:2|2:2,0:0:0:0:
481,335,63817,1,2,1:2:0:0:
511,254,63994,5,10,2:2:0:0:
473,185,64170,2,0,P|436:161|386:151,1,84.1399999999997,2|2,2:2|1:2,0:0:0:0:
354,80,64523,2,0,P|317:104|267:114,1,84.1399999999997,2|10,2:2|2:2,0:0:0:0:
220,171,64876,2,0,P|182:158|164:115,1,84.1399999999997,2|2,2:2|2:2,0:0:0:0:
94,12,65229,2,0,P|101:51|73:88,1,84.1399999999997,2|10,1:2|2:2,0:0:0:0:
7,198,65582,6,0,B|104:208|68:153|169:167,1,168.279999999999,2|0,2:2|0:0,0:0:0:0:
249,233,66111,37,10,2:2:0:0:
224,313,66288,1,2,2:2:0:0:
142,320,66464,2,0,P|152:271|158:147,1,168.279999999999,2|10,2:2|2:2,0:0:0:0:
256,127,66994,101,2,2:2:0:0:
337,176,67170,2,0,P|327:225|321:349,1,168.279999999999,2|10,1:2|2:2,0:0:0:0:
400,379,67700,101,2,2:2:0:0:
468,343,67876,2,0,P|473:318|478:258,1,84.1399999999997,2|0,2:2|0:0,0:0:0:0:
455,186,68229,1,10,2:2:0:0:
500,103,68406,69,2,2:2:0:0:
444,40,68582,2,0,P|391:42|373:93,1,84.1399999999997,2|2,1:2|2:2,0:0:0:0:
340,135,68935,1,10,2:2:0:0:
387,204,69111,2,0,P|437:187|480:179,1,84.1399999999997,2|2,2:2|2:2,0:0:0:0:
389,285,69464,5,2,1:2:0:0:
313,323,69641,1,10,2:2:0:0:
270,252,69817,2,0,B|230:212|150:225|124:285|124:285|131:340|71:363,1,252.419999999999,2|10,2:2|2:2,0:0:0:0:
13,328,70523,5,2,1:2:0:0:
4,248,70700,1,14,1:2:0:0:
58,189,70876,1,2,1:2:0:0:
138,191,71053,1,14,1:2:0:0:
178,261,71229,70,0,B|149:214|169:139|208:174|259:108|211:34,1,245.700000000001,6|10,1:2|2:2,0:0:0:0:
248,166,72464,1,2,2:2:0:0:
391,133,72817,2,0,P|372:99|314:84,1,98.2800000000003,2|2,1:2|2:2,0:0:0:0:
320,219,73523,1,10,2:2:0:0:
349,234,73700,2,0,P|383:228|409:208,1,49.1400000000001,2|0,2:2|0:0,0:0:0:0:
466,168,74053,86,0,P|489:262|525:323,1,147.42,6|0,1:2|0:0,0:0:0:0:
461,378,74759,2,0,P|368:350|297:351,1,147.42,14|0,2:2|0:0,0:0:0:0:
281,268,75464,2,0,P|350:201|385:139,1,147.42,6|0,1:2|0:0,0:0:0:0:
392,81,76170,21,14,1:2:0:0:
405,66,76347,2,0,P|395:7|393:-4,1,49.1400000000001,2|0,2:2|0:0,0:0:0:0:
481,12,76700,2,0,P|486:47|500:80,1,49.1400000000001,2|0,2:2|0:0,0:0:0:0:
474,139,77053,85,6,1:2:0:0:
336,159,77406,21,2,2:2:0:0:
317,147,77582,2,0,P|310:123|300:101,1,49.1400000000001,2|10,2:2|2:2,0:0:0:0:
257,35,77935,1,2,2:2:0:0:
205,223,78464,85,2,1:2:0:0:
87,232,78817,21,2,2:2:0:0:
68,220,78994,2,0,P|61:196|51:174,1,49.1400000000001,2|10,2:2|2:2,0:0:0:0:
0,118,79347,1,2,2:2:0:0:
87,8,79700,85,8,2:2:0:0:
152,49,79876,2,0,P|126:126|106:244,1,168.279999999999,6|8,1:2|2:2,0:0:0:0:
190,210,80406,2,0,P|243:271|335:347,1,168.279999999999,6|8,1:2|2:2,0:0:0:0:
348,257,80935,2,0,B|425:253|499:210|499:210|448:186|449:132,1,252.560000000001,6|0,1:2|0:0,0:0:0:0:
287,100,81994,21,8,2:2:0:0:
287,100,82170,1,0,1:1:0:0:
375,100,82347,85,8,2:2:0:0:
380,80,82435,1,8,2:2:0:0:
385,59,82523,1,8,2:2:0:0:
390,39,82611,1,8,2:2:0:0:
396,19,82700,2,0,P|343:5|305:-13,1,70.1400000000001,4|0,1:2|0:0,0:0:0:0:
246,1,83053,6,0,P|254:43|292:66,1,77.14,10|2,2:2|2:2,0:0:0:0:
312,142,83406,1,2,2:2:0:0:
260,208,83582,2,0,P|219:193|180:215,1,77.14,2|10,1:2|2:2,0:0:0:0:
146,130,83935,38,0,P|119:158|75:163,1,77.14,2|2,2:2|1:2,0:0:0:0:
0,225,84288,2,0,P|37:234|64:269,1,77.14,2|10,2:2|2:2,0:0:0:0:
156,304,84641,2,0,P|145:266|162:226,1,77.14,2|2,1:2|2:2,0:0:0:0:
244,268,84994,69,2,1:2:0:0:
269,342,85170,1,10,2:2:0:0:
343,372,85347,2,0,B|389:386|422:350|397:343|438:312|480:325,1,154.28,2|2,2:2|2:2,0:0:0:0:
393,300,85876,38,0,P|401:258|439:235,1,77.14,10|2,2:2|2:2,0:0:0:0:
459,159,86229,1,2,2:2:0:0:
382,126,86406,2,0,P|341:140|302:118,1,77.14,2|10,1:2|2:2,0:0:0:0:
229,168,86759,70,0,P|190:170|158:201,1,77.14,2|2,2:2|1:2,0:0:0:0:
62,218,87111,2,0,P|79:183|68:139,1,77.14,2|10,2:2|2:2,0:0:0:0:
102,48,87464,2,0,P|123:80|166:92,1,77.14,2|2,1:2|2:2,0:0:0:0:
247,72,87817,37,6,1:2:0:0:
288,0,87994,1,10,2:2:0:0:
362,43,88170,1,6,1:2:0:0:
