osu file format v14

[General]
AudioFilename: best day best way.mp3
AudioLeadIn: 0
PreviewTime: 56259
Countdown: 0
SampleSet: Normal
StackLeniency: 0.7
Mode: 1
LetterboxInBreaks: 0
WidescreenStoryboard: 0

[Editor]
DistanceSpacing: 1
BeatDivisor: 2
GridSize: 32
TimelineZoom: 0.9999999

[Metadata]
Title:best day, best way
TitleUnicode:best day, best way
Artist:LiSA
ArtistUnicode:LiSA
Creator:Volta
Version:Kantan
Source:
Tags:LANDSPACE Oribe Risa 織部 里沙 cut short version nardoxyribonucleic
BeatmapID:705828
BeatmapSetID:316779

[Difficulty]
HPDrainRate:7
CircleSize:5
OverallDifficulty:4
ApproachRate:5
SliderMultiplier:1.4
SliderTickRate:1

[Events]
//Background and Video events
0,0,"randombg.jpg",0,-50
//Break Periods
//Storyboard Layer 0 (Background)
//Storyboard Layer 1 (Fail)
//Storyboard Layer 2 (Pass)
//Storyboard Layer 3 (Foreground)
//Storyboard Sound Samples

[TimingPoints]
1256,333.333333333333,4,1,0,85,1,0
21255,338.983050847458,4,1,0,85,1,0
41593,333.333333333333,4,1,0,85,1,0
56259,-100,4,1,0,95,0,1
98926,-100,4,1,0,85,0,0

[HitObjects]
256,192,3922,5,4,0:0:0:0:
256,192,4589,1,4,0:0:0:0:
256,192,5255,1,4,0:0:0:0:
256,192,6589,1,12,0:0:0:0:
256,192,6922,1,12,0:0:0:0:
256,192,7922,12,0,10255,0:0:0:0:
224,160,10589,5,4,0:0:0:0:
256,192,11922,5,2,0:0:0:0:
256,192,12589,1,0,0:0:0:0:
224,96,12922,1,0,0:0:0:0:
256,192,13255,1,2,0:0:0:0:
256,192,14422,1,6,0:0:0:0:
256,192,15089,1,4,0:0:0:0:
256,192,15922,1,4,0:0:0:0:
256,192,17255,1,0,0:0:0:0:
256,192,17922,1,2,0:0:0:0:
256,128,18255,1,2,0:0:0:0:
256,192,18589,1,0,0:0:0:0:
256,192,19755,1,6,0:0:0:0:
256,192,20589,1,4,0:0:0:0:
256,192,21255,1,4,0:0:0:0:
256,192,22610,1,2,0:0:0:0:
32,96,23627,1,2,0:0:0:0:
256,192,23966,1,0,0:0:0:0:
192,160,24644,1,0,0:0:0:0:
256,192,25322,1,2,0:0:0:0:
256,192,26678,1,2,0:0:0:0:
256,192,28034,1,0,0:0:0:0:
0,96,29051,1,0,0:0:0:0:
256,192,29390,1,2,0:0:0:0:
256,192,30068,1,2,0:0:0:0:
256,192,30746,1,0,0:0:0:0:
192,96,31085,1,0,0:0:0:0:
128,160,31424,1,8,0:0:0:0:
256,192,32102,1,4,0:0:0:0:
128,128,33119,1,0,0:0:0:0:
256,192,33458,1,2,0:0:0:0:
128,128,34475,1,2,0:0:0:0:
256,192,34814,1,0,0:0:0:0:
256,192,35492,1,2,0:0:0:0:
256,192,36170,1,0,0:0:0:0:
256,192,37526,1,2,0:0:0:0:
192,96,38543,1,2,0:0:0:0:
256,192,38882,1,0,0:0:0:0:
192,96,39899,1,0,0:0:0:0:
256,192,40238,1,6,0:0:0:0:
160,128,40746,1,4,0:0:0:0:
256,192,41424,1,6,0:0:0:0:
256,192,42926,5,0,0:0:0:0:
256,192,43593,1,2,0:0:0:0:
256,192,44259,1,2,0:0:0:0:
384,96,44593,1,2,0:0:0:0:
256,192,44926,1,2,0:0:0:0:
256,192,45592,1,0,0:0:0:0:
288,96,46259,1,0,0:0:0:0:
256,192,46759,1,6,0:0:0:0:
256,192,48092,1,0,0:0:0:0:
256,192,48592,1,6,0:0:0:0:
256,192,49426,1,0,0:0:0:0:
256,192,49926,1,6,0:0:0:0:
256,192,50926,1,2,0:0:0:0:
256,192,51592,1,2,0:0:0:0:
128,96,51926,1,2,0:0:0:0:
256,192,52259,1,0,0:0:0:0:
256,192,52926,1,0,0:0:0:0:
256,192,53592,12,0,54759,0:0:0:0:
256,192,56259,5,4,0:0:0:0:
192,128,56926,1,2,0:0:0:0:
192,128,57592,1,0,0:0:0:0:
192,128,57926,1,0,0:0:0:0:
128,128,58259,1,2,0:0:0:0:
256,192,58926,1,0,0:0:0:0:
256,192,59592,1,0,0:0:0:0:
256,192,60259,1,2,0:0:0:0:
256,192,61592,1,2,0:0:0:0:
256,192,62259,1,0,0:0:0:0:
256,192,62926,1,2,0:0:0:0:
128,96,63259,1,2,0:0:0:0:
320,128,63592,1,0,0:0:0:0:
256,192,64259,1,2,0:0:0:0:
256,96,65426,1,12,0:0:0:0:
256,128,66259,1,4,0:0:0:0:
256,128,66926,1,4,0:0:0:0:
256,128,67592,1,2,0:0:0:0:
256,128,68259,1,0,0:0:0:0:
256,128,68592,1,0,0:0:0:0:
256,128,68926,1,2,0:0:0:0:
256,128,69592,1,2,0:0:0:0:
256,128,70259,1,0,0:0:0:0:
256,128,70926,1,6,0:0:0:0:
256,128,72259,1,2,0:0:0:0:
256,192,72926,1,0,0:0:0:0:
256,192,73592,1,2,0:0:0:0:
128,128,73926,1,2,0:0:0:0:
128,128,74259,1,0,0:0:0:0:
256,192,74926,1,0,0:0:0:0:
256,192,76092,1,6,0:0:0:0:
160,128,76759,1,4,0:0:0:0:
256,192,77592,1,4,0:0:0:0:
256,192,78259,1,2,0:0:0:0:
256,192,78926,1,0,0:0:0:0:
128,128,79259,1,2,0:0:0:0:
128,128,79592,1,0,0:0:0:0:
256,192,80259,1,2,0:0:0:0:
256,160,80926,1,2,0:0:0:0:
256,192,81592,1,0,0:0:0:0:
256,192,82926,1,4,0:0:0:0:
192,160,83592,5,0,0:0:0:0:
288,224,84259,1,2,0:0:0:0:
192,160,84592,1,0,0:0:0:0:
192,160,84926,1,2,0:0:0:0:
224,96,85592,1,0,0:0:0:0:
224,160,86759,1,12,0:0:0:0:
256,160,87426,1,4,0:0:0:0:
224,160,88259,1,4,0:0:0:0:
256,192,88926,1,2,0:0:0:0:
256,192,89592,1,2,0:0:0:0:
256,128,89926,1,0,0:0:0:0:
256,128,90259,1,2,0:0:0:0:
256,192,90926,1,0,0:0:0:0:
256,192,91592,1,0,0:0:0:0:
256,192,92259,1,6,0:0:0:0:
256,192,93592,1,0,0:0:0:0:
288,224,94259,1,2,0:0:0:0:
288,224,94926,1,0,0:0:0:0:
192,96,95259,1,2,0:0:0:0:
192,96,95592,1,0,0:0:0:0:
288,224,96259,1,0,0:0:0:0:
224,192,97426,1,14,0:0:0:0:
224,128,98259,1,8,0:0:0:0:
256,192,98926,1,4,0:0:0:0:
256,192,100259,1,2,0:0:0:0:
256,192,101592,1,4,0:0:0:0:
256,192,102759,1,6,0:0:0:0:
256,192,104259,1,0,0:0:0:0:
256,192,104926,1,0,0:0:0:0:
256,192,105592,1,2,0:0:0:0:
256,192,106926,5,2,0:0:0:0:
256,192,107592,1,0,0:0:0:0:
256,192,108259,1,2,0:0:0:0:
192,96,108926,1,8,0:0:0:0:
320,64,109259,1,8,0:0:0:0:
256,192,109592,5,4,0:0:0:0:
256,192,110259,1,6,0:0:0:0:
256,192,110926,1,4,0:0:0:0:
256,192,112259,1,12,0:0:0:0:
256,192,112592,1,12,0:0:0:0:
256,192,112926,12,0,114259,0:0:0:0:
256,192,114926,5,4,0:0:0:0:
256,192,116259,5,0,0:0:0:0:
256,192,116926,1,2,0:0:0:0:
288,64,117259,1,2,0:0:0:0:
256,192,117592,1,0,0:0:0:0:
256,192,118926,1,2,0:0:0:0:
256,192,119592,1,0,0:0:0:0:
256,96,119926,1,2,0:0:0:0:
256,192,120259,1,0,0:0:0:0:
256,192,121592,1,0,0:0:0:0:
256,192,122259,1,2,0:0:0:0:
192,96,122592,1,0,0:0:0:0:
256,192,122926,1,0,0:0:0:0:
256,192,124092,1,6,0:0:0:0:
192,96,124926,1,0,0:0:0:0:
192,96,125259,1,0,0:0:0:0:
256,192,125592,1,4,0:0:0:0:
256,192,126926,1,2,0:0:0:0:
256,192,127592,1,2,0:0:0:0:
256,192,127926,1,2,0:0:0:0:
256,192,128259,1,0,0:0:0:0:
256,160,129592,1,2,0:0:0:0:
256,160,130092,1,6,0:0:0:0:
256,160,130926,1,4,0:0:0:0:
256,160,132259,1,2,0:0:0:0:
256,160,132926,1,0,0:0:0:0:
224,128,133259,1,2,0:0:0:0:
256,160,133592,1,0,0:0:0:0:
256,160,134926,1,2,0:0:0:0:
256,160,135592,1,0,0:0:0:0:
256,160,135926,1,0,0:0:0:0:
224,160,136259,5,4,0:0:0:0:
256,192,137592,5,2,0:0:0:0:
256,192,138259,1,0,0:0:0:0:
224,96,138592,1,0,0:0:0:0:
256,192,138926,1,2,0:0:0:0:
256,192,140092,1,6,0:0:0:0:
256,192,140759,1,4,0:0:0:0:
256,192,141592,1,0,0:0:0:0:
256,192,142926,1,0,0:0:0:0:
256,192,143592,1,2,0:0:0:0:
256,128,143926,1,2,0:0:0:0:
256,192,144259,5,0,0:0:0:0:
256,160,145426,5,2,0:0:0:0:
256,160,146259,1,0,0:0:0:0:
256,160,146926,1,4,0:0:0:0:
