osu file format v14

[General]
AudioFilename: best day best way.mp3
AudioLeadIn: 0
PreviewTime: 56259
Countdown: 0
SampleSet: Normal
StackLeniency: 0.7
Mode: 1
LetterboxInBreaks: 0
WidescreenStoryboard: 0

[Editor]
Bookmarks: 71690,92940
DistanceSpacing: 1.2
BeatDivisor: 4
GridSize: 32
TimelineZoom: 1.4

[Metadata]
Title:best day, best way
TitleUnicode:best day, best way
Artist:LiSA
ArtistUnicode:LiSA
Creator:Volta
Version:Muzukashii
Source:
Tags:LANDSPACE Oribe Risa 織部 里沙 cut short version nardoxyribonucleic
BeatmapID:705829
BeatmapSetID:316779

[Difficulty]
HPDrainRate:5
CircleSize:5
OverallDifficulty:5
ApproachRate:5
SliderMultiplier:1.4
SliderTickRate:1

[Events]
//Background and Video events
0,0,"randombg.jpg",0,-50
//Break Periods
//Storyboard Layer 0 (Background)
//Storyboard Layer 1 (Fail)
//Storyboard Layer 2 (Pass)
//Storyboard Layer 3 (Foreground)
//Storyboard Sound Samples

[TimingPoints]
1256,333.333333333333,4,1,0,85,1,0
21255,338.983050847458,4,1,0,85,1,0
41593,333.333333333333,4,1,0,85,1,0
56259,-100,4,1,0,95,0,1
98926,-100,4,1,0,85,0,0

[HitObjects]
256,192,2589,5,2,0:0:0:0:
256,192,2922,1,2,0:0:0:0:
256,192,3255,1,2,0:0:0:0:
256,192,3422,1,0,0:0:0:0:
256,192,3922,1,4,0:0:0:0:
256,192,4589,1,4,0:0:0:0:
256,192,5255,1,4,0:0:0:0:
256,192,5755,1,2,0:0:0:0:
256,192,6089,1,0,0:0:0:0:
256,192,6255,1,0,0:0:0:0:
256,192,6589,1,12,0:0:0:0:
256,192,6922,1,12,0:0:0:0:
256,192,7922,12,0,10422,0:0:0:0:
256,192,10589,5,4,0:0:0:0:
256,192,10922,1,2,0:0:0:0:
256,192,11255,1,0,0:0:0:0:
256,192,11422,1,0,0:0:0:0:
256,192,11589,1,2,0:0:0:0:
256,192,11755,1,0,0:0:0:0:
256,192,12089,1,0,0:0:0:0:
256,192,12255,1,2,0:0:0:0:
256,192,12589,1,2,0:0:0:0:
256,192,12755,1,0,0:0:0:0:
256,192,12922,1,2,0:0:0:0:
256,192,13255,1,0,0:0:0:0:
256,192,13589,1,2,0:0:0:0:
256,192,13922,1,2,0:0:0:0:
256,192,14422,1,4,0:0:0:0:
256,192,14755,1,0,0:0:0:0:
256,192,14922,1,2,0:0:0:0:
256,192,15089,1,4,0:0:0:0:
256,192,15589,1,2,0:0:0:0:
256,192,15672,5,2,0:0:0:0:
256,192,15755,1,2,0:0:0:0:
256,192,15922,1,0,0:0:0:0:
256,192,16255,1,2,0:0:0:0:
256,192,16589,1,0,0:0:0:0:
256,192,16755,1,0,0:0:0:0:
256,192,16922,1,2,0:0:0:0:
256,192,17089,1,0,0:0:0:0:
256,192,17422,1,0,0:0:0:0:
256,192,17589,1,2,0:0:0:0:
256,192,17922,1,2,0:0:0:0:
256,192,18089,1,0,0:0:0:0:
256,192,18255,1,2,0:0:0:0:
256,192,18589,1,0,0:0:0:0:
256,192,18922,1,2,0:0:0:0:
256,192,19255,1,2,0:0:0:0:
256,192,19755,1,4,0:0:0:0:
256,192,20089,1,2,0:0:0:0:
256,192,20255,1,2,0:0:0:0:
256,192,20422,1,0,0:0:0:0:
256,192,20589,1,4,0:0:0:0:
256,192,21255,1,0,0:0:0:0:
256,192,21593,1,2,0:0:0:0:
256,192,22102,1,0,0:0:0:0:
256,192,22271,1,2,0:0:0:0:
256,192,22610,1,0,0:0:0:0:
256,192,22949,1,2,0:0:0:0:
256,192,23458,1,0,0:0:0:0:
256,192,23627,1,2,0:0:0:0:
256,192,23966,1,0,0:0:0:0:
256,192,24305,1,2,0:0:0:0:
256,192,24644,1,0,0:0:0:0:
256,192,24814,1,0,0:0:0:0:
256,192,24983,1,2,0:0:0:0:
256,192,25322,1,0,0:0:0:0:
256,192,25661,1,2,0:0:0:0:
256,192,25831,1,2,0:0:0:0:
256,192,26000,1,0,0:0:0:0:
256,192,26339,1,2,0:0:0:0:
256,192,26678,1,4,0:0:0:0:
256,192,27017,1,2,0:0:0:0:
256,192,27526,1,0,0:0:0:0:
256,192,27695,1,2,0:0:0:0:
256,192,28034,1,0,0:0:0:0:
256,192,28373,1,2,0:0:0:0:
256,192,28882,1,0,0:0:0:0:
256,192,29051,1,2,0:0:0:0:
256,192,29390,1,0,0:0:0:0:
256,192,29729,1,2,0:0:0:0:
256,192,30068,1,2,0:0:0:0:
256,192,30238,1,0,0:0:0:0:
256,192,30407,1,2,0:0:0:0:
160,128,30746,1,4,0:0:0:0:
256,192,31424,1,6,0:0:0:0:
256,192,31763,1,6,0:0:0:0:
256,192,32102,1,4,0:0:0:0:
256,192,32441,1,2,0:0:0:0:
256,192,32780,1,0,0:0:0:0:
256,192,32949,1,0,0:0:0:0:
256,192,33119,1,2,0:0:0:0:
256,192,33458,1,0,0:0:0:0:
256,192,33797,1,2,0:0:0:0:
256,192,34305,1,0,0:0:0:0:
256,192,34475,1,2,0:0:0:0:
256,192,34814,1,0,0:0:0:0:
256,192,35153,1,2,0:0:0:0:
256,192,35322,1,2,0:0:0:0:
256,192,35492,1,0,0:0:0:0:
256,192,35831,1,2,0:0:0:0:
256,192,36170,1,2,0:0:0:0:
256,192,36339,1,0,0:0:0:0:
256,192,36509,1,2,0:0:0:0:
256,192,36848,1,0,0:0:0:0:
256,192,37187,1,2,0:0:0:0:
256,192,37526,1,0,0:0:0:0:
256,192,37865,1,2,0:0:0:0:
256,192,38373,1,0,0:0:0:0:
256,192,38543,1,2,0:0:0:0:
256,192,38882,1,0,0:0:0:0:
256,192,39221,1,2,0:0:0:0:
256,192,39560,1,0,0:0:0:0:
256,192,39729,1,0,0:0:0:0:
256,192,39899,1,2,0:0:0:0:
256,192,40238,1,4,0:0:0:0:
256,192,40577,1,2,0:0:0:0:
256,192,40746,1,4,0:0:0:0:
256,192,41085,1,2,0:0:0:0:
256,192,41424,1,4,0:0:0:0:
256,192,42259,1,0,0:0:0:0:
256,192,42426,1,2,0:0:0:0:
256,224,42509,1,2,0:0:0:0:
256,192,42593,1,2,0:0:0:0:
256,192,42759,1,2,0:0:0:0:
256,192,42926,5,0,0:0:0:0:
256,192,43259,1,2,0:0:0:0:
256,192,43593,1,2,0:0:0:0:
256,192,43759,1,0,0:0:0:0:
256,192,43926,1,2,0:0:0:0:
256,192,44093,1,0,0:0:0:0:
256,192,44259,1,2,0:0:0:0:
256,192,44593,1,2,0:0:0:0:
256,192,44926,1,2,0:0:0:0:
256,192,45093,1,0,0:0:0:0:
256,192,45259,1,2,0:0:0:0:
256,192,45592,1,0,0:0:0:0:
256,192,45926,1,2,0:0:0:0:
256,192,46259,1,0,0:0:0:0:
256,192,46592,1,2,0:0:0:0:
256,192,46759,1,12,0:0:0:0:
256,192,47259,1,2,0:0:0:0:
256,192,47592,1,0,0:0:0:0:
256,192,47759,1,0,0:0:0:0:
256,192,47926,1,2,0:0:0:0:
256,192,48092,1,0,0:0:0:0:
256,192,48592,1,6,0:0:0:0:
256,192,48926,1,0,0:0:0:0:
256,192,49092,1,2,0:0:0:0:
256,192,49259,1,2,0:0:0:0:
256,192,49426,1,0,0:0:0:0:
256,192,49926,1,6,0:0:0:0:
256,192,50259,1,0,0:0:0:0:
256,192,50426,1,0,0:0:0:0:
256,192,50592,1,2,0:0:0:0:
256,192,50759,1,0,0:0:0:0:
256,192,51259,1,2,0:0:0:0:
128,128,51592,1,2,0:0:0:0:
256,192,51759,1,0,0:0:0:0:
256,192,51926,1,2,0:0:0:0:
256,192,52092,1,0,0:0:0:0:
256,192,52592,1,2,0:0:0:0:
256,192,52926,1,0,0:0:0:0:
256,192,53092,1,0,0:0:0:0:
256,192,53259,1,2,0:0:0:0:
256,192,53592,1,2,0:0:0:0:
256,192,53926,1,0,0:0:0:0:
256,192,54092,1,2,0:0:0:0:
256,192,54426,1,0,0:0:0:0:
256,128,54592,1,0,0:0:0:0:
256,192,54759,1,2,0:0:0:0:
256,192,55092,1,0,0:0:0:0:
256,192,55259,1,2,0:0:0:0:
256,192,55592,1,8,0:0:0:0:
256,192,55676,1,8,0:0:0:0:
256,192,55759,1,8,0:0:0:0:
256,192,55926,1,2,0:0:0:0:
256,192,56259,1,4,0:0:0:0:
256,192,56592,1,2,0:0:0:0:
256,192,56926,1,0,0:0:0:0:
256,192,57092,1,0,0:0:0:0:
256,192,57259,1,2,0:0:0:0:
256,192,57592,1,0,0:0:0:0:
256,224,57759,1,0,0:0:0:0:
256,192,57926,1,2,0:0:0:0:
256,192,58092,1,0,0:0:0:0:
256,192,58426,1,0,0:0:0:0:
256,192,58592,1,2,0:0:0:0:
256,192,58759,1,2,0:0:0:0:
256,192,58926,1,0,0:0:0:0:
256,192,59259,1,2,0:0:0:0:
256,192,59592,1,2,0:0:0:0:
256,192,59759,1,0,0:0:0:0:
256,192,59926,1,2,0:0:0:0:
256,192,60259,1,0,0:0:0:0:
256,192,60426,1,0,0:0:0:0:
256,192,60592,1,2,0:0:0:0:
256,192,60759,1,0,0:0:0:0:
256,192,61259,1,2,0:0:0:0:
256,192,61592,1,0,0:0:0:0:
256,192,61759,1,0,0:0:0:0:
256,192,61926,1,2,0:0:0:0:
256,192,62259,1,2,0:0:0:0:
256,192,62426,1,0,0:0:0:0:
256,192,62592,1,2,0:0:0:0:
256,192,62926,1,0,0:0:0:0:
256,192,63092,1,0,0:0:0:0:
256,192,63259,1,2,0:0:0:0:
256,192,63426,1,0,0:0:0:0:
256,192,63759,1,0,0:0:0:0:
256,192,63926,1,2,0:0:0:0:
224,224,64092,1,2,0:0:0:0:
256,192,64259,1,0,0:0:0:0:
224,64,64592,1,2,0:0:0:0:
256,128,64759,1,0,0:0:0:0:
224,64,64926,1,0,0:0:0:0:
256,96,65092,1,2,0:0:0:0:
256,96,65426,1,12,0:0:0:0:
256,128,65759,1,0,0:0:0:0:
256,128,65926,1,2,0:0:0:0:
256,128,66259,1,0,0:0:0:0:
256,128,66426,1,8,0:0:0:0:
256,128,66509,1,8,0:0:0:0:
256,128,66592,1,2,0:0:0:0:
256,128,66759,1,2,0:0:0:0:
256,128,66926,1,4,0:0:0:0:
256,128,67259,1,2,0:0:0:0:
256,128,67592,1,0,0:0:0:0:
256,128,67759,1,0,0:0:0:0:
256,128,67926,1,8,0:0:0:0:
256,128,68259,1,0,0:0:0:0:
256,128,68426,1,0,0:0:0:0:
256,128,68592,1,2,0:0:0:0:
256,128,68759,1,0,0:0:0:0:
256,128,69092,1,0,0:0:0:0:
256,128,69259,1,2,0:0:0:0:
256,128,69426,1,2,0:0:0:0:
256,128,69592,1,0,0:0:0:0:
256,128,69926,1,2,0:0:0:0:
256,128,70259,1,2,0:0:0:0:
256,128,70426,1,0,0:0:0:0:
256,128,70592,1,2,0:0:0:0:
256,128,70926,1,0,0:0:0:0:
256,128,71092,1,0,0:0:0:0:
256,128,71259,1,2,0:0:0:0:
256,128,71426,1,4,0:0:0:0:
256,128,71926,1,2,0:0:0:0:
256,128,72259,1,0,0:0:0:0:
256,128,72592,1,2,0:0:0:0:
256,192,72926,1,0,0:0:0:0:
256,192,73092,1,0,0:0:0:0:
256,192,73259,1,2,0:0:0:0:
256,192,73592,1,0,0:0:0:0:
256,192,73759,1,0,0:0:0:0:
256,192,73926,1,2,0:0:0:0:
256,192,74092,1,0,0:0:0:0:
256,192,74426,1,0,0:0:0:0:
256,192,74592,1,2,0:0:0:0:
256,192,74759,1,2,0:0:0:0:
256,192,74926,1,0,0:0:0:0:
256,192,75259,1,2,0:0:0:0:
256,192,75426,1,0,0:0:0:0:
256,192,75592,1,2,0:0:0:0:
256,192,75759,1,2,0:0:0:0:
256,192,75926,1,2,0:0:0:0:
256,192,76092,1,4,0:0:0:0:
256,192,76426,1,0,0:0:0:0:
256,192,76592,1,2,0:0:0:0:
256,192,76759,1,0,0:0:0:0:
256,192,77092,1,0,0:0:0:0:
256,192,77259,1,2,0:0:0:0:
256,192,77342,1,2,0:0:0:0:
256,192,77426,1,2,0:0:0:0:
256,192,77592,1,4,0:0:0:0:
256,192,77926,1,2,0:0:0:0:
256,192,78259,1,0,0:0:0:0:
256,192,78426,1,0,0:0:0:0:
256,192,78592,1,2,0:0:0:0:
256,192,78926,1,0,0:0:0:0:
256,192,79092,1,0,0:0:0:0:
256,192,79259,1,2,0:0:0:0:
256,192,79426,1,0,0:0:0:0:
256,192,79759,1,2,0:0:0:0:
256,192,79926,1,0,0:0:0:0:
256,192,80092,1,0,0:0:0:0:
256,192,80259,1,2,0:0:0:0:
256,192,80592,1,2,0:0:0:0:
256,192,80759,1,0,0:0:0:0:
256,160,80926,1,2,0:0:0:0:
256,192,81259,1,2,0:0:0:0:
256,192,81592,1,0,0:0:0:0:
256,192,81759,1,0,0:0:0:0:
256,192,81926,1,2,0:0:0:0:
256,192,82092,1,0,0:0:0:0:
256,192,82592,1,2,0:0:0:0:
224,128,82759,1,0,0:0:0:0:
256,192,82926,1,4,0:0:0:0:
320,320,83259,1,2,0:0:0:0:
288,256,83426,1,0,0:0:0:0:
288,224,83759,1,0,0:0:0:0:
288,224,83926,1,2,0:0:0:0:
288,224,84092,1,0,0:0:0:0:
288,224,84426,1,0,0:0:0:0:
288,224,84592,1,2,0:0:0:0:
288,224,84759,1,2,0:0:0:0:
256,160,84926,1,0,0:0:0:0:
288,224,85259,1,2,0:0:0:0:
224,96,85426,1,0,0:0:0:0:
288,224,85592,1,0,0:0:0:0:
224,96,85759,1,2,0:0:0:0:
224,96,86092,1,0,0:0:0:0:
224,96,86259,1,0,0:0:0:0:
224,96,86426,1,2,0:0:0:0:
224,160,86759,1,6,0:0:0:0:
224,160,87092,1,0,0:0:0:0:
224,160,87259,1,2,0:0:0:0:
224,160,87426,1,0,0:0:0:0:
224,160,87509,1,0,0:0:0:0:
224,160,87592,1,0,0:0:0:0:
224,160,87759,1,0,0:0:0:0:
224,160,87926,1,2,0:0:0:0:
224,160,88092,1,2,0:0:0:0:
224,160,88259,1,4,0:0:0:0:
256,192,88592,1,2,0:0:0:0:
256,192,88926,1,0,0:0:0:0:
256,192,89092,1,0,0:0:0:0:
256,192,89259,1,2,0:0:0:0:
256,192,89592,1,2,0:0:0:0:
256,192,89759,1,2,0:0:0:0:
256,192,89926,1,0,0:0:0:0:
256,192,90092,1,2,0:0:0:0:
256,192,90426,1,0,0:0:0:0:
256,192,90592,1,2,0:0:0:0:
256,192,90759,1,0,0:0:0:0:
256,192,90926,1,0,0:0:0:0:
256,192,91259,1,2,0:0:0:0:
256,192,91426,1,0,0:0:0:0:
256,192,91592,1,2,0:0:0:0:
256,192,91926,1,2,0:0:0:0:
256,192,92259,1,0,0:0:0:0:
256,192,92426,1,0,0:0:0:0:
256,192,92592,1,2,0:0:0:0:
256,192,92759,1,4,0:0:0:0:
256,192,93259,1,2,0:0:0:0:
256,192,93592,1,0,0:0:0:0:
320,320,93926,1,2,0:0:0:0:
288,256,94092,1,0,0:0:0:0:
288,224,94259,1,2,0:0:0:0:
288,224,94592,1,2,0:0:0:0:
288,224,94926,1,0,0:0:0:0:
288,224,95092,1,0,0:0:0:0:
288,224,95259,1,2,0:0:0:0:
288,224,95426,1,0,0:0:0:0:
288,224,95759,1,0,0:0:0:0:
288,224,95926,1,2,0:0:0:0:
224,192,96092,1,0,0:0:0:0:
288,224,96259,1,0,0:0:0:0:
256,192,96592,1,2,0:0:0:0:
256,192,96759,1,0,0:0:0:0:
256,192,96926,1,2,0:0:0:0:
256,192,97092,1,2,0:0:0:0:
224,192,97426,1,6,0:0:0:0:
256,192,97759,1,0,0:0:0:0:
256,192,97926,1,2,0:0:0:0:
256,192,98259,1,0,0:0:0:0:
256,192,98342,1,0,0:0:0:0:
224,192,98426,5,0,0:0:0:0:
224,192,98592,1,2,0:0:0:0:
256,192,98926,1,4,0:0:0:0:
256,192,99592,1,2,0:0:0:0:
256,192,99926,1,0,0:0:0:0:
256,192,100259,1,2,0:0:0:0:
256,192,100759,1,0,0:0:0:0:
256,192,100926,1,2,0:0:0:0:
256,192,101259,1,2,0:0:0:0:
256,192,101592,1,4,0:0:0:0:
256,192,101926,1,0,0:0:0:0:
256,192,102092,1,6,0:0:0:0:
256,192,102426,1,0,0:0:0:0:
256,192,102592,1,2,0:0:0:0:
256,192,102759,1,4,0:0:0:0:
256,192,103092,1,2,0:0:0:0:
256,192,103259,1,2,0:0:0:0:
256,192,103426,1,0,0:0:0:0:
192,128,103926,1,2,0:0:0:0:
256,192,104259,1,4,0:0:0:0:
256,192,104592,1,0,0:0:0:0:
256,192,104759,1,2,0:0:0:0:
256,192,104926,1,4,0:0:0:0:
160,128,105092,1,2,0:0:0:0:
256,192,105259,1,0,0:0:0:0:
160,128,105426,1,0,0:0:0:0:
256,192,105592,1,6,0:0:0:0:
128,96,105926,1,2,0:0:0:0:
160,96,106092,1,0,0:0:0:0:
256,192,106259,1,2,0:0:0:0:
256,192,106592,1,2,0:0:0:0:
256,192,106926,5,4,0:0:0:0:
256,192,107259,1,2,0:0:0:0:
256,192,107426,1,2,0:0:0:0:
256,192,107592,1,4,0:0:0:0:
256,192,107759,1,2,0:0:0:0:
256,192,107926,1,2,0:0:0:0:
256,192,108092,1,0,0:0:0:0:
256,192,108259,1,6,0:0:0:0:
256,192,108592,1,2,0:0:0:0:
256,192,108759,1,0,0:0:0:0:
256,192,108926,1,2,0:0:0:0:
256,192,109259,5,2,0:0:0:0:
256,192,109342,1,2,0:0:0:0:
256,192,109426,1,2,0:0:0:0:
256,192,109592,5,4,0:0:0:0:
256,192,110259,1,6,0:0:0:0:
256,192,110926,1,4,0:0:0:0:
256,192,111426,1,2,0:0:0:0:
256,192,111759,1,0,0:0:0:0:
256,192,111926,1,0,0:0:0:0:
256,192,112259,1,6,0:0:0:0:
256,192,112592,1,6,0:0:0:0:
256,192,112926,12,0,114759,0:0:0:0:
256,192,114926,5,0,0:0:0:0:
256,192,115259,1,2,0:0:0:0:
256,192,115926,1,2,0:0:0:0:
256,192,116092,1,0,0:0:0:0:
256,192,116259,1,2,0:0:0:0:
256,192,116592,1,2,0:0:0:0:
256,192,116926,1,2,0:0:0:0:
256,192,117092,1,0,0:0:0:0:
256,192,117259,1,2,0:0:0:0:
160,128,117426,1,2,0:0:0:0:
256,192,117592,1,0,0:0:0:0:
256,192,117926,1,2,0:0:0:0:
256,192,118592,1,2,0:0:0:0:
256,192,118759,1,0,0:0:0:0:
256,192,118926,1,2,0:0:0:0:
256,192,119259,1,2,0:0:0:0:
256,192,119426,1,2,0:0:0:0:
256,192,119592,1,0,0:0:0:0:
160,128,119759,1,0,0:0:0:0:
256,192,119926,1,2,0:0:0:0:
256,192,120259,1,0,0:0:0:0:
256,192,120592,1,2,0:0:0:0:
256,192,121259,1,2,0:0:0:0:
256,192,121426,1,0,0:0:0:0:
256,192,121592,1,2,0:0:0:0:
256,192,121926,1,2,0:0:0:0:
192,128,122092,1,0,0:0:0:0:
256,192,122259,1,0,0:0:0:0:
256,192,122426,1,0,0:0:0:0:
256,192,122592,1,2,0:0:0:0:
256,192,122926,1,0,0:0:0:0:
256,192,123259,1,2,0:0:0:0:
256,192,123926,1,2,0:0:0:0:
256,192,124092,1,4,0:0:0:0:
256,192,124426,1,0,0:0:0:0:
256,192,124592,1,2,0:0:0:0:
256,192,124926,1,0,0:0:0:0:
256,192,125009,1,0,0:0:0:0:
256,192,125092,1,0,0:0:0:0:
256,192,125259,1,2,0:0:0:0:
256,192,125426,1,0,0:0:0:0:
256,192,125592,1,0,0:0:0:0:
256,192,125926,1,2,0:0:0:0:
256,192,126592,1,2,0:0:0:0:
256,192,126759,1,0,0:0:0:0:
256,192,126926,1,2,0:0:0:0:
256,192,127259,1,2,0:0:0:0:
256,192,127592,1,2,0:0:0:0:
256,192,127759,1,0,0:0:0:0:
256,192,127926,1,2,0:0:0:0:
96,128,128092,1,2,0:0:0:0:
96,128,128259,1,0,0:0:0:0:
256,192,128592,1,2,0:0:0:0:
256,160,129259,1,2,0:0:0:0:
256,160,129426,1,0,0:0:0:0:
256,160,129592,1,2,0:0:0:0:
256,160,129759,1,0,0:0:0:0:
256,160,129926,1,0,0:0:0:0:
256,160,130092,1,6,0:0:0:0:
256,160,130426,1,0,0:0:0:0:
256,160,130592,1,2,0:0:0:0:
256,160,130926,1,4,0:0:0:0:
256,160,131259,1,2,0:0:0:0:
256,160,131926,1,2,0:0:0:0:
256,160,132092,1,0,0:0:0:0:
256,160,132259,1,2,0:0:0:0:
256,160,132592,1,2,0:0:0:0:
256,160,132926,1,2,0:0:0:0:
256,160,133092,1,0,0:0:0:0:
256,160,133259,1,2,0:0:0:0:
128,160,133426,1,0,0:0:0:0:
256,160,133592,1,0,0:0:0:0:
256,160,133926,1,2,0:0:0:0:
256,160,134592,1,2,0:0:0:0:
160,128,134759,1,0,0:0:0:0:
256,160,134926,1,2,0:0:0:0:
256,160,135259,1,2,0:0:0:0:
96,128,135426,1,0,0:0:0:0:
256,160,135592,1,0,0:0:0:0:
256,160,135676,1,0,0:0:0:0:
256,160,135759,1,0,0:0:0:0:
256,160,135926,1,2,0:0:0:0:
256,160,136092,1,2,0:0:0:0:
256,192,136259,5,4,0:0:0:0:
256,192,136592,1,2,0:0:0:0:
256,192,136926,1,0,0:0:0:0:
256,192,137092,1,0,0:0:0:0:
256,192,137259,1,2,0:0:0:0:
256,192,137426,1,0,0:0:0:0:
256,192,137759,1,0,0:0:0:0:
256,192,137926,1,2,0:0:0:0:
256,192,138259,1,2,0:0:0:0:
256,192,138426,1,0,0:0:0:0:
256,192,138592,1,2,0:0:0:0:
256,192,138926,1,0,0:0:0:0:
32,128,139259,1,2,0:0:0:0:
256,192,139592,1,2,0:0:0:0:
256,192,140092,1,4,0:0:0:0:
256,192,140426,1,0,0:0:0:0:
256,192,140592,1,2,0:0:0:0:
256,192,140759,1,4,0:0:0:0:
256,192,141259,1,2,0:0:0:0:
256,192,141342,5,2,0:0:0:0:
256,192,141426,1,2,0:0:0:0:
256,192,141592,1,0,0:0:0:0:
256,192,141926,1,2,0:0:0:0:
256,192,142259,1,0,0:0:0:0:
256,192,142426,1,0,0:0:0:0:
256,192,142592,1,2,0:0:0:0:
256,192,142759,1,0,0:0:0:0:
256,192,143092,1,0,0:0:0:0:
256,192,143259,1,2,0:0:0:0:
256,192,143592,1,2,0:0:0:0:
256,192,143759,1,0,0:0:0:0:
256,192,143926,1,2,0:0:0:0:
256,192,144259,1,0,0:0:0:0:
256,192,144592,5,2,0:0:0:0:
256,192,144926,1,2,0:0:0:0:
256,192,145426,1,4,0:0:0:0:
128,96,145759,1,0,0:0:0:0:
64,160,145926,1,0,0:0:0:0:
256,160,146092,1,2,0:0:0:0:
256,160,146259,1,0,0:0:0:0:
256,160,146426,1,2,0:0:0:0:
256,160,146509,1,2,0:0:0:0:
256,160,146592,1,2,0:0:0:0:
160,128,146759,1,2,0:0:0:0:
256,160,146926,1,4,0:0:0:0:
