osu file format v14

[General]
AudioFilename: best day best way.mp3
AudioLeadIn: 0
PreviewTime: 56259
Countdown: 0
SampleSet: Normal
StackLeniency: 0.7
Mode: 1
LetterboxInBreaks: 0
WidescreenStoryboard: 0

[Editor]
Bookmarks: 56274,66940,77690,88274
DistanceSpacing: 1.2
BeatDivisor: 4
GridSize: 32
TimelineZoom: 1.899999

[Metadata]
Title:best day, best way
TitleUnicode:best day, best way
Artist:LiSA
ArtistUnicode:LiSA
Creator:Volta
Version:Inner Oni
Source:
Tags:LANDSPACE Oribe Risa 織部 里沙 cut short version nardoxyribonucleic
BeatmapID:705830
BeatmapSetID:316779

[Difficulty]
HPDrainRate:6
CircleSize:5
OverallDifficulty:6
ApproachRate:5
SliderMultiplier:1.4
SliderTickRate:1

[Events]
//Background and Video events
0,0,"randombg.jpg",0,-50
//Break Periods
//Storyboard Layer 0 (Background)
//Storyboard Layer 1 (Fail)
//Storyboard Layer 2 (Pass)
//Storyboard Layer 3 (Foreground)
//Storyboard Sound Samples

[TimingPoints]
1256,333.333333333333,4,1,0,85,1,0
21255,338.983050847458,4,1,0,85,1,0
41593,333.333333333333,4,1,0,85,1,0
56259,-100,4,1,0,95,0,1
98926,-100,4,1,0,85,0,0

[HitObjects]
256,192,2589,5,2,0:0:0:0:
256,192,2922,1,2,0:0:0:0:
256,192,3089,1,0,0:0:0:0:
256,192,3172,1,0,0:0:0:0:
256,192,3255,1,2,0:0:0:0:
256,192,3422,1,0,0:0:0:0:
256,192,3922,1,4,0:0:0:0:
256,192,4255,1,2,0:0:0:0:
256,192,4422,1,2,0:0:0:0:
256,192,4589,1,4,0:0:0:0:
256,192,4922,1,2,0:0:0:0:
256,192,5089,1,2,0:0:0:0:
256,192,5255,1,4,0:0:0:0:
256,192,5589,1,0,0:0:0:0:
256,192,5755,1,2,0:0:0:0:
256,192,5922,1,0,0:0:0:0:
256,192,6089,1,0,0:0:0:0:
256,192,6255,1,0,0:0:0:0:
256,192,6589,1,12,0:0:0:0:
256,192,6922,1,12,0:0:0:0:
256,192,7922,12,0,10422,0:0:0:0:
256,192,10589,5,0,0:0:0:0:
256,192,10755,1,2,0:0:0:0:
256,192,10922,1,2,0:0:0:0:
256,192,11005,1,2,0:0:0:0:
256,192,11089,1,0,0:0:0:0:
256,192,11255,1,0,0:0:0:0:
256,192,11339,1,0,0:0:0:0:
256,192,11422,1,0,0:0:0:0:
256,192,11589,1,2,0:0:0:0:
256,192,11755,1,0,0:0:0:0:
256,192,11839,1,2,0:0:0:0:
256,192,11922,1,0,0:0:0:0:
256,192,12089,1,0,0:0:0:0:
256,192,12255,1,2,0:0:0:0:
256,192,12422,1,2,0:0:0:0:
256,192,12505,1,2,0:0:0:0:
256,192,12589,1,0,0:0:0:0:
256,192,12755,1,0,0:0:0:0:
256,192,12922,1,2,0:0:0:0:
256,192,13089,1,0,0:0:0:0:
256,192,13172,1,2,0:0:0:0:
256,192,13255,1,0,0:0:0:0:
256,192,13422,1,0,0:0:0:0:
256,192,13589,1,2,0:0:0:0:
256,192,13755,1,2,0:0:0:0:
256,192,13922,1,0,0:0:0:0:
256,192,14005,1,0,0:0:0:0:
256,192,14089,1,0,0:0:0:0:
256,192,14255,1,2,0:0:0:0:
256,192,14422,1,4,0:0:0:0:
256,192,14755,1,0,0:0:0:0:
256,192,14922,1,2,0:0:0:0:
256,192,15089,1,4,0:0:0:0:
256,192,15422,1,0,0:0:0:0:
256,192,15589,1,2,0:0:0:0:
256,192,15672,1,2,0:0:0:0:
256,192,15755,1,2,0:0:0:0:
256,192,15839,1,2,0:0:0:0:
256,192,15922,1,0,0:0:0:0:
256,192,16089,1,2,0:0:0:0:
256,192,16255,1,2,0:0:0:0:
256,192,16339,1,2,0:0:0:0:
256,192,16422,1,0,0:0:0:0:
256,192,16589,1,2,0:0:0:0:
256,192,16755,1,0,0:0:0:0:
256,192,16839,1,0,0:0:0:0:
256,192,16922,1,2,0:0:0:0:
256,192,17089,1,0,0:0:0:0:
256,192,17172,1,2,0:0:0:0:
256,192,17255,1,0,0:0:0:0:
256,192,17422,1,0,0:0:0:0:
256,192,17589,1,2,0:0:0:0:
256,192,17755,1,2,0:0:0:0:
256,192,17922,1,0,0:0:0:0:
192,160,18005,1,0,0:0:0:0:
256,192,18089,1,0,0:0:0:0:
256,192,18255,1,2,0:0:0:0:
256,192,18422,1,2,0:0:0:0:
256,192,18505,1,2,0:0:0:0:
256,192,18589,1,0,0:0:0:0:
256,192,18755,1,0,0:0:0:0:
256,192,18839,1,2,0:0:0:0:
256,192,18922,1,0,0:0:0:0:
256,192,19089,1,2,0:0:0:0:
256,192,19255,1,0,0:0:0:0:
256,192,19339,1,0,0:0:0:0:
256,192,19422,1,0,0:0:0:0:
256,192,19589,1,2,0:0:0:0:
256,192,19755,1,4,0:0:0:0:
256,192,20089,1,2,0:0:0:0:
256,192,20255,1,2,0:0:0:0:
256,192,20422,1,0,0:0:0:0:
256,192,20589,1,4,0:0:0:0:
256,192,21255,1,0,0:0:0:0:
256,192,21424,1,0,0:0:0:0:
256,192,21593,1,2,0:0:0:0:
256,192,21763,1,0,0:0:0:0:
256,192,21848,1,2,0:0:0:0:
256,192,21932,1,0,0:0:0:0:
256,192,22102,1,0,0:0:0:0:
256,192,22271,1,2,0:0:0:0:
256,192,22441,1,2,0:0:0:0:
256,192,22526,1,2,0:0:0:0:
256,192,22610,1,0,0:0:0:0:
256,192,22780,1,0,0:0:0:0:
256,192,22949,1,2,0:0:0:0:
256,192,23119,1,0,0:0:0:0:
256,192,23204,1,0,0:0:0:0:
256,192,23288,1,0,0:0:0:0:
256,192,23458,1,0,0:0:0:0:
256,192,23627,1,2,0:0:0:0:
256,192,23797,1,2,0:0:0:0:
256,192,23966,1,0,0:0:0:0:
256,192,24136,1,0,0:0:0:0:
256,192,24305,1,2,0:0:0:0:
256,192,24475,1,2,0:0:0:0:
256,192,24560,1,2,0:0:0:0:
256,192,24644,1,0,0:0:0:0:
256,192,24814,1,0,0:0:0:0:
256,192,24983,1,2,0:0:0:0:
256,192,25153,1,0,0:0:0:0:
256,192,25238,1,2,0:0:0:0:
256,192,25322,1,0,0:0:0:0:
256,192,25492,1,0,0:0:0:0:
256,192,25661,1,2,0:0:0:0:
256,192,25831,1,2,0:0:0:0:
256,192,26000,1,0,0:0:0:0:
256,192,26170,1,0,0:0:0:0:
256,192,26255,1,0,0:0:0:0:
256,192,26339,1,2,0:0:0:0:
256,192,26509,1,0,0:0:0:0:
256,192,26678,1,4,0:0:0:0:
256,192,26848,1,0,0:0:0:0:
256,192,27017,1,2,0:0:0:0:
256,192,27187,1,0,0:0:0:0:
256,192,27356,1,0,0:0:0:0:
256,192,27441,1,0,0:0:0:0:
256,192,27526,1,0,0:0:0:0:
256,192,27695,1,2,0:0:0:0:
256,192,27865,1,2,0:0:0:0:
256,192,27949,1,2,0:0:0:0:
256,192,28034,1,0,0:0:0:0:
256,192,28204,1,0,0:0:0:0:
256,192,28373,1,2,0:0:0:0:
256,192,28543,1,0,0:0:0:0:
256,192,28712,1,0,0:0:0:0:
256,192,28882,1,0,0:0:0:0:
256,192,28966,1,0,0:0:0:0:
256,192,29051,1,2,0:0:0:0:
256,192,29221,1,0,0:0:0:0:
256,192,29390,1,0,0:0:0:0:
256,192,29560,1,0,0:0:0:0:
256,192,29729,1,2,0:0:0:0:
256,192,29899,1,0,0:0:0:0:
256,192,29983,1,2,0:0:0:0:
256,192,30068,1,0,0:0:0:0:
256,192,30238,1,0,0:0:0:0:
256,192,30407,1,2,0:0:0:0:
256,192,30577,1,0,0:0:0:0:
256,192,30746,1,2,0:0:0:0:
256,192,30831,1,0,0:0:0:0:
256,192,30916,1,0,0:0:0:0:
256,192,31000,1,0,0:0:0:0:
256,192,31085,1,2,0:0:0:0:
256,192,31170,1,0,0:0:0:0:
256,192,31255,1,0,0:0:0:0:
256,192,31339,1,0,0:0:0:0:
256,192,31424,1,2,0:0:0:0:
256,192,31763,1,6,0:0:0:0:
256,192,32102,1,0,0:0:0:0:
256,192,32271,1,0,0:0:0:0:
256,192,32441,1,2,0:0:0:0:
256,192,32610,1,0,0:0:0:0:
256,192,32695,1,2,0:0:0:0:
256,192,32780,1,0,0:0:0:0:
256,192,32949,1,0,0:0:0:0:
256,192,33119,1,2,0:0:0:0:
256,192,33288,1,2,0:0:0:0:
256,192,33373,1,2,0:0:0:0:
256,192,33458,1,0,0:0:0:0:
256,192,33627,1,0,0:0:0:0:
256,192,33797,1,2,0:0:0:0:
256,192,33966,1,0,0:0:0:0:
256,192,34051,1,0,0:0:0:0:
256,192,34136,1,0,0:0:0:0:
256,192,34305,1,0,0:0:0:0:
256,192,34475,1,2,0:0:0:0:
256,160,34560,1,0,0:0:0:0:
256,192,34644,1,2,0:0:0:0:
256,192,34814,1,0,0:0:0:0:
256,192,34983,1,0,0:0:0:0:
256,192,35153,1,2,0:0:0:0:
256,192,35322,1,2,0:0:0:0:
256,192,35407,1,2,0:0:0:0:
256,192,35492,1,0,0:0:0:0:
256,192,35661,1,0,0:0:0:0:
256,192,35831,1,2,0:0:0:0:
256,192,36000,1,0,0:0:0:0:
256,192,36085,1,2,0:0:0:0:
256,192,36170,1,0,0:0:0:0:
256,192,36339,1,0,0:0:0:0:
256,192,36509,1,2,0:0:0:0:
160,160,36593,1,0,0:0:0:0:
256,192,36678,1,2,0:0:0:0:
256,192,36848,1,0,0:0:0:0:
256,192,37017,1,0,0:0:0:0:
256,192,37102,1,0,0:0:0:0:
256,192,37187,1,2,0:0:0:0:
256,192,37356,1,0,0:0:0:0:
256,192,37526,1,4,0:0:0:0:
256,192,37695,1,0,0:0:0:0:
256,192,37865,1,2,0:0:0:0:
256,192,38034,1,0,0:0:0:0:
256,192,38204,1,0,0:0:0:0:
256,192,38288,1,0,0:0:0:0:
256,192,38373,1,0,0:0:0:0:
256,192,38543,1,2,0:0:0:0:
256,192,38712,1,2,0:0:0:0:
256,192,38797,1,2,0:0:0:0:
256,192,38882,1,0,0:0:0:0:
256,192,39051,1,0,0:0:0:0:
256,192,39221,1,2,0:0:0:0:
256,192,39390,5,0,0:0:0:0:
160,160,39475,1,2,0:0:0:0:
256,192,39560,1,0,0:0:0:0:
256,192,39729,1,0,0:0:0:0:
256,192,39814,1,0,0:0:0:0:
256,192,39899,1,2,0:0:0:0:
256,192,40068,1,0,0:0:0:0:
320,160,40238,1,4,0:0:0:0:
256,192,40577,1,2,0:0:0:0:
256,192,40746,1,4,0:0:0:0:
256,192,41085,1,0,0:0:0:0:
256,192,41255,1,2,0:0:0:0:
256,192,41424,1,4,0:0:0:0:
256,192,41759,1,0,0:0:0:0:
256,192,41926,1,2,0:0:0:0:
256,192,42259,1,0,0:0:0:0:
256,192,42343,1,0,0:0:0:0:
256,192,42426,1,2,0:0:0:0:
256,192,42509,1,2,0:0:0:0:
256,192,42593,1,0,0:0:0:0:
256,128,42676,1,0,0:0:0:0:
256,224,42759,1,0,0:0:0:0:
256,192,42926,5,4,0:0:0:0:
256,192,43259,1,2,0:0:0:0:
256,192,43593,1,2,0:0:0:0:
256,192,43759,1,0,0:0:0:0:
256,192,43926,1,2,0:0:0:0:
256,192,44093,1,0,0:0:0:0:
256,192,44259,1,2,0:0:0:0:
256,192,44593,1,2,0:0:0:0:
256,192,44759,1,0,0:0:0:0:
256,192,44843,1,0,0:0:0:0:
256,192,44926,1,2,0:0:0:0:
256,192,45093,1,0,0:0:0:0:
256,192,45259,1,2,0:0:0:0:
256,192,45426,1,0,0:0:0:0:
256,192,45592,1,0,0:0:0:0:
256,192,45926,1,2,0:0:0:0:
256,192,46259,1,2,0:0:0:0:
256,192,46426,1,0,0:0:0:0:
256,192,46592,1,2,0:0:0:0:
256,192,46759,1,6,0:0:0:0:
256,192,47092,1,0,0:0:0:0:
256,192,47259,1,2,0:0:0:0:
256,192,47592,1,0,0:0:0:0:
256,192,47759,1,0,0:0:0:0:
256,192,47926,1,2,0:0:0:0:
256,192,48092,1,4,0:0:0:0:
256,192,48426,1,0,0:0:0:0:
256,192,48592,1,6,0:0:0:0:
256,192,48926,1,0,0:0:0:0:
256,192,49092,1,2,0:0:0:0:
256,192,49259,1,2,0:0:0:0:
256,192,49426,1,4,0:0:0:0:
256,192,49759,1,0,0:0:0:0:
256,192,49926,1,6,0:0:0:0:
256,192,50259,1,0,0:0:0:0:
256,192,50342,1,0,0:0:0:0:
256,192,50426,1,0,0:0:0:0:
256,192,50592,1,2,0:0:0:0:
256,192,50759,1,0,0:0:0:0:
256,192,51092,1,0,0:0:0:0:
256,192,51259,1,8,0:0:0:0:
256,192,51426,1,2,0:0:0:0:
288,192,51509,1,8,0:0:0:0:
256,192,51592,1,0,0:0:0:0:
256,192,51759,1,0,0:0:0:0:
256,192,51926,1,2,0:0:0:0:
256,192,52092,1,4,0:0:0:0:
256,192,52426,1,0,0:0:0:0:
256,192,52592,1,2,0:0:0:0:
256,192,52759,1,2,0:0:0:0:
256,192,52926,1,2,0:0:0:0:
256,192,53009,1,2,0:0:0:0:
256,192,53092,1,0,0:0:0:0:
256,192,53259,1,2,0:0:0:0:
256,192,53426,1,0,0:0:0:0:
256,192,53592,1,6,0:0:0:0:
256,192,53759,1,0,0:0:0:0:
192,192,53842,1,0,0:0:0:0:
256,192,53926,1,0,0:0:0:0:
256,192,54092,1,6,0:0:0:0:
256,192,54259,1,0,0:0:0:0:
256,192,54426,1,0,0:0:0:0:
192,160,54509,1,0,0:0:0:0:
256,192,54592,1,2,0:0:0:0:
256,192,54759,1,6,0:0:0:0:
256,192,55092,1,0,0:0:0:0:
256,192,55259,1,2,0:0:0:0:
256,192,55426,1,0,0:0:0:0:
256,192,55509,1,0,0:0:0:0:
256,192,55592,1,2,0:0:0:0:
256,192,55676,1,0,0:0:0:0:
256,192,55759,1,0,0:0:0:0:
256,192,55842,1,0,0:0:0:0:
256,192,55926,1,2,0:0:0:0:
256,192,56009,1,0,0:0:0:0:
256,192,56092,1,0,0:0:0:0:
256,192,56176,1,0,0:0:0:0:
256,192,56259,1,2,0:0:0:0:
192,96,56426,1,0,0:0:0:0:
96,192,56592,1,8,0:0:0:0:
160,128,56676,1,8,0:0:0:0:
256,160,56759,1,0,0:0:0:0:
256,128,56842,1,0,0:0:0:0:
256,128,56926,1,8,0:0:0:0:
256,128,57092,1,0,0:0:0:0:
224,128,57259,1,8,0:0:0:0:
256,128,57426,1,8,0:0:0:0:
128,160,57509,1,8,0:0:0:0:
128,160,57592,1,0,0:0:0:0:
128,160,57759,1,0,0:0:0:0:
160,128,57842,1,0,0:0:0:0:
128,160,57926,1,8,0:0:0:0:
224,128,58009,1,0,0:0:0:0:
224,128,58092,1,8,0:0:0:0:
192,160,58259,1,0,0:0:0:0:
192,160,58426,1,8,0:0:0:0:
192,160,58509,1,8,0:0:0:0:
192,160,58592,1,0,0:0:0:0:
192,160,58759,1,0,0:0:0:0:
256,128,58926,1,0,0:0:0:0:
288,128,59009,1,0,0:0:0:0:
192,224,59092,1,0,0:0:0:0:
192,224,59259,1,8,0:0:0:0:
192,160,59426,1,0,0:0:0:0:
192,160,59592,1,8,0:0:0:0:
160,128,59676,1,8,0:0:0:0:
192,160,59759,1,0,0:0:0:0:
192,160,59842,1,0,0:0:0:0:
192,160,59926,1,8,0:0:0:0:
192,160,60092,1,0,0:0:0:0:
160,160,60176,1,0,0:0:0:0:
224,160,60259,1,0,0:0:0:0:
224,160,60426,1,0,0:0:0:0:
256,160,60592,1,8,0:0:0:0:
192,160,60759,1,0,0:0:0:0:
224,128,60842,1,8,0:0:0:0:
224,128,60926,1,0,0:0:0:0:
256,128,61092,1,0,0:0:0:0:
256,128,61259,1,8,0:0:0:0:
288,160,61592,1,4,0:0:0:0:
96,128,61759,1,0,0:0:0:0:
128,128,61926,1,8,0:0:0:0:
160,160,62009,1,8,0:0:0:0:
128,160,62092,1,0,0:0:0:0:
160,160,62176,1,0,0:0:0:0:
160,160,62259,1,8,0:0:0:0:
192,96,62426,1,0,0:0:0:0:
192,128,62592,1,8,0:0:0:0:
224,128,62759,1,0,0:0:0:0:
128,160,62842,1,0,0:0:0:0:
224,128,62926,1,0,0:0:0:0:
128,128,63092,1,0,0:0:0:0:
192,128,63259,1,8,0:0:0:0:
96,160,63426,1,0,0:0:0:0:
224,160,63592,1,8,0:0:0:0:
160,160,63676,1,8,0:0:0:0:
224,160,63759,1,0,0:0:0:0:
224,160,63842,1,0,0:0:0:0:
224,160,63926,1,8,0:0:0:0:
160,192,64092,1,8,0:0:0:0:
160,192,64259,1,0,0:0:0:0:
192,160,64426,1,0,0:0:0:0:
160,160,64509,1,0,0:0:0:0:
160,160,64592,1,8,0:0:0:0:
192,160,64759,1,0,0:0:0:0:
192,160,64926,1,8,0:0:0:0:
192,160,65009,1,8,0:0:0:0:
192,160,65092,1,0,0:0:0:0:
160,160,65259,1,8,0:0:0:0:
224,160,65426,1,12,0:0:0:0:
192,160,65759,1,0,0:0:0:0:
224,128,65926,1,8,0:0:0:0:
224,128,66092,1,0,0:0:0:0:
256,128,66259,5,0,0:0:0:0:
256,128,66342,1,0,0:0:0:0:
256,128,66426,1,0,0:0:0:0:
256,128,66509,1,0,0:0:0:0:
256,128,66592,1,2,0:0:0:0:
256,128,66676,1,2,0:0:0:0:
256,128,66759,1,2,0:0:0:0:
256,128,66842,1,2,0:0:0:0:
256,128,66926,1,0,0:0:0:0:
192,96,67092,1,0,0:0:0:0:
96,192,67259,1,8,0:0:0:0:
160,128,67342,1,8,0:0:0:0:
256,160,67426,1,0,0:0:0:0:
256,128,67509,1,0,0:0:0:0:
256,128,67592,1,8,0:0:0:0:
256,128,67759,1,0,0:0:0:0:
224,128,67926,1,8,0:0:0:0:
256,128,68092,1,0,0:0:0:0:
128,160,68176,1,8,0:0:0:0:
128,160,68259,1,0,0:0:0:0:
128,160,68426,1,0,0:0:0:0:
160,128,68509,1,0,0:0:0:0:
128,160,68592,1,8,0:0:0:0:
224,128,68676,1,8,0:0:0:0:
224,128,68759,1,0,0:0:0:0:
192,160,68926,1,0,0:0:0:0:
192,160,69092,1,8,0:0:0:0:
192,160,69176,1,0,0:0:0:0:
192,160,69259,1,8,0:0:0:0:
192,160,69426,1,8,0:0:0:0:
256,128,69592,1,0,0:0:0:0:
288,128,69676,1,0,0:0:0:0:
192,224,69759,1,0,0:0:0:0:
192,224,69926,1,8,0:0:0:0:
192,160,70092,1,0,0:0:0:0:
192,160,70259,1,8,0:0:0:0:
160,128,70342,1,8,0:0:0:0:
192,160,70426,1,0,0:0:0:0:
192,160,70509,1,0,0:0:0:0:
192,160,70592,1,8,0:0:0:0:
192,160,70759,1,0,0:0:0:0:
160,160,70842,1,8,0:0:0:0:
224,160,70926,1,0,0:0:0:0:
224,160,71092,1,0,0:0:0:0:
256,160,71259,1,8,0:0:0:0:
192,160,71426,1,4,0:0:0:0:
256,128,71759,1,0,0:0:0:0:
256,128,71926,1,8,0:0:0:0:
352,160,72092,1,0,0:0:0:0:
288,160,72259,1,4,0:0:0:0:
96,128,72426,1,0,0:0:0:0:
128,128,72592,1,8,0:0:0:0:
160,160,72676,1,8,0:0:0:0:
128,160,72759,1,0,0:0:0:0:
160,160,72842,1,0,0:0:0:0:
160,160,72926,1,8,0:0:0:0:
192,96,73092,1,0,0:0:0:0:
192,128,73259,1,8,0:0:0:0:
224,128,73426,1,0,0:0:0:0:
128,160,73509,1,0,0:0:0:0:
224,128,73592,1,0,0:0:0:0:
128,128,73759,1,0,0:0:0:0:
192,128,73926,1,8,0:0:0:0:
96,160,74092,1,0,0:0:0:0:
224,160,74259,1,8,0:0:0:0:
160,160,74342,1,8,0:0:0:0:
224,160,74426,1,0,0:0:0:0:
224,160,74509,1,0,0:0:0:0:
224,160,74592,1,8,0:0:0:0:
160,192,74759,1,8,0:0:0:0:
160,192,74926,1,0,0:0:0:0:
128,128,75092,1,0,0:0:0:0:
128,128,75176,1,0,0:0:0:0:
160,160,75259,1,8,0:0:0:0:
160,128,75426,1,0,0:0:0:0:
160,160,75592,1,8,0:0:0:0:
224,128,75676,1,8,0:0:0:0:
160,160,75759,1,0,0:0:0:0:
128,160,75926,1,8,0:0:0:0:
160,160,76092,1,4,0:0:0:0:
224,96,76426,1,0,0:0:0:0:
224,96,76592,1,8,0:0:0:0:
224,96,76759,1,0,0:0:0:0:
256,192,76926,5,2,0:0:0:0:
256,192,77009,1,2,0:0:0:0:
256,192,77092,1,2,0:0:0:0:
256,192,77176,1,2,0:0:0:0:
256,192,77259,1,0,0:0:0:0:
256,192,77342,1,0,0:0:0:0:
256,192,77426,1,2,0:0:0:0:
256,192,77509,1,2,0:0:0:0:
224,160,77592,1,0,0:0:0:0:
192,96,77759,1,0,0:0:0:0:
96,192,77926,1,8,0:0:0:0:
160,128,78009,1,8,0:0:0:0:
256,160,78092,1,0,0:0:0:0:
256,128,78176,1,8,0:0:0:0:
256,128,78259,1,8,0:0:0:0:
256,128,78426,1,0,0:0:0:0:
224,128,78592,1,8,0:0:0:0:
256,128,78759,1,0,0:0:0:0:
128,160,78842,1,8,0:0:0:0:
128,160,78926,1,0,0:0:0:0:
128,160,79092,1,0,0:0:0:0:
160,128,79176,1,8,0:0:0:0:
128,160,79259,1,8,0:0:0:0:
224,128,79342,1,0,0:0:0:0:
224,128,79426,1,0,0:0:0:0:
192,160,79592,1,0,0:0:0:0:
192,160,79759,1,8,0:0:0:0:
192,160,79842,1,8,0:0:0:0:
192,160,79926,1,0,0:0:0:0:
192,160,80092,1,0,0:0:0:0:
256,128,80259,1,0,0:0:0:0:
288,128,80342,1,0,0:0:0:0:
192,224,80426,1,8,0:0:0:0:
192,224,80592,1,8,0:0:0:0:
192,160,80759,1,0,0:0:0:0:
192,160,80926,1,8,0:0:0:0:
160,128,81009,1,8,0:0:0:0:
192,160,81092,1,0,0:0:0:0:
192,160,81176,1,0,0:0:0:0:
192,160,81259,1,8,0:0:0:0:
192,160,81426,1,0,0:0:0:0:
160,160,81509,1,0,0:0:0:0:
224,160,81592,1,0,0:0:0:0:
224,160,81759,1,0,0:0:0:0:
256,160,81926,1,8,0:0:0:0:
192,160,82092,1,0,0:0:0:0:
192,192,82176,1,8,0:0:0:0:
192,192,82259,1,0,0:0:0:0:
256,128,82426,1,0,0:0:0:0:
256,128,82592,1,8,0:0:0:0:
288,160,82926,1,4,0:0:0:0:
96,128,83092,1,0,0:0:0:0:
128,128,83259,1,8,0:0:0:0:
160,160,83342,1,0,0:0:0:0:
128,160,83426,1,0,0:0:0:0:
160,160,83509,1,8,0:0:0:0:
160,160,83592,1,8,0:0:0:0:
192,96,83759,1,0,0:0:0:0:
192,128,83926,1,8,0:0:0:0:
224,128,84092,1,8,0:0:0:0:
128,160,84176,1,8,0:0:0:0:
224,128,84259,1,0,0:0:0:0:
128,128,84426,1,0,0:0:0:0:
192,128,84592,1,8,0:0:0:0:
96,160,84759,1,0,0:0:0:0:
32,128,84842,1,0,0:0:0:0:
224,160,84926,1,8,0:0:0:0:
160,160,85009,1,0,0:0:0:0:
224,160,85092,1,0,0:0:0:0:
224,160,85259,1,8,0:0:0:0:
160,192,85426,1,0,0:0:0:0:
256,192,85509,1,8,0:0:0:0:
160,192,85592,1,0,0:0:0:0:
192,160,85759,1,0,0:0:0:0:
160,160,85842,1,0,0:0:0:0:
160,160,85926,5,8,0:0:0:0:
192,160,86092,1,0,0:0:0:0:
192,160,86259,1,8,0:0:0:0:
192,160,86342,1,8,0:0:0:0:
192,160,86426,1,0,0:0:0:0:
160,160,86592,1,8,0:0:0:0:
224,160,86759,1,4,0:0:0:0:
160,160,87092,5,0,0:0:0:0:
224,160,87259,5,2,0:0:0:0:
224,160,87426,1,2,0:0:0:0:
224,160,87509,1,0,0:0:0:0:
224,160,87592,1,0,0:0:0:0:
224,160,87676,1,2,0:0:0:0:
224,160,87759,1,0,0:0:0:0:
224,160,87842,1,0,0:0:0:0:
224,160,87926,1,2,0:0:0:0:
224,160,88009,1,2,0:0:0:0:
224,160,88092,1,2,0:0:0:0:
224,160,88176,1,2,0:0:0:0:
224,160,88259,1,0,0:0:0:0:
192,96,88426,1,0,0:0:0:0:
96,192,88592,1,8,0:0:0:0:
160,128,88676,1,8,0:0:0:0:
256,160,88759,1,8,0:0:0:0:
256,128,88842,1,0,0:0:0:0:
256,128,88926,1,8,0:0:0:0:
256,128,89092,1,0,0:0:0:0:
224,128,89259,1,8,0:0:0:0:
256,128,89426,1,0,0:0:0:0:
128,160,89509,1,8,0:0:0:0:
128,160,89592,1,0,0:0:0:0:
128,160,89759,1,0,0:0:0:0:
160,128,89842,1,8,0:0:0:0:
128,160,89926,1,8,0:0:0:0:
224,128,90009,1,8,0:0:0:0:
224,128,90092,1,0,0:0:0:0:
192,160,90259,1,0,0:0:0:0:
192,160,90426,1,8,0:0:0:0:
192,160,90509,1,8,0:0:0:0:
192,160,90592,1,0,0:0:0:0:
192,160,90759,1,0,0:0:0:0:
256,128,90926,1,0,0:0:0:0:
288,128,91009,1,0,0:0:0:0:
192,224,91092,1,8,0:0:0:0:
192,224,91259,1,8,0:0:0:0:
192,160,91426,1,0,0:0:0:0:
192,160,91592,1,8,0:0:0:0:
160,128,91676,1,8,0:0:0:0:
192,160,91759,1,0,0:0:0:0:
192,160,91842,1,0,0:0:0:0:
192,160,91926,1,8,0:0:0:0:
192,160,92092,1,0,0:0:0:0:
160,160,92176,1,0,0:0:0:0:
224,160,92259,1,0,0:0:0:0:
224,160,92426,1,0,0:0:0:0:
256,160,92592,1,8,0:0:0:0:
192,160,92759,1,4,0:0:0:0:
256,128,93092,1,0,0:0:0:0:
256,128,93259,1,8,0:0:0:0:
256,160,93426,1,0,0:0:0:0:
288,160,93592,1,4,0:0:0:0:
96,128,93759,1,0,0:0:0:0:
128,128,93926,1,8,0:0:0:0:
160,160,94009,1,0,0:0:0:0:
128,160,94092,1,0,0:0:0:0:
160,160,94176,1,0,0:0:0:0:
160,160,94259,1,8,0:0:0:0:
192,96,94426,1,0,0:0:0:0:
192,128,94592,1,8,0:0:0:0:
224,128,94759,1,8,0:0:0:0:
128,160,94842,1,8,0:0:0:0:
224,128,94926,1,0,0:0:0:0:
128,128,95092,1,0,0:0:0:0:
192,128,95259,1,8,0:0:0:0:
96,160,95426,1,0,0:0:0:0:
32,128,95509,1,8,0:0:0:0:
224,160,95592,1,0,0:0:0:0:
160,160,95676,1,0,0:0:0:0:
224,160,95759,1,0,0:0:0:0:
224,160,95926,1,8,0:0:0:0:
160,192,96092,1,8,0:0:0:0:
256,192,96176,1,8,0:0:0:0:
160,192,96259,1,0,0:0:0:0:
192,160,96426,1,0,0:0:0:0:
160,160,96509,1,0,0:0:0:0:
160,160,96592,5,8,0:0:0:0:
192,160,96759,1,0,0:0:0:0:
192,160,96926,1,8,0:0:0:0:
192,160,97009,1,8,0:0:0:0:
192,160,97092,1,0,0:0:0:0:
160,160,97259,1,8,0:0:0:0:
224,160,97426,1,4,0:0:0:0:
256,192,97759,5,0,0:0:0:0:
256,192,97926,1,2,0:0:0:0:
96,192,98009,1,0,0:0:0:0:
96,192,98092,1,0,0:0:0:0:
224,192,98176,1,2,0:0:0:0:
224,192,98259,1,0,0:0:0:0:
224,192,98426,5,8,0:0:0:0:
224,192,98592,1,0,0:0:0:0:
256,192,98926,1,4,0:0:0:0:
256,192,99426,1,0,0:0:0:0:
256,192,99592,1,2,0:0:0:0:
256,192,99926,1,2,0:0:0:0:
256,192,100009,1,2,0:0:0:0:
256,192,100092,1,0,0:0:0:0:
256,192,100259,1,0,0:0:0:0:
256,192,100426,1,2,0:0:0:0:
256,192,100592,1,0,0:0:0:0:
256,192,100759,1,0,0:0:0:0:
256,192,100926,1,2,0:0:0:0:
256,192,101259,1,2,0:0:0:0:
256,192,101426,1,2,0:0:0:0:
256,192,101592,1,4,0:0:0:0:
256,192,101926,1,0,0:0:0:0:
256,192,102092,1,6,0:0:0:0:
256,192,102426,1,0,0:0:0:0:
256,192,102592,1,2,0:0:0:0:
256,192,102759,1,4,0:0:0:0:
256,192,103092,1,0,0:0:0:0:
256,192,103259,1,2,0:0:0:0:
256,192,103426,1,2,0:0:0:0:
256,192,103509,1,0,0:0:0:0:
256,192,103592,1,0,0:0:0:0:
256,192,103759,1,0,0:0:0:0:
256,192,103926,1,2,0:0:0:0:
192,224,104092,1,0,0:0:0:0:
256,192,104259,1,4,0:0:0:0:
256,192,104426,1,0,0:0:0:0:
256,192,104592,1,0,0:0:0:0:
256,192,104759,1,2,0:0:0:0:
256,192,104926,1,4,0:0:0:0:
256,192,105092,1,0,0:0:0:0:
256,192,105259,1,0,0:0:0:0:
256,192,105426,1,2,0:0:0:0:
256,192,105592,1,4,0:0:0:0:
256,192,105759,1,0,0:0:0:0:
256,192,105926,1,2,0:0:0:0:
256,192,106092,1,0,0:0:0:0:
256,192,106259,1,2,0:0:0:0:
256,192,106426,1,0,0:0:0:0:
256,192,106592,1,2,0:0:0:0:
256,192,106759,1,0,0:0:0:0:
256,192,106926,5,6,0:0:0:0:
256,192,107092,1,0,0:0:0:0:
256,192,107176,1,0,0:0:0:0:
256,192,107259,1,2,0:0:0:0:
256,192,107426,1,2,0:0:0:0:
256,192,107592,1,4,0:0:0:0:
256,192,107759,1,2,0:0:0:0:
256,192,107842,1,2,0:0:0:0:
256,192,107926,1,2,0:0:0:0:
256,192,108092,1,0,0:0:0:0:
256,192,108259,1,6,0:0:0:0:
256,192,108426,1,0,0:0:0:0:
256,192,108509,1,0,0:0:0:0:
256,192,108592,1,2,0:0:0:0:
256,192,108759,1,0,0:0:0:0:
256,192,108926,1,2,0:0:0:0:
256,192,109092,1,0,0:0:0:0:
192,160,109176,1,0,0:0:0:0:
256,192,109259,5,2,0:0:0:0:
256,192,109342,1,2,0:0:0:0:
256,192,109426,1,2,0:0:0:0:
256,192,109592,5,4,0:0:0:0:
256,192,110259,1,6,0:0:0:0:
256,192,110926,1,4,0:0:0:0:
256,192,111259,1,0,0:0:0:0:
256,192,111342,1,2,0:0:0:0:
256,192,111426,1,2,0:0:0:0:
256,192,111592,1,0,0:0:0:0:
256,192,111759,1,0,0:0:0:0:
256,192,111926,1,0,0:0:0:0:
256,192,112092,1,0,0:0:0:0:
256,192,112259,1,2,0:0:0:0:
256,192,112592,1,6,0:0:0:0:
256,192,112926,12,0,114759,0:0:0:0:
256,192,114926,5,0,0:0:0:0:
256,192,115092,1,0,0:0:0:0:
256,192,115259,1,2,0:0:0:0:
256,192,115426,1,0,0:0:0:0:
256,192,115509,1,0,0:0:0:0:
256,192,115592,1,0,0:0:0:0:
256,192,115759,1,0,0:0:0:0:
256,192,115926,1,2,0:0:0:0:
256,192,116092,1,0,0:0:0:0:
256,192,116176,1,0,0:0:0:0:
256,192,116259,1,2,0:0:0:0:
256,192,116426,1,0,0:0:0:0:
256,192,116592,1,2,0:0:0:0:
256,192,116676,1,2,0:0:0:0:
256,192,116759,1,0,0:0:0:0:
256,192,116926,1,2,0:0:0:0:
256,192,117009,1,0,0:0:0:0:
256,192,117092,1,0,0:0:0:0:
256,192,117259,1,2,0:0:0:0:
256,192,117426,1,0,0:0:0:0:
256,192,117592,1,0,0:0:0:0:
256,192,117759,1,0,0:0:0:0:
256,192,117926,1,2,0:0:0:0:
256,192,118092,1,0,0:0:0:0:
256,192,118176,1,0,0:0:0:0:
256,192,118259,1,0,0:0:0:0:
256,192,118426,1,0,0:0:0:0:
256,192,118592,1,2,0:0:0:0:
256,192,118759,1,0,0:0:0:0:
256,192,118842,1,0,0:0:0:0:
256,192,118926,1,2,0:0:0:0:
256,192,119092,1,0,0:0:0:0:
256,192,119259,1,2,0:0:0:0:
256,192,119342,1,2,0:0:0:0:
256,192,119426,1,0,0:0:0:0:
256,192,119592,1,2,0:0:0:0:
256,192,119676,1,0,0:0:0:0:
256,192,119759,1,0,0:0:0:0:
256,192,119926,1,2,0:0:0:0:
256,192,120092,1,2,0:0:0:0:
256,192,120259,1,0,0:0:0:0:
256,192,120426,1,0,0:0:0:0:
256,192,120592,1,2,0:0:0:0:
256,192,120759,1,0,0:0:0:0:
256,192,120842,1,0,0:0:0:0:
256,192,120926,1,0,0:0:0:0:
256,192,121092,1,0,0:0:0:0:
256,192,121259,1,2,0:0:0:0:
256,192,121426,1,0,0:0:0:0:
256,192,121509,1,0,0:0:0:0:
256,192,121592,1,2,0:0:0:0:
256,192,121759,1,0,0:0:0:0:
256,192,121926,1,2,0:0:0:0:
256,192,122009,1,2,0:0:0:0:
256,192,122092,1,0,0:0:0:0:
256,192,122259,1,2,0:0:0:0:
256,192,122342,1,0,0:0:0:0:
256,192,122426,1,0,0:0:0:0:
256,192,122592,1,2,0:0:0:0:
256,192,122759,1,0,0:0:0:0:
256,192,122926,1,0,0:0:0:0:
256,192,123092,1,0,0:0:0:0:
256,192,123259,1,2,0:0:0:0:
256,192,123426,1,2,0:0:0:0:
256,192,123509,1,2,0:0:0:0:
256,192,123592,1,0,0:0:0:0:
256,192,123759,1,0,0:0:0:0:
256,192,123926,1,2,0:0:0:0:
256,192,124092,1,4,0:0:0:0:
256,192,124426,1,0,0:0:0:0:
256,192,124592,1,2,0:0:0:0:
256,192,124759,1,0,0:0:0:0:
256,192,124842,1,0,0:0:0:0:
256,192,124926,1,2,0:0:0:0:
256,192,125009,1,2,0:0:0:0:
256,192,125092,1,2,0:0:0:0:
256,192,125176,1,2,0:0:0:0:
256,192,125259,1,0,0:0:0:0:
256,192,125342,1,0,0:0:0:0:
256,192,125426,1,0,0:0:0:0:
256,192,125509,1,0,0:0:0:0:
256,192,125592,1,0,0:0:0:0:
256,192,125759,1,0,0:0:0:0:
256,192,125926,1,2,0:0:0:0:
256,192,126092,1,0,0:0:0:0:
256,192,126176,1,2,0:0:0:0:
256,192,126259,1,0,0:0:0:0:
256,192,126426,1,0,0:0:0:0:
256,192,126592,1,2,0:0:0:0:
256,192,126759,1,0,0:0:0:0:
256,192,126842,1,0,0:0:0:0:
256,192,126926,1,2,0:0:0:0:
256,192,127092,1,0,0:0:0:0:
256,192,127259,1,2,0:0:0:0:
256,192,127342,1,2,0:0:0:0:
256,192,127426,1,0,0:0:0:0:
256,192,127592,1,2,0:0:0:0:
256,192,127676,1,0,0:0:0:0:
256,192,127759,1,0,0:0:0:0:
256,192,127926,1,2,0:0:0:0:
256,192,128092,1,2,0:0:0:0:
256,192,128259,1,0,0:0:0:0:
224,128,128426,1,0,0:0:0:0:
256,160,128509,1,0,0:0:0:0:
256,192,128592,1,2,0:0:0:0:
224,128,128759,1,0,0:0:0:0:
256,160,128926,1,0,0:0:0:0:
256,160,129092,1,0,0:0:0:0:
256,160,129259,1,2,0:0:0:0:
256,160,129426,1,0,0:0:0:0:
256,160,129509,1,0,0:0:0:0:
256,160,129592,1,2,0:0:0:0:
256,160,129759,1,0,0:0:0:0:
256,160,129926,1,0,0:0:0:0:
256,160,130092,1,6,0:0:0:0:
256,160,130426,1,0,0:0:0:0:
256,160,130592,1,2,0:0:0:0:
256,160,130759,1,0,0:0:0:0:
256,160,130926,1,4,0:0:0:0:
256,160,131092,1,0,0:0:0:0:
256,160,131259,1,2,0:0:0:0:
256,160,131426,1,0,0:0:0:0:
256,160,131509,1,2,0:0:0:0:
256,160,131592,1,0,0:0:0:0:
256,160,131759,1,0,0:0:0:0:
256,160,131926,1,2,0:0:0:0:
256,160,132092,1,0,0:0:0:0:
256,160,132176,1,0,0:0:0:0:
256,160,132259,1,2,0:0:0:0:
256,160,132426,1,0,0:0:0:0:
256,160,132592,1,2,0:0:0:0:
256,160,132676,1,2,0:0:0:0:
256,160,132759,1,0,0:0:0:0:
256,160,132926,1,2,0:0:0:0:
256,160,133009,1,0,0:0:0:0:
256,160,133092,1,0,0:0:0:0:
256,160,133259,1,2,0:0:0:0:
256,160,133426,1,0,0:0:0:0:
256,160,133592,1,0,0:0:0:0:
256,160,133759,1,0,0:0:0:0:
256,160,133842,1,0,0:0:0:0:
256,160,133926,1,2,0:0:0:0:
256,160,134092,1,0,0:0:0:0:
256,160,134259,1,0,0:0:0:0:
256,160,134342,1,2,0:0:0:0:
256,160,134426,1,0,0:0:0:0:
256,160,134592,1,2,0:0:0:0:
256,160,134759,1,0,0:0:0:0:
256,160,134926,1,2,0:0:0:0:
224,128,135009,1,2,0:0:0:0:
256,160,135092,1,2,0:0:0:0:
256,160,135176,1,2,0:0:0:0:
256,160,135259,1,0,0:0:0:0:
256,160,135342,1,0,0:0:0:0:
256,160,135426,1,0,0:0:0:0:
256,160,135509,1,0,0:0:0:0:
256,160,135592,1,2,0:0:0:0:
256,160,135676,1,2,0:0:0:0:
256,160,135759,1,2,0:0:0:0:
256,160,135842,1,2,0:0:0:0:
256,160,135926,1,0,0:0:0:0:
256,160,136009,1,0,0:0:0:0:
256,160,136092,1,0,0:0:0:0:
256,160,136176,1,0,0:0:0:0:
224,128,136259,1,0,0:0:0:0:
256,192,136426,1,2,0:0:0:0:
256,192,136592,1,2,0:0:0:0:
256,192,136676,1,2,0:0:0:0:
256,192,136759,1,0,0:0:0:0:
256,192,136926,1,0,0:0:0:0:
256,192,137009,1,0,0:0:0:0:
256,192,137092,1,0,0:0:0:0:
256,192,137259,1,2,0:0:0:0:
256,192,137426,1,0,0:0:0:0:
256,192,137509,1,2,0:0:0:0:
256,192,137592,1,0,0:0:0:0:
256,192,137759,1,0,0:0:0:0:
256,192,137926,1,2,0:0:0:0:
256,192,138092,1,2,0:0:0:0:
256,192,138176,1,2,0:0:0:0:
256,192,138259,1,0,0:0:0:0:
256,192,138426,1,0,0:0:0:0:
256,192,138592,1,2,0:0:0:0:
256,192,138759,1,0,0:0:0:0:
256,192,138842,1,2,0:0:0:0:
256,192,138926,1,0,0:0:0:0:
256,192,139092,1,0,0:0:0:0:
256,192,139259,1,2,0:0:0:0:
256,192,139426,1,2,0:0:0:0:
256,192,139592,1,0,0:0:0:0:
256,192,139676,1,0,0:0:0:0:
256,192,139759,1,0,0:0:0:0:
256,192,139926,1,2,0:0:0:0:
256,192,140092,1,4,0:0:0:0:
256,192,140426,1,0,0:0:0:0:
256,192,140592,1,2,0:0:0:0:
256,192,140759,1,4,0:0:0:0:
256,192,141092,1,0,0:0:0:0:
256,192,141259,1,2,0:0:0:0:
256,192,141342,1,2,0:0:0:0:
256,192,141426,1,2,0:0:0:0:
256,192,141509,1,2,0:0:0:0:
256,192,141592,1,0,0:0:0:0:
256,192,141759,1,2,0:0:0:0:
256,192,141926,1,2,0:0:0:0:
256,192,142009,1,2,0:0:0:0:
256,192,142092,1,0,0:0:0:0:
256,192,142259,1,2,0:0:0:0:
256,192,142426,1,0,0:0:0:0:
256,192,142509,1,0,0:0:0:0:
256,192,142592,1,2,0:0:0:0:
256,192,142759,1,0,0:0:0:0:
256,192,142842,1,2,0:0:0:0:
256,192,142926,1,0,0:0:0:0:
256,192,143092,1,0,0:0:0:0:
256,192,143259,1,2,0:0:0:0:
256,192,143426,1,2,0:0:0:0:
256,192,143592,1,0,0:0:0:0:
192,160,143676,1,0,0:0:0:0:
256,192,143759,1,0,0:0:0:0:
256,192,143926,1,2,0:0:0:0:
256,192,144092,1,2,0:0:0:0:
256,192,144176,1,2,0:0:0:0:
256,192,144259,1,0,0:0:0:0:
256,192,144426,5,0,0:0:0:0:
256,192,144509,1,2,0:0:0:0:
256,192,144592,1,0,0:0:0:0:
256,192,144759,1,2,0:0:0:0:
256,192,144926,1,0,0:0:0:0:
256,192,145009,1,0,0:0:0:0:
256,192,145092,1,0,0:0:0:0:
256,192,145259,1,2,0:0:0:0:
256,192,145426,1,4,0:0:0:0:
256,160,145592,5,2,0:0:0:0:
256,160,145676,1,0,0:0:0:0:
256,160,145759,1,2,0:0:0:0:
256,160,145842,1,0,0:0:0:0:
256,160,145926,1,0,0:0:0:0:
256,160,146009,1,2,0:0:0:0:
256,160,146092,1,2,0:0:0:0:
256,160,146176,1,0,0:0:0:0:
256,160,146259,1,2,0:0:0:0:
256,160,146342,1,0,0:0:0:0:
256,160,146426,1,0,0:0:0:0:
256,160,146509,1,2,0:0:0:0:
256,160,146592,1,2,0:0:0:0:
256,160,146676,1,2,0:0:0:0:
256,160,146759,1,2,0:0:0:0:
128,192,146842,1,2,0:0:0:0:
256,160,146926,1,0,0:0:0:0:
