osu file format v14

[General]
AudioFilename: best day best way.mp3
AudioLeadIn: 0
PreviewTime: 56259
Countdown: 0
SampleSet: Normal
StackLeniency: 0.7
Mode: 1
LetterboxInBreaks: 0
WidescreenStoryboard: 0

[Editor]
DistanceSpacing: 1
BeatDivisor: 2
GridSize: 32
TimelineZoom: 1.1

[Metadata]
Title:best day, best way
TitleUnicode:best day, best way
Artist:LiSA
ArtistUnicode:LiSA
Creator:Volta
Version:Futsuu
Source:
Tags:LANDSPACE Oribe Risa 織部 里沙 cut short version nardoxyribonucleic
BeatmapID:705827
BeatmapSetID:316779

[Difficulty]
HPDrainRate:6
CircleSize:5
OverallDifficulty:4
ApproachRate:5
SliderMultiplier:1.4
SliderTickRate:1

[Events]
//Background and Video events
0,0,"randombg.jpg",0,-50
//Break Periods
//Storyboard Layer 0 (Background)
//Storyboard Layer 1 (Fail)
//Storyboard Layer 2 (Pass)
//Storyboard Layer 3 (Foreground)
//Storyboard Sound Samples

[TimingPoints]
1256,333.333333333333,4,1,0,85,1,0
21255,338.983050847458,4,1,0,85,1,0
41593,333.333333333333,4,1,0,85,1,0
56259,-100,4,1,0,95,0,1
98926,-100,4,1,0,85,0,0

[HitObjects]
192,128,2589,5,2,0:0:0:0:
256,192,3255,5,8,0:0:0:0:
256,192,3922,1,4,0:0:0:0:
256,192,4589,1,4,0:0:0:0:
256,192,5255,1,4,0:0:0:0:
256,192,5755,1,2,0:0:0:0:
256,192,6255,1,0,0:0:0:0:
256,192,6589,1,12,0:0:0:0:
256,192,6922,1,12,0:0:0:0:
256,192,7922,12,0,10255,0:0:0:0:
256,128,10589,5,4,0:0:0:0:
256,192,10922,5,2,0:0:0:0:
256,192,11589,1,2,0:0:0:0:
256,192,11755,1,0,0:0:0:0:
256,192,12089,1,0,0:0:0:0:
256,192,12255,1,2,0:0:0:0:
256,192,12922,1,2,0:0:0:0:
256,192,13255,1,0,0:0:0:0:
256,192,13589,1,2,0:0:0:0:
256,192,13922,1,2,0:0:0:0:
256,192,14422,1,6,0:0:0:0:
256,192,15089,1,4,0:0:0:0:
256,192,15589,1,2,0:0:0:0:
256,192,15922,1,0,0:0:0:0:
256,192,16255,1,2,0:0:0:0:
256,192,16922,1,2,0:0:0:0:
256,192,17089,1,0,0:0:0:0:
256,192,17422,1,0,0:0:0:0:
256,192,17589,1,2,0:0:0:0:
256,192,18255,1,2,0:0:0:0:
256,192,18589,1,0,0:0:0:0:
256,192,18922,1,2,0:0:0:0:
256,192,19255,1,2,0:0:0:0:
256,192,19755,1,4,0:0:0:0:
256,192,20255,1,2,0:0:0:0:
256,192,20589,1,4,0:0:0:0:
256,192,21255,1,4,0:0:0:0:
256,192,22271,1,2,0:0:0:0:
256,192,22610,1,0,0:0:0:0:
192,64,23288,1,0,0:0:0:0:
256,192,23627,1,0,0:0:0:0:
256,192,23966,1,2,0:0:0:0:
256,192,24644,1,2,0:0:0:0:
256,192,25322,1,0,0:0:0:0:
256,192,25661,1,0,0:0:0:0:
256,192,26000,1,2,0:0:0:0:
256,192,26339,1,2,0:0:0:0:
256,192,26678,1,0,0:0:0:0:
256,192,27695,1,2,0:0:0:0:
256,192,28034,1,0,0:0:0:0:
256,192,28712,1,2,0:0:0:0:
256,192,29390,1,0,0:0:0:0:
256,192,29729,1,0,0:0:0:0:
256,192,30068,1,2,0:0:0:0:
256,192,30407,1,0,0:0:0:0:
256,192,30746,1,2,0:0:0:0:
256,192,31424,1,2,0:0:0:0:
256,192,31763,1,2,0:0:0:0:
256,192,32102,1,4,0:0:0:0:
256,192,32441,1,2,0:0:0:0:
256,192,33119,1,2,0:0:0:0:
256,192,33458,1,0,0:0:0:0:
256,192,33797,1,2,0:0:0:0:
256,192,34475,1,2,0:0:0:0:
256,192,34814,1,0,0:0:0:0:
256,192,35492,1,2,0:0:0:0:
256,192,36170,1,0,0:0:0:0:
256,192,36509,1,0,0:0:0:0:
256,192,36848,1,2,0:0:0:0:
256,192,37187,1,2,0:0:0:0:
256,192,37526,1,0,0:0:0:0:
256,192,37865,1,2,0:0:0:0:
256,192,38543,1,2,0:0:0:0:
256,192,38882,1,0,0:0:0:0:
256,192,39221,1,2,0:0:0:0:
256,192,39899,1,2,0:0:0:0:
256,192,40238,1,4,0:0:0:0:
256,192,40746,1,0,0:0:0:0:
256,192,41424,1,6,0:0:0:0:
256,192,42259,1,2,0:0:0:0:
256,192,42593,1,2,0:0:0:0:
256,192,42926,5,4,0:0:0:0:
256,192,43593,1,0,0:0:0:0:
96,160,43926,1,0,0:0:0:0:
256,192,44259,1,2,0:0:0:0:
256,192,44926,1,2,0:0:0:0:
256,192,45259,1,2,0:0:0:0:
256,192,45592,1,0,0:0:0:0:
256,192,46259,1,2,0:0:0:0:
256,192,46759,1,4,0:0:0:0:
256,192,47592,1,0,0:0:0:0:
256,192,48092,1,0,0:0:0:0:
256,192,48592,1,6,0:0:0:0:
256,192,48926,1,0,0:0:0:0:
256,192,49426,1,0,0:0:0:0:
256,192,49926,1,6,0:0:0:0:
256,192,50259,1,0,0:0:0:0:
256,192,50759,1,0,0:0:0:0:
256,192,51259,1,2,0:0:0:0:
256,192,51926,1,2,0:0:0:0:
256,192,52592,1,2,0:0:0:0:
256,192,52926,1,0,0:0:0:0:
256,192,53259,1,0,0:0:0:0:
256,192,53592,1,2,0:0:0:0:
256,192,54092,1,2,0:0:0:0:
256,192,54759,1,2,0:0:0:0:
256,192,55592,1,2,0:0:0:0:
256,192,55926,1,2,0:0:0:0:
256,192,56259,1,4,0:0:0:0:
256,192,56926,1,2,0:0:0:0:
256,192,57259,1,2,0:0:0:0:
256,192,57592,1,0,0:0:0:0:
160,128,57926,1,2,0:0:0:0:
160,128,58092,1,2,0:0:0:0:
256,192,58259,1,0,0:0:0:0:
224,128,58592,1,0,0:0:0:0:
256,192,58926,1,2,0:0:0:0:
256,192,59259,1,2,0:0:0:0:
256,192,59592,1,0,0:0:0:0:
256,192,59759,1,0,0:0:0:0:
256,192,59926,1,2,0:0:0:0:
256,192,60259,1,0,0:0:0:0:
256,192,60926,1,2,0:0:0:0:
256,192,61592,1,0,0:0:0:0:
192,96,61926,1,0,0:0:0:0:
256,192,62259,1,2,0:0:0:0:
256,192,62592,1,0,0:0:0:0:
256,192,62926,1,2,0:0:0:0:
256,128,63092,1,2,0:0:0:0:
192,128,63259,1,0,0:0:0:0:
256,192,63592,1,0,0:0:0:0:
256,192,63926,1,2,0:0:0:0:
256,192,64259,1,0,0:0:0:0:
192,32,64592,1,0,0:0:0:0:
192,64,64759,1,0,0:0:0:0:
192,64,65092,1,2,0:0:0:0:
256,128,65426,1,6,0:0:0:0:
256,128,65926,1,2,0:0:0:0:
256,128,66259,1,0,0:0:0:0:
256,128,66926,1,4,0:0:0:0:
256,192,67592,1,2,0:0:0:0:
256,192,67926,1,2,0:0:0:0:
256,192,68259,1,0,0:0:0:0:
160,128,68592,1,2,0:0:0:0:
160,128,68759,1,2,0:0:0:0:
256,192,68926,1,0,0:0:0:0:
224,128,69259,1,0,0:0:0:0:
256,192,69592,1,2,0:0:0:0:
256,192,69926,1,2,0:0:0:0:
256,192,70259,1,0,0:0:0:0:
256,192,70426,1,0,0:0:0:0:
256,192,70592,1,2,0:0:0:0:
256,192,70926,1,0,0:0:0:0:
256,192,71426,1,6,0:0:0:0:
256,192,72259,1,0,0:0:0:0:
192,96,72592,1,0,0:0:0:0:
256,192,72926,1,2,0:0:0:0:
256,192,73259,1,0,0:0:0:0:
256,192,73592,1,2,0:0:0:0:
256,128,73759,1,2,0:0:0:0:
192,128,73926,1,0,0:0:0:0:
256,192,74259,1,0,0:0:0:0:
256,192,74592,1,2,0:0:0:0:
192,160,74926,1,0,0:0:0:0:
160,160,75426,1,0,0:0:0:0:
224,128,75759,1,2,0:0:0:0:
224,128,76092,1,6,0:0:0:0:
256,192,76759,1,2,0:0:0:0:
256,192,77092,1,2,0:0:0:0:
256,192,77259,1,0,0:0:0:0:
256,192,77592,1,4,0:0:0:0:
256,192,78259,1,2,0:0:0:0:
256,192,78592,1,0,0:0:0:0:
256,192,78926,1,2,0:0:0:0:
160,128,79259,1,2,0:0:0:0:
160,128,79426,1,0,0:0:0:0:
256,192,79592,1,2,0:0:0:0:
224,128,79926,1,0,0:0:0:0:
256,192,80259,1,2,0:0:0:0:
256,192,80592,1,2,0:0:0:0:
256,192,80926,1,0,0:0:0:0:
256,192,81092,1,2,0:0:0:0:
256,192,81259,1,0,0:0:0:0:
256,192,81592,1,0,0:0:0:0:
256,192,82259,1,2,0:0:0:0:
256,192,82926,1,0,0:0:0:0:
192,96,83259,1,0,0:0:0:0:
256,192,83592,1,2,0:0:0:0:
256,192,83926,1,2,0:0:0:0:
256,192,84259,1,0,0:0:0:0:
256,128,84426,1,2,0:0:0:0:
192,128,84592,1,0,0:0:0:0:
256,192,84926,1,0,0:0:0:0:
256,192,85259,1,2,0:0:0:0:
256,192,85592,1,0,0:0:0:0:
128,128,86259,1,2,0:0:0:0:
256,128,86926,1,2,0:0:0:0:
160,128,87259,1,2,0:0:0:0:
160,96,87592,1,0,0:0:0:0:
256,128,87759,1,0,0:0:0:0:
256,96,87926,1,2,0:0:0:0:
256,192,88259,1,4,0:0:0:0:
256,192,88926,1,2,0:0:0:0:
256,192,89259,1,2,0:0:0:0:
256,192,89592,1,0,0:0:0:0:
160,128,89926,1,0,0:0:0:0:
160,128,90092,1,2,0:0:0:0:
256,192,90259,1,0,0:0:0:0:
224,128,90592,1,0,0:0:0:0:
256,192,90926,1,2,0:0:0:0:
256,192,91259,1,2,0:0:0:0:
256,192,91592,1,0,0:0:0:0:
256,192,91759,1,0,0:0:0:0:
256,192,91926,1,2,0:0:0:0:
256,192,92259,1,0,0:0:0:0:
256,192,92759,1,14,0:0:0:0:
256,192,93592,1,2,0:0:0:0:
192,96,93926,1,2,0:0:0:0:
256,192,94259,1,0,0:0:0:0:
256,192,94592,1,0,0:0:0:0:
256,192,94926,1,2,0:0:0:0:
256,128,95092,1,0,0:0:0:0:
192,128,95259,1,2,0:0:0:0:
256,192,95592,1,0,0:0:0:0:
256,192,95926,1,2,0:0:0:0:
256,192,96259,1,0,0:0:0:0:
128,160,96759,1,0,0:0:0:0:
160,128,97092,1,0,0:0:0:0:
160,128,97426,1,6,0:0:0:0:
32,160,98259,1,8,0:0:0:0:
256,192,98926,5,4,0:0:0:0:
256,192,99926,1,0,0:0:0:0:
256,192,100259,1,2,0:0:0:0:
256,192,100926,1,2,0:0:0:0:
256,192,101259,1,0,0:0:0:0:
256,192,101592,1,4,0:0:0:0:
256,192,102092,1,6,0:0:0:0:
256,192,102426,1,0,0:0:0:0:
256,192,102759,1,6,0:0:0:0:
256,192,103926,1,2,0:0:0:0:
256,192,104259,1,0,0:0:0:0:
256,192,104592,1,0,0:0:0:0:
96,160,104759,1,0,0:0:0:0:
256,192,104926,1,0,0:0:0:0:
256,192,105259,1,0,0:0:0:0:
256,192,105592,1,2,0:0:0:0:
256,192,105926,1,0,0:0:0:0:
256,192,106259,1,2,0:0:0:0:
256,192,106926,5,2,0:0:0:0:
256,192,107259,1,2,0:0:0:0:
192,96,107426,1,2,0:0:0:0:
256,192,107592,1,2,0:0:0:0:
256,192,107926,1,2,0:0:0:0:
256,192,108259,1,0,0:0:0:0:
256,192,108592,1,2,0:0:0:0:
256,192,108926,1,0,0:0:0:0:
256,192,109592,5,4,0:0:0:0:
256,192,110259,1,6,0:0:0:0:
256,192,110926,1,4,0:0:0:0:
256,192,111426,1,2,0:0:0:0:
256,192,111759,1,0,0:0:0:0:
256,192,111926,1,0,0:0:0:0:
256,192,112259,1,6,0:0:0:0:
256,192,112592,1,6,0:0:0:0:
256,192,112926,12,0,114592,0:0:0:0:
256,192,114926,5,4,0:0:0:0:
256,192,115259,5,2,0:0:0:0:
256,192,115926,1,2,0:0:0:0:
256,192,116259,1,0,0:0:0:0:
256,192,116592,1,2,0:0:0:0:
256,192,116926,1,2,0:0:0:0:
192,64,117092,1,2,0:0:0:0:
256,192,117259,1,0,0:0:0:0:
256,192,117592,1,0,0:0:0:0:
256,192,117926,1,2,0:0:0:0:
256,192,118592,1,2,0:0:0:0:
256,192,118926,1,0,0:0:0:0:
256,192,119259,1,2,0:0:0:0:
256,192,119592,1,0,0:0:0:0:
160,128,119759,1,2,0:0:0:0:
256,192,119926,1,0,0:0:0:0:
256,192,120259,1,0,0:0:0:0:
256,192,120592,1,2,0:0:0:0:
256,192,121259,1,2,0:0:0:0:
256,192,121592,1,0,0:0:0:0:
256,192,121926,1,2,0:0:0:0:
256,192,122259,1,2,0:0:0:0:
96,160,122426,1,0,0:0:0:0:
256,192,122592,1,0,0:0:0:0:
256,192,122926,1,0,0:0:0:0:
256,192,123259,1,2,0:0:0:0:
256,192,124092,1,4,0:0:0:0:
256,192,124592,1,2,0:0:0:0:
256,192,124926,1,0,0:0:0:0:
128,160,125092,1,0,0:0:0:0:
256,192,125259,1,0,0:0:0:0:
256,192,125592,1,0,0:0:0:0:
256,192,125926,1,2,0:0:0:0:
96,128,126592,1,2,0:0:0:0:
256,192,126926,1,0,0:0:0:0:
256,192,127259,1,2,0:0:0:0:
256,192,127592,1,2,0:0:0:0:
192,160,127759,1,2,0:0:0:0:
256,192,127926,1,0,0:0:0:0:
256,192,128259,1,0,0:0:0:0:
256,192,128592,1,2,0:0:0:0:
256,96,129259,1,2,0:0:0:0:
256,160,129592,1,0,0:0:0:0:
256,160,130092,1,6,0:0:0:0:
256,160,130592,1,2,0:0:0:0:
256,160,130926,1,4,0:0:0:0:
256,160,131259,1,2,0:0:0:0:
192,128,131926,1,2,0:0:0:0:
256,160,132259,1,0,0:0:0:0:
256,160,132592,1,2,0:0:0:0:
256,160,132926,1,2,0:0:0:0:
256,160,133092,1,0,0:0:0:0:
256,160,133259,1,0,0:0:0:0:
256,160,133592,1,0,0:0:0:0:
256,160,133926,1,2,0:0:0:0:
224,128,134592,1,2,0:0:0:0:
256,160,134926,1,0,0:0:0:0:
256,160,135259,1,0,0:0:0:0:
160,160,135426,1,0,0:0:0:0:
256,160,135592,1,0,0:0:0:0:
256,160,135926,1,2,0:0:0:0:
224,96,136259,1,0,0:0:0:0:
256,160,136592,1,2,0:0:0:0:
256,160,137259,1,2,0:0:0:0:
256,160,137426,1,0,0:0:0:0:
256,160,137759,1,0,0:0:0:0:
256,160,137926,1,2,0:0:0:0:
256,160,138592,1,2,0:0:0:0:
256,160,138926,1,0,0:0:0:0:
256,160,139259,1,2,0:0:0:0:
256,160,139592,1,2,0:0:0:0:
256,160,140092,1,6,0:0:0:0:
256,160,140759,1,4,0:0:0:0:
256,160,141259,1,2,0:0:0:0:
256,160,141592,1,0,0:0:0:0:
256,160,141926,1,2,0:0:0:0:
256,160,142592,1,2,0:0:0:0:
256,160,142759,1,0,0:0:0:0:
256,160,143092,1,0,0:0:0:0:
256,160,143259,1,2,0:0:0:0:
256,160,143926,1,2,0:0:0:0:
256,160,144259,1,0,0:0:0:0:
256,160,144592,1,2,0:0:0:0:
256,160,144926,1,2,0:0:0:0:
96,160,145259,1,0,0:0:0:0:
256,160,145426,1,0,0:0:0:0:
256,160,145759,1,2,0:0:0:0:
256,160,146092,1,0,0:0:0:0:
256,160,146259,1,2,0:0:0:0:
128,160,146426,1,0,0:0:0:0:
256,160,146592,1,2,0:0:0:0:
256,160,146926,1,4,0:0:0:0:
