osu file format v14

[General]
AudioFilename: audio.mp3
AudioLeadIn: 0
PreviewTime: 176758
Countdown: 0
SampleSet: Soft
StackLeniency: 0.7
Mode: 0
LetterboxInBreaks: 0
WidescreenStoryboard: 0

[Editor]
Bookmarks: 47008,65675,84341,113675,132341,156341,177675,201675
DistanceSpacing: 0.8
BeatDivisor: 4
GridSize: 32
TimelineZoom: 2.2

[Metadata]
Title:Yuke
TitleUnicode:往け
Artist:LiSA
ArtistUnicode:LiSA
Creator:Sotarks
Version:Nymphjinn's Insane
Source:劇場版 ソードアート・オンライン -プログレッシブ- 星なき夜のアリア
Tags:sao sword art online progressive the movie hoshi naki yoru no aria of a starless night opening op full version female vocalist jpop j-pop anime a-1 pictures yuuki asuna kirigaya kazuto mito hoshinaki [_eli_] eli elinor pepekcz nymphe kiyoshi guarden kang sae-byeok reform kujinn pop japanese ayase oribe risa
BeatmapID:3275833
BeatmapSetID:1604123

[Difficulty]
HPDrainRate:5
CircleSize:4
OverallDifficulty:8
ApproachRate:9
SliderMultiplier:1.72
SliderTickRate:1

[Events]
//Background and Video events
0,0,"bg.jpg",0,0
//Break Periods
//Storyboard Layer 0 (Background)
//Storyboard Layer 1 (Fail)
//Storyboard Layer 2 (Pass)
//Storyboard Layer 3 (Foreground)
//Storyboard Layer 4 (Overlay)
//Storyboard Sound Samples

[TimingPoints]
332,333.333333333333,4,2,22,82,1,0
1665,-161.290322580645,4,2,22,82,0,0
7498,-161.290322580645,4,2,22,62,0,0
11998,-121.951219512195,4,2,22,62,0,0
12331,-161.290322580645,4,2,22,62,0,0
17665,-161.290322580645,4,2,22,52,0,0
27248,-161.290322580645,4,2,22,5,0,0
27331,-161.290322580645,4,2,22,52,0,0
27581,-161.290322580645,4,2,22,5,0,0
27665,-161.290322580645,4,2,22,52,0,0
27915,-161.290322580645,4,2,22,5,0,0
27998,-161.290322580645,4,2,22,52,0,0
28248,-161.290322580645,4,2,22,5,0,0
28331,-121.951219512195,4,2,22,72,0,0
36331,-161.290322580645,4,2,22,62,0,0
41665,-121.951219512195,4,2,22,62,0,0
45831,-121.951219512195,4,2,22,52,0,0
46998,-98.0392156862745,4,2,22,82,0,0
64665,-192.307692307692,4,2,22,82,0,0
65665,-108.695652173913,4,2,22,82,0,0
72331,-108.695652173913,4,2,22,72,0,0
72998,-161.290322580645,4,2,22,72,0,0
73665,-121.951219512195,4,2,22,62,0,0
84331,-121.951219512195,4,2,22,72,0,0
92331,-161.290322580645,4,2,22,62,0,0
101498,-121.951219512195,4,2,22,62,0,0
102998,-161.290322580645,4,2,22,72,0,0
108331,-108.695652173913,4,2,22,72,0,0
108665,-108.695652173913,4,2,22,42,0,0
109665,-108.695652173913,4,2,22,52,0,0
110998,-108.695652173913,4,2,22,62,0,0
111665,-108.695652173913,4,2,22,72,0,0
113165,-108.695652173913,4,2,22,5,0,0
113248,-108.695652173913,4,2,22,72,0,0
113415,-108.695652173913,4,2,22,5,0,0
113498,-108.695652173913,4,2,22,72,0,0
113581,-108.695652173913,4,2,22,5,0,0
113665,-98.0392156862745,4,2,22,82,0,0
132331,-138.888888888889,4,2,22,72,0,0
142998,-121.951219512195,4,2,22,72,0,0
147341,273.972602739726,4,2,22,72,1,0
147341,-121.951219512195,4,2,22,72,0,0
147546,408.163265306122,4,2,22,72,1,0
147648,275.229357798165,4,2,22,72,1,0
147854,294.117647058824,4,2,22,72,1,0
148001,327.868852459016,4,2,22,72,1,0
148328,333.333333333333,4,2,22,72,1,0
148328,-121.951219512195,4,2,22,72,0,0
152328,-357.142857142857,4,2,22,72,0,0
153661,-357.142857142857,4,2,22,42,0,0
156328,-192.307692307692,4,2,22,42,0,0
166994,-138.888888888889,4,2,22,52,0,0
172327,-121.951219512195,4,2,22,62,0,0
173661,-121.951219512195,4,2,22,72,0,0
177661,-98.0392156862744,4,2,22,92,0,0
193661,-98.0392156862744,4,2,22,82,0,0
201661,-108.695652173913,4,2,22,72,0,0
221577,-108.695652173913,4,2,22,12,0,0

[Colours]
Combo1 : 100,96,96
Combo2 : 172,38,65
Combo3 : 133,167,228

[HitObjects]
53,70,1665,5,2,0:2:0:0:
154,10,1998,1,2,0:2:0:0:
226,122,2331,1,2,1:2:0:0:
226,122,2498,2,0,L|209:175,1,53.3199978846436,2|0,0:2|0:2,0:2:0:0:
151,225,2831,2,0,L|186:332,1,106.639995769287,2|0,0:2|0:0,0:2:0:0:
421,380,3498,6,0,B|454:331|409:286|405:290|396:295|340:245|391:187,1,213.279991538575,2|0,0:2|0:2,0:2:0:0:
461,155,4331,6,0,P|416:144|353:118,1,106.639995769287,2|2,0:2|0:2,0:2:0:0:
220,8,4998,1,2,1:2:0:0:
220,8,5165,2,0,P|238:62|251:123,1,106.639995769287,2|2,0:2|0:2,0:2:0:0:
195,174,5665,5,0,0:2:0:0:
255,225,5831,1,2,0:2:0:0:
204,282,5998,1,0,0:2:0:0:
271,323,6165,1,2,0:2:0:0:
60,368,6831,5,0,3:2:0:0:
51,376,6915,1,0,3:2:0:0:
44,380,6998,2,0,P|51:328|158:315,1,159.959993653931,10|2,0:2|0:2,0:0:0:0:
442,201,8331,6,0,P|366:196|342:124,1,159.959993653931,2|2,0:2|0:2,0:2:0:0:
137,9,9665,6,0,P|124:58|103:131,1,106.639995769287,10|0,0:2|0:2,0:0:0:0:
43,171,10165,1,2,0:2:0:0:
109,222,10331,2,0,P|156:235|206:255,2,79.9799968269655,0|2|2,0:0|0:2|0:2,0:0:0:0:
83,367,10998,5,8,0:2:0:0:
93,363,11081,1,0,1:2:0:0:
282,160,11498,5,8,0:2:0:0:
271,155,11581,1,0,1:2:0:0:
149,8,11998,6,0,P|132:44|151:86,1,70.5200010760498,2|0,0:2|1:2,0:0:0:0:
186,139,12248,1,0,1:2:0:0:
192,145,12331,6,0,P|180:192|157:305,1,159.959993653931,10|2,0:2|0:2,0:0:0:0:
377,331,13331,6,0,L|407:325,3,26.6599989423218,0|0|0|0,3:3|3:3|3:2|3:2,3:3:0:0:
453,377,13665,2,0,P|437:298|418:220,1,159.959993653931,10|2,0:2|0:2,0:0:0:0:
296,112,14498,1,0,0:2:0:0:
368,48,14665,1,8,0:2:0:0:
368,48,14748,1,8,0:2:0:0:
368,48,14831,1,8,0:3:0:0:
368,48,14915,1,4,0:3:0:0:
368,48,14998,6,0,P|314:65|223:5,1,159.959993653931,10|10,0:2|0:2,0:0:0:0:
118,71,15665,2,0,P|86:88|45:120,2,79.9799968269655,0|2|2,0:0|0:2|0:2,0:0:0:0:
272,141,16331,5,8,0:2:0:0:
158,232,16498,1,8,0:3:0:0:
301,299,16665,2,0,L|316:347,3,26.6599989423218,4|0|6|0,0:3|0:0|3:2|3:2,0:0:0:0:
368,238,16998,2,0,L|375:212,3,26.6599989423218,2|0|2|0,3:2|3:2|3:2|3:2,3:2:0:0:
436,294,17331,2,0,L|443:319,3,26.6599989423218,2|0|2|0,3:2|3:2|3:2|3:2,0:0:0:0:
481,170,17665,5,6,1:2:0:0:
481,170,17831,2,0,P|448:160|377:113,1,106.639995769287,0|2,1:2|0:2,0:2:0:0:
311,51,18331,2,0,P|254:50|223:101,2,106.639995769287,2|0|2,3:2|3:2|3:2,0:2:0:0:
190,212,19331,6,0,L|129:194,1,53.3199978846436,0|0,3:2|3:2,0:0:0:0:
257,277,19665,2,0,L|205:292,1,53.3199978846436,2|0,3:2|0:2,0:2:0:0:
353,363,19998,2,0,L|292:345,1,53.3199978846436,0|2,3:2|0:2,0:2:0:0:
421,213,20331,6,0,P|427:269|440:334,1,106.639995769287,2|0,3:2|3:2,0:2:0:0:
350,124,20831,1,2,0:2:0:0:
350,124,20998,2,0,P|340:176|334:229,1,106.639995769287,2|0,3:2|3:2,0:2:0:0:
224,360,21498,5,2,0:2:0:0:
224,360,21665,2,0,P|206:330|138:327,1,106.639995769287,2|2,3:2|3:2,0:2:0:0:
139,325,22331,2,0,P|148:288|155:259,1,53.3199978846436,2|0,3:2|0:2,0:2:0:0:
201,188,22665,2,0,P|192:151|185:122,1,53.3199978846436,2|0,0:2|0:2,0:2:0:0:
316,38,22998,5,2,1:2:0:0:
316,38,23165,2,0,P|327:79|343:153,1,106.639995769287,0|2,1:2|0:2,0:2:0:0:
279,212,23665,2,0,P|279:247|347:289,1,106.639995769287,2|0,3:2|3:2,0:2:0:0:
416,310,24165,1,2,0:2:0:0:
416,310,24331,2,0,P|374:324|310:355,1,106.639995769287,2|2,3:2|3:2,0:2:0:0:
96,305,24998,5,2,3:2:0:0:
207,178,25331,5,2,3:2:0:0:
99,20,25665,6,0,P|45:53|68:157,1,159.959993653931,2|2,1:2|0:2,0:2:0:0:
69,239,26331,2,0,P|96:277|200:251,1,159.959993653931,2|2,3:2|0:2,0:2:0:0:
257,201,26998,6,0,L|244:143,1,53.3199978846436,6|0,1:2|0:0,0:2:0:0:
320,154,27331,2,0,L|307:96,1,53.3199978846436,2|0,0:2|0:0,0:2:0:0:
411,18,27665,6,0,L|398:76,1,53.3199978846436,2|0,0:2|0:0,0:2:0:0:
474,65,27998,2,0,L|461:123,1,53.3199978846436,2|0,0:2|0:0,0:2:0:0:
462,267,28331,6,0,P|409:236|316:208,1,141.0400021521,6|10,1:2|0:2,0:2:0:0:
250,283,28831,1,2,3:2:0:0:
250,283,28915,1,2,0:3:0:0:
250,283,28998,1,0,1:2:0:0:
153,223,29165,2,0,P|130:186|141:147,1,70.5200010760498,2|0,1:2|3:2,0:2:0:0:
190,29,29498,6,0,P|134:56|43:93,1,141.0400021521,8|2,0:2|1:2,0:0:0:0:
61,86,29998,1,2,3:2:0:0:
239,178,30165,2,0,P|252:137|272:94,1,70.5200010760498,10|0,0:2|3:0,0:2:0:0:
93,201,30498,1,2,1:2:0:0:
198,253,30665,1,10,0:2:0:0:
162,150,30831,1,2,3:2:0:0:
32,366,30998,6,0,P|54:321|153:324,1,141.0400021521,2|10,1:2|0:2,0:2:0:0:
220,364,31498,2,0,P|258:341|295:331,1,70.5200010760498,2|0,0:2|1:2,0:2:0:0:
327,256,31831,2,0,P|360:267|389:286,1,70.5200010760498,2|0,1:2|3:2,0:2:0:0:
464,380,32165,6,0,L|498:215,1,141.0400021521,10|0,0:2|1:0,0:0:0:0:
417,157,32665,1,10,0:2:0:0:
429,156,32831,1,0,3:2:0:0:
298,98,32998,1,10,0:2:0:0:
359,219,33165,1,0,1:2:0:0:
471,59,33331,2,0,P|434:45|397:19,1,70.5200010760498,2|8,3:2|0:2,0:2:0:0:
188,146,33665,6,0,P|248:161|297:82,1,141.0400021521,2|10,1:2|0:2,0:2:0:0:
207,44,34165,1,0,0:2:0:0:
211,35,34331,2,0,P|173:23|129:5,1,70.5200010760498,2|0,1:2|1:2,0:2:0:0:
29,130,34665,2,0,P|67:118|111:100,1,70.5200010760498,2|0,0:2|1:2,0:2:0:0:
185,165,34998,6,0,L|155:311,1,141.0400021521,10|8,0:2|0:3,0:0:0:0:
156,303,35498,1,4,0:3:0:0:
274,133,35665,5,10,1:2:0:0:
85,218,35915,5,10,1:2:0:0:
277,332,36165,5,10,1:2:0:0:
357,286,36331,6,0,P|393:297|424:313,2,53.3199978846436,10|2|10,1:1|0:2|0:1,0:0:0:0:
274,238,36831,2,0,P|242:250|214:254,1,53.3199978846436,2|8,0:2|1:1,0:2:0:0:
164,308,37165,1,2,0:2:0:0:
157,303,37331,1,8,0:1:0:0:
62,198,37498,1,2,0:2:0:0:
62,198,37665,6,0,L|82:265,1,53.3199978846436,8|2,1:1|0:2,0:0:0:0:
187,114,37998,2,0,L|167:181,1,53.3199978846436,10|2,0:1|0:2,0:0:0:0:
93,68,38331,1,10,1:1:0:0:
301,200,38665,1,10,0:1:0:0:
159,342,38998,6,0,P|127:329|97:322,2,53.3199978846436,10|2|10,1:1|0:2|0:1,0:0:0:0:
268,375,39498,2,0,P|303:359|326:349,1,53.3199978846436,2|8,0:2|1:1,0:2:0:0:
446,370,39831,2,0,P|437:340|419:304,1,53.3199978846436,2|8,0:2|0:1,0:2:0:0:
378,178,40165,1,2,0:2:0:0:
378,178,40331,6,0,P|367:202|360:228,1,53.3199978846436,8|2,1:1|0:2,0:0:0:0:
267,278,40665,1,10,0:1:0:0:
205,188,40831,1,2,0:2:0:0:
294,138,40998,1,10,0:2:0:0:
264,298,41165,1,4,1:3:0:0:
181,372,41331,6,0,P|146:358|93:342,1,79.9799968269655,2|0,0:0|0:0,0:0:0:0:
68,361,41665,6,0,P|41:321|72:229,1,141.0400021521,6|4,1:2|1:3,0:0:0:0:
139,154,42165,2,0,P|155:195|169:235,1,70.5200010760498,2|4,1:2|1:3,0:2:0:0:
268,115,42498,1,2,1:2:0:0:
149,53,42665,1,0,1:2:0:0:
149,53,42748,1,8,0:2:0:0:
149,53,42831,1,10,0:2:0:0:
345,10,42998,6,0,P|392:26|428:34,1,70.5200010760498,0|8,1:2|1:3,0:0:0:0:
322,99,43331,1,4,1:3:0:0:
419,153,43498,2,0,P|453:144|486:132,1,70.5200010760498,2|0,0:2|1:2,0:2:0:0:
364,246,43831,1,10,0:2:0:0:
487,316,43998,1,8,1:2:0:0:
490,301,44081,1,8,0:2:0:0:
494,282,44165,1,10,0:2:0:0:
270,286,44331,5,2,1:2:0:0:
310,172,44498,1,8,0:2:0:0:
264,299,44665,1,10,0:2:0:0:
219,143,44831,1,8,0:2:0:0:
358,313,44998,1,10,1:2:0:0:
162,226,45165,1,8,0:2:0:0:
377,215,45331,1,10,0:2:0:0:
213,353,45498,1,8,0:2:0:0:
468,241,46998,6,0,P|398:241|318:266,1,131.580000803101,6|0,1:2|0:2,0:2:0:0:
309,279,47331,2,0,P|273:253|277:204,1,87.7200005354004,10|0,0:2|3:2,0:2:0:0:
375,47,47665,1,0,1:2:0:0:
383,58,47831,2,0,P|375:106|368:159,1,87.7200005354004,2|8,3:2|0:2,0:2:0:0:
210,23,48165,5,2,3:2:0:0:
210,23,48248,1,2,0:3:0:0:
210,23,48331,2,0,P|144:27|118:83,1,131.580000803101,0|0,1:0|0:0,0:0:0:0:
125,104,48665,1,10,0:2:0:0:
209,224,48831,5,2,3:2:0:0:
209,224,48915,1,0,0:0:0:0:
209,224,48998,2,0,L|217:172,3,43.8600002677002,2|2|2|2,1:2|0:3|3:2|0:3,0:0:0:0:
271,122,49331,1,10,0:2:0:0:
106,232,49498,1,2,3:2:0:0:
274,338,49665,6,0,B|308:317|335:344|333:346|330:352|360:385|396:364,1,131.580000803101,2|0,1:2|0:2,0:2:0:0:
416,357,49998,2,0,P|442:315|427:280,1,87.7200005354004,10|0,0:2|3:2,0:2:0:0:
349,133,50331,1,2,1:2:0:0:
292,211,50498,1,2,3:2:0:0:
428,163,50665,1,8,3:2:0:0:
292,56,50831,5,2,3:2:0:0:
292,56,50915,1,2,0:3:0:0:
292,56,50998,2,0,P|220:42|147:31,1,131.580000803101,0|0,1:2|0:0,0:0:0:0:
141,19,51331,1,10,0:2:0:0:
53,198,51498,5,2,3:2:0:0:
56,209,51581,1,2,0:3:0:0:
59,219,51665,1,2,1:2:0:0:
0,102,51831,1,10,0:2:0:0:
155,198,51998,1,2,1:2:0:0:
16,310,52165,1,10,0:2:0:0:
116,105,52331,6,0,P|193:122|259:139,1,131.580000803101,6|0,1:2|0:2,0:2:0:0:
269,155,52665,2,0,P|306:124|305:81,1,87.7200005354004,10|0,0:2|3:2,0:2:0:0:
300,75,52915,1,2,0:3:0:0:
294,66,52998,1,0,1:2:0:0:
159,216,53165,2,0,P|166:270|172:325,1,87.7200005354004,2|8,3:2|0:2,0:0:0:0:
345,365,53498,5,2,3:2:0:0:
345,365,53581,1,2,0:3:0:0:
345,365,53665,2,0,P|401:368|434:304,1,131.580000803101,0|0,1:2|0:0,0:0:0:0:
423,288,53998,1,10,0:2:0:0:
316,172,54165,5,2,3:2:0:0:
320,184,54248,1,2,0:3:0:0:
323,197,54331,1,2,1:2:0:0:
355,99,54498,1,10,0:2:0:0:
275,267,54665,1,2,1:2:0:0:
365,89,54831,1,10,0:2:0:0:
217,189,54998,6,0,B|182:168|155:195|157:197|160:203|130:236|95:215,1,131.580000803101,2|0,1:2|0:2,0:2:0:0:
75,208,55331,2,0,P|49:166|64:131,1,87.7200005354004,10|2,0:2|3:2,0:0:0:0:
155,68,55665,1,0,1:2:0:0:
291,143,55831,6,0,L|300:92,1,43.8600002677002,14|0,0:2|0:0,0:2:0:0:
285,88,55998,2,0,L|276:139,1,43.8600002677002,0|0,1:2|0:0,0:0:0:0:
382,276,56165,6,0,P|444:283|462:204,1,131.580000803101,14|0,0:2|0:0,0:2:0:0:
462,211,56498,1,2,1:2:0:0:
311,342,56665,2,0,P|271:370|223:357,1,87.7200005354004,10|2,0:2|1:2,0:0:0:0:
63,260,56998,5,10,0:2:0:0:
79,253,57081,1,8,0:0:0:0:
96,253,57164,1,10,0:2:0:0:
113,259,57248,1,8,0:2:0:0:
126,271,57331,1,10,0:2:0:0:
138,283,57414,1,8,0:0:0:0:
153,291,57498,1,10,0:2:0:0:
171,294,57581,1,8,0:2:0:0:
188,287,57665,6,0,P|203:217|216:150,1,131.580000803101,14|0,1:2|0:2,0:2:0:0:
231,137,57998,2,0,P|189:105|151:108,1,87.7200005354004,10|0,0:2|3:2,0:2:0:0:
288,252,58331,1,0,1:2:0:0:
298,260,58498,2,0,P|347:250|388:240,1,87.7200005354004,2|8,3:2|0:2,0:2:0:0:
506,120,58831,5,2,3:2:0:0:
506,120,58915,1,2,0:3:0:0:
506,120,58998,2,0,P|494:196|484:277,1,131.580000803101,0|0,1:0|0:0,0:0:0:0:
492,271,59331,1,10,0:2:0:0:
397,69,59498,5,2,3:2:0:0:
397,69,59581,1,0,0:0:0:0:
397,69,59665,2,0,L|346:83,3,43.8600002677002,2|2|2|2,1:2|0:3|3:2|0:3,0:0:0:0:
308,141,59998,1,10,0:2:0:0:
468,26,60165,1,2,3:2:0:0:
355,231,60331,6,0,B|321:210|294:237|296:239|299:245|269:278|233:257,1,131.580000803101,2|0,1:2|0:2,0:2:0:0:
213,250,60664,2,0,P|187:208|202:173,1,87.7200005354004,10|2,0:2|3:2,0:2:0:0:
210,163,60915,1,2,0:3:0:0:
220,155,60998,1,0,1:2:0:0:
333,30,61165,1,10,0:2:0:0:
405,144,61331,1,0,1:0:0:0:
214,50,61498,6,0,P|143:38|56:27,1,131.580000803101,14|0,0:2|0:0,0:0:0:0:
70,12,61831,1,2,1:2:0:0:
277,101,61998,1,10,0:2:0:0:
64,202,62165,5,2,1:2:0:0:
64,202,62248,1,0,1:2:0:0:
64,202,62331,2,0,L|72:147,3,43.8600002677002,10|8|8|4,0:2|0:2|0:3|0:3,0:0:0:0:
25,100,62665,1,4,1:3:0:0:
103,272,62831,1,8,0:2:0:0:
235,107,62998,5,6,1:2:0:0:
146,69,63165,2,0,P|154:125|161:172,1,87.7200005354004,4|0,1:3|1:2,0:2:0:0:
164,176,63415,1,2,0:3:0:0:
168,187,63498,1,2,1:2:0:0:
300,28,63665,2,0,P|367:30|391:110,1,131.580000803101,10|0,0:2|0:0,0:2:0:0:
392,100,63998,1,0,1:2:0:0:
221,5,64165,1,2,1:2:0:0:
383,190,64331,6,0,P|428:201|469:168,1,87.7200005354004,10|0,0:2|0:0,0:2:0:0:
291,128,64665,2,0,B|245:100|210:135|213:138|216:146|177:189|127:160,1,178.879998908203,14|2,0:2|0:2,0:2:0:0:
288,361,65665,6,0,P|302:297|331:230,1,118.679996015991,6|0,1:2|0:0,0:2:0:0:
247,221,65998,2,0,P|247:264|280:287,1,79.1199973439942,10|0,0:2|3:2,0:0:0:0:
399,204,66331,1,2,1:2:0:0:
282,97,66498,2,0,P|229:84|190:64,1,79.1199973439942,2|0,1:2|0:2,0:2:0:0:
39,244,66831,6,0,P|75:228|114:220,1,79.1199973439942,10|0,0:2|0:0,0:2:0:0:
252,272,67165,1,0,1:2:0:0:
252,272,67248,1,2,0:3:0:0:
252,272,67331,2,0,P|238:225|234:178,1,79.1199973439942,2|10,3:2|0:2,0:0:0:0:
360,19,67665,5,2,0:2:0:0:
265,64,67831,1,2,1:2:0:0:
357,119,67998,1,10,0:2:0:0:
367,111,68165,1,2,3:2:0:0:
213,5,68331,6,0,P|185:35|209:125,1,118.679996015991,6|0,1:2|0:0,0:2:0:0:
219,134,68665,2,0,P|245:169|234:220,1,79.1199973439942,10|0,0:2|3:2,0:0:0:0:
152,317,68998,1,2,1:2:0:0:
306,312,69165,2,0,P|342:328|389:366,1,79.1199973439942,2|0,1:2|0:2,0:2:0:0:
148,215,69498,6,0,P|115:238|79:254,1,79.1199973439942,10|0,0:2|0:0,0:2:0:0:
322,236,69831,1,0,1:2:0:0:
253,93,69998,2,0,P|237:143|221:170,1,79.1199973439942,10|2,3:2|1:2,0:0:0:0:
430,329,70331,5,10,0:2:0:0:
378,169,70498,1,2,1:2:0:0:
294,315,70665,5,10,0:2:0:0:
304,311,70831,1,10,3:2:0:0:
134,272,70998,6,0,P|178:285|211:312,1,79.1199973439942,6|0,1:2|0:0,0:2:0:0:
87,183,71331,2,0,P|43:200|31:252,1,79.1199973439942,10|0,0:2|0:0,0:0:0:0:
172,55,71665,1,2,1:2:0:0:
84,99,71831,1,10,0:2:0:0:
181,149,71998,1,8,0:2:0:0:
307,2,72165,6,0,P|320:49|329:91,1,79.1199973439942,0|4,3:2|1:2,0:0:0:0:
273,138,72498,1,0,0:0:0:0:
338,184,72665,1,2,0:2:0:0:
284,239,72831,1,2,3:2:0:0:
365,291,72998,6,0,B|413:279|450:322|439:331|430:340|464:399|511:381,1,186.619992596253,2|0,3:2|0:0,0:2:0:0:
500,346,73665,6,0,P|445:357|351:387,1,141.0400021521,6|8,1:2|0:2,0:2:0:0:
286,333,74165,1,2,0:0:0:0:
175,129,74331,5,2,1:2:0:0:
111,203,74498,2,0,P|92:142|61:63,1,141.0400021521,2|10,0:2|0:2,0:2:0:0:
236,16,74998,6,0,P|256:63|355:54,1,141.0400021521,2|0,0:2|0:2,0:2:0:0:
415,225,75498,2,0,P|378:198|342:178,1,70.5200010760498,8|0,0:2|0:0,0:2:0:0:
460,125,75831,1,0,1:2:0:0:
381,6,75998,2,0,P|369:54|355:89,1,70.5200010760498,8|0,0:2|0:2,0:2:0:0:
222,237,76331,6,0,P|180:220|181:117,1,141.0400021521,2|8,1:2|0:2,0:2:0:0:
166,133,76831,1,2,0:0:0:0:
248,13,76998,1,2,1:2:0:0:
141,62,77165,2,0,P|101:48|54:39,1,70.5200010760498,2|0,1:2|0:2,0:2:0:0:
247,171,77498,1,10,0:2:0:0:
247,171,77665,6,0,P|287:157|334:148,1,70.5200010760498,2|0,0:2|1:2,0:0:0:0:
340,55,77998,2,0,P|374:63|407:75,1,70.5200010760498,10|0,0:2|0:2,0:2:0:0:
255,42,78331,1,10,0:2:0:0:
397,170,78498,1,0,1:2:0:0:
250,209,78665,2,0,P|283:196|317:188,1,70.5200010760498,2|8,1:2|0:2,0:2:0:0:
196,367,78998,6,0,P|175:318|79:313,1,141.0400021521,2|8,1:2|0:2,0:2:0:0:
25,354,79498,1,2,0:2:0:0:
186,141,79665,5,2,1:2:0:0:
102,182,79831,1,0,1:0:0:0:
182,240,79998,1,0,0:2:0:0:
102,68,80165,6,0,P|77:137|52:223,1,141.0400021521,10|0,0:2|1:2,0:0:0:0:
145,339,80665,2,0,P|189:338|224:320,1,70.5200010760498,2|8,0:2|0:2,0:0:0:0:
294,365,80998,2,0,P|315:326|317:287,1,70.5200010760498,2|0,0:2|1:2,0:2:0:0:
400,265,81331,2,0,P|377:227|344:206,1,70.5200010760498,10|0,0:2|0:2,0:2:0:0:
306,83,81665,6,0,P|289:139|200:139,1,141.0400021521,6|8,1:2|0:2,0:2:0:0:
215,150,82165,1,2,0:2:0:0:
94,11,82331,2,0,P|115:54|129:86,1,70.5200010760498,2|8,1:2|0:2,0:0:0:0:
50,201,82665,1,8,0:2:0:0:
291,350,82998,5,10,0:2:0:0:
372,321,83165,1,8,0:2:0:0:
142,48,83665,5,8,0:2:0:0:
232,80,83831,1,8,0:2:0:0:
2,299,84331,6,0,B|39:276|68:304|65:307|63:313|94:348|135:325,1,141.0400021521,6|10,1:2|0:2,0:2:0:0:
234,364,84831,2,0,P|225:319|218:286,1,70.5200010760498,2|0,3:2|1:2,0:2:0:0:
179,166,85165,1,2,3:2:0:0:
305,218,85331,1,10,0:2:0:0:
101,216,85498,5,2,3:2:0:0:
101,216,85581,1,2,0:3:0:0:
101,216,85665,2,0,P|79:166|105:104,1,105.780001614075,2|0,1:2|0:0,0:0:0:0:
108,104,85998,1,10,0:2:0:0:
226,36,86165,5,2,3:2:0:0:
226,36,86248,1,2,0:3:0:0:
226,36,86331,1,0,1:2:0:0:
363,150,86498,2,0,L|308:143,1,35.2600005380249,2|2,3:2|0:3,0:2:0:0:
254,114,86665,1,10,0:2:0:0:
438,187,86831,1,2,3:2:0:0:
203,281,86998,6,0,P|140:270|132:218,1,105.780001614075,2|0,1:2|0:2,0:2:0:0:
136,215,87331,1,10,0:2:0:0:
276,338,87498,1,2,3:2:0:0:
276,338,87581,1,2,0:3:0:0:
276,338,87665,2,0,P|319:351|351:329,1,70.5200010760498,0|0,1:2|3:2,0:2:0:0:
233,195,87998,1,10,0:2:0:0:
62,337,88165,5,2,3:2:0:0:
62,337,88248,1,2,0:3:0:0:
62,337,88331,2,0,B|84:303|53:272|51:275|44:278|6:244|41:204,1,141.0400021521,2|10,1:2|0:2,0:2:0:0:
135,65,88831,5,0,3:2:0:0:
139,76,88915,1,2,0:3:0:0:
144,91,88998,1,2,1:2:0:0:
70,7,89165,1,8,0:2:0:0:
205,156,89331,1,2,1:2:0:0:
17,103,89498,1,8,0:2:0:0:
208,24,89665,6,0,P|277:16|335:11,1,105.780001614075,2|0,1:2|0:2,0:2:0:0:
339,0,89998,2,0,P|368:33|366:65,1,70.5200010760498,10|0,0:2|3:2,0:2:0:0:
363,76,90248,1,2,0:3:0:0:
356,85,90331,1,2,1:2:0:0:
253,216,90498,1,12,0:2:0:0:
441,192,90665,6,0,L|393:177,1,35.2600005380249,2|0,1:2|0:0,0:0:0:0:
402,194,90831,2,0,L|450:209,1,35.2600005380249,8|2,0:2|0:3,0:2:0:0:
501,311,90998,6,0,P|456:299|420:289,1,70.5200010760498,6|0,1:2|1:2,0:0:0:0:
206,339,91331,2,0,P|251:351|287:361,1,70.5200010760498,8|0,1:2|0:2,0:2:0:0:
296,371,91581,1,8,0:2:0:0:
307,377,91665,2,0,P|332:339|311:272,2,105.780001614075,10|8|8,0:2|0:2|0:2,0:2:0:0:
246,156,92331,6,0,P|185:174|136:190,1,106.639995769287,10|10,1:1|0:1,0:0:0:0:
66,230,92831,2,0,P|57:189|73:165,1,53.3199978846436,2|8,0:2|1:1,0:2:0:0:
0,129,93165,2,0,P|31:100|59:102,1,53.3199978846436,2|8,0:2|0:1,0:0:0:0:
96,45,93498,1,2,0:2:0:0:
188,100,93665,6,0,P|226:116|276:64,1,106.639995769287,8|10,1:1|0:1,0:0:0:0:
357,6,94165,1,2,0:2:0:0:
367,1,94331,2,0,P|363:42|360:71,1,53.3199978846436,10|0,1:1|0:2,0:2:0:0:
435,101,94665,2,0,P|439:142|442:171,1,53.3199978846436,10|0,0:1|1:2,0:2:0:0:
481,299,94998,6,0,P|469:257|404:247,1,106.639995769287,10|10,1:1|0:1,0:0:0:0:
303,315,95498,2,0,P|332:324|370:338,1,53.3199978846436,2|8,0:2|1:1,0:2:0:0:
283,232,95831,2,0,P|257:239|232:248,1,53.3199978846436,2|8,0:2|0:1,0:2:0:0:
194,317,96165,1,2,0:2:0:0:
79,371,96331,6,0,P|84:321|93:256,1,106.639995769287,8|10,1:1|0:1,0:0:0:0:
69,123,96831,1,2,0:2:0:0:
143,195,96998,2,0,P|185:184|220:178,1,53.3199978846436,10|0,0:2|1:0,0:0:0:0:
252,133,97248,1,0,0:0:0:0:
260,130,97331,2,0,P|286:135|311:142,1,53.3199978846436,8|0,0:2|1:2,0:0:0:0:
438,45,97665,6,0,P|427:95|420:158,1,106.639995769287,10|10,1:1|0:1,0:0:0:0:
491,266,98165,2,0,P|486:231|469:213,1,53.3199978846436,2|8,0:2|1:1,0:2:0:0:
374,306,98498,2,0,P|401:284|408:260,1,53.3199978846436,2|8,0:2|0:1,0:0:0:0:
351,213,98831,1,2,0:2:0:0:
362,384,98998,6,0,P|341:333|275:331,1,106.639995769287,8|10,1:1|0:1,0:0:0:0:
196,357,99498,1,2,0:2:0:0:
195,370,99665,2,0,P|150:359|129:354,1,53.3199978846436,10|0,1:1|0:2,0:2:0:0:
136,277,99998,2,0,P|110:283|84:289,1,53.3199978846436,10|0,0:1|1:2,0:2:0:0:
30,354,100331,6,0,P|39:283|45:226,1,106.639995769287,10|10,1:1|0:1,0:0:0:0:
82,128,100831,2,0,P|43:118|25:114,1,53.3199978846436,2|8,0:2|1:1,0:2:0:0:
117,198,101165,2,0,P|142:191|168:185,1,53.3199978846436,2|8,0:2|0:1,0:2:0:0:
224,89,101498,6,0,B|259:67|287:95|285:97|281:103|313:137|350:115,1,141.0400021521,14|2,0:0|1:2,0:0:0:0:
183,154,101998,1,8,0:2:0:0:
392,59,102165,1,10,0:2:0:0:
357,299,102331,1,8,0:2:0:0:
275,219,102498,1,8,0:2:0:0:
463,251,102665,1,8,0:2:0:0:
366,384,102831,1,8,0:2:0:0:
357,299,102998,6,0,P|402:308|425:312,1,53.3199978846436,6|0,1:2|0:0,0:2:0:0:
287,355,103331,1,10,0:2:0:0:
287,355,103498,2,0,P|260:359|234:365,1,53.3199978846436,2|0,0:2|1:2,0:2:0:0:
140,348,103831,2,0,P|108:307|135:251,1,106.639995769287,2|10,1:2|0:2,0:2:0:0:
212,191,104331,6,0,P|216:222|219:246,1,53.3199978846436,0|2,0:2|1:2,0:0:0:0:
135,149,104665,1,2,3:2:0:0:
135,149,104831,1,10,0:2:0:0:
225,59,104998,2,0,P|221:85|218:111,1,53.3199978846436,2|0,3:2|1:2,0:2:0:0:
315,54,105331,1,10,0:2:0:0:
155,0,105498,5,0,3:2:0:0:
155,0,105581,1,0,0:0:0:0:
155,0,105665,2,0,P|112:9|89:12,1,53.3199978846436,2|0,1:2|0:2,0:2:0:0:
15,100,105998,1,10,0:2:0:0:
106,155,106165,2,0,L|101:112,2,26.6599989423218,2|8|0,1:2|0:2|1:2,0:0:0:0:
29,188,106498,2,0,L|39:249,1,53.3199978846436,2|0,1:2|3:2,0:2:0:0:
33,382,106831,6,0,P|52:335|115:336,1,106.639995769287,10|0,0:2|1:2,0:2:0:0:
283,345,107331,1,10,0:2:0:0:
137,257,107498,1,2,1:2:0:0:
183,384,107665,2,0,L|194:324,1,53.3199978846436,10|0,0:2|1:2,0:0:0:0:
250,270,107998,2,0,L|239:210,1,53.3199978846436,14|0,0:2|0:0,0:2:0:0:
188,109,108331,6,0,P|275:124|323:132,1,118.679996015991,2|0,1:2|0:0,0:2:0:0:
378,87,108665,5,10,0:2:0:0:
378,87,108748,1,8,0:2:0:0:
378,87,108831,2,8,P|402:68|404:40,3,39.5599986719971,10|8|8|8,0:2|0:2|1:2|0:2,0:2:0:0:
440,149,109164,2,8,P|468:160|490:149,3,39.5599986719971,10|8|8|8,0:2|0:2|1:2|0:2,0:2:0:0:
423,236,109498,5,10,0:2:0:0:
423,236,109581,1,8,0:2:0:0:
423,236,109665,2,0,P|427:266|450:282,3,39.5599986719971,8|8|10|8,1:2|0:2|0:2|0:2,0:0:0:0:
347,183,109998,6,8,L|298:172,1,39.5599986719971,10|8,1:2|0:2,0:2:0:0:
287,248,110165,2,8,L|336:259,1,39.5599986719971,10|8,0:2|0:2,0:2:0:0:
215,167,110331,5,8,1:2:0:0:
215,167,110415,1,8,0:2:0:0:
215,167,110498,2,8,L|166:156,1,39.5599986719971,10|8,0:2|0:2,0:2:0:0:
138,229,110665,2,8,L|187:240,3,39.5599986719971,10|8|10|8,1:2|0:2|0:2|0:2,0:2:0:0:
66,166,110998,5,10,1:2:0:0:
51,152,111081,1,8,0:2:0:0:
46,134,111165,1,8,0:2:0:0:
51,115,111248,1,8,0:2:0:0:
63,100,111331,2,8,L|106:114,3,39.5599986719971,10|8|8|8,1:2|0:2|0:2|0:2,0:2:0:0:
138,229,111665,5,10,1:2:0:0:
153,243,111748,1,8,0:2:0:0:
158,261,111832,1,10,0:2:0:0:
153,280,111915,1,8,0:2:0:0:
141,297,111998,5,10,1:2:0:0:
192,167,112165,1,14,1:2:0:0:
392,31,112998,6,0,P|456:26|485:99,2,118.679996015991,12|4|12,0:3|0:3|0:3,0:2:0:0:
273,112,113665,6,0,P|332:129|407:185,1,131.580000803101,6|0,1:2|0:2,0:2:0:0:
421,180,113998,2,0,P|382:198|332:171,1,87.7200005354004,10|0,0:2|3:2,0:2:0:0:
146,57,114331,1,0,1:2:0:0:
146,57,114498,2,0,P|162:99|175:154,1,87.7200005354004,2|8,3:2|0:2,0:2:0:0:
53,296,114831,5,2,3:2:0:0:
53,296,114915,1,2,0:3:0:0:
53,296,114998,2,0,P|92:278|142:305,1,87.7200005354004,0|2,1:0|3:2,0:0:0:0:
223,375,115331,1,10,0:2:0:0:
316,232,115498,1,2,3:2:0:0:
316,232,115581,1,0,0:0:0:0:
316,232,115665,2,0,L|301:171,3,43.8600002677002,2|2|2|2,1:2|0:3|3:2|0:3,0:0:0:0:
337,317,115998,1,10,0:2:0:0:
290,104,116165,1,2,3:2:0:0:
227,260,116331,6,0,P|210:306|115:298,1,131.580000803101,2|0,1:2|0:2,0:2:0:0:
100,304,116665,2,0,P|78:261|112:206,1,87.7200005354004,10|0,0:2|3:2,0:2:0:0:
192,156,116998,1,2,1:2:0:0:
27,121,117165,2,0,P|53:80|117:82,1,87.7200005354004,2|8,3:2|3:2,0:2:0:0:
306,149,117498,5,2,3:2:0:0:
306,149,117581,1,2,0:3:0:0:
306,149,117665,1,0,1:2:0:0:
235,13,117831,2,0,P|224:69|213:119,1,87.7200005354004,2|10,3:2|0:2,0:0:0:0:
79,222,118165,1,2,3:2:0:0:
79,222,118248,1,2,0:3:0:0:
79,222,118331,2,0,P|138:245|175:269,1,87.7200005354004,2|10,1:2|0:2,0:0:0:0:
313,241,118665,1,2,1:2:0:0:
214,363,118831,1,10,0:2:0:0:
215,199,118998,6,0,P|203:145|170:56,1,131.580000803101,6|0,1:2|0:2,0:2:0:0:
153,52,119331,2,0,P|179:11|227:11,1,87.7200005354004,10|0,0:2|3:2,0:2:0:0:
302,71,119665,1,0,1:2:0:0:
156,175,119831,2,0,P|112:161|58:150,1,87.7200005354004,2|8,3:2|0:2,0:0:0:0:
262,286,120165,5,2,3:2:0:0:
268,299,120248,1,2,0:3:0:0:
275,313,120331,1,0,1:2:0:0:
428,219,120498,2,0,P|415:269|407:312,1,87.7200005354004,2|10,3:2|0:2,0:0:0:0:
291,156,120831,1,2,3:2:0:0:
291,156,120915,1,2,0:3:0:0:
291,156,120998,2,0,P|270:111|287:59,1,87.7200005354004,2|10,1:2|0:2,0:0:0:0:
442,143,121331,1,2,1:2:0:0:
306,249,121498,1,10,0:2:0:0:
466,373,121665,6,0,P|407:356|277:323,1,175.440001070801,2|10,1:2|0:2,0:2:0:0:
128,380,122165,1,2,3:2:0:0:
128,380,122248,1,0,0:0:0:0:
128,380,122331,1,0,1:2:0:0:
160,220,122498,2,0,P|176:264|191:319,1,87.7200005354004,14|0,0:2|1:2,0:2:0:0:
286,95,122831,6,0,P|236:78|184:51,1,87.7200005354004,14|0,0:2|1:2,0:2:0:0:
64,135,123165,1,2,1:2:0:0:
259,225,123331,1,10,0:2:0:0:
111,308,123498,1,2,1:2:0:0:
170,113,123665,2,0,P|184:173|189:214,1,87.7200005354004,10|10,0:2|0:2,0:0:0:0:
185,211,123915,1,8,0:2:0:0:
183,219,123998,1,10,0:2:0:0:
399,346,124165,1,10,0:2:0:0:
392,335,124248,1,8,0:2:0:0:
383,321,124331,6,0,P|403:274|486:282,1,131.580000803101,14|0,1:2|0:2,0:2:0:0:
497,303,124665,2,0,P|448:285|392:276,1,87.7200005354004,10|0,0:2|3:2,0:2:0:0:
275,336,124998,1,0,1:2:0:0:
403,163,125165,2,0,P|360:172|319:187,1,87.7200005354004,2|8,3:2|0:2,0:2:0:0:
166,336,125498,5,2,3:2:0:0:
166,336,125581,1,2,0:3:0:0:
166,336,125665,1,0,1:0:0:0:
332,327,125831,2,0,P|294:319|264:252,1,87.7200005354004,2|10,3:2|0:2,0:0:0:0:
179,144,126165,1,2,3:2:0:0:
179,144,126248,1,0,0:0:0:0:
179,144,126331,2,0,L|187:89,3,43.8600002677002,2|2|2|2,1:2|0:3|3:2|0:3,0:0:0:0:
106,212,126665,1,10,0:2:0:0:
277,153,126831,1,2,3:2:0:0:
224,20,126998,6,0,P|147:17|98:102,1,175.440001070801,2|10,1:2|0:2,0:2:0:0:
219,230,127498,2,0,P|225:258|229:299,2,43.8600002677002,2|2|0,3:2|0:3|1:2,0:0:0:0:
326,34,127831,2,0,P|296:78|276:126,1,87.7200005354004,10|0,0:2|1:0,0:0:0:0:
449,258,128165,2,0,P|423:222|404:182,1,87.7200005354004,14|0,0:2|1:0,0:0:0:0:
342,272,128498,5,2,1:2:0:0:
480,153,128665,1,10,0:2:0:0:
350,20,128831,1,2,1:2:0:0:
350,20,128915,1,0,1:2:0:0:
350,20,128998,2,0,L|336:83,3,43.8600002677002,10|8|8|4,0:2|0:2|0:3|0:3,0:0:0:0:
376,226,129331,1,4,1:3:0:0:
236,134,129498,1,8,0:2:0:0:
129,335,129665,6,0,P|162:278|275:288,1,175.440001070801,6|8,1:2|0:2,0:2:0:0:
358,357,130165,1,2,0:0:0:0:
355,175,130331,2,0,P|407:203|450:232,1,87.7200005354004,2|0,1:2|1:2,0:0:0:0:
204,265,130665,1,8,0:2:0:0:
297,79,130831,1,2,1:2:0:0:
125,164,130998,5,10,0:2:0:0:
125,164,131165,1,0,1:2:0:0:
314,305,131331,2,0,P|256:334|215:362,1,87.7200005354004,10|0,0:2|1:2,0:2:0:0:
335,149,131665,1,10,0:2:0:0:
408,333,131831,1,0,1:2:0:0:
208,251,131998,2,0,P|217:186|241:86,1,131.580000803101,14|0,0:2|0:2,0:2:0:0:
274,63,132331,6,0,L|312:72,3,30.9600007558594,6|0|0|0,1:2|0:0|0:0|0:2,0:2:0:0:
216,5,132665,2,0,P|173:11|113:21,1,92.8800022675782,8|0,0:2|0:3,0:0:0:0:
91,11,132998,2,0,P|75:46|87:83,1,61.9200015117188,2|0,1:2|3:2,0:0:0:0:
151,170,133331,2,0,P|160:131|166:95,1,61.9200015117188,10|0,0:2|3:2,0:0:0:0:
87,235,133581,1,0,0:3:0:0:
92,221,133665,6,0,P|138:186|206:198,1,123.840003023438,2|10,1:2|0:2,0:0:0:0:
270,291,134165,1,0,3:2:0:0:
270,291,134248,1,0,0:3:0:0:
270,291,134331,2,0,L|277:247,3,30.9600007558594,2|2|0|2,1:2|0:3|3:2|0:3,0:2:0:0:
326,201,134665,1,10,0:2:0:0:
434,327,134831,5,0,3:2:0:0:
434,327,134915,1,0,0:0:0:0:
434,327,134998,2,0,P|491:314|515:250,1,123.840003023438,2|8,1:2|0:2,0:2:0:0:
422,130,135498,1,2,3:2:0:0:
409,124,135665,2,0,L|420:199,1,61.9200015117188,2|2,1:2|3:2,0:2:0:0:
498,93,135998,2,0,L|509:18,1,61.9200015117188,10|2,0:2|3:2,0:0:0:0:
440,0,136248,1,0,0:3:0:0:
426,1,136331,6,0,L|309:19,1,92.8800022675782,2|0,1:2|0:2,0:2:0:0:
321,41,136665,2,0,P|284:32|240:26,1,61.9200015117188,8|0,0:2|3:2,0:0:0:0:
244,22,136915,1,0,0:3:0:0:
234,17,136998,1,2,1:2:0:0:
78,62,137165,1,8,0:2:0:0:
170,209,137331,1,2,1:2:0:0:
232,122,137498,5,8,0:2:0:0:
232,122,137581,1,0,0:0:0:0:
232,122,137665,2,0,L|209:265,1,123.840003023438,6|10,1:2|0:2,0:2:0:0:
113,346,138165,1,0,3:2:0:0:
113,346,138248,1,0,0:3:0:0:
113,346,138331,2,0,P|81:317|84:289,1,61.9200015117188,2|0,1:2|3:2,0:0:0:0:
229,320,138665,2,0,L|301:337,1,61.9200015117188,10|0,0:2|3:2,0:0:0:0:
312,352,138915,1,0,0:3:0:0:
321,359,138998,6,0,P|366:332|360:264,1,123.840003023438,2|10,1:2|0:2,0:0:0:0:
261,134,139498,1,0,0:0:0:0:
258,144,139581,1,0,0:0:0:0:
254,159,139665,1,2,1:2:0:0:
333,57,139831,1,8,0:0:0:0:
164,131,139998,1,2,1:2:0:0:
281,249,140165,1,8,0:0:0:0:
367,197,140331,6,0,P|290:206|216:217,1,123.840003023438,2|8,1:2|0:2,0:2:0:0:
418,137,140831,1,2,0:2:0:0:
189,264,140998,1,2,1:2:0:0:
367,358,141165,2,0,P|372:314|375:283,1,61.9200015117188,12|0,0:2|1:2,0:2:0:0:
458,351,141498,1,14,0:2:0:0:
324,189,141665,6,0,P|288:182|256:176,1,61.9200015117188,2|0,1:2|1:2,0:2:0:0:
219,360,141998,2,0,P|255:367|287:373,1,61.9200015117188,10|0,0:2|1:2,0:2:0:0:
459,247,142331,1,0,1:2:0:0:
456,234,142415,1,0,1:0:0:0:
451,217,142498,1,0,1:2:0:0:
421,321,142665,1,8,0:2:0:0:
494,142,142831,5,8,0:2:0:0:
494,142,142915,1,8,0:2:0:0:
494,142,142998,2,0,L|361:123,1,105.780001614075,4|0,1:2|0:0,0:2:0:0:
370,137,143331,1,8,0:2:0:0:
181,38,143498,2,0,L|314:19,1,105.780001614075,0|0,3:2|0:0,0:2:0:0:
305,33,143831,1,0,3:2:0:0:
196,218,143998,1,8,0:2:0:0:
78,98,144165,1,0,3:2:0:0:
181,38,144331,6,0,L|169:128,1,70.5200010760498,0|0,1:2|3:2,0:0:0:0:
91,268,144665,1,8,0:2:0:0:
226,205,144831,1,0,3:2:0:0:
230,193,144915,1,2,0:3:0:0:
236,179,144998,1,0,1:2:0:0:
128,190,145165,1,0,3:2:0:0:
250,302,145331,1,8,0:2:0:0:
371,184,145498,1,0,3:2:0:0:
277,92,145665,6,0,L|294:248,1,141.0400021521,0|8,1:2|0:2,0:2:0:0:
375,351,146165,1,0,3:2:0:0:
375,351,146248,1,2,0:3:0:0:
375,351,146331,1,0,1:2:0:0:
463,247,146498,2,0,P|421:254|383:261,1,70.5200010760498,0|8,3:2|0:2,0:0:0:0:
125,287,146831,6,0,B|156:259|199:285|185:300|221:323|258:298,1,141.0400021521,0|0,3:2|3:2,0:0:0:0:
393,166,147341,2,0,P|341:179|274:192,1,105.780001614075,10|8,0:0|0:0,0:0:0:0:
224,157,147648,2,0,L|236:115,3,43,8|8|8|8,0:2|0:2|0:2|0:2,0:2:0:0:
207,43,148001,1,0,1:2:0:0:
231,232,148164,1,12,0:2:0:0:
61,108,148328,6,0,L|139:125,1,70.5200010760498,6|4,1:2|0:3,0:0:0:0:
165,49,148661,2,0,L|87:32,1,70.5200010760498,4|4,0:3|0:3,0:0:0:0:
269,171,148994,2,0,L|337:155,1,70.5200010760498,10|0,0:2|0:2,0:2:0:0:
196,142,149328,1,2,1:2:0:0:
412,162,149494,1,0,1:2:0:0:
230,327,149661,6,0,L|242:250,1,70.5200010760498,2|8,0:2|0:2,0:0:0:0:
318,268,149995,2,0,L|306:345,1,70.5200010760498,2|0,1:2|1:2,0:0:0:0:
70,270,150328,6,0,L|60:201,1,70.5200010760498,10|0,0:2|1:2,0:2:0:0:
136,188,150661,2,0,L|147:258,1,70.5200010760498,2|0,1:2|1:2,0:2:0:0:
58,82,150994,6,0,P|112:73|190:63,1,105.780001614075,6|0,1:2|0:0,0:0:0:0:
190,50,151328,2,0,P|216:84|213:121,1,70.5200010760498,4|4,1:3|1:3,0:0:0:0:
200,329,151661,5,10,0:2:0:0:
315,197,151828,1,0,1:2:0:0:
130,147,151994,1,4,1:3:0:0:
154,249,152161,1,4,1:3:0:0:
220,188,152328,6,0,B|168:157|133:195|136:198|139:206|97:251|37:220,1,192.640002351563,6|0,1:2|0:2,0:2:0:0:
124,323,156328,6,0,P|159:321|219:348,1,89.4399994541016,2|2,0:0|0:0,0:0:0:0:
210,341,157161,5,2,0:0:0:0:
272,285,157494,1,2,0:0:0:0:
362,334,157661,6,0,P|350:287|326:199,1,134.159999181152,0|2,0:0|0:0,0:0:0:0:
318,120,158327,2,0,L|327:65,2,44.7199997270508,2|0|2,0:0|0:0|0:0,0:0:0:0:
166,227,158994,6,0,P|130:231|79:187,1,89.4399994541016,2|2,0:0|0:0,0:0:0:0:
86,203,159661,1,2,0:0:0:0:
33,138,159827,2,0,P|45:93|54:48,1,89.4399994541016,2|2,0:0|0:0,0:0:0:0:
154,24,160327,6,0,P|166:69|175:114,1,89.4399994541016
332,230,160994,2,0,P|276:225|226:299,1,134.159999181152,2|0,0:0|0:0,0:0:0:0:
187,345,161661,6,0,P|146:331|93:319,1,89.4399994541016,2|2,0:0|0:0,0:0:0:0:
101,320,162494,1,2,0:0:0:0:
40,257,162827,1,2,0:0:0:0:
99,184,162994,6,0,P|136:165|212:222,1,134.159999181152,0|2,0:0|0:0,0:0:0:0:
241,279,163661,2,0,P|274:285|303:291,1,44.7199997270508,2|0,0:0|0:0,0:0:0:0:
228,355,163994,2,0,P|206:350|184:346,1,44.7199997270508,2|0,0:0|0:0,0:0:0:0:
330,380,164327,6,0,P|325:340|348:280,1,89.4399994541016,2|2,0:0|0:0,0:0:0:0:
462,174,164994,2,0,P|429:198|366:208,1,89.4399994541016,2|2,0:0|0:0,0:0:0:0:
195,135,165661,6,0,P|232:150|272:200,1,89.4399994541016,2|2,0:0|0:0,0:0:0:0:
161,331,166327,6,0,L|63:361,1,89.4399994541016,2|2,0:0|0:0,0:0:0:0:
75,357,166994,6,0,L|57:279,1,61.9200015117188,2|0,1:2|1:2,0:0:0:0:
14,217,167327,2,0,P|54:199|72:109,1,123.840003023438,2|0,0:0|0:0,0:0:0:0:
40,45,167827,2,0,P|102:55|126:60,1,61.9200015117188,2|0,0:0|0:0,0:0:0:0:
189,120,168161,5,2,0:2:0:0:
189,120,168244,1,0,0:0:0:0:
189,120,168327,2,0,P|219:114|250:110,1,61.9200015117188,0|2,1:2|1:2,0:0:0:0:
302,46,168661,2,0,P|321:69|341:94,1,61.9200015117188,2|0,0:0|0:0,0:0:0:0:
426,112,168994,2,0,P|415:141|403:169,1,61.9200015117188,2|0,0:0|0:0,0:0:0:0:
428,259,169327,1,2,0:0:0:0:
437,263,169494,1,0,0:2:0:0:
363,331,169661,6,0,P|332:325|301:321,1,61.9200015117188,2|0,1:2|1:2,0:0:0:0:
260,241,169994,2,0,P|229:246|198:250,1,61.9200015117188,2|0,0:0|0:0,0:0:0:0:
126,336,170327,2,0,P|118:297|110:262,1,61.9200015117188,2|0,0:0|0:0,0:0:0:0:
43,205,170661,2,0,P|51:166|59:131,1,61.9200015117188,2|0,0:0|0:2,0:0:0:0:
53,18,170994,6,0,P|92:23|130:47,1,61.9200015117188,2|0,1:2|1:2,0:0:0:0:
278,82,171327,2,0,P|239:87|201:111,1,61.9200015117188,2|0,0:0|0:0,0:0:0:0:
145,187,171661,2,0,L|159:259,1,61.9200015117188,2|0,0:0|0:0,0:0:0:0:
254,347,171994,2,0,L|274:236,1,92.8800022675782,2|0,0:0|0:0,0:0:0:0:
297,228,172327,6,0,P|335:207|416:271,1,141.0400021521,2|0,1:2|3:2,0:2:0:0:
412,251,172827,1,2,3:2:0:0:
253,157,172994,2,0,P|207:147|101:131,1,141.0400021521,2|0,1:2|3:2,0:2:0:0:
114,132,173494,1,2,3:2:0:0:
215,294,173661,5,10,0:2:0:0:
285,40,173994,1,12,0:2:0:0:
250,65,174327,5,0,0:0:0:0:
320,122,174494,1,0,0:0:0:0:
211,180,174661,1,0,0:0:0:0:
307,254,174827,1,0,0:2:0:0:
178,344,174994,5,8,0:2:0:0:
178,344,175077,1,8,0:2:0:0:
178,344,175161,2,0,P|150:366|100:365,1,70.5200010760498,8|0,0:2|1:2,0:0:0:0:
4,197,175494,1,8,0:2:0:0:
4,197,175577,1,8,0:2:0:0:
4,197,175661,2,0,P|32:219|82:218,1,70.5200010760498,8|0,0:2|1:2,0:0:0:0:
209,110,175994,2,0,L|227:27,1,70.5200010760498,12|0,0:2|1:2,0:0:0:0:
382,211,176327,6,0,P|331:203|295:265,1,105.780001614075,12|0,0:2|0:2,0:2:0:0:
292,276,176661,2,0,L|306:326,3,35.2600005380249,0|0|0|0,1:2|1:2|1:2|1:2,1:2:0:0:
163,374,176994,2,0,L|172:340,3,35.2600005380249,8|8|8|8,1:2|1:2|1:2|1:2,0:0:0:0:
80,248,177327,1,8,1:2:0:0:
74,220,177411,1,8,1:2:0:0:
68,192,177494,1,8,1:2:0:0:
62,164,177577,1,8,1:2:0:0:
56,138,177661,6,0,P|126:138|206:163,1,131.580000803101,6|0,1:2|0:2,0:2:0:0:
215,176,177994,2,0,P|251:150|247:101,1,87.7200005354004,10|0,0:2|3:2,0:2:0:0:
127,2,178328,1,0,1:2:0:0:
119,13,178494,2,0,P|127:61|134:114,1,87.7200005354004,2|8,0:2|0:2,0:0:0:0:
93,300,178828,5,2,3:2:0:0:
93,300,178911,1,2,3:3:0:0:
93,300,178994,2,0,P|27:296|1:240,1,131.580000803101,0|0,1:2|0:0,0:0:0:0:
15,220,179328,1,10,0:2:0:0:
224,259,179494,5,2,0:2:0:0:
224,259,179578,1,0,0:0:0:0:
224,259,179661,2,0,L|272:280,3,43.8600002677002,0|2|0|2,1:2|3:3|3:2|3:3,3:2:0:0:
307,338,179994,1,10,0:2:0:0:
154,207,180161,1,2,0:2:0:0:
311,118,180328,6,0,B|345:97|372:124|370:126|367:132|397:165|433:144,1,131.580000803101,2|0,1:2|0:2,0:2:0:0:
453,137,180661,2,0,P|479:95|464:60,1,87.7200005354004,10|0,0:2|3:2,0:2:0:0:
241,66,180994,1,2,1:2:0:0:
323,217,181161,1,2,3:2:0:0:
158,263,181328,1,8,3:2:0:0:
223,185,181494,5,2,3:2:0:0:
223,185,181578,1,2,3:3:0:0:
223,185,181661,2,0,P|209:257|198:330,1,131.580000803101,0|0,1:2|0:0,0:2:0:0:
186,336,181994,1,10,0:2:0:0:
102,136,182161,5,2,0:2:0:0:
99,147,182244,1,0,0:0:0:0:
96,157,182328,1,2,1:2:0:0:
155,40,182494,1,10,0:2:0:0:
0,136,182661,1,2,1:2:0:0:
139,248,182828,1,10,0:2:0:0:
212,130,182994,6,0,P|289:147|355:164,1,131.580000803101,6|0,1:2|0:2,0:2:0:0:
365,180,183328,2,0,P|402:149|401:106,1,87.7200005354004,10|0,0:2|3:2,0:2:0:0:
396,100,183578,1,2,0:3:0:0:
390,91,183661,1,0,1:2:0:0:
255,241,183828,2,0,P|262:295|268:350,1,87.7200005354004,2|8,3:2|0:2,0:0:0:0:
119,370,184161,5,2,3:2:0:0:
119,370,184244,1,2,0:3:0:0:
119,370,184328,2,0,P|63:373|30:309,1,131.580000803101,0|0,1:2|0:0,0:0:0:0:
41,293,184661,1,10,0:2:0:0:
144,179,184828,5,2,3:2:0:0:
140,191,184911,1,2,0:3:0:0:
137,204,184994,1,2,1:2:0:0:
111,81,185161,1,10,0:2:0:0:
229,267,185328,1,2,1:2:0:0:
27,198,185494,1,10,0:2:0:0:
289,182,185661,6,0,B|324:161|351:188|349:190|346:196|376:229|411:208,1,131.580000803101,2|0,1:2|0:2,0:2:0:0:
431,201,185994,2,0,P|457:159|442:124,1,87.7200005354004,10|2,0:2|3:2,0:0:0:0:
351,61,186328,1,0,1:2:0:0:
215,136,186494,6,0,L|206:85,1,43.8600002677002,14|0,0:2|0:0,0:2:0:0:
221,81,186661,2,0,L|230:132,1,43.8600002677002,0|0,1:2|0:0,0:0:0:0:
124,269,186828,6,0,P|62:276|44:197,1,131.580000803101,14|0,0:2|0:0,0:2:0:0:
44,204,187161,1,2,1:2:0:0:
195,335,187328,2,0,P|235:363|283:350,1,87.7200005354004,10|2,0:2|1:2,0:0:0:0:
386,303,187661,5,10,0:2:0:0:
405,283,187744,1,8,0:0:0:0:
416,255,187827,1,10,0:2:0:0:
411,222,187911,1,8,0:2:0:0:
391,195,187994,1,10,0:2:0:0:
366,174,188077,1,8,0:0:0:0:
357,138,188161,1,10,0:2:0:0:
372,106,188244,1,8,0:2:0:0:
396,87,188327,6,0,P|326:102|259:115,1,131.580000803101,14|0,1:2|0:2,0:2:0:0:
231,138,188660,2,0,P|199:96|202:58,1,87.7200005354004,10|0,0:2|3:2,0:2:0:0:
319,242,188993,1,0,1:2:0:0:
327,252,189160,2,0,P|317:301|307:342,1,87.7200005354004,2|8,3:2|0:2,0:2:0:0:
153,232,189494,5,2,3:2:0:0:
153,232,189577,1,2,0:3:0:0:
153,232,189661,2,0,B|119:206|86:226|94:241|61:264|27:243,1,131.580000803101,0|0,1:0|0:0,0:0:0:0:
14,229,189994,1,10,0:2:0:0:
159,334,190161,5,2,3:2:0:0:
159,334,190243,1,0,0:0:0:0:
159,334,190327,2,0,L|210:320,3,43.8600002677002,2|2|2|2,1:2|0:3|3:2|0:3,0:0:0:0:
248,262,190660,1,10,0:2:0:0:
88,377,190827,1,2,3:2:0:0:
224,157,190994,6,0,P|280:169|365:191,1,131.580000803101,2|0,1:2|0:2,0:2:0:0:
371,207,191327,2,0,P|408:170|406:128,1,87.7200005354004,10|2,0:2|3:2,0:2:0:0:
404,125,191577,1,2,0:3:0:0:
396,113,191661,1,0,1:2:0:0:
248,262,191827,1,10,0:2:0:0:
418,341,191993,1,0,1:0:0:0:
290,188,192160,6,0,P|278:259|268:337,1,131.580000803101,14|0,0:2|0:0,0:0:0:0:
287,347,192493,1,2,1:2:0:0:
165,213,192660,1,10,0:2:0:0:
296,74,192827,5,2,1:2:0:0:
296,74,192910,1,0,1:2:0:0:
296,74,192994,2,0,L|350:84,3,43.8600002677002,10|8|8|4,0:2|0:2|0:3|0:3,0:0:0:0:
398,35,193327,1,4,1:3:0:0:
226,113,193493,1,8,0:2:0:0:
375,217,193661,5,6,1:2:0:0:
464,255,193828,2,0,P|456:199|449:152,1,87.7200005354004,4|4,1:3|1:3,0:0:0:0:
446,148,194078,1,0,1:0:0:0:
442,137,194161,1,2,1:2:0:0:
310,296,194328,2,0,P|243:294|219:214,1,131.580000803101,10|0,0:2|0:0,0:2:0:0:
218,224,194661,1,0,1:2:0:0:
389,319,194828,1,2,1:2:0:0:
227,134,194994,6,0,P|182:123|141:156,1,87.7200005354004,10|0,0:2|1:2,0:2:0:0:
35,331,195327,2,0,P|99:338|133:232,1,175.440001070801,14|2,0:2|0:0,0:2:0:0:
21,148,195827,1,0,1:2:0:0:
21,148,195994,2,0,P|37:186|100:193,1,87.7200005354004,14|0,0:2|0:0,0:0:0:0:
193,27,196327,6,0,P|253:42|331:67,1,131.580000803101,6|0,1:2|0:0,0:2:0:0:
392,143,196661,6,0,L|406:96,1,43.8600002677002,2|0,1:2|0:0,0:0:0:0:
392,97,196827,2,0,L|377:143,1,43.8600002677002,2|0,1:2|0:0,0:0:0:0:
276,177,196994,5,10,0:2:0:0:
380,12,197161,1,2,3:2:0:0:
506,145,197327,1,2,1:2:0:0:
396,228,197494,1,2,1:2:0:0:
496,57,197661,6,0,L|508:162,1,87.7200005354004,6|2,0:2|3:2,0:0:0:0:
276,177,197994,2,0,L|264:72,1,87.7200005354004,2|2,1:2|1:2,0:0:0:0:
228,248,198327,5,10,0:2:0:0:
308,33,198494,1,2,3:2:0:0:
290,320,198661,5,2,1:2:0:0:
370,105,198828,1,2,1:2:0:0:
440,319,198994,5,14,0:2:0:0:
456,229,199161,2,0,P|409:239|362:246,1,87.7200005354004,0|0,1:2|0:0,0:2:0:0:
354,237,199411,1,0,0:0:0:0:
343,241,199494,1,0,1:2:0:0:
219,371,199661,2,0,P|152:369|128:289,1,131.580000803101,14|0,0:2|0:0,0:0:0:0:
192,158,199994,1,0,0:0:0:0:
311,319,200161,1,0,1:2:0:0:
115,217,200327,6,0,P|88:177|112:126,1,87.7200005354004,10|0,0:2|0:2,0:2:0:0:
323,0,200661,2,0,B|281:155|281:155|392:189,1,263.160001606201,12|2,0:2|0:0,0:2:0:0:
453,272,201327,6,0,L|462:237,6,21.9300001338501,2|0|0|0|0|0|0,0:0|0:0|0:0|0:0|0:2|0:0|0:0,0:0:0:0:
408,342,201661,6,0,P|380:305|302:324,1,118.679996015991,6|0,1:2|0:2,0:2:0:0:
298,337,201994,2,0,P|262:350|218:318,1,79.1199973439942,10|0,0:2|3:2,0:2:0:0:
213,319,202244,1,0,3:3:0:0:
205,309,202327,1,2,1:2:0:0:
93,227,202494,2,0,P|81:274|70:318,1,79.1199973439942,2|8,0:2|0:2,0:0:0:0:
258,91,202827,6,0,P|270:138|281:182,1,79.1199973439942,2|0,3:2|1:2,0:0:0:0:
171,103,203161,1,2,0:2:0:0:
338,72,203327,5,8,0:2:0:0:
210,195,203494,1,2,0:2:0:0:
255,19,203661,5,2,1:2:0:0:
288,213,203827,1,2,3:2:0:0:
217,99,203994,5,10,0:2:0:0:
323,139,204161,1,2,0:2:0:0:
113,287,204327,6,0,P|86:250|130:182,1,118.679996015991,2|0,1:2|0:2,0:2:0:0:
118,166,204661,1,10,0:2:0:0:
247,257,204827,1,0,3:2:0:0:
247,257,204911,1,0,3:3:0:0:
247,257,204994,1,2,1:2:0:0:
164,351,205161,2,0,P|109:369|74:389,1,79.1199973439942,2|10,3:2|3:2,0:0:0:0:
311,197,205494,6,0,P|366:200|394:311,1,158.239994687988,2|2,3:2|0:2,0:0:0:0:
339,321,205994,1,10,0:2:0:0:
430,363,206161,1,2,0:2:0:0:
237,238,206327,5,2,1:2:0:0:
382,163,206494,1,10,0:2:0:0:
267,56,206661,5,2,1:2:0:0:
311,197,206827,1,10,0:2:0:0:
176,329,206994,6,0,P|114:343|58:390,1,118.679996015991,2|0,1:2|0:2,0:2:0:0:
39,372,207327,2,0,P|5:347|16:286,1,79.1199973439942,10|0,0:2|3:2,0:2:0:0:
5,298,207577,1,0,0:3:0:0:
15,289,207661,1,2,1:2:0:0:
108,160,207827,2,0,P|125:211|139:248,1,79.1199973439942,2|8,3:2|0:2,0:0:0:0:
257,349,208161,6,0,P|274:298|288:261,1,79.1199973439942,2|0,3:2|1:2,0:0:0:0:
384,231,208494,1,2,3:2:0:0:
261,159,208661,1,10,0:2:0:0:
388,88,208827,1,2,3:2:0:0:
289,8,208994,6,0,P|302:64|311:111,1,79.1199973439942,2|8,1:2|0:2,0:0:0:0:
127,201,209327,2,0,P|135:162|144:123,1,79.1199973439942,2|10,1:2|0:2,0:0:0:0:
257,228,209661,5,2,1:2:0:0:
136,298,209827,1,2,1:2:0:0:
247,364,209994,1,10,0:2:0:0:
127,201,210161,2,0,P|79:215|60:265,1,79.1199973439942,2|0,3:2|1:2,0:0:0:0:
297,303,210494,2,0,P|336:318|381:341,1,79.1199973439942,8|0,0:2|1:2,0:2:0:0:
243,131,210827,6,0,P|218:197|192:307,1,158.239994687988,14|2,0:2|1:2,0:2:0:0:
327,160,211327,1,10,0:2:0:0:
191,57,211494,1,2,3:2:0:0:
317,37,211661,5,0,1:2:0:0:
147,139,211827,1,8,0:2:0:0:
147,139,211911,1,8,0:2:0:0:
147,139,211994,1,8,1:2:0:0:
310,242,212161,1,8,0:2:0:0:
310,242,212244,1,8,0:2:0:0:
310,242,212327,6,0,P|358:228|407:300,1,118.679996015991,6|0,1:2|0:2,0:2:0:0:
425,307,212661,2,0,P|451:339|503:338,1,79.1199973439942,10|0,0:2|3:2,0:2:0:0:
500,337,212911,1,0,3:3:0:0:
507,332,212994,1,2,1:2:0:0:
311,331,213161,2,0,P|268:346|233:370,1,79.1199973439942,2|8,0:2|0:2,0:0:0:0:
390,214,213494,6,0,P|401:161|416:118,1,79.1199973439942,2|0,3:2|1:2,0:0:0:0:
165,67,213827,5,2,0:2:0:0:
239,100,213994,1,10,0:2:0:0:
179,155,214161,5,2,0:2:0:0:
233,17,214327,1,2,1:2:0:0:
80,247,214494,5,2,3:2:0:0:
26,109,214660,1,10,0:2:0:0:
224,259,214827,5,2,0:2:0:0:
224,259,214911,1,0,0:0:0:0:
224,259,214994,2,0,P|195:288|149:287,1,79.1199973439942,2|0,1:2|0:0,0:2:0:0:
325,173,215327,2,0,P|370:192|408:204,1,79.1199973439942,10|0,0:2|3:2,0:2:0:0:
234,123,215661,1,2,1:2:0:0:
307,262,215827,2,0,P|293:303|280:356,1,79.1199973439942,2|8,3:2|3:2,0:0:0:0:
158,210,216161,6,0,P|147:172|134:135,1,79.1199973439942,2|0,3:2|1:2,0:0:0:0:
168,58,216494,1,2,0:2:0:0:
57,151,216661,5,10,0:2:0:0:
234,222,216827,1,2,0:2:0:0:
80,311,216994,5,2,1:2:0:0:
149,165,217161,1,10,0:2:0:0:
196,337,217327,5,2,1:2:0:0:
94,284,217494,1,10,0:2:0:0:
282,265,217661,6,0,P|328:257|374:330,1,118.679996015991,2|0,1:2|0:2,0:2:0:0:
381,331,217994,1,10,0:2:0:0:
470,240,218161,1,0,3:2:0:0:
470,240,218244,1,0,0:3:0:0:
470,240,218327,1,2,1:2:0:0:
274,80,218494,5,10,0:2:0:0:
274,80,218577,1,8,0:2:0:0:
274,80,218661,2,0,L|283:23,1,39.5599986719971,8|8,0:2|0:3,0:0:0:0:
90,135,218827,1,10,0:3:0:0:
90,135,218911,1,4,0:3:0:0:
90,135,218994,6,0,B|151:112|193:184|183:196|174:209|218:284|298:245,1,237.359992031983,6|0,1:2|0:0,0:0:0:0:
399,328,219661,6,0,P|389:263|340:76,1,237.359992031983,6|2,1:2|0:0,0:0:0:0:
346,96,220327,1,0,1:2:0:0:
228,10,220494,5,10,0:2:0:0:
139,63,220661,1,10,0:2:0:0:
173,158,220827,1,2,1:2:0:0:
90,222,220994,5,10,0:2:0:0:
167,304,221161,1,10,0:2:0:0:
245,246,221327,1,2,1:2:0:0:
397,335,221494,5,14,0:2:0:0:
256,192,221577,12,0,226327,0:0:0:0:
