osu file format v14

[General]
AudioFilename: audio.mp3
AudioLeadIn: 0
PreviewTime: 176758
Countdown: 0
SampleSet: Soft
StackLeniency: 0.7
Mode: 0
LetterboxInBreaks: 0
WidescreenStoryboard: 1

[Editor]
Bookmarks: 10998,12331,17665,26998,30998,33665,36331,40998,44331,49665,52331,54998,55831,56165,57665,60331,61165,61498,62998,64331,65665,68331,70998,73665,82998,89665,92331,96998,102998,113665,116331,118998,121665,122498,122831,124331,126998,127831,128165,129665,131008,132331,138998,141165,141498,142998,148328,152328,156328,166327,173661,176341,180327,182994,185661,186494,186827,188327,190994,191827,192161,193661,194994,198994,199661,200327,201661,204327,206994,210494,210827,212327,214994,217661,219661,221494,226327
DistanceSpacing: 1.4
BeatDivisor: 4
GridSize: 32
TimelineZoom: 2.999999

[Metadata]
Title:Yuke
TitleUnicode:往け
Artist:LiSA
ArtistUnicode:LiSA
Creator:Sotarks
Version:Eli & Pepe's Hard
Source:劇場版 ソードアート・オンライン -プログレッシブ- 星なき夜のアリア
Tags:sao sword art online progressive the movie hoshi naki yoru no aria of a starless night opening op full version female vocalist jpop j-pop anime a-1 pictures yuuki asuna kirigaya kazuto mito hoshinaki [_eli_] eli elinor pepekcz nymphe kiyoshi guarden kang sae-byeok reform kujinn pop japanese ayase oribe risa
BeatmapID:3275832
BeatmapSetID:1604123

[Difficulty]
HPDrainRate:4.8
CircleSize:3.8
OverallDifficulty:7.4
ApproachRate:7.8
SliderMultiplier:1.4
SliderTickRate:1

[Events]
//Background and Video events
0,0,"bg.jpg",0,0
//Break Periods
2,17865,26219
2,156528,165548
//Storyboard Layer 0 (Background)
//Storyboard Layer 1 (Fail)
//Storyboard Layer 2 (Pass)
//Storyboard Layer 3 (Foreground)
//Storyboard Layer 4 (Overlay)
//Storyboard Sound Samples

[TimingPoints]
332,333.333333333333,4,2,22,82,1,0
1665,-142.857142857143,4,2,22,82,0,0
6998,-125,4,2,22,82,0,0
7498,-125,4,2,22,62,0,0
17665,-142.857142857143,4,2,22,52,0,0
26998,-250.000000000001,4,2,22,52,0,0
28331,-111.111111111111,4,2,22,72,0,0
36331,-125,4,2,22,62,0,0
41581,-125,4,2,22,5,0,0
41665,-111.111111111111,4,2,22,62,0,0
45831,-111.111111111111,4,2,22,52,0,0
46998,-100,4,2,22,82,0,0
64665,-166.666666666667,4,2,22,82,0,0
65665,-90.9090909090909,4,2,22,82,0,1
72331,-90.9090909090909,4,2,22,72,0,1
73665,-100,4,2,22,62,0,0
84331,-111.111111111111,4,2,22,72,0,0
92331,-125,4,2,22,62,0,0
102998,-111.111111111111,4,2,22,72,0,0
108665,-111.111111111111,4,2,22,42,0,0
109665,-111.111111111111,4,2,22,52,0,0
110998,-111.111111111111,4,2,22,62,0,0
111665,-111.111111111111,4,2,22,72,0,0
113665,-100,4,2,22,82,0,0
132331,-111.111111111111,4,2,22,72,0,0
147341,273.972602739726,4,2,22,72,1,0
147341,-111.111111111111,4,2,22,72,0,0
147546,408.163265306122,4,2,22,72,1,0
147648,275.229357798165,4,2,22,72,1,0
147648,-111.111111111111,4,2,22,72,0,0
147854,294.117647058824,4,2,22,72,1,0
148001,327.868852459016,4,2,22,72,1,0
148328,333.333333333333,4,2,22,72,1,0
148328,-125,4,2,22,72,0,0
152327,-166.666666666667,4,2,22,72,0,0
153661,-166.666666666667,4,2,22,42,0,0
156327,-142.857142857143,4,2,22,42,0,0
166994,-125,4,2,22,52,0,0
172327,-125,4,2,22,62,0,0
173661,-111.111111111111,4,2,22,72,0,0
174244,-111.111111111111,4,2,22,5,0,0
174327,-111.111111111111,4,2,22,72,0,0
177661,-100,4,2,22,92,0,0
193661,-100,4,2,22,82,0,0
196327,-100,4,2,22,82,0,0
200661,-166.666666666667,4,2,22,82,0,0
201661,-90.9090909090909,4,2,22,72,0,1
218994,-100,4,2,22,72,0,0
221494,-250,4,2,22,72,0,0
221577,-250,4,2,22,5,0,0
226327,-250,4,2,22,5,0,0

[Colours]
Combo1 : 100,96,96
Combo2 : 172,38,65
Combo3 : 133,167,228

[HitObjects]
40,44,1665,6,0,L|59:140,1,97.9999970092774,2|2,0:2|0:2,0:2:0:0:
100,280,2331,2,0,L|147:269,1,48.9999985046387,2|2,1:2|0:2,0:0:0:0:
276,192,2831,2,0,B|324:192|312:236|360:236,2,97.9999970092774,2|0|2,0:2|0:0|0:2,0:2:0:0:
276,192,4331,6,0,L|179:211,1,97.9999970092774,2|2,0:2|0:2,0:2:0:0:
48,148,4998,2,0,L|37:100,1,48.9999985046387,2|2,1:2|0:2,0:0:0:0:
160,16,5498,1,2,0:2:0:0:
160,16,5665,2,0,L|207:5,1,48.9999985046387,0|2,0:2|0:2,0:0:0:0:
272,44,5998,2,0,L|282:91,1,48.9999985046387,0|2,0:2|0:2,0:0:0:0:
480,308,6831,5,0,3:2:0:0:
472,324,6915,1,0,3:2:0:0:
464,340,6998,2,0,L|296:305,1,168,10|2,0:2|0:2,0:0:0:0:
176,40,8331,6,0,L|340:74,1,168,2|2,0:2|0:2,0:2:0:0:
120,344,9665,6,0,L|37:326,2,84,10|0|2,0:2|0:0|0:2,0:0:0:0:
160,276,10331,2,0,L|77:258,2,84,0|2|2,0:0|0:2|0:2,0:0:0:0:
252,348,10998,6,0,L|263:293,1,56,8|2,0:2|0:2,0:2:0:0:
332,256,11331,2,0,L|343:201,1,56,2|8,0:2|0:2,0:0:0:0:
280,152,11665,2,0,L|291:97,1,56,2|2,0:2|0:2,0:0:0:0:
312,20,11998,1,2,0:2:0:0:
428,24,12165,5,0,1:2:0:0:
447,28,12248,1,0,1:2:0:0:
467,32,12331,2,0,P|500:99|467:180,1,168,10|2,0:2|0:2,0:0:0:0:
280,324,13331,2,0,L|252:318,3,28,0|0|0|0,3:3|3:3|3:2|3:2,3:3:0:0:
215,303,13665,6,0,P|174:237|197:154,1,168,10|2,0:2|0:2,0:0:0:0:
278,20,14498,1,0,0:2:0:0:
356,32,14665,2,0,L|383:37,3,28,8|8|8|4,0:2|0:2|0:3|0:3,0:0:0:0:
404,72,14998,6,0,L|386:154,2,84,10|0|10,0:2|0:0|0:2,0:0:0:0:
472,112,15664,2,0,L|454:194,2,84,0|2|2,0:0|0:2|0:2,0:0:0:0:
444,4,16331,5,8,0:2:0:0:
372,48,16498,1,8,0:3:0:0:
372,48,16665,1,4,0:3:0:0:
260,0,16831,2,0,B|205:-21|148:45|184:60|135:114|77:99,1,224,6|2,3:2|3:2,3:2:0:0:
12,4,17665,5,6,1:2:0:0:
48,344,26998,6,0,B|91:355|127:314|100:304|143:254|183:270,1,168,6|2,1:2|0:2,0:2:0:0:
328,344,28331,6,0,L|453:317,1,125.999996154785,6|10,1:2|0:2,0:2:0:0:
492,248,28831,1,2,3:2:0:0:
364,144,29165,2,0,L|301:157,2,62.9999980773926,2|0|8,1:2|3:2|0:2,0:2:0:0:
436,104,29665,6,0,P|444:72|436:44,1,62.9999980773926,2|2,1:2|1:2,0:0:0:0:
360,8,29998,1,2,3:2:0:0:
360,8,30165,1,10,0:2:0:0:
236,76,30498,1,2,1:2:0:0:
236,76,30665,2,0,L|173:62,1,62.9999980773926,10|2,0:2|3:2,0:2:0:0:
64,24,30998,6,0,P|24:64|24:132,1,125.999996154785,2|10,1:2|0:2,0:2:0:0:
64,208,31498,1,2,0:2:0:0:
228,208,31831,2,0,L|290:194,1,62.9999980773926,2|0,1:2|3:2,0:2:0:0:
328,124,32165,5,10,0:2:0:0:
328,124,32331,2,0,L|457:151,1,125.999996154785,2|10,0:2|0:2,0:2:0:0:
508,304,32998,2,0,L|494:366,1,62.9999980773926,10|0,0:2|1:2,0:2:0:0:
412,368,33331,2,0,L|349:354,1,62.9999980773926,2|8,3:2|0:2,0:2:0:0:
272,268,33665,6,0,B|216:268|224:332|168:332,1,125.999996154785,2|10,1:2|0:2,0:2:0:0:
20,264,34331,2,0,P|8:236|20:208,1,62.9999980773926,2|0,1:2|1:2,0:2:0:0:
68,140,34665,2,0,P|100:128|128:140,1,62.9999980773926,2|0,0:2|1:2,0:2:0:0:
171,223,34998,6,0,L|151:306,2,83.9999974365235,10|2|2,0:2|0:0|0:0,0:0:0:0:
288,237,35665,2,0,L|268:329,2,94.499997116089,10|10|10,1:2|1:2|1:2,0:2:0:0:
336,144,36331,6,0,L|390:155,1,56,10|2,1:1|0:2,0:0:0:0:
460,204,36665,1,10,0:1:0:0:
460,204,36831,2,0,L|432:316,1,112,2|2,0:2|0:2,0:2:0:0:
280,348,37498,6,0,P|228:348|192:304,1,112,2|2,0:2|0:2,0:2:0:0:
184,228,37998,2,0,L|238:216,1,56,10|2,0:1|0:2,0:0:0:0:
316,200,38331,1,10,1:1:0:0:
472,172,38665,1,10,0:1:0:0:
440,20,38998,6,0,L|385:31,1,56,10|2,1:1|0:2,0:0:0:0:
328,84,39331,1,10,0:1:0:0:
328,84,39498,2,0,B|272:84|280:40|228:40,1,112,2|2,0:2|0:2,0:2:0:0:
72,40,40165,6,0,L|95:149,1,112,2|2,0:2|0:2,0:2:0:0:
168,184,40665,2,0,L|156:238,1,56,10|2,0:1|0:2,0:0:0:0:
124,352,40998,1,10,0:2:0:0:
124,352,41165,2,0,P|56:352|20:288,1,140,4|0,1:3|0:0,0:2:0:0:
20,252,41665,6,0,L|33:190,1,62.9999980773926,6|0,1:2|0:2,0:0:0:0:
100,144,41998,1,4,1:3:0:0:
100,144,42165,2,0,L|161:157,1,62.9999980773926,2|4,1:2|1:3,0:2:0:0:
218,217,42498,2,0,L|279:203,1,62.9999980773926,2|0,1:2|1:2,0:0:0:0:
300,200,42748,5,8,0:2:0:0:
320,196,42831,2,0,L|292:64,1,125.999996154785,10|8,0:2|1:3,0:0:0:0:
360,24,43331,1,4,1:3:0:0:
360,24,43498,1,2,0:2:0:0:
480,132,43831,1,10,0:2:0:0:
504,208,43998,1,8,1:2:0:0:
499,227,44081,1,8,0:2:0:0:
495,247,44165,1,10,0:2:0:0:
404,320,44331,6,0,L|342:306,1,62.9999980773926,2|8,1:2|0:2,0:0:0:0:
288,244,44665,2,0,L|226:257,1,62.9999980773926,10|8,0:2|0:2,0:0:0:0:
152,276,44998,1,10,1:2:0:0:
152,276,45165,1,8,0:2:0:0:
132,196,45331,1,10,0:2:0:0:
132,196,45498,1,8,0:2:0:0:
464,84,46498,6,0,L|471:115,5,31.4999990386963,2|0|2|0|2|0,0:2|0:0|0:2|0:0|0:2|0:0,0:0:0:0:
448,156,46998,6,0,L|462:226,1,70,6|0,1:2|0:0,0:2:0:0:
448,316,47331,2,0,L|311:345,1,140,10|0,0:2|1:2,0:2:0:0:
240,288,47831,2,0,P|228:256|240:224,1,70,2|8,3:2|0:2,0:2:0:0:
316,172,48165,2,2,P|328:140|316:108,1,70,2|0,3:2|1:0,0:3:0:0:
252,40,48498,5,2,3:2:0:0:
160,32,48665,2,0,L|89:46,1,70,10|2,0:2|3:2,0:0:0:0:
44,124,48998,2,0,L|58:194,1,70,2|2,1:2|3:2,0:0:0:0:
128,256,49331,1,10,0:2:0:0:
128,256,49498,1,2,3:2:0:0:
236,176,49665,6,0,P|272:176|300:196,1,70,2|0,1:2|0:0,0:2:0:0:
364,260,49998,2,0,L|349:330,1,70,10|0,0:2|3:2,0:2:0:0:
268,368,50331,1,2,1:2:0:0:
176,364,50498,2,0,L|105:349,1,70,2|8,3:2|3:2,0:2:0:0:
32,300,50831,2,0,L|46:231,1,70,2|0,3:2|1:2,0:0:0:0:
96,156,51165,5,2,3:2:0:0:
160,220,51331,2,0,L|228:234,1,70,10|2,0:2|3:2,0:0:0:0:
312,196,51665,1,2,1:2:0:0:
312,196,51831,1,10,0:2:0:0:
280,116,51998,1,2,1:2:0:0:
280,116,52165,1,10,0:2:0:0:
368,32,52331,6,0,P|404:32|432:52,1,70,6|0,1:2|0:0,0:2:0:0:
496,116,52665,2,0,L|466:256,1,140,10|0,0:2|1:2,0:2:0:0:
416,328,53165,2,0,L|345:313,1,70,2|8,3:2|0:2,0:0:0:0:
284,248,53498,2,0,L|215:262,1,70,2|0,3:2|1:2,0:2:0:0:
156,332,53831,5,2,3:2:0:0:
68,308,53998,2,0,L|53:239,1,70,10|2,0:2|3:2,0:0:0:0:
100,160,54331,1,2,1:2:0:0:
100,160,54498,1,10,0:2:0:0:
188,188,54665,1,2,1:2:0:0:
188,188,54831,1,10,0:2:0:0:
296,112,54998,6,0,P|296:40|244:0,1,140,2|10,1:2|0:2,0:2:0:0:
160,0,55498,2,0,L|91:14,1,70,2|0,3:2|1:2,0:2:0:0:
4,108,55831,2,0,L|18:176,1,70,14|0,0:2|1:2,0:2:0:0:
108,268,56165,2,0,L|176:253,1,70,14|0,0:2|1:2,0:2:0:0:
224,176,56498,5,2,1:2:0:0:
312,152,56665,2,0,L|380:166,1,70,10|2,0:2|1:2,0:0:0:0:
408,252,56998,2,0,L|400:287,3,35,10|0|10|8,0:2|0:0|0:2|0:2,0:0:0:0:
392,332,57331,1,10,0:2:0:0:
268,360,57498,5,10,0:2:0:0:
244,355,57581,1,8,0:2:0:0:
224,350,57665,2,0,L|155:364,1,70,14|0,1:2|0:0,0:2:0:0:
72,328,57998,2,0,P|44:272|68:200,1,140,10|0,0:2|1:2,0:2:0:0:
140,148,58498,2,0,L|208:162,1,70,2|8,3:2|0:2,0:2:0:0:
256,240,58831,2,2,L|324:225,1,70,2|0,3:2|1:0,0:3:0:0:
404,180,59165,5,2,3:2:0:0:
432,96,59331,2,0,P|432:60|412:32,1,70,10|2,0:2|3:2,0:0:0:0:
324,8,59665,2,0,P|288:8|260:28,1,70,2|2,1:2|3:2,0:0:0:0:
212,104,59998,1,10,0:2:0:0:
212,104,60165,1,2,3:2:0:0:
292,208,60331,6,0,L|261:352,1,140,2|10,1:2|0:2,0:2:0:0:
176,372,60831,2,0,L|107:357,1,70,2|0,3:2|1:2,0:0:0:0:
0,272,61165,2,0,L|14:204,1,70,10|0,0:2|1:0,0:0:0:0:
136,140,61498,2,0,L|204:154,1,70,14|0,0:2|1:0,0:0:0:0:
296,172,61831,5,2,1:2:0:0:
336,92,61998,2,0,P|336:52|320:28,1,70,10|2,0:2|1:2,0:0:0:0:
308,12,62248,1,0,1:2:0:0:
292,0,62331,2,0,L|252:8,3,35,10|8|8|4,0:2|0:2|0:3|0:3,0:0:0:0:
212,12,62665,1,4,1:3:0:0:
212,12,62831,1,8,0:2:0:0:
84,72,62998,6,0,P|56:132|84:196,1,140,6|0,1:2|1:2,0:0:0:0:
132,272,63498,1,2,1:2:0:0:
220,292,63665,2,0,L|288:278,1,70,10|0,0:2|0:2,0:2:0:0:
380,260,63998,1,0,1:2:0:0:
380,260,64165,1,2,1:2:0:0:
440,144,64331,5,10,0:2:0:0:
304,24,64665,2,0,B|256:-4|200:36|232:60|172:112|124:80,1,209.999993591309,14|0,0:2|0:0,0:2:0:0:
48,188,65665,6,0,L|124:203,1,77.0000023498536,6|0,1:2|0:0,0:2:0:0:
184,284,65998,2,0,L|259:268,1,77.0000023498536,10|0,0:2|3:2,0:0:0:0:
356,248,66331,1,2,1:2:0:0:
376,148,66498,2,0,P|376:112|352:80,1,77.0000023498536,2|0,1:2|0:2,0:2:0:0:
264,32,66831,2,0,P|228:32|196:56,1,77.0000023498536,10|0,0:2|0:0,0:2:0:0:
116,116,67165,5,0,1:2:0:0:
120,135,67248,1,2,0:3:0:0:
123,151,67331,2,0,L|139:226,1,77.0000023498536,2|10,3:2|0:2,0:0:0:0:
224,276,67665,2,0,L|208:351,1,77.0000023498536,2|2,0:2|1:2,0:0:0:0:
112,372,67998,1,10,0:2:0:0:
112,372,68165,1,2,3:2:0:0:
16,276,68331,6,0,P|16:240|40:208,1,77.0000023498536,6|0,1:2|0:0,0:2:0:0:
123,151,68665,2,0,P|159:151|191:175,1,77.0000023498536,10|0,0:2|3:2,0:0:0:0:
240,264,68998,1,2,1:2:0:0:
288,352,69165,2,0,L|363:336,1,77.0000023498536,2|0,1:2|0:2,0:2:0:0:
408,248,69498,2,0,L|333:232,1,77.0000023498536,10|0,0:2|0:0,0:2:0:0:
272,152,69831,5,0,1:2:0:0:
308,60,69998,2,0,P|336:36|376:36,1,77.0000023498536,10|2,3:2|1:2,0:0:0:0:
468,68,70331,2,0,P|492:96|492:136,1,77.0000023498536,10|2,0:2|1:2,0:0:0:0:
432,216,70665,1,10,0:2:0:0:
432,216,70831,1,10,3:2:0:0:
296,240,70998,6,0,L|221:224,1,77.0000023498536,6|0,1:2|0:0,0:2:0:0:
180,136,71331,2,0,L|105:152,1,77.0000023498536,10|0,0:2|0:0,0:0:0:0:
48,236,71665,1,2,1:2:0:0:
84,328,71831,2,0,P|112:352|152:352,1,77.0000023498536,10|8,0:2|0:2,0:0:0:0:
244,312,72165,2,0,P|281:312|310:336,1,77.0000023498536,0|4,3:2|1:2,0:0:0:0:
408,364,72498,6,0,L|424:285,2,77.0000023498536,0|2|2,0:0|0:2|3:2,0:0:0:0:
310,336,72998,2,0,L|343:179,1,154.000004699707,2|0,3:2|0:0,0:2:0:0:
364,88,73498,1,2,0:2:0:0:
248,24,73665,6,0,P|184:8|132:52,1,140,6|8,1:2|0:2,0:2:0:0:
80,128,74165,1,2,0:0:0:0:
80,128,74331,2,0,L|112:268,1,140,2|0,1:2|0:2,0:0:0:0:
144,356,74831,5,10,0:2:0:0:
144,356,74998,2,0,B|216:356|188:292|264:292,1,140,2|0,0:2|0:2,0:2:0:0:
344,332,75498,1,8,0:2:0:0:
344,332,75665,1,0,0:0:0:0:
476,204,75998,1,8,0:2:0:0:
476,204,76165,1,0,0:2:0:0:
412,140,76331,6,0,L|276:108,1,140,2|8,1:2|0:2,0:2:0:0:
192,88,76831,1,2,0:0:0:0:
192,88,76998,2,0,P|160:112|184:208,1,140,2|0,1:2|0:2,0:0:0:0:
248,260,77498,5,10,0:2:0:0:
248,260,77665,2,0,L|233:330,1,70,2|0,0:2|1:2,0:0:0:0:
152,372,77998,2,0,L|81:357,1,70,10|0,0:2|0:2,0:2:0:0:
20,292,78331,2,0,L|34:223,1,70,10|0,0:2|1:2,0:2:0:0:
60,136,78665,1,2,1:2:0:0:
200,20,78998,6,0,B|272:20|244:84|320:84,1,140,2|8,1:2|0:2,0:2:0:0:
396,40,79498,1,2,0:2:0:0:
396,40,79665,2,0,L|425:176,1,140,2|0,1:2|0:2,0:2:0:0:
424,272,80165,5,10,0:2:0:0:
424,272,80331,2,0,P|390:280|349:256,1,70,2|0,0:2|1:2,0:2:0:0:
308,192,80665,2,0,P|274:183|233:207,1,70,2|8,0:2|0:2,0:0:0:0:
172,252,80998,2,0,P|163:285|187:326,1,70,2|0,0:2|1:2,0:2:0:0:
248,372,81331,1,10,0:2:0:0:
428,336,81665,6,0,L|457:199,1,140,6|8,1:2|0:2,0:2:0:0:
480,112,82165,1,2,0:2:0:0:
480,112,82331,2,0,P|431:63|361:77,1,140,2|8,1:2|0:2,0:0:0:0:
284,180,82831,5,2,3:2:0:0:
284,180,82998,1,10,0:2:0:0:
144,12,83665,1,8,0:2:0:0:
36,224,84331,6,0,B|92:224|84:288|140:288,1,125.999996154785,6|10,1:2|0:2,0:2:0:0:
208,248,84831,1,2,3:2:0:0:
324,132,85165,2,0,L|309:65,2,62.9999980773926,2|10|2,3:2|0:2|3:2,0:0:0:0:
388,184,85665,2,0,L|374:245,1,62.9999980773926,2|2,1:2|3:2,0:0:0:0:
356,328,85998,1,10,0:2:0:0:
356,328,86165,1,2,3:2:0:0:
200,368,86498,1,2,3:2:0:0:
200,368,86665,2,0,P|164:371|137:354,1,62.9999980773926,10|2,0:2|3:2,0:0:0:0:
76,308,86998,6,0,L|102:182,1,125.999996154785,2|10,1:2|0:2,0:2:0:0:
120,104,87498,1,2,3:2:0:0:
260,24,87831,2,0,P|295:20|323:38,1,62.9999980773926,0|10,3:2|0:2,0:0:0:0:
396,72,88165,5,2,3:2:0:0:
396,72,88331,2,0,P|411:126|378:185,1,125.999996154785,2|10,1:2|0:2,0:2:0:0:
252,288,88998,2,0,P|220:300|192:288,1,62.9999980773926,2|8,1:2|0:2,0:0:0:0:
144,224,89331,2,0,P|112:212|84:224,1,62.9999980773926,2|8,1:2|0:2,0:0:0:0:
24,328,89665,6,0,L|149:354,1,125.999996154785,2|10,1:2|0:2,0:2:0:0:
312,356,90331,2,0,L|373:342,1,62.9999980773926,2|12,1:2|0:2,0:0:0:0:
380,260,90665,2,0,L|366:199,1,62.9999980773926,2|8,1:2|0:2,0:0:0:0:
284,180,90998,2,0,L|270:119,1,62.9999980773926,6|0,1:2|1:2,0:0:0:0:
284,36,91331,1,8,1:2:0:0:
364,16,91498,1,0,0:2:0:0:
383,20,91581,1,8,0:2:0:0:
400,24,91665,2,0,L|492:44,2,94.499997116089,10|8|8,0:2|0:2|0:2,0:2:0:0:
244,12,92331,6,0,L|189:23,1,56,10|2,1:1|0:2,0:0:0:0:
124,68,92665,1,10,0:1:0:0:
124,68,92831,2,0,P|96:118|124:180,1,112,2|2,0:2|0:2,0:2:0:0:
184,288,93498,2,0,B|240:288|232:244|284:244,1,112,2|2,0:2|0:2,0:2:0:0:
348,292,93998,2,0,P|372:304|400:303,1,56,10|2,0:1|0:2,0:0:0:0:
468,260,94331,1,10,1:1:0:0:
496,104,94665,1,10,0:1:0:0:
356,36,94998,6,0,L|301:47,1,56,10|2,1:1|0:2,0:0:0:0:
252,108,95331,1,10,0:1:0:0:
252,108,95498,2,0,L|142:84,1,112,2|2,0:2|0:2,0:2:0:0:
36,200,96165,6,0,L|145:223,1,112,2|2,0:2|0:2,0:2:0:0:
216,260,96665,2,0,L|271:249,1,56,10|2,0:1|0:2,0:0:0:0:
355,182,96998,1,10,0:2:0:0:
428,220,97165,1,0,1:0:0:0:
436,236,97248,1,0,1:0:0:0:
444,252,97331,2,0,P|458:296|423:341,1,84,8|0,0:2|0:0,0:0:0:0:
404,348,97665,6,0,L|349:359,1,56,10|2,1:1|0:2,0:0:0:0:
284,324,97998,1,10,0:1:0:0:
284,324,98165,2,0,B|228:324|236:368|184:368,1,112,2|2,0:2|0:2,0:2:0:0:
51,287,98831,2,0,P|27:239|48:189,1,112,2|2,0:2|0:2,0:2:0:0:
108,139,99331,2,0,P|134:131|160:140,1,56,10|2,0:1|0:2,0:0:0:0:
224,188,99664,1,10,1:1:0:0:
320,312,99998,1,10,0:1:0:0:
436,208,100331,6,0,L|448:149,1,56,10|2,1:1|0:2,0:0:0:0:
428,80,100664,1,10,0:1:0:0:
428,80,100831,2,0,L|318:56,1,112,2|2,0:2|0:2,0:2:0:0:
196,156,101498,6,0,B|140:156|148:112|96:112,1,112,14|2,0:0|1:2,0:0:0:0:
24,128,101998,1,8,0:2:0:0:
24,128,102165,1,10,0:2:0:0:
8,204,102331,2,0,L|21:266,1,56,8|8,0:2|0:2,0:0:0:0:
40,336,102665,1,8,0:2:0:0:
40,336,102831,1,8,0:2:0:0:
152,372,102998,6,0,L|213:358,1,62.9999980773926,6|0,1:2|0:0,0:2:0:0:
284,312,103331,1,10,0:2:0:0:
284,312,103498,2,0,L|345:326,1,62.9999980773926,2|0,0:2|1:2,0:2:0:0:
424,344,103831,1,2,1:2:0:0:
504,200,104165,6,0,B|448:200|456:136|400:136,1,125.999996154785,10|2,0:2|1:2,0:2:0:0:
328,168,104665,2,0,P|296:172|265:154,1,62.9999980773926,2|10,3:2|0:2,0:0:0:0:
216,96,104998,2,0,P|184:92|153:109,1,62.9999980773926,2|0,3:2|1:2,0:2:0:0:
96,160,105331,1,10,0:2:0:0:
200,288,105665,6,0,L|261:274,1,62.9999980773926,2|0,1:2|0:2,0:2:0:0:
332,232,105998,1,10,0:2:0:0:
332,232,106165,2,0,L|318:171,1,62.9999980773926,2|0,1:2|1:2,0:0:0:0:
300,92,106498,1,2,1:2:0:0:
444,12,106831,6,0,L|469:135,1,125.999996154785,10|0,0:2|1:2,0:2:0:0:
492,216,107331,1,10,0:2:0:0:
492,216,107498,1,2,1:2:0:0:
447,284,107665,2,0,P|388:297|344:256,1,125.999996154785,10|14,0:2|0:2,0:0:0:0:
272,108,108331,6,0,P|244:92|211:94,1,62.9999980773926,2|2,1:2|0:2,0:2:0:0:
144,132,108665,1,10,0:2:0:0:
144,132,108831,2,8,L|163:225,1,94.499997116089,10|8,0:2|0:2,0:2:0:0:
196,248,109165,2,8,L|176:341,1,94.499997116089,10|8,0:2|0:2,0:2:0:0:
148,368,109498,6,8,L|85:354,1,62.9999980773926,10|8,0:2|1:2,0:2:0:0:
36,292,109831,1,10,0:2:0:0:
40,272,109915,1,8,0:2:0:0:
44,252,109998,2,8,L|57:189,1,62.9999980773926,10|10,1:2|0:2,0:2:0:0:
84,112,110331,1,8,1:2:0:0:
140,52,110498,1,10,0:2:0:0:
160,56,110582,1,8,0:2:0:0:
180,60,110665,2,8,L|243:73,1,62.9999980773926,10|10,1:2|0:2,0:2:0:0:
316,104,110998,6,8,P|340:148|324:196,1,94.499997116089,10|8,1:2|0:2,0:2:0:0:
300,216,111331,2,8,P|276:260|292:308,1,94.499997116089,10|8,1:2|0:2,0:2:0:0:
316,328,111665,2,0,L|359:318,5,31.4999990386963,10|8|10|8|10|8,1:2|0:2|0:2|0:2|1:2|0:2,0:0:0:0:
388,308,112165,1,14,1:2:0:0:
388,308,112998,6,0,L|485:328,2,94.499997116089,12|4|12,0:3|0:3|0:3,0:2:0:0:
280,228,113665,6,0,L|209:242,1,70,6|0,1:2|0:0,0:2:0:0:
140,300,113998,2,0,P|96:312|36:244,1,140,10|0,0:2|1:2,0:2:0:0:
40,160,114498,2,0,L|108:146,1,70,2|8,3:2|0:2,0:2:0:0:
156,68,114831,2,2,L|224:81,1,70,2|0,3:2|1:0,0:3:0:0:
316,92,115165,5,2,3:2:0:0:
404,116,115331,2,0,P|416:148|408:184,1,70,10|2,0:2|3:2,0:0:0:0:
332,232,115665,2,0,P|320:268|332:300,1,70,2|2,1:2|3:2,0:0:0:0:
400,364,115998,1,10,0:2:0:0:
400,364,116165,1,2,3:2:0:0:
492,272,116331,6,0,L|506:203,1,70,2|0,1:2|0:0,0:2:0:0:
488,112,116665,2,0,P|459:92|424:93,1,70,10|0,0:2|3:2,0:2:0:0:
356,152,116998,1,2,1:2:0:0:
288,212,117165,2,0,P|253:212|225:192,1,70,2|8,3:2|3:2,0:2:0:0:
176,116,117498,2,0,P|144:104|108:112,1,70,2|0,3:2|1:2,0:0:0:0:
28,152,117831,5,2,3:2:0:0:
0,240,117998,2,0,L|14:309,1,70,10|2,0:2|3:2,0:0:0:0:
88,372,118331,1,2,1:2:0:0:
88,372,118498,1,10,0:2:0:0:
160,316,118665,1,2,1:2:0:0:
160,316,118831,1,10,0:2:0:0:
264,376,118998,6,0,P|300:376|328:356,1,70,6|0,1:2|0:0,0:2:0:0:
352,268,119331,2,0,B|424:268|396:336|464:336,1,140,10|0,0:2|1:2,0:2:0:0:
512,256,119831,2,0,L|498:187,1,70,2|8,3:2|0:2,0:0:0:0:
436,120,120165,2,0,L|367:134,1,70,2|0,3:2|1:2,0:2:0:0:
296,188,120498,5,2,3:2:0:0:
224,244,120665,2,0,P|188:256|160:244,1,70,10|2,0:2|3:2,0:0:0:0:
108,172,120998,1,2,1:2:0:0:
108,172,121165,1,10,0:2:0:0:
136,88,121331,1,2,1:2:0:0:
136,88,121498,1,10,0:2:0:0:
252,24,121665,6,0,L|389:53,1,140,2|10,1:2|0:2,0:2:0:0:
440,128,122165,2,0,P|449:161|438:193,1,70,2|0,3:2|1:2,0:2:0:0:
324,264,122498,2,0,P|290:273|258:262,1,70,14|0,0:2|1:2,0:2:0:0:
180,152,122831,2,0,P|146:142|114:153,1,70,14|0,0:2|1:2,0:2:0:0:
52,220,123165,5,2,1:2:0:0:
80,308,123331,2,0,L|148:322,1,70,10|2,0:2|1:2,0:0:0:0:
232,364,123665,2,0,L|267:356,3,35,10|0|10|8,0:2|0:0|0:2|0:2,0:0:0:0:
312,348,123998,1,10,0:2:0:0:
416,260,124165,5,10,0:2:0:0:
412,240,124248,1,8,0:2:0:0:
408,220,124332,2,0,L|394:151,1,70,14|0,1:2|0:0,0:2:0:0:
368,64,124665,2,0,P|312:36|240:59,1,140,10|0,0:2|1:2,0:2:0:0:
188,132,125165,2,0,L|120:118,1,70,2|8,3:2|0:2,0:2:0:0:
28,120,125498,2,2,L|14:188,1,70,2|0,3:2|1:0,0:3:0:0:
28,280,125831,5,2,3:2:0:0:
104,324,125998,2,0,P|140:324|168:304,1,70,10|2,0:2|3:2,0:0:0:0:
224,232,126331,2,0,P|258:231|287:250,1,70,2|2,1:2|3:2,0:0:0:0:
348,324,126665,1,10,0:2:0:0:
348,324,126832,1,2,3:2:0:0:
448,232,126998,6,0,L|418:95,1,140,2|10,1:2|0:2,0:2:0:0:
376,16,127498,2,0,P|344:4|312:16,1,70,2|0,3:2|1:2,0:0:0:0:
200,100,127831,2,0,P|188:132|200:164,1,70,10|0,0:2|1:0,0:0:0:0:
308,248,128165,2,0,P|340:260|372:248,1,70,14|0,0:2|1:0,0:0:0:0:
432,180,128498,5,2,1:2:0:0:
504,232,128665,2,0,L|490:300,1,70,10|2,0:2|1:2,0:0:0:0:
484,320,128915,1,0,1:2:0:0:
479,340,128998,2,0,L|444:333,3,35,10|8|8|4,0:2|0:2|0:3|0:3,0:0:0:0:
404,324,129331,1,4,1:3:0:0:
404,324,129498,1,8,0:2:0:0:
288,240,129665,6,0,B|216:240|244:308|176:308,1,140,6|8,1:2|0:2,0:2:0:0:
104,252,130165,1,2,0:0:0:0:
44,184,130331,2,0,P|32:152|44:120,1,70,2|0,1:2|1:2,0:0:0:0:
108,52,130665,1,8,0:2:0:0:
108,52,130832,1,2,1:2:0:0:
240,20,130998,6,0,L|308:34,1,70,10|0,0:2|1:2,0:0:0:0:
400,48,131331,1,10,0:2:0:0:
492,204,131665,2,0,L|477:272,1,70,10|0,0:2|1:2,0:0:0:0:
380,336,131998,2,0,L|311:321,1,70,14|0,0:2|0:0,0:2:0:0:
240,224,132331,6,0,L|116:249,1,125.999996154785,6|8,1:2|0:2,0:2:0:0:
0,132,132998,2,0,P|-8:96|8:64,1,62.9999980773926,2|0,1:2|3:2,0:0:0:0:
68,28,133331,2,0,P|104:20|136:35,1,62.9999980773926,10|0,0:2|3:2,0:0:0:0:
188,88,133665,6,0,B|244:88|236:24|292:24,1,125.999996154785,2|10,1:2|0:2,0:0:0:0:
448,72,134331,2,0,L|433:138,1,62.9999980773926,2|0,1:2|3:2,0:2:0:0:
376,188,134665,2,0,L|390:254,1,62.9999980773926,10|0,0:2|3:2,0:0:0:0:
412,328,134998,6,0,P|384:360|300:340,1,125.999996154785,2|8,1:2|0:2,0:2:0:0:
252,296,135498,1,2,3:2:0:0:
252,296,135665,2,0,P|220:280|192:284,1,62.9999980773926,2|2,1:2|3:2,0:2:0:0:
132,336,135998,1,10,0:2:0:0:
132,336,136165,1,2,3:2:0:0:
72,280,136331,6,0,L|97:157,1,125.999996154785,2|8,1:2|0:2,0:2:0:0:
216,44,136998,1,2,1:2:0:0:
216,44,137165,1,8,0:2:0:0:
264,112,137331,2,0,P|300:108|324:84,1,62.9999980773926,2|8,1:2|0:2,0:0:0:0:
388,48,137665,2,0,L|402:114,1,62.9999980773926,6|0,1:2|0:0,0:2:0:0:
452,176,137998,2,0,L|437:242,1,62.9999980773926,10|0,0:2|3:2,0:0:0:0:
408,312,138331,6,0,B|352:312|360:248|304:248,1,125.999996154785,2|10,1:2|0:2,0:0:0:0:
197,297,138831,1,0,3:2:0:0:
188,279,138915,1,0,0:3:0:0:
180,260,138998,2,0,P|172:232|180:200,1,62.9999980773926,2|0,1:2|3:2,0:0:0:0:
236,140,139331,2,0,P|244:108|236:80,1,62.9999980773926,10|0,0:2|0:0,0:0:0:0:
180,16,139665,2,0,P|148:8|120:16,1,62.9999980773926,2|8,1:2|0:0,0:0:0:0:
52,60,139998,2,0,P|40:88|48:120,1,62.9999980773926,2|8,1:2|0:0,0:0:0:0:
104,176,140331,6,0,P|128:228|104:288,1,125.999996154785,2|8,1:2|0:2,0:2:0:0:
40,352,140831,1,2,0:2:0:0:
40,352,140998,1,2,1:2:0:0:
156,372,141165,2,0,L|222:357,1,62.9999980773926,12|0,0:2|1:2,0:2:0:0:
300,272,141498,5,14,0:2:0:0:
300,272,141665,2,0,P|332:272|360:292,1,62.9999980773926,2|0,1:2|1:2,0:2:0:0:
408,352,141998,2,0,P|440:352|464:332,1,62.9999980773926,10|0,0:2|1:2,0:2:0:0:
496,256,142331,2,0,L|481:189,1,62.9999980773926,0|0,1:2|1:2,0:0:0:0:
480,176,142581,1,8,0:2:0:0:
476,156,142665,1,0,1:2:0:0:
424,48,142831,5,8,0:2:0:0:
404,44,142914,1,8,0:2:0:0:
384,40,142998,2,0,B|328:40|340:104|280:104,1,125.999996154785,4|8,1:2|0:2,0:2:0:0:
216,52,143498,1,0,3:2:0:0:
84,148,143831,2,0,L|17:133,2,62.9999980773926,0|8|0,3:2|0:2|3:2,0:0:0:0:
144,204,144331,6,0,L|205:190,1,62.9999980773926,0|0,1:2|3:2,0:0:0:0:
288,168,144665,1,8,0:2:0:0:
288,168,144831,1,0,3:2:0:0:
396,292,145165,1,0,3:2:0:0:
396,292,145332,2,0,P|432:295|459:278,1,62.9999980773926,8|0,0:2|3:2,0:0:0:0:
508,220,145665,6,0,L|482:94,1,125.999996154785,0|8,1:2|0:2,0:2:0:0:
424,40,146165,1,0,3:2:0:0:
304,148,146498,2,0,L|242:134,1,62.9999980773926,0|8,3:2|0:2,0:0:0:0:
164,164,146831,6,0,P|124:200|124:268,1,125.999996154785,2|0,3:2|3:2,0:0:0:0:
180,336,147341,2,0,L|288:360,1,94.499997116089,10|8,0:0|0:0,0:0:0:0:
332,288,147648,2,8,L|297:280,3,31.4999990386963,8|8|8|10,0:2|0:2|0:2|0:2,0:2:0:0:
400,348,148001,1,2,1:2:0:0:
400,348,148164,1,14,0:0:0:0:
468,260,148328,6,0,P|476:232|470:206,1,56,6|4,1:2|0:3,0:0:0:0:
428,139,148661,2,0,P|404:127|373:127,1,56,4|4,0:3|0:3,0:0:0:0:
304,164,148994,2,0,B|256:156|276:112|216:100,1,112,10|2,0:2|1:2,0:2:0:0:
72,40,149661,6,0,L|18:52,1,56,2|8,0:2|0:2,0:0:0:0:
8,132,149994,2,0,L|20:186,1,56,2|0,1:2|1:2,0:0:0:0:
88,228,150327,2,0,L|197:204,1,112,10|2,0:2|1:2,0:2:0:0:
356,240,150994,5,6,1:2:0:0:
356,240,151161,2,0,P|380:288|356:336,1,112,8|4,0:2|1:3,0:0:0:0:
280,364,151661,2,0,L|225:353,1,56,10|0,0:2|1:2,0:0:0:0:
168,296,151994,2,0,L|180:241,1,56,4|4,1:3|1:3,0:0:0:0:
198,107,152328,6,0,B|176:56|72:56|28:112|28:288|184:344|376:236|420:24|420:24|392:160|399:163|271:263|448:304|472:216|416:192,1,1007.99996923828,6|2,1:2|0:0,0:2:0:0:
192,32,166327,6,0,L|94:52,1,97.9999970092774,2|2,0:0|0:0,0:0:0:0:
28,192,166994,6,0,P|28:220|44:244,1,56,2|0,1:2|1:2,0:0:0:0:
108,284,167327,1,2,0:0:0:0:
312,168,167827,2,0,L|421:191,1,112,2|2,0:0|0:2,0:0:0:0:
468,340,168494,5,2,1:2:0:0:
468,340,168661,2,0,L|413:351,1,56,2|0,0:0|0:0,0:0:0:0:
340,320,168994,2,0,L|328:265,1,56,2|0,0:0|0:0,0:0:0:0:
380,204,169327,2,0,L|368:149,1,56,2|0,0:0|0:2,0:0:0:0:
296,120,169661,6,0,B|244:120|256:172|200:172,1,112,2|2,1:2|0:0,0:0:0:0:
64,100,170327,2,0,P|64:44|108:8,1,112,2|2,0:0|0:0,0:0:0:0:
260,8,170994,6,0,L|314:19,1,56,2|0,1:2|1:2,0:0:0:0:
392,36,171327,1,2,0:0:0:0:
476,168,171661,2,0,B|452:277,1,112,2|2,0:0|0:0,0:0:0:0:
316,352,172327,6,0,B|260:352|284:296|224:296,1,112,2|0,1:2|3:2,0:2:0:0:
164,344,172827,1,2,3:2:0:0:
164,344,172994,2,0,L|54:320,1,112,2|0,1:2|3:2,0:2:0:0:
8,216,173494,5,2,3:2:0:0:
8,216,173661,1,10,0:2:0:0:
160,152,173994,2,0,B|208:152|196:192|244:192,1,94.499997116089,12|0,0:2|0:0,0:2:0:0:
280,180,174327,2,0,P|296:152|296:120,1,62.9999980773926
296,40,174661,2,0,P|272:20|240:20,1,62.9999980773926,0|0,0:0|0:2,0:0:0:0:
160,4,174994,5,8,0:2:0:0:
142,10,175077,1,8,0:2:0:0:
126,16,175161,1,8,0:2:0:0:
76,80,175327,1,0,1:2:0:0:
56,160,175494,1,8,0:2:0:0:
61,177,175577,1,8,0:2:0:0:
65,193,175661,2,0,L|79:259,1,62.9999980773926,8|0,0:2|1:2,0:0:0:0:
156,284,175994,2,0,L|169:222,1,62.9999980773926,12|0,0:2|1:2,0:0:0:0:
256,140,176327,6,0,B|316:128|308:192|368:184,1,125.999996154785,12|0,0:2|1:2,0:2:0:0:
448,164,176827,1,0,1:2:0:0:
452,144,176911,1,0,1:2:0:0:
455,123,176994,2,0,L|462:87,3,31.4999990386963,8|8|8|8,1:2|1:2|1:2|1:2,0:0:0:0:
448,52,177327,2,0,L|412:44,3,31.4999990386963,8|8|8|8,1:2|1:2|1:2|1:2,0:0:0:0:
380,16,177661,6,0,L|310:30,1,70,6|0,1:2|0:0,0:2:0:0:
252,96,177994,2,0,L|281:233,1,140,10|0,0:2|1:2,0:2:0:0:
252,320,178494,2,0,P|219:332|187:320,1,70,2|8,0:2|0:2,0:0:0:0:
116,264,178828,2,0,P|103:231|115:199,1,70,2|0,3:2|1:2,0:0:0:0:
176,132,179161,5,2,0:2:0:0:
256,172,179328,2,0,L|327:158,1,70,10|2,0:2|0:2,0:0:0:0:
392,96,179661,2,0,L|378:26,1,70,0|0,1:2|3:2,3:2:0:0:
292,4,179994,1,10,0:2:0:0:
292,4,180161,1,2,0:2:0:0:
152,16,180327,6,0,L|83:30,1,70,2|0,1:2|0:0,0:2:0:0:
52,116,180661,2,0,L|66:184,1,70,10|0,0:2|3:2,0:2:0:0:
124,256,180994,1,2,1:2:0:0:
196,200,181161,2,0,L|267:215,1,70,2|8,3:2|3:2,0:0:0:0:
348,252,181494,2,0,L|334:321,1,70,2|0,3:2|1:2,0:0:0:0:
264,376,181828,5,2,0:2:0:0:
172,372,181994,2,0,L|104:358,1,70,10|2,0:2|0:2,0:2:0:0:
32,312,182328,1,2,1:2:0:0:
32,312,182494,1,10,0:2:0:0:
88,240,182661,1,2,1:2:0:0:
88,240,182828,1,10,0:2:0:0:
20,132,182994,6,0,L|35:62,1,70,6|0,1:2|0:0,0:2:0:0:
116,24,183327,2,0,B|184:12|172:88|236:80,1,140,10|0,0:2|1:2,0:2:0:0:
308,16,183828,2,0,L|379:31,1,70,2|8,3:2|0:2,0:0:0:0:
428,104,184161,2,0,L|414:173,1,70,2|0,3:2|1:2,0:2:0:0:
392,260,184494,5,2,3:2:0:0:
308,292,184661,2,0,L|239:277,1,70,10|2,0:2|3:2,0:0:0:0:
164,224,184994,1,2,1:2:0:0:
164,224,185161,1,10,0:2:0:0:
220,152,185328,1,2,1:2:0:0:
220,152,185494,1,10,0:2:0:0:
152,32,185661,6,0,P|80:32|48:88,1,140,2|10,1:2|0:2,0:2:0:0:
32,176,186161,2,0,L|46:245,1,70,2|0,3:2|1:2,0:2:0:0:
112,364,186494,2,0,L|180:350,1,70,14|0,0:2|1:2,0:2:0:0:
256,236,186828,2,0,L|324:251,1,70,14|0,0:2|1:2,0:2:0:0:
400,304,187161,5,2,1:2:0:0:
476,252,187328,2,0,P|484:216|476:184,1,70,10|2,0:2|1:2,0:0:0:0:
440,100,187661,2,0,L|405:108,3,35,10|0|10|8,0:2|0:0|0:2|0:2,0:0:0:0:
360,116,187994,1,10,0:2:0:0:
252,200,188161,5,10,0:2:0:0:
228,205,188244,1,8,0:2:0:0:
208,210,188328,2,0,L|139:196,1,70,14|0,1:2|0:0,0:2:0:0:
72,136,188661,2,0,P|48:80|88:16,1,140,10|0,0:2|1:2,0:2:0:0:
176,16,189161,2,0,L|244:30,1,70,2|8,3:2|0:2,0:2:0:0:
300,100,189494,2,2,L|368:85,1,70,2|0,3:2|1:0,0:3:0:0:
472,88,189828,5,2,3:2:0:0:
508,172,189994,2,0,P|508:212|492:236,1,70,10|2,0:2|3:2,0:0:0:0:
424,296,190327,2,0,P|388:296|360:276,1,70,2|2,1:2|3:2,0:0:0:0:
292,220,190661,1,10,0:2:0:0:
292,220,190828,1,2,3:2:0:0:
204,112,190994,6,0,L|60:143,1,140,2|10,1:2|0:2,0:2:0:0:
20,220,191494,2,0,L|35:289,1,70,2|0,3:2|1:2,0:0:0:0:
152,356,191828,2,0,L|220:342,1,70,10|0,0:2|1:0,0:0:0:0:
284,220,192161,2,0,L|352:234,1,70,14|0,0:2|1:0,0:0:0:0:
428,284,192494,5,2,1:2:0:0:
492,220,192661,2,0,P|502:188|493:154,1,70,10|2,0:2|1:2,0:0:0:0:
485,135,192911,1,0,1:2:0:0:
473,119,192994,2,0,L|432:116,3,35,10|8|8|4,0:2|0:2|0:3|0:3,0:0:0:0:
392,110,193328,1,4,1:3:0:0:
392,110,193494,1,8,0:2:0:0:
300,8,193661,6,0,B|240:8|260:80|188:80,1,140,6|4,1:2|1:3,0:0:0:0:
100,68,194161,1,2,1:2:0:0:
28,124,194328,2,0,L|42:192,1,70,10|0,0:2|0:2,0:2:0:0:
104,268,194661,1,0,1:2:0:0:
104,268,194828,1,2,1:2:0:0:
216,224,194994,5,10,0:2:0:0:
352,348,195327,2,0,B|320:300|364:244|388:276|440:216|408:168,1,210,14|0,0:2|1:2,0:2:0:0:
344,68,195994,1,14,0:2:0:0:
168,28,196327,6,0,P|136:28|108:56,1,70,6|0,1:2|0:2,0:2:0:0:
80,140,196661,2,0,L|95:214,1,70,2|2,1:2|1:2,0:0:0:0:
180,240,196994,2,0,L|254:224,1,70,10|2,0:2|3:2,0:0:0:0:
340,232,197327,6,0,P|363:256|364:290,1,70,2|2,1:2|1:2,0:0:0:0:
288,344,197661,2,0,L|151:373,1,140,6|2,0:2|1:2,0:0:0:0:
72,324,198161,1,2,1:2:0:0:
72,324,198327,2,0,P|60:292|72:256,1,70,10|2,0:2|3:2,0:0:0:0:
136,196,198661,2,0,P|172:196|196:220,1,70,2|2,1:2|1:2,0:0:0:0:
276,328,198994,6,0,B|316:340|348:316|332:308|368:280|404:292,1,140,14|0,0:2|0:0,0:0:0:0:
512,192,199494,1,0,1:2:0:0:
512,192,199661,2,0,L|375:162,1,140,14|0,0:2|0:0,0:0:0:0:
248,132,200161,5,0,1:2:0:0:
248,132,200327,2,0,L|232:206,1,70,10|0,0:2|0:2,0:2:0:0:
200,328,200661,2,0,P|112:368|44:292,1,209.999993591309,12|0,0:2|0:2,0:2:0:0:
16,164,201661,6,0,L|32:85,1,77.0000023498536,6|0,1:2|0:0,0:2:0:0:
120,40,201994,2,0,L|195:56,1,77.0000023498536,10|0,0:2|3:2,0:2:0:0:
276,112,202327,1,2,1:2:0:0:
304,208,202494,2,0,P|304:248|280:280,1,77.0000023498536,2|8,0:2|0:2,0:0:0:0:
208,344,202827,2,0,P|172:344|144:316,1,77.0000023498536,2|0,3:2|1:2,0:0:0:0:
76,244,203161,5,2,0:2:0:0:
147,177,203327,2,0,L|222:193,1,77.0000023498536,8|2,0:2|0:2,0:0:0:0:
283,277,203661,2,0,L|358:260,1,77.0000023498536,2|2,1:2|3:2,3:2:0:0:
408,176,203994,1,10,0:2:0:0:
408,176,204161,1,2,0:2:0:0:
360,48,204327,6,0,P|332:24|292:24,1,77.0000023498536,2|0,1:2|0:0,0:2:0:0:
204,72,204661,2,0,P|166:71|137:47,1,77.0000023498536,10|0,0:2|3:2,0:2:0:0:
48,8,204994,1,2,1:2:0:0:
28,108,205161,2,0,L|44:183,1,77.0000023498536,2|10,3:2|3:2,0:0:0:0:
132,228,205494,2,0,L|207:211,1,77.0000023498536,2|0,3:2|1:2,0:0:0:0:
304,188,205827,5,2,0:2:0:0:
396,232,205994,2,0,P|416:264|416:304,1,77.0000023498536,10|2,0:2|0:2,0:2:0:0:
340,368,206327,2,0,P|301:367|269:347,1,77.0000023498536,2|10,1:2|0:2,0:0:0:0:
220,260,206661,1,2,1:2:0:0:
220,260,206827,1,10,0:2:0:0:
248,124,206994,6,0,L|231:48,1,77.0000023498536,2|0,1:2|0:0,0:2:0:0:
132,32,207327,2,0,L|56:48,1,77.0000023498536,10|0,0:2|3:2,0:2:0:0:
16,140,207661,1,2,1:2:0:0:
48,232,207827,2,0,P|72:256|116:256,1,77.0000023498536,2|8,3:2|0:2,0:0:0:0:
192,192,208161,2,0,P|229:191|257:217,1,77.0000023498536,2|0,3:2|1:2,0:0:0:0:
280,316,208494,5,2,3:2:0:0:
376,348,208661,2,0,L|451:331,1,77.0000023498536,10|2,0:2|3:2,0:0:0:0:
500,244,208994,1,2,1:2:0:0:
500,244,209161,1,8,0:2:0:0:
436,168,209327,1,2,1:2:0:0:
436,168,209494,1,10,0:2:0:0:
480,36,209661,6,0,L|404:52,1,77.0000023498536,2|2,1:2|1:2,0:0:0:0:
308,68,209994,1,10,0:2:0:0:
252,152,210161,2,0,P|216:152|184:128,1,77.0000023498536,2|0,3:2|1:0,0:0:0:0:
84,44,210494,2,0,P|44:44|16:68,1,77.0000023498536,8|0,0:2|1:0,0:0:0:0:
0,208,210827,6,0,L|31:358,1,154.000004699707,14|2,0:2|1:2,0:2:0:0:
132,372,211327,1,10,0:2:0:0:
232,368,211494,2,0,L|310:351,1,77.0000023498536,2|0,3:2|1:2,0:0:0:0:
348,260,211827,1,8,0:2:0:0:
343,240,211911,1,8,0:2:0:0:
339,220,211994,1,8,1:2:0:0:
272,104,212161,5,8,0:2:0:0:
268,83,212245,1,8,0:2:0:0:
263,63,212327,2,0,L|338:45,1,77.0000023498536,6|0,1:2|0:0,0:2:0:0:
416,108,212660,2,0,L|432:183,1,77.0000023498536,10|0,0:2|3:2,0:2:0:0:
440,284,212993,1,2,1:2:0:0:
360,344,213160,2,0,P|322:343|292:320,1,77.0000023498536,2|8,0:2|0:2,0:0:0:0:
208,264,213494,2,0,P|170:264|140:287,1,77.0000023498536,2|0,3:2|1:2,0:0:0:0:
60,348,213827,5,2,0:2:0:0:
24,256,213994,2,0,L|40:181,1,77.0000023498536,10|2,0:2|0:2,0:0:0:0:
108,108,214327,2,0,L|183:124,1,77.0000023498536,2|2,1:2|3:2,3:2:0:0:
264,188,214660,1,10,0:2:0:0:
264,188,214827,1,2,0:2:0:0:
392,140,214994,6,0,P|404:104|392:68,1,77.0000023498536,2|0,1:2|0:0,0:2:0:0:
308,12,215327,2,0,P|272:12|240:36,1,77.0000023498536,10|0,0:2|3:2,0:2:0:0:
183,124,215661,1,2,1:2:0:0:
132,208,215827,2,0,L|57:192,1,77.0000023498536,2|8,3:2|3:2,0:0:0:0:
12,104,216160,2,0,L|28:29,1,77.0000023498536,2|0,3:2|1:2,0:0:0:0:
124,0,216493,5,2,0:2:0:0:
224,0,216660,2,0,P|260:0|290:24,1,77.0000023498536,10|2,0:2|0:2,0:2:0:0:
324,120,216994,2,0,P|323:157|299:186,1,77.0000023498536,2|10,1:2|0:2,0:0:0:0:
216,244,217327,1,2,1:2:0:0:
216,244,217493,1,10,0:2:0:0:
100,168,217660,6,0,L|25:184,1,77.0000023498536,2|0,1:2|0:0,0:2:0:0:
4,284,217994,2,0,L|20:359,1,77.0000023498536,10|0,0:2|3:2,0:2:0:0:
120,372,218327,1,2,1:2:0:0:
220,360,218494,1,10,0:2:0:0:
240,356,218578,1,8,0:2:0:0:
260,351,218661,2,0,L|252:311,3,38.5000011749268,8|8|10|4,0:2|0:3|0:3|0:3,0:0:0:0:
284,280,218994,6,0,B|335:245|396:296|368:316|420:368|464:336,1,210,6|0,1:2|0:0,0:0:0:0:
504,208,219661,2,0,P|504:124|460:92,1,140,6|0,1:2|0:0,0:0:0:0:
384,56,220161,6,0,L|313:70,1,70,2|0,0:0|1:2,0:0:0:0:
252,136,220494,1,10,0:2:0:0:
324,192,220661,2,0,L|392:177,1,70,10|2,0:2|1:2,0:0:0:0:
456,240,220994,1,10,0:2:0:0:
456,240,221161,1,10,0:2:0:0:
416,320,221327,1,2,1:2:0:0:
284,292,221494,5,14,0:2:0:0:
256,192,221577,12,0,226327,0:0:0:0:
