osu file format v14

[General]
AudioFilename: audio.mp3
AudioLeadIn: 0
PreviewTime: 76237
Countdown: 0
SampleSet: Soft
StackLeniency: 0.7
Mode: 0
LetterboxInBreaks: 0
WidescreenStoryboard: 1

[Editor]
DistanceSpacing: 0.6
BeatDivisor: 4
GridSize: 8
TimelineZoom: 2.799999

[Metadata]
Title:Tsumibito
TitleUnicode:罪人
Artist:LiSA
ArtistUnicode:LiSA
Creator:Onlybiscuit
Version:banter's Light Insane
Source:
Tags:oribe risa sinner japanese pop rock female vocalist ASH rolniczy contagious rolni reform kujinn brotarks miraclee xzbidit banter theodel
BeatmapID:2055048
BeatmapSetID:945516

[Difficulty]
HPDrainRate:5
CircleSize:3.8
OverallDifficulty:7
ApproachRate:8.5
SliderMultiplier:1.6
SliderTickRate:1

[Events]
//Background and Video events
0,0,"cropped-1920-1080-915800.jpg",0,0
//Break Periods
2,34356,38588
2,65491,68264
//Storyboard Layer 0 (Background)
//Storyboard Layer 1 (Fail)
//Storyboard Layer 2 (Pass)
//Storyboard Layer 3 (Foreground)
//Storyboard Layer 4 (Overlay)
//Storyboard Sound Samples

[TimingPoints]
1724,324.324324324324,4,2,1,30,1,0
1724,-142.857142857143,4,2,1,30,0,0
12102,-100,4,2,1,60,0,0
13399,-100,4,2,1,80,0,0
34156,-166.666666666667,4,2,1,55,0,0
35696,-166.666666666667,4,2,1,5,0,0
35778,-166.666666666667,4,2,1,55,0,0
39345,-166.666666666667,4,2,1,55,0,0
44453,-166.666666666667,4,2,1,5,0,0
44534,-125,4,2,1,65,0,0
52318,-90.9090909090909,4,2,1,65,0,0
54588,-100,4,2,1,65,0,0
54913,-100,4,2,1,65,0,0
65291,-125,4,2,1,50,0,0
69021,-125,4,2,1,70,0,0
69183,-100,4,2,1,70,0,0
69994,-111.111111111111,4,2,1,70,0,0
70237,-111.111111111111,4,2,1,5,0,0
70318,-100,4,2,1,80,0,0
75021,-100,4,2,1,60,0,0
75183,-100,4,2,1,40,0,0
75345,-100,4,2,1,30,0,0
75507,-100,4,2,1,20,0,0
76318,-166.666666666667,4,2,1,70,0,0
76967,-86.9565217391304,4,2,1,95,0,1
77615,-90.9090909090909,4,2,1,90,0,1
79561,-86.9565217391304,4,2,1,95,0,1
80372,-90.9090909090909,4,2,1,90,0,1
92534,-90.9090909090909,4,2,1,90,0,0
97723,-95.2380952380952,4,2,1,80,0,0

[Colours]
Combo1 : 185,115,255
Combo2 : 255,132,132
Combo3 : 132,193,255
Combo4 : 255,255,142

[HitObjects]
155,88,1724,6,0,L|224:85,1,55.9999982910157,2|0,0:0|0:0,0:0:0:0:
274,30,2048,1,0,0:0:0:0:
297,110,2210,2,0,L|366:113,2,55.9999982910157,2|2|0,0:0|0:0|0:0,0:0:0:0:
235,166,2696,2,0,P|233:210|238:235,1,55.9999982910157,2|0,0:0|0:0,0:0:0:0:
326,237,3021,6,0,P|282:235|257:240,1,55.9999982910157,2|0,0:0|0:0,0:0:0:0:
219,303,3345,1,0,0:0:0:0:
151,253,3507,2,0,L|143:172,2,55.9999982910157,2|2|0,0:0|0:0|0:0,0:0:0:0:
79,298,3994,2,0,L|73:353,1,55.9999982910157,2|0,0:0|0:0,0:0:0:0:
162,336,4318,6,0,P|189:331|217:329,1,55.9999982910157,2|0,0:0|0:0,0:0:0:0:
286,377,4642,1,0,0:0:0:0:
354,327,4805,2,0,P|359:299|361:271,2,55.9999982910157,2|2|0,0:0|0:0|0:0,0:0:0:0:
429,364,5291,2,0,P|456:369|484:371,1,55.9999982910157,2|0,0:0|0:0,0:0:0:0:
445,284,5615,6,0,B|437:214,1,55.9999982910157,2|0,0:0|0:0,0:0:0:0:
430,144,5940,1,0,0:0:0:0:
365,197,6102,2,0,B|295:189,1,55.9999982910157,2|0,0:0|0:0,0:0:0:0:
350,114,6426,1,0,0:0:0:0:
440,130,6588,2,0,B|495:123,1,55.9999982910157,2|0,0:0|0:0,0:0:0:0:
412,46,6913,6,0,B|378:24|378:24|305:30,1,111.999996582031,2|0,0:0|0:0,0:0:0:0:
234,72,7399,2,0,P|225:18|227:2,2,55.9999982910157,2|2|0,0:0|0:0|0:0,0:0:0:0:
269,148,7886,2,0,P|267:175|260:202,1,55.9999982910157,2|0,0:0|0:0,0:0:0:0:
178,157,8210,6,0,L|114:148,1,55.9999982910157,2|0,0:0|0:0,0:0:0:0:
47,186,8534,1,0,0:0:0:0:
116,232,8696,2,0,L|91:286,2,55.9999982910157,2|2|0,0:0|0:0|0:0,0:0:0:0:
200,235,9183,2,0,P|204:262|199:305,1,55.9999982910157,2|0,0:0|0:0,0:0:0:0:
151,357,9507,6,0,B|185:335|185:335|258:341,1,111.999996582031,2|0,0:0|0:0,0:0:0:0:
343,271,9994,2,0,B|287:266,1,55.9999982910157,2|2,0:0|0:0,0:0:0:0:
344,352,10318,1,0,0:0:0:0:
419,309,10480,2,0,P|426:283|425:255,1,55.9999982910157,2|0,0:0|0:0,0:0:0:0:
366,194,10805,5,2,0:0:0:0:
387,114,10967,1,0,0:0:0:0:
446,171,11129,2,0,L|499:194,1,55.9999982910157,2|0,0:0|0:0,0:0:0:0:
504,109,11453,1,0,0:0:0:0:
443,52,11615,1,0,0:0:0:0:
316,71,11778,1,0,0:0:0:0:
316,71,12102,5,8,0:0:0:0:
221,113,12264,2,0,L|215:166,3,40,0|0|0|0,1:2|1:2|1:2|1:2,0:0:0:0:
287,178,12588,1,8,0:0:0:0:
206,244,12751,2,0,L|209:308,3,40,0|0|0|0,1:2|1:2|1:2|1:2,0:0:0:0:
251,355,13075,2,8,L|211:360,1,40,8|8,0:0|0:0,0:0:0:0:
161,375,13237,2,8,L|121:370,1,40,8|8,0:0|0:0,0:0:0:0:
70,378,13399,6,0,P|81:339|81:300,1,80,6|2,1:2|1:2,0:0:0:0:
39,204,13723,1,8,0:0:0:0:
146,216,13886,2,0,B|228:200|227:216|308:204,1,160,2|2,0:0|1:2,0:0:0:0:
393,246,14372,2,0,L|407:155,1,80,10|2,0:0|0:0,0:0:0:0:
412,34,14696,5,2,1:2:0:0:
346,99,14859,1,2,1:2:0:0:
253,35,15021,1,10,0:0:0:0:
198,102,15183,2,0,B|159:109|159:109|120:98,1,80,2|0,0:0|1:2,0:0:0:0:
84,8,15507,1,2,1:2:0:0:
26,81,15669,2,0,L|17:183,1,80,8|0,0:0|0:0,0:0:0:0:
109,214,15994,6,0,B|75:261|75:261|82:364,1,160,6|8,1:2|0:0,0:0:0:0:
169,348,16480,2,0,P|208:345|246:331,1,80,2|0,0:0|1:2,0:0:0:0:
290,253,16805,2,0,P|329:255|367:269,1,80,2|8,1:2|0:0,0:0:0:0:
461,289,17129,2,0,P|459:250|445:212,1,80,2|0,0:0|1:2,0:0:0:0:
363,178,17453,5,2,1:2:0:0:
432,123,17615,1,10,0:0:0:0:
350,89,17778,1,2,0:0:0:0:
422,39,17940,1,10,0:2:0:0:
341,3,18102,1,2,1:2:0:0:
270,56,18264,2,0,P|264:95|274:133,1,80,10|8,0:0|0:0,0:0:0:0:
281,142,18507,1,8,0:0:0:0:
287,150,18588,6,0,L|280:240,1,80,6|2,1:2|1:2,0:0:0:0:
272,333,18913,1,10,0:0:0:0:
184,277,19075,2,0,P|140:340|63:341,1,160,2|2,0:0|1:2,0:0:0:0:
7,254,19561,2,0,L|0:174,1,80,10|2,0:0|0:0,0:0:0:0:
103,170,19886,5,2,1:2:0:0:
170,113,20048,1,2,1:2:0:0:
246,157,20210,1,8,0:0:0:0:
179,96,20372,2,0,P|175:43|181:1,1,80,2|0,0:0|1:2,0:0:0:0:
260,0,20696,1,2,1:2:0:0:
322,62,20859,2,0,P|361:65|401:60,1,80,10|0,0:0|0:0,0:0:0:0:
497,14,21183,6,0,L|502:93,1,80,6|0,1:2|1:2,0:0:0:0:
483,179,21507,2,0,B|451:173|451:173|418:180|418:180|397:162|397:162|365:169|365:169|333:161,1,160,10|2,0:0|1:2,0:0:0:0:
245,147,21994,1,2,1:2:0:0:
209,227,22156,2,0,L|130:232,1,80,10|2,0:0|0:0,0:0:0:0:
102,148,22480,5,2,1:2:0:0:
14,136,22642,1,2,1:2:0:0:
46,218,22805,1,10,0:0:0:0:
0,126,22967,1,2,1:2:0:0:
33,232,23129,2,0,B|23:272|23:272|31:309,1,80,10|0,0:0|1:2,0:0:0:0:
90,383,23453,1,8,0:0:0:0:
172,336,23615,1,8,0:0:0:0:
187,341,23696,1,8,0:0:0:0:
201,346,23778,6,0,L|290:339,1,80,6|2,1:2|1:2,0:0:0:0:
384,330,24102,1,10,0:0:0:0:
309,258,24264,2,0,P|381:228|454:255,1,160,2|2,1:2|1:2,0:0:0:0:
475,153,24751,2,0,L|468:64,1,80,10|0,0:0|1:2,0:0:0:0:
367,27,25075,5,2,1:2:0:0:
309,98,25237,1,2,1:2:0:0:
224,32,25399,1,10,0:0:0:0:
173,102,25561,2,0,P|134:106|96:95,1,80,2|0,1:2|1:2,0:0:0:0:
74,10,25886,1,2,1:2:0:0:
12,72,26048,2,0,P|1:110|5:149,1,80,8|0,0:0|1:2,0:0:0:0:
111,215,26372,6,0,B|150:180|150:180|210:178|257:197,1,160,6|8,1:2|0:0,0:0:0:0:
189,272,26859,2,0,P|181:312|189:351,1,80,2|0,1:2|1:2,0:0:0:0:
280,377,27183,2,0,P|319:385|358:377,1,80,2|8,1:2|0:0,0:0:0:0:
437,322,27507,2,0,P|444:283|437:245,1,80,2|2,1:2|1:2,0:0:0:0:
444,148,27832,6,0,L|364:140,1,80,2|10,1:2|0:0,0:0:0:0:
282,224,28156,1,2,1:2:0:0:
259,129,28318,1,10,0:2:0:0:
169,148,28480,1,2,1:2:0:0:
165,60,28642,1,10,0:0:0:0:
260,50,28805,1,8,0:0:0:0:
260,50,28886,1,8,0:0:0:0:
260,50,28967,6,0,P|266:98|251:145,2,80,6|2|8,1:2|1:2|0:0,0:0:0:0:
165,60,29453,2,0,B|52:39|52:39|65:82,1,160,6|2,1:2|1:2,0:0:0:0:
85,168,29940,1,10,0:0:0:0:
6,280,30102,6,0,B|43:246|43:246|150:265,1,160,6|0,1:2|1:2,0:0:0:0:
173,350,30588,1,10,0:0:0:0:
274,345,30751,2,0,P|324:350|375:345,1,80,2|8,1:2|0:3,0:0:0:0:
365,352,30994,1,8,0:3:0:0:
376,355,31075,1,8,0:3:0:0:
387,358,31156,1,8,0:3:0:0:
398,361,31237,2,0,L|453:354,3,40,8|8|8|8,0:3|0:3|0:3|0:3,0:0:0:0:
468,353,31561,5,8,1:2:0:0:
410,261,31723,2,0,L|402:169,1,80,8|0,0:0|1:2,0:0:0:0:
506,268,32048,2,0,L|498:176,1,80,8|0,0:0|1:2,0:0:0:0:
493,100,32372,5,8,0:0:0:0:
403,181,32534,1,8,0:0:0:0:
296,118,32696,6,0,B|278:96|278:96|223:139|151:123,1,160,12|0,0:0|1:2,0:0:0:0:
154,123,33102,1,0,1:2:0:0:
154,123,33183,1,8,0:0:0:0:
112,45,33345,1,0,1:2:0:0:
112,45,33426,1,0,1:2:0:0:
112,45,33507,2,0,B|60:50|60:50|39:40|39:40|19:55|19:55|0:56,2,120,8|8|8,0:0|0:0|0:0,0:0:0:0:
198,37,34156,5,0,0:0:0:0:
331,279,39345,5,4,1:2:0:0:
344,273,39994,5,0,1:2:0:0:
357,267,40642,5,2,1:2:0:0:
370,261,41291,5,0,1:2:0:0:
383,255,41940,5,6,1:2:0:0:
382,270,42264,1,0,1:2:0:0:
381,285,42588,1,0,1:2:0:0:
380,300,42913,1,2,1:2:0:0:
379,315,43237,6,0,L|496:302,2,95.9999970703126,0|0|0,1:2|1:2|1:2,0:0:0:0:
296,325,44048,1,2,0:0:0:0:
250,254,44210,2,0,L|155:232,1,71.9999978027344,2|0,1:2|0:0,0:0:0:0:
178,242,44534,6,0,P|172:210|173:178,1,64,6|0,1:2|0:0,0:0:0:0:
225,125,44859,1,10,0:0:0:0:
149,110,45021,2,0,B|107:104|107:104|89:92,1,64,2|0,0:0|1:2,0:0:0:0:
135,31,45345,1,10,0:3:0:0:
208,51,45507,1,10,0:0:0:0:
265,0,45669,1,10,0:3:0:0:
283,74,45832,6,0,P|314:78|346:75,1,64,2|0,1:2|0:0,0:0:0:0:
387,10,46156,1,10,0:0:0:0:
421,78,46318,2,0,P|424:109|419:141,1,64,2|0,0:0|1:2,0:0:0:0:
353,181,46642,1,2,0:0:0:0:
416,224,46805,2,0,L|427:275,3,32,10|8|10|8,0:0|0:0|0:0|0:0,0:0:0:0:
427,292,47129,6,0,B|397:286|397:286|364:292,1,64,6|0,1:2|0:0,0:0:0:0:
287,287,47453,1,10,0:0:0:0:
245,351,47615,2,0,B|212:357|212:357|181:350,1,64,2|0,0:0|1:2,0:0:0:0:
122,300,47940,1,10,0:3:0:0:
136,223,48102,2,0,L|127:149,1,64,8|10,0:0|0:3,0:0:0:0:
64,110,48426,6,0,P|117:79|177:96,1,128,0|8,1:2|0:0,0:0:0:0:
342,136,49075,1,2,1:2:0:0:
311,206,49237,1,10,0:0:0:0:
388,198,49399,1,2,1:2:0:0:
357,268,49561,1,8,0:0:0:0:
433,262,49723,2,0,B|463:224|463:224|461:145,1,128,6|8,1:2|0:0,0:0:0:0:
459,67,50210,1,2,0:0:0:0:
393,106,50372,2,0,B|348:104|348:104|316:79|316:79|273:78,1,128,2|8,1:2|0:0,0:0:0:0:
217,131,50859,1,10,0:3:0:0:
287,160,51021,6,0,L|296:233,1,64,2|0,1:2|0:0,0:0:0:0:
291,300,51345,1,8,0:2:0:0:
230,346,51507,2,0,L|167:354,1,64,2|0,0:0|1:2,0:0:0:0:
89,354,51832,1,2,1:2:0:0:
51,286,51994,2,0,L|59:223,1,64,8|2,0:0|1:2,0:0:0:0:
92,131,52318,5,14,0:0:0:0:
164,197,52480,2,0,B|209:207|209:207|249:195,1,88.000002685547,0|0,1:2|1:2,0:0:0:0:
299,93,52805,5,12,0:0:0:0:
205,122,52967,2,0,B|173:155|173:155|163:196,1,88.000002685547,0|0,1:2|1:2,0:0:0:0:
228,291,53291,5,12,0:0:0:0:
249,195,53453,2,0,B|235:151|235:151|205:121,1,88.000002685547,0|0,1:2|1:2,0:0:0:0:
92,131,53778,5,12,0:0:0:0:
164,197,53940,2,0,B|209:207|209:207|249:195,1,88.000002685547,0|0,1:2|1:2,0:0:0:0:
345,169,54264,5,10,0:0:0:0:
315,267,54426,1,2,1:2:0:0:
315,267,54507,1,0,1:2:0:0:
315,267,54588,2,0,L|299:358,1,80,10|2,0:3|0:0,0:0:0:0:
397,307,54913,6,0,B|405:251|405:251|385:205|385:205|393:151,1,160,6|2,1:2|0:0,0:0:0:0:
408,65,55399,1,2,1:2:0:0:
326,96,55561,1,8,0:0:0:0:
267,30,55723,2,0,L|98:16,1,160,2|2,1:2|0:0,0:0:0:0:
16,77,56210,5,2,1:2:0:0:
16,77,56291,1,0,1:2:0:0:
16,77,56372,1,0,1:2:0:0:
96,112,56534,1,2,1:2:0:0:
30,188,56696,2,0,P|14:226|9:266,1,80,2|8,1:2|0:0,0:0:0:0:
0,369,57021,2,0,P|77:351|157:353,1,160,2|2,1:2|0:0,0:0:0:0:
270,384,57507,6,0,L|289:203,1,160,6|2,1:2|1:2,0:0:0:0:
207,186,57994,2,0,L|196:89,1,80,2|8,1:2|0:0,0:0:0:0:
263,47,58318,1,2,1:2:0:0:
337,94,58480,1,2,0:0:0:0:
409,43,58642,6,0,B|375:86|375:86|380:193,2,160,2|8|0,1:2|0:0|1:2,0:0:0:0:
418,34,59372,1,0,1:2:0:0:
427,25,59453,1,10,0:0:0:0:
462,123,59615,2,0,B|472:285,1,160,8|2,0:0|0:0,0:0:0:0:
479,370,60102,5,6,1:2:0:0:
393,327,60264,1,0,1:2:0:0:
308,372,60426,1,2,1:2:0:0:
231,314,60588,2,0,B|191:302|191:302|154:311,1,80,2|8,1:2|0:0,0:0:0:0:
49,357,60913,2,0,P|78:283|71:204,1,160,2|2,1:2|1:2,0:0:0:0:
5,146,61399,5,2,1:2:0:0:
8,129,61480,1,0,1:2:0:0:
10,112,61561,1,0,1:2:0:0:
20,24,61723,1,2,1:2:0:0:
96,84,61886,2,0,P|142:89|181:82,1,80,2|8,1:2|0:0,0:0:0:0:
278,26,62210,2,0,P|317:19|355:28,1,80,2|0,1:2|0:0,0:0:0:0:
383,111,62534,1,2,0:0:0:0:
284,212,62696,6,0,L|274:291,1,80,6|0,1:2|1:2,0:0:0:0:
229,151,63021,1,2,1:2:0:0:
361,265,63183,2,0,L|440:274,1,80,2|8,1:2|0:0,0:0:0:0:
512,192,63507,2,0,L|433:182,1,80,2|0,1:2|0:0,0:0:0:0:
361,265,63832,6,0,B|346:303|346:303|355:343,1,80,2|0,1:2|0:0,0:0:0:0:
441,384,64156,1,0,1:2:0:0:
354,341,64318,1,8,0:0:0:0:
268,355,64480,1,8,0:0:0:0:
262,359,64561,1,8,0:0:0:0:
256,363,64642,2,0,L|248:279,2,53.3333333333333,8|8|8,0:0|0:0|0:0,0:0:0:0:
180,383,64967,2,0,L|174:329,2,53.3333333333333,10|8|8,0:3|0:3|0:3,0:0:0:0:
101,361,65291,5,6,1:2:0:0:
494,112,69021,5,0,1:2:0:0:
494,112,69102,1,0,1:2:0:0:
494,112,69183,2,0,L|498:151,3,40,8|8|0|0,0:3|0:3|1:2|1:2,0:0:0:0:
467,183,69507,2,0,L|462:222,3,40,8|8|0|0,0:3|0:3|1:2|1:2,0:0:0:0:
459,267,69832,1,10,0:0:0:0:
386,225,69994,2,0,P|333:215|280:224,1,107.999996704102,2|0,0:0|0:0,0:0:0:0:
237,243,70318,6,0,B|266:200|266:200|257:92,1,160,6|2,1:2|1:2,0:0:0:0:
173,121,70805,1,10,0:0:0:0:
150,35,70967,1,2,0:0:0:0:
69,99,71129,2,0,L|54:191,1,80,2|0,1:2|1:2,0:0:0:0:
14,277,71453,1,10,0:0:0:0:
108,266,71615,1,0,0:0:0:0:
181,356,71778,6,0,P|220:361|259:355,1,80,6|0,1:2|1:2,0:0:0:0:
371,266,72102,2,0,P|331:260|292:266,1,80,10|0,0:0|1:2,0:0:0:0:
360,361,72426,1,10,0:0:0:0:
360,361,72507,1,0,1:2:0:0:
360,361,72588,2,0,L|419:369,5,40,0|0|10|0|2|0,1:2|1:2|0:0|1:2|1:2|1:2,0:0:0:0:
424,369,73075,5,6,1:2:0:0:
371,266,73237,2,0,L|334:180,1,80,0|2,1:2|1:2,0:0:0:0:
493,271,73561,5,12,0:0:0:0:
440,168,73723,2,0,L|403:82,1,80,0|0,1:2|1:2,0:0:0:0:
334,0,74048,5,8,0:0:0:0:
234,42,74210,2,0,P|194:46|155:39,1,80,4|0,1:2|0:0,0:0:0:0:
64,5,74534,1,8,0:0:0:0:
66,25,74615,1,8,0:0:0:0:
68,45,74696,1,8,0:0:0:0:
71,65,74778,1,8,0:0:0:0:
73,85,74859,2,0,L|80:151,2,40,0|0|8,1:2|1:2|0:0,0:0:0:0:
358,311,76318,5,2,0:0:0:0:
363,341,76480,5,2,0:0:0:0:
394,336,76642,5,2,0:0:0:0:
388,305,76805,5,2,0:0:0:0:
314,218,76967,6,0,B|300:172|300:172|309:129,1,92.0000017547608,6|0,1:2|0:0,0:0:0:0:
435,69,77291,2,0,B|380:100|380:100|261:76,1,184.000003509522,14|0,0:2|1:2,0:0:0:0:
158,51,77778,1,2,0:0:0:0:
197,148,77940,1,10,0:0:0:0:
86,119,78102,6,0,P|43:113|0:120,1,88.000002685547,2|0,0:0|1:2,0:0:0:0:
70,211,78426,2,0,P|64:254|71:297,1,88.000002685547,2|8,0:0|0:0,0:0:0:0:
8,359,78751,2,0,P|93:376|178:356,1,176.000005371094,2|0,0:0|0:0,0:0:0:0:
276,369,79237,1,10,0:0:0:0:
215,282,79399,1,2,0:0:0:0:
372,315,79561,6,0,B|419:324|419:324|460:310,1,92.0000017547608,6|0,1:2|0:0,0:0:0:0:
391,132,79886,2,0,L|371:321,1,184.000003509522,14|0,0:2|1:2,0:0:0:0:
291,246,80372,1,2,0:0:0:0:
186,257,80534,1,10,0:0:0:0:
220,157,80696,6,0,L|211:57,1,88.000002685547,2|0,0:0|1:2,0:0:0:0:
296,4,81021,1,2,0:0:0:0:
355,107,81183,1,10,0:0:0:0:
460,102,81345,2,0,P|451:145|452:188,1,88.000002685547,2|0,0:0|1:2,0:0:0:0:
502,271,81669,2,0,P|510:314|509:357,1,88.000002685547,2|8,0:0|0:0,0:0:0:0:
418,323,81994,1,8,0:0:0:0:
406,318,82075,1,8,0:0:0:0:
393,314,82156,6,0,L|299:326,1,88.000002685547,6|0,1:2|0:0,0:0:0:0:
228,383,82480,1,8,0:0:0:0:
127,304,82642,2,0,L|214:292,1,88.000002685547,2|0,0:0|1:2,0:0:0:0:
306,325,82967,1,0,0:0:0:0:
376,221,83129,2,0,L|288:232,1,88.000002685547,10|0,0:0|0:0,0:0:0:0:
202,187,83453,6,0,P|189:144|195:101,1,88.000002685547,2|0,1:2|0:0,0:0:0:0:
365,131,83778,2,0,B|322:145|322:145|279:138,1,88.000002685547,10|0,0:0|0:0,0:0:0:0:
146,21,84102,2,0,B|189:7|189:7|232:14,1,88.000002685547,2|0,1:2|1:2,0:0:0:0:
108,102,84426,1,10,0:0:0:0:
13,102,84588,1,0,1:2:0:0:
13,102,84669,1,0,1:2:0:0:
13,102,84751,5,6,1:2:0:0:
86,182,84913,2,0,P|128:189|171:179,1,88.000002685547,0|0,1:2|1:2,0:0:0:0:
317,79,85237,5,12,0:0:0:0:
211,102,85399,2,0,P|183:134|171:177,1,88.000002685547,0|2,1:2|1:2,0:0:0:0:
196,289,85723,5,10,0:0:0:0:
272,184,85886,2,0,P|314:177|357:187,1,88.000002685547,6|0,1:2|0:0,0:0:0:0:
424,276,86210,5,8,0:0:0:0:
413,280,86291,1,8,0:0:0:0:
402,284,86372,2,0,L|345:278,3,44.0000013427735,8|8|0|0,0:0|0:0|1:2|1:2,0:0:0:0:
313,298,86696,2,0,L|318:355,3,44.0000013427735,10|8|8|8,0:3|0:3|0:3|0:3,0:0:0:0:
275,366,87021,2,0,L|218:372,1,44.0000013427735,10|8,0:0|0:0,0:0:0:0:
197,335,87183,2,0,L|140:341,1,44.0000013427735,8|8,0:0|0:0,0:0:0:0:
109,360,87345,6,0,P|118:315|113:271,1,88.000002685547,6|2,1:2|0:0,0:0:0:0:
46,192,87669,1,10,0:0:0:0:
149,183,87832,2,0,L|254:171,1,88.000002685547,2|0,0:0|1:2,0:0:0:0:
321,220,88156,1,2,0:0:0:0:
326,114,88318,2,0,P|336:72|363:38,1,88.000002685547,10|0,0:0|0:0,0:0:0:0:
459,34,88642,5,2,1:2:0:0:
417,122,88805,1,0,1:2:0:0:
483,192,88967,2,0,L|496:292,1,88.000002685547,8|2,0:0|0:0,0:0:0:0:
441,367,89291,1,2,1:2:0:0:
392,262,89454,1,2,1:2:0:0:
330,358,89615,2,0,L|234:366,1,88.000002685547,10|2,0:0|0:0,0:0:0:0:
123,319,89940,6,0,P|150:236|138:149,1,176.000005371094,6|8,1:2|0:0,0:0:0:0:
40,62,90426,2,0,L|140:49,1,88.000002685547,2|0,0:0|1:2,0:0:0:0:
220,110,90751,1,0,1:2:0:0:
294,21,90913,2,0,P|336:8|379:13,1,88.000002685547,10|2,0:0|0:0,0:0:0:0:
441,87,91237,5,2,1:2:0:0:
347,110,91399,2,0,L|339:210,1,88.000002685547,0|8,1:2|0:0,0:0:0:0:
329,297,91723,1,2,1:2:0:0:
253,232,91886,1,8,0:0:0:0:
227,213,91967,1,0,1:2:0:0:
195,206,92048,1,2,1:2:0:0:
163,213,92129,1,0,1:2:0:0:
136,230,92210,2,0,P|114:235|92:233,3,44.0000013427735,10|8|2|0,0:3|0:3|1:2|1:2,0:0:0:0:
49,261,92534,5,14,0:0:0:0:
5,157,92696,2,0,B|-5:112|-5:112|2:71,1,88.000002685547,0|2,1:2|1:2,0:0:0:0:
110,114,93021,2,0,B|151:122|151:122|195:111,1,88.000002685547,14|0,0:0|1:2,0:0:0:0:
246,29,93345,1,0,1:2:0:0:
293,112,93507,1,8,0:0:0:0:
378,38,93669,2,0,B|422:27|422:27|463:35,1,88.000002685547,4|0,1:2|0:0,0:0:0:0:
404,157,93994,5,0,1:2:0:0:
400,147,94075,1,0,1:2:0:0:
397,138,94156,1,8,0:0:0:0:
492,122,94318,1,2,1:2:0:0:
463,214,94480,2,0,L|453:309,1,88.000002685547,10|2,0:0|1:2,0:0:0:0:
280,284,94805,2,0,L|367:245,1,88.000002685547,10|2,0:0|1:2,0:0:0:0:
369,354,95129,5,14,0:0:0:0:
282,192,95291,1,10,0:0:0:0:
18,383,95615,5,10,0:0:0:0:
61,120,95940,5,10,0:0:0:0:
40,244,96102,1,10,0:0:0:0:
159,198,96264,1,10,0:0:0:0:
145,76,96426,6,0,P|140:50|127:15,3,44.0000013427735,8|8|0|0,0:3|0:3|1:2|1:2,0:0:0:0:
149,107,96751,1,8,0:0:0:0:
244,76,96913,1,8,0:3:0:0:
244,76,96994,1,8,0:3:0:0:
244,75,97075,2,0,L|250:32,1,44.0000013427735,2|0,1:2|1:2,0:0:0:0:
330,0,97237,2,0,L|334:43,1,44.0000013427735,8|8,0:0|0:0,0:0:0:0:
422,65,97399,1,10,0:0:0:0:
408,97,97480,1,8,0:0:0:0:
381,123,97561,1,8,0:0:0:0:
349,136,97642,1,8,0:0:0:0:
316,137,97723,5,6,1:2:0:0:
334,43,97886,1,2,1:2:0:0:
244,76,98048,2,0,B|224:99|219:126|219:126|226:149|232:246,1,167.999994873047,8|2,0:0|1:2,0:0:0:0:
287,326,98534,1,2,1:2:0:0:
182,324,98696,2,0,P|132:321|94:314,1,83.9999974365235,10|2,0:0|0:0,0:0:0:0:
18,240,99021,5,2,1:2:0:0:
69,163,99183,1,2,1:2:0:0:
36,76,99345,1,10,0:0:0:0:
98,170,99507,2,0,P|139:174|180:166,1,83.9999974365235,2|0,0:0|1:2,0:0:0:0:
159,68,99832,2,0,P|231:62|339:85,1,167.999994873047,0|2,1:2|0:0,0:0:0:0:
380,152,100318,5,6,1:2:0:0:
286,163,100480,2,0,B|270:203|270:203|276:244,1,83.9999974365235,2|8,1:2|0:0,0:0:0:0:
227,324,100805,2,0,B|267:340|267:340|307:334,1,83.9999974365235,2|0,0:0|1:2,0:0:0:0:
388,383,101129,2,0,B|404:343|404:343|398:302,1,83.9999974365235,2|8,1:2|0:0,0:0:0:0:
444,205,101453,6,0,L|347:220,1,83.9999974365235,2|0,0:0|1:2,0:0:0:0:
235,302,101777,1,2,1:2:0:0:
193,186,101939,1,10,0:0:0:0:
121,257,102102,1,2,0:0:0:0:
51,167,102264,2,0,P|48:124|55:82,1,83.9999974365235,10|2,0:2|1:2,0:0:0:0:
100,0,102588,1,10,0:0:0:0:
167,66,102751,1,8,0:0:0:0:
178,69,102832,1,8,0:0:0:0:
189,72,102913,6,0,L|275:65,1,83.9999974365235,6|2,1:2|1:2,0:0:0:0:
311,171,103237,2,0,L|397:178,1,83.9999974365235,10|2,0:0|0:0,0:0:0:0:
467,104,103561,1,2,1:2:0:0:
467,104,103723,1,2,1:2:0:0:
395,178,103886,2,0,P|384:218|389:260,1,83.9999974365235,10|2,0:0|0:0,0:0:0:0:
460,366,104210,5,2,1:2:0:0:
386,285,104372,1,2,1:2:0:0:
307,344,104534,1,10,0:0:0:0:
242,255,104696,2,0,B|199:245|199:245|160:255,1,83.9999974365235,2|0,0:0|1:2,0:0:0:0:
110,334,105021,1,2,1:2:0:0:
40,272,105183,2,0,B|29:231|29:231|39:190,1,83.9999974365235,8|0,0:0|0:0,0:0:0:0:
4,105,105507,6,0,P|44:96|85:107,1,83.9999974365235,6|0,1:2|1:2,0:0:0:0:
159,162,105832,2,0,B|197:172|233:156|233:156|249:170|249:170|282:153|317:158,1,167.999994873047,10|2,0:0|1:2,0:0:0:0:
393,211,106318,1,2,1:2:0:0:
410,120,106480,2,0,L|425:12,1,83.9999974365235,10|2,0:0|0:0,0:0:0:0:
333,64,106805,6,0,L|262:76,5,41.9999987182618,10|8|10|8|2|0,0:0|0:0|0:0|0:0|1:2|1:2,0:0:0:0:
261,35,107291,2,0,L|190:23,5,41.9999987182618,8|8|10|8|0|0,0:0|0:0|0:0|0:0|1:2|1:2,0:0:0:0:
194,67,107778,1,8,0:0:0:0:
175,69,107859,1,8,0:0:0:0:
156,71,107940,1,8,0:0:0:0:
137,73,108021,1,8,0:0:0:0:
117,75,108102,6,0,P|105:114|108:156,1,83.9999974365235,6|2,1:2|1:2,0:0:0:0:
168,226,108426,1,10,0:0:0:0:
250,185,108588,1,2,1:2:0:0:
243,277,108751,2,0,L|234:360,1,83.9999974365235,2|2,1:2|1:2,0:0:0:0:
325,343,109075,2,0,L|408:334,1,83.9999974365235,10|0,0:0|1:2,0:0:0:0:
504,327,109399,5,2,1:2:0:0:
432,252,109561,1,2,1:2:0:0:
494,169,109723,1,10,0:0:0:0:
420,115,109886,2,0,B|402:71|402:71|405:30,1,83.9999974365235,2|0,1:2|1:2,0:0:0:0:
499,9,110210,1,2,1:2:0:0:
404,34,110372,2,0,B|364:44|364:44|322:35,1,83.9999974365235,8|0,0:0|1:2,0:0:0:0:
269,105,110696,5,6,1:2:0:0:
232,20,110858,1,2,1:2:0:0:
269,105,111020,1,8,0:0:0:0:
176,93,111183,2,0,L|78:80,1,83.9999974365235,2|0,1:2|1:2,0:0:0:0:
111,174,111507,2,0,L|59:240,1,83.9999974365235,2|8,1:2|0:0,0:0:0:0:
148,270,111832,2,0,L|179:348,1,83.9999974365235,2|0,1:2|1:2,0:0:0:0:
345,291,112156,6,0,P|305:277|263:278,1,83.9999974365235,2|10,1:2|0:0,0:0:0:0:
294,367,112480,1,2,1:2:0:0:
384,374,112642,1,10,0:2:0:0:
436,296,112805,1,2,1:2:0:0:
397,213,112967,1,10,0:0:0:0:
449,137,113129,1,8,0:0:0:0:
461,133,113210,1,8,0:0:0:0:
473,130,113291,6,0,L|496:32,1,83.9999974365235,6|2,1:2|1:2,0:0:0:0:
404,0,113615,1,8,0:0:0:0:
268,87,113778,2,0,B|216:73|216:73|167:102|167:102|111:89,1,167.999994873047,6|2,1:2|1:2,0:0:0:0:
152,6,114264,1,10,0:0:0:0:
230,169,114426,6,0,L|216:345,1,167.999994873047,6|0,1:2|1:2,0:0:0:0:
125,310,114912,1,10,0:0:0:0:
251,253,115075,2,0,B|290:242|290:242|332:251,1,83.9999974365235,2|8,1:2|0:0,0:0:0:0:
344,255,115318,1,8,0:3:0:0:
355,258,115399,1,8,0:3:0:0:
366,261,115480,1,8,0:3:0:0:
377,264,115561,2,0,L|432:257,3,41.9999987182618,8|8|0|8,0:3|0:3|1:2|0:3,0:0:0:0:
445,245,115886,5,10,0:0:0:0:
386,142,116048,2,0,P|378:100|384:59,1,83.9999974365235,8|0,0:0|1:2,0:0:0:0:
485,142,116372,2,0,P|490:100|483:59,1,83.9999974365235,8|0,0:0|1:2,0:0:0:0:
384,59,116696,5,8,0:0:0:0:
286,119,116859,1,8,0:0:0:0:
196,54,117021,2,0,B|181:42|159:35|159:35|122:63|122:63|96:67|74:55|74:55|43:53,1,167.999994873047,12|0,0:0|1:2,0:0:0:0:
43,53,117426,1,0,1:2:0:0:
43,53,117507,1,8,0:0:0:0:
92,158,117669,1,0,1:2:0:0:
92,158,117751,1,0,1:2:0:0:
92,158,117832,2,0,B|102:206|89:254|89:254|56:245,2,125.999996154785,8|8|8,0:0|0:0|0:0,0:0:0:0:
