osu file format v14

[General]
AudioFilename: audio.mp3
AudioLeadIn: 0
PreviewTime: -1
Countdown: 1
SampleSet: Normal
StackLeniency: 0.7
Mode: 0
LetterboxInBreaks: 0
WidescreenStoryboard: 0

[Editor]
DistanceSpacing: 1.4
BeatDivisor: 4
GridSize: 4
TimelineZoom: 1

[Metadata]
Title:Thrill, Risk, Heartless
TitleUnicode:Thrill, Risk, Heartless
Artist:LiSA
ArtistUnicode:LiSA
Creator:Spark-desu
Version:Fatal Bullet
Source:Youtube
Tags:
BeatmapID:1520630
BeatmapSetID:720231

[Difficulty]
HPDrainRate:5.5
CircleSize:4.2
OverallDifficulty:9
ApproachRate:9.7
SliderMultiplier:1.6
SliderTickRate:1

[Events]
//Background and Video events
0,0,"Sinon2.jpg",0,0
//Break Periods
//Storyboard Layer 0 (Background)
//Storyboard Layer 1 (Fail)
//Storyboard Layer 2 (Pass)
//Storyboard Layer 3 (Foreground)
//Storyboard Sound Samples

[TimingPoints]
555,300,4,1,0,62,1,0
1155,-142.857142857143,4,1,0,62,0,0
4755,-100,4,1,0,62,0,0
7755,-142.857142857143,4,1,0,62,0,0
8355,-125,4,1,0,62,0,0
8955,-111.111111111111,4,1,0,62,0,0
9555,-100,4,1,0,62,0,0
10155,-142.857142857143,4,1,0,62,0,0
12555,-90.9090909090909,4,1,0,62,0,0
16005,-83.3333333333333,4,1,0,62,0,0
16605,-90.9090909090909,4,1,0,62,0,0
20805,-83.3333333333333,4,1,0,62,0,0
22155,-125,4,1,0,62,0,0
26355,-100,4,1,0,62,0,0
40755,-100,4,1,0,62,0,0
41355,-125,4,1,0,62,0,0
42555,-100,4,1,0,62,0,0
43905,-111.111111111111,4,1,0,62,0,0
44055,-125,4,1,0,62,0,0
46155,-125,4,1,0,62,0,0
46755,-100,4,1,0,62,0,0
47355,-83.3333333333333,4,1,0,62,0,0
47955,-71.4285714285714,4,1,0,62,0,0
54855,-83.3333333333333,4,1,0,62,0,0
55155,-71.4285714285714,4,1,0,62,0,0
55455,-62.5,4,1,0,62,0,0
58155,-71.4285714285714,4,1,0,62,0,0
62955,-62.5,4,1,0,62,0,0
63555,-71.4285714285714,4,1,0,62,0,0
64455,-83.3333333333333,4,1,0,62,0,0
64755,-71.4285714285714,4,1,0,62,0,0
65055,-62.5,4,1,0,62,0,0
67755,-83.3333333333333,4,1,0,62,0,0
76755,-83.3333333333333,4,1,0,62,0,0
77355,-100,4,1,0,62,0,0
78555,-62.5,4,1,0,62,0,0
79155,-83.3333333333333,4,1,0,62,0,0
79455,-62.5,4,1,0,62,0,0
80055,-83.3333333333333,4,1,0,62,0,0
82155,-125,4,1,0,62,0,0
83955,-100,4,1,0,62,0,0
84405,-71.4285714285714,4,1,0,62,0,0

[HitObjects]
160,56,1155,6,0,B|108:156|141:205|141:205|217:180,1,223.999993164063
368,120,2355,2,0,B|353:165|453:196|474:236|474:236|414:268,1,223.999993164063
256,336,3555,2,0,B|224:312|224:312|184:300|160:256,1,111.999996582031
112,136,4155,2,0,B|151:138|151:138|184:152|236:136,1,111.999996582031
400,40,4755,1,0,0:0:0:0:
376,88,4830,1,0,0:0:0:0:
352,136,4905,1,0,0:0:0:0:
320,184,4980,1,0,0:0:0:0:
288,232,5055,1,0,0:0:0:0:
208,68,5355,5,0,0:0:0:0:
208,280,5505,1,0,0:0:0:0:
124,56,5655,1,0,0:0:0:0:
288,292,5805,1,0,0:0:0:0:
272,20,5955,1,0,0:0:0:0:
432,224,6105,1,0,0:0:0:0:
152,228,6255,1,0,0:0:0:0:
392,84,6405,1,0,0:0:0:0:
116,92,6555,1,0,0:0:0:0:
336,184,7005,5,0,0:0:0:0:
328,200,7080,1,0,0:0:0:0:
320,216,7155,2,0,L|224:360,1,160
120,216,7755,2,0,L|176:160,1,55.9999982910157
391,167,8055,2,0,L|336:223,1,55.9999982910157
96,224,8355,6,0,L|144:168,1,64
416,160,8655,2,0,L|367:215,1,64
72,232,8955,6,0,L|136:152,1,71.9999978027344
440,151,9255,2,0,L|376:232,1,71.9999978027344
48,240,9555,6,0,L|104:168,1,80
464,144,9855,2,0,L|408:216,1,80
24,248,10155,5,0,0:0:0:0:
488,136,10455,1,0,0:0:0:0:
488,167,10530,1,0,0:0:0:0:
479,198,10605,1,0,0:0:0:0:
461,224,10680,1,0,0:0:0:0:
432,240,10755,5,0,0:0:0:0:
417,194,10830,1,0,0:0:0:0:
393,152,10905,1,0,0:0:0:0:
363,115,10980,1,0,0:0:0:0:
326,85,11055,5,0,0:0:0:0:
341,138,11130,1,0,0:0:0:0:
334,193,11205,1,0,0:0:0:0:
306,241,11280,1,0,0:0:0:0:
261,274,11355,1,0,0:0:0:0:
206,286,11430,1,0,0:0:0:0:
152,275,11505,1,0,0:0:0:0:
106,244,11580,1,0,0:0:0:0:
76,196,11655,1,0,0:0:0:0:
68,142,11730,1,0,0:0:0:0:
82,88,11805,1,0,0:0:0:0:
112,40,11880,1,0,0:0:0:0:
160,16,11955,6,0,P|196:129|245:142,1,167.999994873047
424,168,12555,1,0,0:0:0:0:
208,240,12705,1,0,0:0:0:0:
384,80,12855,1,0,0:0:0:0:
400,288,13005,1,0,0:0:0:0:
296,72,13155,5,0,0:0:0:0:
200,312,13305,1,0,0:0:0:0:
416,168,13455,1,0,0:0:0:0:
168,72,13605,1,0,0:0:0:0:
312,312,13755,1,0,0:0:0:0:
392,64,13905,1,0,0:0:0:0:
160,280,14055,5,0,0:0:0:0:
296,40,14205,1,0,0:0:0:0:
400,320,14355,1,0,0:0:0:0:
160,144,14505,1,0,0:0:0:0:
496,144,14655,2,0,L|400:200,1,88.000002685547
224,296,14955,5,0,0:0:0:0:
328,80,15105,1,0,0:0:0:0:
128,216,15255,1,0,0:0:0:0:
408,112,15405,1,0,0:0:0:0:
328,336,15555,1,0,0:0:0:0:
248,112,15705,1,0,0:0:0:0:
120,336,15855,1,0,0:0:0:0:
40,112,16005,6,0,L|144:160,1,95.9999970703126
344,248,16305,1,0,0:0:0:0:
128,40,16455,2,0,L|224:40,1,95.9999970703126
448,40,16755,1,0,0:0:0:0:
224,136,16905,1,0,0:0:0:0:
240,144,16980,1,0,0:0:0:0:
256,152,17055,2,0,L|336:192,1,88.000002685547
504,256,17355,5,0,0:0:0:0:
256,280,17505,1,0,0:0:0:0:
440,152,17655,1,0,0:0:0:0:
168,104,17805,1,0,0:0:0:0:
384,32,17955,5,0,0:0:0:0:
208,208,18105,1,0,0:0:0:0:
456,72,18255,1,0,0:0:0:0:
136,176,18405,1,0,0:0:0:0:
432,152,18555,1,0,0:0:0:0:
248,336,18705,1,0,0:0:0:0:
368,88,18855,5,0,0:0:0:0:
336,344,19005,1,0,0:0:0:0:
280,88,19155,1,0,0:0:0:0:
160,344,19305,1,0,0:0:0:0:
352,168,19455,2,0,L|256:216,1,88.000002685547
56,304,19755,5,0,0:0:0:0:
192,64,19905,1,0,0:0:0:0:
8,240,20055,1,0,0:0:0:0:
128,16,20205,1,0,0:0:0:0:
128,280,20355,1,0,0:0:0:0:
48,24,20505,1,0,0:0:0:0:
48,312,20655,1,0,0:0:0:0:
200,48,20805,6,0,L|280:144,1,95.9999970703126
404,276,21105,1,0,0:0:0:0:
168,128,21255,2,0,L|240:216,1,95.9999970703126
360,356,21555,1,0,0:0:0:0:
364,128,21705,1,0,0:0:0:0:
272,352,21855,2,0,L|192:264,1,95.9999970703126
72,192,22155,6,0,L|160:160,1,64
288,104,22455,1,0,0:0:0:0:
80,80,22605,1,0,0:0:0:0:
144,240,22755,2,0,L|208:240,1,64
16,136,23055,1,0,0:0:0:0:
240,136,23205,1,0,0:0:0:0:
80,40,23355,5,0,0:0:0:0:
104,248,23505,1,0,0:0:0:0:
204,48,23655,1,0,0:0:0:0:
188,264,23805,1,0,0:0:0:0:
336,56,23955,1,0,0:0:0:0:
264,304,24105,1,0,0:0:0:0:
268,104,24255,1,0,0:0:0:0:
344,312,24405,1,0,0:0:0:0:
200,160,24555,6,0,L|272:192,1,64
408,240,24855,1,0,0:0:0:0:
208,248,25005,1,0,0:0:0:0:
416,152,25155,2,0,L|352:120,1,64
208,40,25455,2,0,L|128:72,1,64
8,136,25755,6,0,L|73:191,1,64
216,288,26055,1,0,0:0:0:0:
88,104,26205,1,0,0:0:0:0:
304,248,26355,1,0,0:0:0:0:
270,218,26430,1,0,0:0:0:0:
256,176,26505,1,0,0:0:0:0:
263,133,26580,1,0,0:0:0:0:
291,98,26655,1,0,0:0:0:0:
128,248,26955,5,0,0:0:0:0:
192,32,27105,1,0,0:0:0:0:
208,304,27255,1,0,0:0:0:0:
120,64,27405,1,0,0:0:0:0:
72,296,27555,1,0,0:0:0:0:
256,80,27705,1,0,0:0:0:0:
344,312,27855,1,0,0:0:0:0:
408,56,28005,1,0,0:0:0:0:
472,312,28155,1,0,0:0:0:0:
336,112,28305,5,0,0:0:0:0:
328,128,28380,1,0,0:0:0:0:
320,144,28455,1,0,0:0:0:0:
240,328,28605,1,0,0:0:0:0:
448,192,28755,1,0,0:0:0:0:
401,223,28830,1,0,0:0:0:0:
348,240,28905,1,0,0:0:0:0:
292,242,28980,1,0,0:0:0:0:
238,227,29055,1,0,0:0:0:0:
384,56,29355,5,0,0:0:0:0:
312,168,29505,1,0,0:0:0:0:
260,12,29655,1,0,0:0:0:0:
164,228,29805,1,0,0:0:0:0:
104,16,29955,1,0,0:0:0:0:
52,272,30105,1,0,0:0:0:0:
184,32,30255,2,0,P|184:72|192:128,1,80
264,336,30555,1,0,0:0:0:0:
336,112,30705,1,0,0:0:0:0:
152,232,30855,1,0,0:0:0:0:
336,352,31005,1,0,0:0:0:0:
480,168,31155,1,0,0:0:0:0:
442,209,31230,1,0,0:0:0:0:
395,240,31305,1,0,0:0:0:0:
343,258,31380,1,0,0:0:0:0:
287,264,31455,1,0,0:0:0:0:
319,239,31530,1,0,0:0:0:0:
340,206,31605,1,0,0:0:0:0:
349,167,31680,1,0,0:0:0:0:
343,127,31755,5,0,0:0:0:0:
340,120,32055,1,0,0:0:0:0:
340,120,32355,1,0,0:0:0:0:
340,120,32655,1,0,0:0:0:0:
340,120,32955,1,0,0:0:0:0:
340,120,33255,1,0,0:0:0:0:
343,127,33555,5,0,0:0:0:0:
120,128,33705,1,0,0:0:0:0:
343,127,33855,1,0,0:0:0:0:
104,24,34005,1,0,0:0:0:0:
120,32,34080,1,0,0:0:0:0:
136,40,34155,1,0,0:0:0:0:
424,184,34455,5,0,0:0:0:0:
434,222,34530,1,0,0:0:0:0:
424,256,34605,2,0,P|418:269|386:285,1,40
288,296,34755,5,0,0:0:0:0:
317,248,34830,1,0,0:0:0:0:
325,193,34905,1,0,0:0:0:0:
310,139,34980,1,0,0:0:0:0:
276,96,35055,1,0,0:0:0:0:
227,69,35130,1,0,0:0:0:0:
176,56,35205,6,0,L|112:40,1,40
56,120,35355,2,0,L|-8:135,1,40
168,160,35505,2,0,L|231:175,1,40
56,216,35655,2,0,L|0:256,1,40
168,264,35805,2,0,L|224:304,1,40
64,336,35955,5,0,0:0:0:0:
116,353,36030,1,0,0:0:0:0:
172,358,36105,1,0,0:0:0:0:
227,349,36180,1,0,0:0:0:0:
279,327,36255,1,0,0:0:0:0:
324,294,36330,1,0,0:0:0:0:
360,251,36405,1,0,0:0:0:0:
384,201,36480,1,0,0:0:0:0:
392,144,36555,5,0,0:0:0:0:
200,272,36705,1,0,0:0:0:0:
336,80,36855,2,0,P|288:120|240:144,1,80
96,232,37155,1,0,0:0:0:0:
208,32,37305,1,0,0:0:0:0:
32,96,37455,2,0,P|64:136|112:160,1,80
288,240,37755,1,0,0:0:0:0:
136,88,37905,5,0,0:0:0:0:
152,96,37980,1,0,0:0:0:0:
168,104,38055,1,0,0:0:0:0:
352,200,38205,1,0,0:0:0:0:
112,232,38355,1,0,0:0:0:0:
166,218,38430,1,0,0:0:0:0:
215,192,38505,1,0,0:0:0:0:
256,154,38580,1,0,0:0:0:0:
285,106,38655,1,0,0:0:0:0:
344,312,38955,5,0,0:0:0:0:
368,64,39105,1,0,0:0:0:0:
472,280,39255,2,0,P|424:256|384:208,1,80
256,24,39555,5,0,0:0:0:0:
280,272,39705,1,0,0:0:0:0:
144,64,39855,1,0,0:0:0:0:
104,328,40005,1,0,0:0:0:0:
48,80,40155,1,0,0:0:0:0:
16,344,40305,1,0,0:0:0:0:
176,136,40455,2,0,P|184:176|216:224,1,80
320,344,40755,5,0,0:0:0:0:
308,319,40855,1,0,0:0:0:0:
300,294,40955,1,0,0:0:0:0:
296,268,41055,1,0,0:0:0:0:
295,241,41155,1,0,0:0:0:0:
299,215,41255,1,0,0:0:0:0:
306,189,41355,5,0,0:0:0:0:
368,48,41505,2,0,P|296:80|232:72,1,128
96,68,41955,1,0,0:0:0:0:
176,192,42105,2,0,P|152:256|96:312,1,128
272,192,42555,5,0,0:0:0:0:
256,352,42705,2,0,L|320:292,1,80
416,196,43005,1,0,0:0:0:0:
232,264,43155,1,0,0:0:0:0:
368,140,43305,1,0,0:0:0:0:
176,208,43455,2,0,L|244:156,1,80
348,72,43755,5,0,0:0:0:0:
176,60,43905,2,0,L|244:92,1,71.9999978027344
388,192,44205,1,0,0:0:0:0:
192,224,44355,2,0,P|232:264|320:296,1,128
496,304,44955,1,0,0:0:0:0:
424,96,45105,1,0,0:0:0:0:
360,336,45255,1,0,0:0:0:0:
184,352,45555,2,0,L|102:228,1,128,0|0,2:0|0:0,0:0:0:0:
40,48,46155,6,0,L|64:120,1,64
120,320,46455,2,0,L|144:232,1,64
192,24,46755,2,0,L|216:112,1,80
280,344,47055,2,0,L|304:248,1,80
352,24,47355,2,0,L|392:136,1,95.9999970703126
480,352,47655,2,0,L|480:256,1,95.9999970703126
472,32,47955,2,0,P|456:104|432:168,1,111.999996582031
344,328,48255,5,0,0:0:0:0:
296,96,48405,1,0,0:0:0:0:
224,344,48555,1,0,0:0:0:0:
192,64,48705,1,0,0:0:0:0:
108,332,48855,1,0,0:0:0:0:
104,32,49005,1,0,0:0:0:0:
172,288,49155,1,0,0:0:0:0:
12,32,49305,1,0,0:0:0:0:
32,344,49455,1,0,0:0:0:0:
188,28,49605,1,0,0:0:0:0:
256,248,49905,5,0,0:0:0:0:
360,88,50055,1,0,0:0:0:0:
168,216,50205,1,0,0:0:0:0:
440,144,50355,1,0,0:0:0:0:
112,144,50505,1,0,0:0:0:0:
472,224,50655,2,0,P|416:216|360:200,1,111.999996582031
152,64,50955,5,0,0:0:0:0:
312,296,51105,1,0,0:0:0:0:
280,40,51255,2,0,B|256:64|256:64|248:112|200:136,1,111.999996582031
32,264,51555,1,0,0:0:0:0:
320,112,51705,1,0,0:0:0:0:
104,328,51855,1,0,0:0:0:0:
384,208,52005,2,0,L|267:186,1,111.999996582031
512,288,52305,1,0,0:0:0:0:
368,128,52455,6,0,L|216:104,1,111.999996582031
24,80,52755,1,0,0:0:0:0:
32,208,52905,1,0,0:0:0:0:
240,264,53055,2,0,L|360:280,1,111.999996582031
496,104,53355,2,0,L|344:88,1,111.999996582031
144,64,53655,1,0,0:0:0:0:
432,184,53805,2,0,L|296:168,1,111.999996582031
72,136,54105,1,0,0:0:0:0:
360,248,54255,1,0,0:0:0:0:
144,64,54405,2,0,B|176:80|176:80|205:68|296:72,1,111.999996582031
56,256,54855,6,0,P|104:288|176:296,1,95.9999970703126
392,208,55155,2,0,P|344:240|240:240,1,111.999996582031
40,104,55455,2,0,P|96:128|192:144,1,128
448,152,55755,5,0,0:0:0:0:
120,40,55905,1,0,0:0:0:0:
448,152,56055,1,0,0:0:0:0:
48,232,56355,5,0,0:0:0:0:
404,60,56505,1,0,0:0:0:0:
48,232,56655,1,0,0:0:0:0:
456,128,56955,5,0,0:0:0:0:
56,64,57105,1,0,0:0:0:0:
388,200,57255,1,0,0:0:0:0:
8,204,57405,1,0,0:0:0:0:
472,212,57555,1,0,0:0:0:0:
56,144,57705,1,0,0:0:0:0:
416,284,57855,1,0,0:0:0:0:
112,40,58155,6,0,P|120:96|152:160,1,111.999996582031
280,352,58455,1,0,0:0:0:0:
384,96,58605,2,0,L|288:168,1,111.999996582031
88,296,58905,2,0,L|208:288,1,111.999996582031
472,272,59205,2,0,L|344:240,1,111.999996582031
160,192,59505,5,0,0:0:0:0:
464,160,59655,1,0,0:0:0:0:
80,200,59805,1,0,0:0:0:0:
464,240,59955,1,0,0:0:0:0:
408,232,60030,1,0,0:0:0:0:
356,212,60105,1,0,0:0:0:0:
310,180,60180,1,0,0:0:0:0:
273,138,60255,5,0,0:0:0:0:
262,203,60330,1,0,0:0:0:0:
211,243,60405,1,0,0:0:0:0:
145,239,60480,1,0,0:0:0:0:
100,192,60555,5,0,0:0:0:0:
20,24,60705,1,0,0:0:0:0:
20,256,60855,1,0,0:0:0:0:
124,44,61005,1,0,0:0:0:0:
156,324,61155,1,0,0:0:0:0:
228,32,61305,1,0,0:0:0:0:
344,344,61455,1,0,0:0:0:0:
312,24,61605,1,0,0:0:0:0:
256,328,61755,1,0,0:0:0:0:
144,44,61905,1,0,0:0:0:0:
20,260,62055,6,0,P|104:240|140:220,1,111.999996582031
356,92,62355,1,0,0:0:0:0:
52,172,62505,1,0,0:0:0:0:
416,156,62655,2,0,P|344:168|288:160,1,111.999996582031
36,84,62955,2,0,L|180:84,1,128
432,80,63255,1,0,0:0:0:0:
88,192,63405,2,0,L|240:192,1,128
472,188,63705,1,0,0:0:0:0:
152,296,63855,1,0,0:0:0:0:
472,272,64005,2,0,P|408:263|351:220,1,111.999996582031
120,32,64455,6,0,L|120:156,1,95.9999970703126
168,352,64755,2,0,L|208:212,1,111.999996582031
280,28,65055,2,0,L|316:160,1,128
424,364,65355,5,0,0:0:0:0:
376,28,65505,1,0,0:0:0:0:
424,364,65655,1,0,0:0:0:0:
120,24,65955,5,0,0:0:0:0:
168,360,66105,1,0,0:0:0:0:
120,24,66255,1,0,0:0:0:0:
256,352,66555,5,0,0:0:0:0:
312,16,66705,1,0,0:0:0:0:
368,372,66855,1,0,0:0:0:0:
204,12,67005,1,0,0:0:0:0:
256,352,67155,1,0,0:0:0:0:
312,16,67305,1,0,0:0:0:0:
368,372,67455,1,0,0:0:0:0:
136,36,67755,5,0,0:0:0:0:
20,128,67905,1,0,0:0:0:0:
6,173,67980,1,0,0:0:0:0:
18,219,68055,1,0,0:0:0:0:
51,252,68130,1,0,0:0:0:0:
97,263,68205,1,0,0:0:0:0:
142,249,68280,1,0,0:0:0:0:
174,214,68355,1,0,0:0:0:0:
212,184,68430,1,0,0:0:0:0:
256,168,68505,1,0,0:0:0:0:
304,176,68580,1,0,0:0:0:0:
348,192,68655,6,0,L|392:240,1,47.9999985351563
496,192,68805,2,0,L|440:172,1,47.9999985351563
368,112,68955,2,0,L|432:92,1,47.9999985351563
472,24,69105,2,0,L|408:24,1,47.9999985351563
368,24,69255,1,0,0:0:0:0:
310,27,69330,1,0,0:0:0:0:
254,41,69405,2,0,P|224:52|192:68,1,47.9999985351563
88,98,69555,1,0,0:0:0:0:
134,146,69630,1,0,0:0:0:0:
196,169,69705,1,0,0:0:0:0:
262,163,69780,1,0,0:0:0:0:
328,148,69855,1,0,0:0:0:0:
393,137,69930,1,0,0:0:0:0:
451,168,70005,1,0,0:0:0:0:
478,228,70080,1,0,0:0:0:0:
464,292,70155,5,0,0:0:0:0:
396,40,70305,1,0,0:0:0:0:
352,340,70455,1,0,0:0:0:0:
252,16,70605,1,0,0:0:0:0:
256,368,70755,1,0,0:0:0:0:
152,12,70905,1,0,0:0:0:0:
152,328,71055,1,0,0:0:0:0:
56,24,71205,1,0,0:0:0:0:
20,356,71355,1,0,0:0:0:0:
112,80,71505,1,0,0:0:0:0:
232,360,71655,1,0,0:0:0:0:
224,52,71805,1,0,0:0:0:0:
428,344,71955,1,0,0:0:0:0:
336,16,72105,1,0,0:0:0:0:
508,284,72255,1,0,0:0:0:0:
160,140,72405,5,0,0:0:0:0:
160,140,72480,1,0,0:0:0:0:
160,140,72555,1,0,0:0:0:0:
496,160,72705,1,0,0:0:0:0:
112,224,72855,1,0,0:0:0:0:
472,72,73005,1,0,0:0:0:0:
160,304,73155,1,0,0:0:0:0:
384,24,73305,1,0,0:0:0:0:
192,224,73455,1,0,0:0:0:0:
412,96,73605,5,0,0:0:0:0:
412,96,73680,1,0,0:0:0:0:
412,96,73755,1,0,0:0:0:0:
128,248,73905,1,0,0:0:0:0:
456,176,74055,1,0,0:0:0:0:
168,40,74205,1,0,0:0:0:0:
400,248,74355,1,0,0:0:0:0:
64,144,74505,1,0,0:0:0:0:
392,48,74655,1,0,0:0:0:0:
132,108,74805,1,0,0:0:0:0:
464,160,74955,6,0,L|344:176,1,95.9999970703126
104,200,75255,1,0,0:0:0:0:
428,256,75405,1,0,0:0:0:0:
120,328,75555,2,0,L|208:248,1,95.9999970703126
384,80,75855,1,0,0:0:0:0:
264,332,76005,1,0,0:0:0:0:
240,52,76155,5,0,0:0:0:0:
348,316,76305,1,0,0:0:0:0:
316,32,76455,1,0,0:0:0:0:
180,316,76605,1,0,0:0:0:0:
128,64,76755,5,0,0:0:0:0:
154,107,76855,1,0,0:0:0:0:
187,147,76955,1,0,0:0:0:0:
223,182,77055,1,0,0:0:0:0:
264,213,77155,1,0,0:0:0:0:
309,238,77255,1,0,0:0:0:0:
356,258,77355,5,0,0:0:0:0:
356,258,77505,1,0,0:0:0:0:
420,80,77805,1,0,0:0:0:0:
304,32,77955,2,0,B|264:64|264:64|288:88|260:140|200:168,1,160
24,288,78555,2,0,B|72:304|72:304|80:288|80:288|96:304|96:304|104:288|104:288|120:304|120:304|128:288|128:288|144:304|144:304|152:288|152:288|168:304|168:304|176:288|176:288|240:304,1,256
368,344,79155,2,0,B|400:288|400:288|360:256|360:152,1,191.999994140625
400,48,79755,2,0,B|352:32|352:32|344:48|344:48|328:32|328:32|320:48|320:48|304:32|304:32|296:48|296:48|279:32|279:32|272:48|272:48|256:32|256:32|247:48|247:48|184:32,1,256
32,72,80355,2,0,P|58:151|136:232,1,191.999994140625
260,308,80955,5,0,0:0:0:0:
228,258,81030,1,0,0:0:0:0:
218,201,81105,1,0,0:0:0:0:
228,144,81180,1,0,0:0:0:0:
257,95,81255,1,0,0:0:0:0:
302,61,81330,1,0,0:0:0:0:
356,44,81405,1,0,0:0:0:0:
412,49,81480,2,0,L|454:92,1,47.9999985351563
480,160,81630,5,0,0:0:0:0:
443,172,81705,1,0,0:0:0:0:
406,180,81780,1,0,0:0:0:0:
367,182,81855,1,0,0:0:0:0:
329,178,81930,1,0,0:0:0:0:
292,169,82005,1,0,0:0:0:0:
256,155,82080,1,0,0:0:0:0:
224,136,82155,6,0,B|152:128|104:96|104:96|64:96|40:136,1,192
16,272,82755,5,0,0:0:0:0:
96,176,82955,1,0,0:0:0:0:
136,328,83155,1,0,0:0:0:0:
200,208,83355,2,0,L|336:272,1,128
224,40,83955,6,0,L|136:56,1,80
312,48,84255,2,0,L|384:96,1,80
80,128,84555,5,0,0:0:0:0:
336,152,84705,1,0,0:0:0:0:
32,252,84855,1,0,0:0:0:0:
244,80,85005,1,0,0:0:0:0:
112,352,85155,1,0,0:0:0:0:
144,24,85305,1,0,0:0:0:0:
252,332,85455,5,0,0:0:0:0:
60,60,85605,1,0,0:0:0:0:
336,240,85755,1,0,0:0:0:0:
16,140,85905,1,0,0:0:0:0:
332,320,86055,1,0,0:0:0:0:
144,24,86205,1,0,0:0:0:0:
252,332,86355,1,0,0:0:0:0:
60,60,86505,1,0,0:0:0:0:
124,364,86655,1,0,0:0:0:0:
216,52,86805,1,0,0:0:0:0:
328,352,86955,6,0,L|360:228,1,111.999996582031
416,24,87255,1,0,0:0:0:0:
480,336,87405,1,0,0:0:0:0:
336,28,87555,2,0,L|288:148,1,111.999996582031
208,360,87855,1,0,0:0:0:0:
208,28,88005,1,0,0:0:0:0:
288,348,88155,2,0,L|212:241,1,111.999996582031
120,48,88455,2,0,L|192:144,1,111.999996582031
360,328,88755,1,0,0:0:0:0:
368,272,88830,1,0,0:0:0:0:
361,217,88905,2,0,P|352:184|336:160,1,55.9999982910157
288,64,89055,5,0,0:0:0:0:
271,117,89130,1,0,0:0:0:0:
240,163,89205,1,0,0:0:0:0:
198,200,89280,1,0,0:0:0:0:
147,222,89355,5,0,0:0:0:0:
192,32,89505,1,0,0:0:0:0:
64,272,89655,1,0,0:0:0:0:
104,32,89805,1,0,0:0:0:0:
148,312,89955,1,0,0:0:0:0:
32,80,90105,1,0,0:0:0:0:
72,352,90255,1,0,0:0:0:0:
180,64,90405,1,0,0:0:0:0:
216,352,90555,1,0,0:0:0:0:
288,32,90705,1,0,0:0:0:0:
356,356,90855,1,0,0:0:0:0:
248,92,91005,2,0,L|344:172,1,111.999996582031
496,328,91305,1,0,0:0:0:0:
164,240,91455,2,0,L|284:248,1,111.999996582031
488,248,91755,5,0,0:0:0:0:
444,240,91830,1,0,0:0:0:0:
404,219,91905,1,0,0:0:0:0:
372,187,91980,1,0,0:0:0:0:
352,148,92055,1,0,0:0:0:0:
344,104,92130,1,0,0:0:0:0:
332,61,92205,2,0,P|320:36|296:24,1,55.9999982910157
192,24,92355,5,0,0:0:0:0:
217,60,92430,1,0,0:0:0:0:
231,102,92505,1,0,0:0:0:0:
229,147,92580,1,0,0:0:0:0:
214,189,92655,1,0,0:0:0:0:
186,223,92730,1,0,0:0:0:0:
148,248,92805,6,0,P|112:244|88:228,1,55.9999982910157
48,96,92955,2,0,L|8:44,3,55.9999982910157
180,168,93255,2,0,L|228:232,1,55.9999982910157
288,72,93405,2,0,L|288:16,3,55.9999982910157
364,204,93705,2,0,P|371:166|400:139,1,55.9999982910157
492,40,93855,2,0,P|456:64|448:92,1,55.9999982910157
496,240,94005,2,0,L|460:168,1,55.9999982910157
376,32,94155,5,0,0:0:0:0:
344,292,94305,1,0,0:0:0:0:
276,36,94455,1,0,0:0:0:0:
264,324,94605,1,0,0:0:0:0:
196,32,94755,1,0,0:0:0:0:
184,352,94905,1,0,0:0:0:0:
112,36,95055,1,0,0:0:0:0:
72,320,95205,5,0,0:0:0:0:
116,284,95280,1,0,0:0:0:0:
152,240,95355,1,0,0:0:0:0:
276,40,95505,1,0,0:0:0:0:
224,332,95655,1,0,0:0:0:0:
192,40,95805,1,0,0:0:0:0:
308,340,95955,1,0,0:0:0:0:
356,40,96105,1,0,0:0:0:0:
384,364,96255,1,0,0:0:0:0:
456,56,96405,5,0,0:0:0:0:
436,108,96480,1,0,0:0:0:0:
400,152,96555,1,0,0:0:0:0:
232,336,96705,1,0,0:0:0:0:
288,48,96855,1,0,0:0:0:0:
144,336,97005,1,0,0:0:0:0:
208,24,97155,1,0,0:0:0:0:
64,348,97305,1,0,0:0:0:0:
120,24,97455,1,0,0:0:0:0:
12,280,97605,5,0,0:0:0:0:
64,256,97680,1,0,0:0:0:0:
104,220,97755,1,0,0:0:0:0:
288,32,97905,1,0,0:0:0:0:
208,304,98055,1,0,0:0:0:0:
368,56,98205,1,0,0:0:0:0:
420,336,98355,2,0,P|332:300|296:276,1,111.999996582031
152,84,98655,2,0,P|196:116|280:152,1,111.999996582031
480,204,98955,5,0,0:0:0:0:
449,250,99030,1,0,0:0:0:0:
398,268,99105,1,0,0:0:0:0:
345,252,99180,1,0,0:0:0:0:
313,208,99255,2,0,P|300:180|300:144,1,55.9999982910157
328,52,99405,5,0,0:0:0:0:
272,56,99480,1,0,0:0:0:0:
220,76,99555,1,0,0:0:0:0:
184,120,99630,1,0,0:0:0:0:
164,172,99705,2,0,P|156:192|160:244,1,55.9999982910157
112,328,99855,5,0,0:0:0:0:
164,347,99930,1,0,0:0:0:0:
219,348,100005,1,0,0:0:0:0:
272,330,100080,1,0,0:0:0:0:
315,294,100155,1,0,0:0:0:0:
343,246,100230,1,0,0:0:0:0:
344,192,100305,2,0,P|340:160|328:132,1,55.9999982910157
304,36,100455,5,0,0:0:0:0:
248,72,100530,1,0,0:0:0:0:
188,104,100605,2,0,L|120:152,1,55.9999982910157
232,196,100755,5,0,0:0:0:0:
296,220,100830,1,0,0:0:0:0:
360,244,100905,2,0,L|440:272,1,55.9999982910157
308,336,101055,5,0,0:0:0:0:
240,336,101130,1,0,0:0:0:0:
172,336,101205,2,0,P|132:332|100:316,1,55.9999982910157
16,292,101355,5,0,0:0:0:0:
68,251,101430,1,0,0:0:0:0:
98,191,101505,1,0,0:0:0:0:
98,124,101580,1,0,0:0:0:0:
100,56,101655,2,0,L|176:16,1,55.9999982910157
252,188,101805,2,0,L|175:197,1,55.9999982910157
304,72,101955,2,0,P|329:40|352:29,1,55.9999982910157
432,188,102105,2,0,P|446:221|444:247,1,55.9999982910157
357,340,102255,5,0,0:0:0:0:
319,285,102330,1,0,0:0:0:0:
257,260,102405,1,0,0:0:0:0:
192,273,102480,1,0,0:0:0:0:
145,319,102555,2,0,L|96:260,1,55.9999982910157
325,158,102705,2,0,L|309:211,1,55.9999982910157
177,56,102855,2,0,P|210:47|242:50,1,55.9999982910157
144,214,103005,2,0,P|110:205|84:186,1,55.9999982910157
8,84,103155,5,0,0:0:0:0:
48,320,103355,1,0,0:0:0:0:
152,128,103555,1,0,0:0:0:0:
