osu file format v14

[General]
AudioFilename: audio.mp3
AudioLeadIn: 0
PreviewTime: 49830
Countdown: 0
SampleSet: Soft
StackLeniency: 0.3
Mode: 0
LetterboxInBreaks: 0
WidescreenStoryboard: 0

[Editor]
Bookmarks: 60555
DistanceSpacing: 1.1
BeatDivisor: 3
GridSize: 32
TimelineZoom: 2.799999

[Metadata]
Title:Thrill, Risk, Heartless
TitleUnicode:Thrill, Risk, Heartless
Artist:LiSA
ArtistUnicode:LiSA
Creator:Sotarks
Version:Milan- vs Haruto's Insane
Source:Sword Art Online: Fatal Bullet
Tags:ソードアート・オンライン フェイタル・バレット opening ps4 playstation sony op edit cut ver version akitoshi corinn appleeaterx kalibe meg iMage-- Milan- Haruto Haruto_Aizawa
BeatmapID:1534446
BeatmapSetID:718447

[Difficulty]
HPDrainRate:6
CircleSize:3.8
OverallDifficulty:8
ApproachRate:9.1
SliderMultiplier:1.78
SliderTickRate:1

[Events]
//Background and Video events
0,0,"BG.jpg",0,0
//Break Periods
//Storyboard Layer 0 (Background)
//Storyboard Layer 1 (Fail)
//Storyboard Layer 2 (Pass)
//Storyboard Layer 3 (Foreground)
//Storyboard Sound Samples

[TimingPoints]
555,300,4,2,22,32,1,0
1155,-192.307692307692,4,2,22,32,0,0
2355,-138.888888888889,4,2,22,32,0,0
3555,-161.290322580645,4,2,22,32,0,0
4755,-161.290322580645,4,1,0,32,0,0
5055,-161.290322580645,4,2,22,32,0,0
5355,-98.0392156862744,4,2,22,62,0,0
7155,-192.307692307692,4,2,22,62,0,0
7680,-192.307692307692,4,2,22,5,0,0
7755,-121.951219512195,4,2,22,62,0,0
10455,-121.951219512195,4,2,22,32,0,0
10755,-121.951219512195,4,2,22,42,0,0
11355,-108.695652173913,4,2,22,52,0,0
11955,-192.307692307692,4,2,22,62,0,0
12555,-100,4,2,22,82,0,0
22155,-138.888888888889,4,2,22,62,0,0
26655,-192.307692307693,4,2,22,62,0,0
26955,-98.0392156862746,4,2,22,72,0,0
31755,-121.951219512195,4,2,22,62,0,0
36555,-98.0392156862745,4,2,22,72,0,0
41355,-108.695652173913,4,2,22,72,0,0
46155,-121.951219512195,4,2,22,62,0,0
48555,-98.0392156862745,4,2,22,82,0,0
49905,-192.307692307692,4,2,22,52,0,0
50355,-138.888888888889,4,2,22,52,0,0
50655,-108.695652173913,4,2,22,52,0,0
50955,-98.0392156862745,4,2,22,92,0,1
69855,-98.0392156862745,4,2,22,92,0,0
70155,-81.9672131147541,4,2,22,92,0,1
74655,-98.0392156862745,4,2,22,92,0,1
74955,-98.0392156862745,4,2,22,92,0,1
77355,-121.951219512195,4,2,22,82,0,0
82155,-121.951219512195,4,2,22,92,0,0
82755,-81.967213114754,4,2,22,92,0,0
83955,-192.307692307692,4,2,22,52,0,0
84555,-89.2857142857143,4,2,22,92,0,0
94155,-81.9672131147541,4,2,22,92,0,0
98955,-98.0392156862745,4,2,22,92,0,0
103155,-81.9672131147541,4,2,22,92,0,0

[Colours]
Combo1 : 212,212,212
Combo2 : 21,125,97
Combo3 : 116,190,175
Combo4 : 243,215,156
Combo5 : 247,133,104
SliderBorder : 255,255,255
SliderTrackOverride : 0,0,0

[HitObjects]
113,275,1155,6,0,P|78:228|69:140,1,138.839999152588,2|0,0:0|0:0,0:0:0:0:
125,55,1755,2,0,P|160:102|169:190,1,138.839999152588,2|0,0:0|0:0,0:0:0:0:
38,332,2355,6,0,P|128:299|220:273,1,192.240004693359,2|0,0:0|0:0,0:0:0:0:
275,185,2955,2,0,P|365:217|457:243,1,192.240004693359,2|0,0:0|0:0,0:0:0:0:
309,381,3555,6,0,P|311:300|362:237,1,165.539993432556,2|0,0:0|0:0,0:0:0:0:
222,40,4155,2,0,P|272:103|274:184,1,165.539993432556,2|0,0:0|0:0,0:0:0:0:
220,273,4755,1,2,0:0:0:0:
192,285,4830,1,2,0:0:0:0:
162,290,4905,1,2,0:0:0:0:
132,289,4980,1,2,0:0:0:0:
104,284,5055,2,0,P|74:268|35:221,1,82.7699967162782,8|0,0:0|0:0,0:0:0:0:
31,211,5355,5,0,1:0:0:0:
222,40,5505,1,0,0:0:0:0:
222,40,5655,2,0,P|223:73|202:135,1,90.7800005540771,0|0,1:0|0:0,0:0:0:0:
104,284,5955,2,0,P|74:268|31:219,1,90.7800005540771,8|8,0:0|0:0,0:0:0:0:
207,140,6255,2,0,P|178:157|114:170,1,90.7800005540771,8|8,0:0|0:0,0:0:0:0:
38,121,6555,1,12,0:0:0:0:
474,52,7005,5,0,1:0:0:0:
474,52,7080,1,0,1:0:0:0:
474,52,7155,2,0,B|453:107|453:107|469:152|469:152|451:215,1,161.979999011353,12|0,0:0|0:0,0:0:0:0:
444,225,7755,6,0,P|401:212|371:163,1,72.9800011135864,4|0,1:0|0:0,0:0:0:0:
331,55,8055,2,0,L|315:132,1,72.9800011135864,0|0,1:0|0:0,0:0:0:0:
293,219,8355,2,0,L|309:296,1,72.9800011135864,0|0,1:0|0:0,0:0:0:0:
159,184,8655,2,0,P|185:160|221:152,1,72.9800011135864,0|0,1:0|0:0,0:0:0:0:
293,219,8955,6,0,P|266:243|231:251,1,72.9800011135864,0|0,1:0|0:0,0:0:0:0:
138,284,9255,2,0,L|66:269,1,72.9800011135864,0|0,1:0|0:0,0:0:0:0:
76,109,9555,2,0,L|61:180,1,72.9800011135864,0|0,1:0|0:0,0:0:0:0:
62,180,9780,1,0,0:0:0:0:
62,180,9855,1,0,1:0:0:0:
330,329,10155,5,4,1:0:0:0:
330,329,10455,1,8,1:2:0:0:
349,303,10530,1,8,0:0:0:0:
361,272,10605,1,8,0:0:0:0:
363,239,10680,1,8,0:0:0:0:
356,207,10755,6,0,P|332:180|304:167,3,36.4900005567932,8|8|8|8,1:2|0:0|0:0|0:0,0:0:0:0:
248,228,11055,2,0,P|271:255|300:268,3,36.4900005567932,8|8|8|8,1:2|0:0|0:0|0:0,0:0:0:0:
246,127,11355,6,0,P|283:95|302:87,3,40.9399986256714,8|8|8|8,1:2|0:0|0:0|0:0,0:0:0:0:
161,181,11655,2,0,L|105:180,3,40.9399986256714,8|8|8|8,1:2|0:0|0:0|0:0,0:0:0:0:
332,180,11955,2,0,P|362:139|351:39,1,138.839999152588,12|0,0:0|0:0,0:0:0:0:
139,0,12555,6,0,L|162:87,1,89,2|2,1:0|1:0,0:0:0:0:
93,286,12855,1,10,0:0:0:0:
120,180,13005,6,0,L|97:267,1,89,0|2,0:0|1:0,0:0:0:0:
62,95,13305,1,2,1:0:0:0:
226,165,13455,5,8,0:0:0:0:
120,180,13605,1,2,1:0:0:0:
216,353,13755,6,0,L|193:266,1,89,2|0,0:0|1:0,0:0:0:0:
41,122,14055,2,0,L|18:209,1,89,10|2,0:0|0:0,0:0:0:0:
50,367,14355,2,0,P|80:320|83:270,1,89,2|2,1:0|1:0,0:0:0:0:
50,90,14655,1,10,0:0:0:0:
50,90,14955,6,0,L|151:70,1,89,2|2,1:0|1:0,0:0:0:0:
340,71,15255,1,10,0:0:0:0:
150,88,15405,6,0,L|251:108,1,89,0|2,0:0|1:0,0:0:0:0:
437,105,15705,1,2,1:0:0:0:
250,90,15855,5,8,0:0:0:0:
415,115,16005,1,2,1:0:0:0:
282,242,16155,6,0,P|287:198|307:158,1,89,2|0,0:0|1:0,0:0:0:0:
401,233,16455,2,0,P|394:277|374:317,1,89,10|2,0:0|0:0,0:0:0:0:
162,255,16756,1,2,1:0:0:0:
315,166,16905,1,2,1:0:0:0:
315,166,16980,1,0,1:0:0:0:
315,166,17055,1,10,0:0:0:0:
114,366,17355,6,0,P|59:314|47:264,1,89,2|2,1:0|1:0,0:0:0:0:
183,148,17655,1,10,0:0:0:0:
162,255,17805,2,0,L|180:168,1,89,0|2,0:0|1:0,0:0:0:0:
47,72,18105,1,2,1:0:0:0:
65,176,18255,1,8,0:0:0:0:
247,79,18405,1,2,1:0:0:0:
247,79,18555,6,0,P|193:58|131:67,1,89,2|0,0:0|1:0,0:0:0:0:
179,167,18855,2,0,P|233:188|295:179,1,89,10|2,0:0|0:0,0:0:0:0:
417,30,19155,1,2,1:0:0:0:
350,117,19305,1,2,1:0:0:0:
368,230,19455,1,10,0:0:0:0:
92,358,19755,5,2,1:0:0:0:
92,358,19905,1,2,1:0:0:0:
157,273,20055,2,0,P|103:252|41:261,1,89,10|0,0:0|0:0,0:0:0:0:
198,376,20355,2,0,P|243:339|266:281,1,89,2|2,1:0|1:0,0:0:0:0:
148,182,20655,1,8,0:0:0:0:
263,115,20805,6,0,L|246:202,1,89,6|2,1:0|0:0,0:0:0:0:
155,79,21105,1,0,1:0:0:0:
155,79,21180,1,0,0:0:0:0:
155,79,21255,1,10,0:0:0:0:
351,41,21405,1,10,0:0:0:0:
263,115,21555,5,8,0:0:0:0:
241,4,21705,1,10,0:0:0:0:
133,190,21855,5,10,0:0:0:0:
155,79,22005,1,8,0:0:0:0:
246,241,22155,6,0,P|320:231|373:172,1,128.160003128906,4|0,1:0|1:0,0:0:0:0:
444,139,22605,1,0,0:0:0:0:
444,139,22755,2,0,L|456:201,1,64.0800015644532,2|0,1:0|0:0,0:0:0:0:
402,289,23055,2,0,L|389:351,1,64.0800015644532,0|0,1:0|0:0,0:0:0:0:
246,241,23355,6,0,P|320:231|373:172,1,128.160003128906,2|0,1:0|1:0,0:0:0:0:
259,78,23805,1,0,0:0:0:0:
259,78,23955,2,0,L|272:141,1,64.0800015644532,0|2,1:0|0:0,0:0:0:0:
246,241,24255,2,0,L|233:303,1,64.0800015644532,2|2,1:0|0:0,0:0:0:0:
171,166,24480,1,0,0:0:0:0:
171,166,24555,6,0,P|121:128|58:123,1,128.160003128906,6|0,1:0|1:0,0:0:0:0:
82,223,25005,1,0,0:0:0:0:
64,31,25155,2,0,P|32:35|4:50,1,64.0800015644532,2|0,1:0|0:0,0:0:0:0:
138,251,25455,2,0,P|112:232|81:222,1,64.0800015644532,0|2,1:0|0:0,0:0:0:0:
66,323,25755,6,0,P|91:341|122:351,1,64.0800015644532,2|0,1:0|0:0,0:0:0:0:
216,309,26055,2,0,L|278:296,1,64.0800015644532,2|0,1:0|0:0,0:0:0:0:
227,206,26355,2,0,L|289:193,1,64.0800015644532,4|4,3:0|3:0,0:0:0:0:
373,256,26580,1,0,0:0:0:0:
373,256,26655,6,0,P|388:224|393:189,1,69.4199995762939,14|0,0:0|0:0,0:0:0:0:
371,79,26955,6,0,L|393:194,1,90.7800005540771,6|0,1:0|1:0,0:0:0:0:
277,95,27255,1,8,0:0:0:0:
446,15,27405,1,0,0:0:0:0:
261,102,27555,1,0,1:0:0:0:
476,194,27705,1,0,1:0:0:0:
371,79,27855,1,8,0:0:0:0:
335,257,28005,6,0,B|235:250|262:315|167:312,1,181.560001108154,0|2,1:0|1:0,0:0:0:0:
82,257,28380,1,0,1:0:0:0:
82,257,28455,2,0,P|117:284|162:293,1,90.7800005540771,10|2,0:0|0:0,0:0:0:0:
138,101,28755,2,0,P|143:145|169:182,1,90.7800005540771,2|2,1:0|1:0,0:0:0:0:
408,118,29055,2,0,P|327:81|249:111,1,136.170000831116,10|0,0:0|0:0,0:0:0:0:
261,102,29355,5,4,1:0:0:0:
344,269,29505,1,0,1:0:0:0:
343,268,29655,2,0,L|325:178,1,90.7800005540771,8|0,0:0|0:0,0:0:0:0:
227,195,29955,2,0,L|209:284,1,90.7800005540771,0|0,1:0|1:0,0:0:0:0:
87,194,30255,1,10,0:0:0:0:
123,337,30405,6,0,P|204:381|288:349,1,181.560001108154,2|0,1:0|1:0,0:0:0:0:
261,102,30855,2,0,P|207:98|153:129,1,90.7800005540771,8|0,0:0|1:0,0:0:0:0:
111,319,31155,1,8,0:0:0:0:
105,287,31230,1,8,0:0:0:0:
99,256,31305,1,8,0:0:0:0:
93,225,31380,1,8,0:0:0:0:
87,194,31455,2,0,L|78:149,1,45.3900002770386,8|8,3:0|3:0,0:0:0:0:
96,50,31605,2,0,L|104:5,1,45.3900002770386,4|4,3:0|3:0,0:0:0:0:
228,195,31755,6,0,B|306:203|285:150|364:158,1,145.960002227173,6|0,1:0|1:0,0:0:0:0:
396,316,32205,1,0,0:0:0:0:
431,229,32355,2,0,P|426:265|409:297,1,72.9800011135864,2|0,1:0|0:0,0:0:0:0:
307,331,32655,2,0,P|273:317|247:292,1,72.9800011135864,0|0,1:0|0:0,0:0:0:0:
199,51,32955,6,0,L|227:194,1,145.960002227173,2|0,1:0|1:0,0:0:0:0:
154,262,33405,1,2,0:0:0:0:
154,262,33555,1,2,1:0:0:0:
199,51,33705,1,2,0:0:0:0:
318,223,33855,1,2,1:0:0:0:
128,132,34005,1,0,1:0:0:0:
128,132,34080,1,0,1:0:0:0:
128,132,34155,6,0,L|150:246,1,109.47000167038,4|0,1:0|0:0,0:0:0:0:
154,262,34455,1,8,0:0:0:0:
160,286,34530,1,0,0:0:0:0:
184,313,34605,1,8,0:0:0:0:
216,329,34680,1,0,0:0:0:0:
251,331,34755,6,0,P|270:331|287:325,3,36.4900005567932,0|0|8|8,1:0|0:0|0:0|0:0,0:0:0:0:
347,248,35055,2,0,P|355:231|358:213,3,36.4900005567932,0|0|8|0,1:0|0:0|0:0|0:0,0:0:0:0:
245,193,35355,6,0,L|258:261,3,36.4900005567932,8|0|8|0,1:2|0:0|0:0|0:0,0:0:0:0:
320,110,35655,2,0,L|327:74,3,36.4900005567932,8|8|8|8,0:0|0:0|0:0|0:0,0:0:0:0:
241,169,35955,5,4,1:0:0:0:
236,2,36105,1,8,0:0:0:0:
245,192,36255,2,0,P|218:157|126:131,1,109.47000167038,4|4,3:0|3:0,0:0:0:0:
135,130,36555,6,0,P|82:145|42:187,1,90.7800005540771,6|0,1:0|1:0,0:0:0:0:
164,343,36855,2,0,L|146:253,1,90.7800005540771,8|0,0:0|0:0,0:0:0:0:
73,381,37155,1,0,1:0:0:0:
141,234,37305,1,0,1:0:0:0:
257,359,37455,1,8,0:0:0:0:
429,203,37605,6,0,B|332:196|357:259|254:251,1,181.560001108154,0|2,1:0|1:0,0:0:0:0:
178,197,37980,1,0,1:0:0:0:
178,197,38055,2,0,P|213:224|258:233,1,90.7800005540771,10|2,0:0|0:0,0:0:0:0:
265,109,38355,2,0,P|230:82|185:73,1,90.7800005540771,2|2,1:0|1:0,0:0:0:0:
77,164,38655,2,0,L|106:319,1,136.170000831116,10|0,0:0|0:0,0:0:0:0:
108,319,38955,5,4,1:0:0:0:
183,202,39105,1,0,1:0:0:0:
27,356,39255,2,0,P|94:350|133:323,1,90.7800005540771,8|0,0:0|0:0,0:0:0:0:
296,282,39555,2,0,P|229:288|190:315,1,90.7800005540771,0|0,1:0|1:0,0:0:0:0:
121,358,39855,1,10,0:0:0:0:
85,84,40005,6,0,P|130:136|257:117,1,181.560001108154,0|0,1:0|1:0,0:0:0:0:
383,37,40455,1,12,0:0:0:0:
181,48,40605,1,0,0:0:0:0:
291,218,40755,6,0,P|335:165|342:121,2,60.5200003693848,8|8|8,0:0|0:0|3:0,0:0:0:0:
194,229,41055,2,0,P|145:180|134:137,2,60.5200003693848,8|8|4,0:0|0:0|3:0,0:0:0:0:
252,314,41355,6,0,P|180:274|82:305,1,163.759994502686,6|2,1:0|0:0,0:0:0:0:
20,343,41805,1,0,1:0:0:0:
73,127,41955,2,0,L|108:315,1,163.759994502686,10|0,0:0|0:0,0:0:0:0:
14,239,42405,1,0,0:0:0:0:
134,36,42555,1,2,1:0:0:0:
221,101,42705,6,0,P|151:141|73:127,1,163.759994502686,0|0,1:0|1:0,0:0:0:0:
233,0,43155,1,10,0:0:0:0:
317,60,43305,2,0,L|281:248,1,163.759994502686,0|0,1:0|0:0,0:0:0:0:
323,384,43755,6,0,P|344:324|328:280,1,81.8799972513429,2|0,1:0|1:0,0:0:0:0:
215,384,44055,2,0,P|215:343|234:308,1,81.8799972513429,2|0,0:0|1:0,0:0:0:0:
439,285,44355,6,0,P|406:230|362:214,1,81.8799972513429,10|0,0:0|1:0,0:0:0:0:
139,281,44655,2,0,P|155:244|188:220,1,81.8799972513429,0|0,0:0|0:0,0:0:0:0:
394,71,44955,6,0,P|353:75|316:59,1,81.8799972513429,2|2,1:0|1:0,0:0:0:0:
218,51,45255,2,0,L|233:131,1,81.8799972513429,2|0,0:0|1:0,0:0:0:0:
45,167,45555,6,0,P|126:167|187:219,1,163.759994502686,14|8,0:0|3:0,0:0:0:0:
68,354,46005,1,0,0:0:0:0:
86,261,46155,6,0,L|73:333,1,72.9800011135864,2|0,1:0|0:0,0:0:0:0:
244,315,46455,2,0,P|209:327|173:329,1,72.9800011135864,2|0,1:0|0:0,0:0:0:0:
187,219,46755,2,0,P|221:206|257:204,1,72.9800011135864,2|0,1:0|0:0,0:0:0:0:
344,271,47055,2,0,L|357:342,1,72.9800011135864,2|0,1:0|0:0,0:0:0:0:
372,90,47355,2,0,L|358:161,1,72.9800011135864,2|0,1:0|0:0,0:0:0:0:
440,229,47655,2,0,P|474:241|510:243,1,72.9800011135864,2|0,1:0|0:0,0:0:0:0:
360,360,47955,6,0,P|298:307|218:307,1,145.960002227173,2|0,1:0|1:0,0:0:0:0:
141,342,48405,1,2,1:0:0:0:
135,152,48555,6,0,L|154:252,1,90.7800005540771,12|0,0:0|1:0,0:0:0:0:
141,342,48855,1,0,1:0:0:0:
39,119,49005,6,0,P|60:80|97:55,1,90.7800005540771,12|0,0:0|1:0,0:0:0:0:
152,241,49305,1,0,1:0:0:0:
201,69,49455,5,12,0:0:0:0:
62,283,49605,1,8,0:0:0:0:
201,69,49905,6,0,P|234:101|240:115,2,46.2799997175293,2|2|2,0:0|0:0|0:0,0:0:0:0:
286,33,50355,6,0,P|274:78|238:120,1,96.1200023466797,2|0,0:0|0:0,0:0:0:0:
369,110,50655,6,0,P|315:137|254:131,1,122.819995877014,2|0,0:0|0:0,0:0:0:0:
104,189,50955,6,0,B|197:170|177:249|272:231,1,181.560001108154,6|8,1:0|0:0,0:0:0:0:
155,370,51405,1,0,0:0:0:0:
155,370,51555,2,0,P|150:325|127:286,1,90.7800005540771,0|0,1:0|1:0,0:0:0:0:
34,257,51855,1,8,0:0:0:0:
70,10,52005,6,0,L|108:214,1,181.560001108154,0|0,1:0|1:0,0:0:0:0:
196,216,52455,2,0,P|238:199|269:167,1,90.7800005540771,10|0,0:0|0:0,0:0:0:0:
319,0,52755,1,2,1:0:0:0:
319,0,52905,1,0,1:0:0:0:
162,31,53055,2,0,L|185:153,1,90.7800005540771,10|0,0:0|0:0,0:0:0:0:
373,183,53355,6,0,P|370:138|349:98,1,90.7800005540771,2|0,1:0|1:0,0:0:0:0:
95,175,53655,1,10,0:0:0:0:
168,313,53805,2,0,L|185:224,1,90.7800005540771,2|0,0:0|1:0,0:0:0:0:
286,256,54105,2,0,L|269:166,1,90.7800005540771,2|8,1:0|0:0,0:0:0:0:
430,327,54405,6,0,B|336:300|349:381|258:354,1,181.560001108154,2|0,1:0|1:0,0:0:0:0:
182,292,54855,2,0,P|206:330|246:351,1,90.7800005540771,10|0,0:0|0:0,0:0:0:0:
285,255,55155,2,0,P|263:215|226:192,1,90.7800005540771,2|0,1:0|1:0,0:0:0:0:
94,240,55380,1,0,1:0:0:0:
94,240,55455,2,0,P|77:282|84:327,1,90.7800005540771,10|0,0:0|0:0,0:0:0:0:
119,55,55755,5,2,1:0:0:0:
119,55,55905,2,0,L|136:145,2,90.7800005540771,2|10|0,1:0|0:0|0:0,0:0:0:0:
6,9,56355,5,2,1:0:0:0:
242,102,56505,2,0,L|225:191,1,90.7800005540771,2|10,1:0|0:0,0:0:0:0:
119,55,56805,5,0,1:0:0:0:
21,207,56955,2,0,L|37:117,1,90.7800005540771,2|2,0:0|1:0,0:0:0:0:
211,212,57255,2,0,L|227:301,1,90.7800005540771,10|0,0:0|0:0,0:0:0:0:
132,154,57555,1,2,1:0:0:0:
310,165,57705,1,2,1:0:0:0:
137,165,57855,1,10,0:0:0:0:
141,175,58005,1,0,0:0:0:0:
303,357,58155,6,0,B|403:371|384:300|492:320,1,181.560001108154,2|10,1:0|0:0,0:0:0:0:
310,165,58605,2,0,L|326:254,1,90.7800005540771,2|0,0:0|1:0,0:0:0:0:
442,139,58905,2,0,L|426:228,1,90.7800005540771,2|8,1:0|0:0,0:0:0:0:
271,51,59205,6,0,P|360:71|433:17,1,181.560001108154,6|2,1:0|1:0,0:0:0:0:
195,133,59655,2,0,P|149:134|109:154,1,90.7800005540771,10|2,0:0|1:0,0:0:0:0:
94,339,59955,1,10,0:0:0:0:
246,266,60105,1,2,1:0:0:0:
215,240,60180,1,0,1:0:0:0:
176,229,60255,6,0,P|145:268|144:300,1,45.3900002770386,10|8,0:0|0:0,0:0:0:0:
254,375,60405,2,0,P|285:336|286:304,1,45.3900002770386,8|8,0:0|0:0,0:0:0:0:
309,164,60555,6,0,B|374:149|374:149|419:167|419:167|484:153,2,181.560001108154,4|8|0,1:0|0:0|1:0,0:0:0:0:
247,85,61305,1,0,0:0:0:0:
215,240,61455,1,8,0:0:0:0:
90,134,61605,6,0,P|145:83|268:98,1,181.560001108154,0|0,1:0|1:0,0:0:0:0:
107,246,62055,2,0,P|38:270|20:265,1,90.7800005540771,10|0,0:0|0:0,0:0:0:0:
215,240,62355,2,0,P|270:287|274:305,1,90.7800005540771,2|0,1:0|1:0,0:0:0:0:
90,134,62655,2,0,P|103:62|117:49,1,90.7800005540771,10|0,0:0|0:0,0:0:0:0:
357,123,62955,6,0,B|314:148|314:148|186:119,1,181.560001108154,2|10,1:0|0:0,0:0:0:0:
452,58,63405,2,0,L|465:154,1,90.7800005540771,2|0,1:0|0:0,0:0:0:0:
412,317,63705,2,0,P|412:272|389:234,1,90.7800005540771,2|8,1:0|0:0,0:0:0:0:
161,351,64005,6,0,P|249:360|313:300,1,181.560001108154,2|0,1:0|1:0,0:0:0:0:
135,179,64455,2,0,P|109:240|112:263,1,90.7800005540771,10|0,0:0|0:0,0:0:0:0:
294,107,64755,1,2,1:0:0:0:
245,215,64905,1,0,1:0:0:0:
245,215,64980,1,0,1:0:0:0:
245,215,65055,2,0,L|405:190,1,136.170000831116,14|0,0:0|0:0,0:0:0:0:
458,177,65355,5,2,1:0:0:0:
311,300,65505,1,0,0:0:0:0:
294,107,65655,1,10,0:0:0:0:
286,91,65955,5,2,1:0:0:0:
301,318,66105,1,2,1:0:0:0:
477,172,66255,1,10,0:0:0:0:
497,166,66555,5,2,0:0:0:0:
315,198,66705,1,2,1:0:0:0:
483,274,66855,1,10,0:0:0:0:
298,194,67005,1,2,0:0:0:0:
456,69,67155,1,2,1:0:0:0:
280,196,67305,1,2,1:0:0:0:
500,281,67455,2,0,L|504:385,1,90.7800005540771,10|0,0:0|0:0,0:0:0:0:
396,248,67755,5,2,1:0:0:0:
508,153,67905,1,0,0:0:0:0:
508,153,67980,1,8,0:0:0:0:
508,153,68055,2,0,P|465:159|391:137,1,90.7800005540771,10|2,0:0|1:0,0:0:0:0:
284,0,68355,2,0,L|268:86,1,45.3900002770386,8|0,0:0|0:0,0:0:0:0:
238,132,68505,2,0,L|187:104,1,45.3900002770386,2|0,1:0|1:0,0:0:0:0:
161,27,68655,1,8,0:0:0:0:
161,27,68730,1,8,0:0:0:0:
161,27,68805,6,0,L|39:54,1,90.7800005540771,10|4,0:0|3:0,0:0:0:0:
0,211,69105,1,8,0:0:0:0:
0,211,69180,1,8,0:0:0:0:
0,211,69255,1,10,0:0:0:0:
109,128,69405,2,0,P|118:152|122:192,1,45.3900002770386,0|0,1:0|1:0,0:0:0:0:
190,287,69555,2,0,P|197:265|199:243,1,45.3900002770386,10|0,0:0|0:0,0:0:0:0:
285,174,69705,2,0,P|295:192|306:244,1,45.3900002770386,0|0,1:0|1:0,0:0:0:0:
436,296,69855,1,6,3:0:0:0:
436,296,70155,6,0,L|319:316,1,108.579995526642,14|0,0:0|1:0,0:0:0:0:
340,118,70455,2,0,L|232:136,1,108.579995526642,8|0,0:0|1:0,0:0:0:0:
443,177,70755,1,10,0:0:0:0:
451,68,70905,2,0,L|441:194,1,108.579995526642,0|8,1:0|0:0,0:0:0:0:
232,136,71205,1,0,1:0:0:0:
328,314,71355,5,10,0:0:0:0:
337,205,71505,2,0,L|327:331,1,108.579995526642,0|8,1:0|0:0,0:0:0:0:
124,190,71805,1,0,1:0:0:0:
204,250,71955,2,0,P|175:207|88:197,1,108.579995526642,10|0,0:0|1:0,0:0:0:0:
10,328,72255,1,8,0:0:0:0:
122,384,72405,1,0,1:0:0:0:
122,384,72480,1,0,1:0:0:0:
122,384,72555,6,0,L|103:256,1,108.579995526642,14|0,0:0|1:0,0:0:0:0:
254,149,72855,2,0,L|235:21,1,108.579995526642,8|0,0:0|1:0,0:0:0:0:
35,99,73155,1,10,0:0:0:0:
143,109,73305,2,0,L|30:98,1,108.579995526642,0|8,1:0|0:0,0:0:0:0:
173,210,73605,1,0,1:0:0:0:
362,139,73755,5,10,0:0:0:0:
254,149,73905,2,0,L|367:138,1,108.579995526642,0|8,1:0|0:0,0:0:0:0:
311,346,74205,1,0,1:0:0:0:
275,250,74355,2,0,P|293:329|349:358,1,108.579995526642,10|0,0:0|1:0,0:0:0:0:
458,180,74655,1,12,0:0:0:0:
458,180,74955,5,2,1:0:0:0:
254,149,75105,1,0,1:0:0:0:
354,47,75255,2,0,L|364:170,1,90.7800005540771,10|0,0:0|1:0,0:0:0:0:
251,29,75555,5,10,0:0:0:0:
251,29,75705,1,0,1:0:0:0:
81,100,75855,2,0,P|126:103|170:91,1,90.7800005540771,10|0,0:0|0:0,0:0:0:0:
311,229,76155,5,14,0:0:0:0:
354,47,76305,1,0,1:0:0:0:
220,171,76455,5,14,0:0:0:0:
261,323,76605,1,0,1:0:0:0:
136,226,76755,6,0,P|98:242|72:269,2,60.5200003693848,8|4|4,0:0|3:0|3:0,0:0:0:0:
52,177,77055,2,0,P|14:161|-12:134,2,60.5200003693848,8|4|4,3:0|3:0|3:0,0:0:0:0:
135,139,77355,5,4,1:0:0:0:
148,313,77505,2,0,P|213:284|312:298,1,145.960002227173,0|0,1:0|1:0,0:0:0:0:
477,211,77955,2,0,P|438:227|279:109,1,255.430003897553,10|0,0:0|0:0,0:0:0:0:
294,106,78555,5,2,1:0:0:0:
117,9,78705,2,0,P|174:94|173:149,1,145.960002227173,0|0,1:0|1:0,0:0:0:0:
16,318,79155,2,0,P|54:249|230:259,1,255.430003897553,10|0,0:0|0:0,0:0:0:0:
223,263,79755,5,6,1:0:0:0:
375,364,79905,2,0,P|386:292|433:238,1,145.960002227173,0|0,1:0|1:0,0:0:0:0:
260,1,80355,2,0,P|351:96|298:217,1,255.430003897553,10|0,0:0|0:0,0:0:0:0:
303,209,80955,5,10,0:0:0:0:
287,212,81030,1,0,0:0:0:0:
271,209,81105,1,0,1:0:0:0:
261,200,81180,1,0,1:0:0:0:
256,187,81255,2,0,P|271:150|276:134,3,36.4900005567932,8|0|0|0,3:0|0:0|1:0|1:0,0:0:0:0:
154,105,81555,5,10,3:0:0:0:
168,128,81630,1,0,0:0:0:0:
174,160,81705,1,0,1:0:0:0:
164,196,81780,1,0,1:0:0:0:
144,218,81855,2,0,L|88:239,3,36.4900005567932,8|8|4|4,3:0|3:0|3:0|3:0,0:0:0:0:
33,293,82155,6,0,P|115:277|271:371,1,255.430003897553,6|0,1:0|0:0,0:0:0:0:
284,362,82755,6,0,B|332:333|332:333|392:341,1,108.579995526642,8|0,0:0|0:0,0:0:0:0:
469,338,82955,2,0,B|419:310|419:310|399:262,1,108.579995526642,8|0,0:0|0:0,0:0:0:0:
355,192,83155,2,0,B|356:248|356:248|324:289,1,108.579995526642,8|0,0:0|0:0,0:0:0:0:
284,362,83355,1,12,0:0:0:0:
69,118,84555,6,0,P|168:86|207:-7,1,199.360002433594,14|2,0:0|1:0,0:0:0:0:
360,228,85005,2,0,P|307:146|330:52,1,199.360002433594,12|2,0:0|1:0,0:0:0:0:
73,241,85455,2,0,P|160:184|173:84,1,199.360002433594,14|2,0:0|1:0,0:0:0:0:
274,321,85905,2,0,P|244:228|291:143,1,199.360002433594,8|2,0:0|1:0,0:0:0:0:
189,355,86355,6,0,B|146:328|146:328|92:327,1,99.6800012167969,10|0,0:0|1:0,0:0:0:0:
274,321,86655,2,0,B|317:348|317:348|365:349,1,99.6800012167969,10|0,0:0|1:0,0:0:0:0:
443,118,86955,6,0,P|344:86|305:-7,1,199.360002433594,14|2,0:0|1:0,0:0:0:0:
152,228,87405,2,0,P|204:146|181:52,1,199.360002433594,12|2,0:0|1:0,0:0:0:0:
439,241,87855,2,0,P|351:184|338:84,1,199.360002433594,14|2,0:0|1:0,0:0:0:0:
238,321,88305,2,0,P|267:228|220:143,1,199.360002433594,8|2,0:0|1:0,0:0:0:0:
323,355,88755,5,8,0:0:0:0:
323,355,88905,2,0,B|366:328|366:328|420:327,1,99.6800012167969,0|4,0:0|3:0,0:0:0:0:
512,234,89205,1,4,3:0:0:0:
333,94,89355,6,0,P|430:84|500:15,1,199.360002433594,14|2,0:0|1:0,0:0:0:0:
425,199,89805,2,0,P|328:209|260:280,1,199.360002433594,12|2,0:0|1:0,0:0:0:0:
161,0,90255,2,0,P|230:68|241:165,1,199.360002433594,14|2,0:0|1:0,0:0:0:0:
418,372,90705,2,0,P|348:303|337:206,1,199.360002433594,8|2,0:0|1:0,0:0:0:0:
134,119,91155,5,10,0:0:0:0:
134,119,91305,1,0,1:0:0:0:
253,281,91455,1,8,0:0:0:0:
253,281,91605,1,0,1:0:0:0:
53,287,91755,5,8,0:0:0:0:
59,298,91830,1,8,0:0:0:0:
67,308,91905,2,0,L|175:274,1,99.6800012167969,8|0,0:0|1:0,0:0:0:0:
260,52,92205,1,0,1:0:0:0:
247,52,92280,1,0,1:0:0:0:
234,53,92355,2,0,L|209:163,1,99.6800012167969,8|4,3:0|3:0,0:0:0:0:
363,347,92655,1,8,0:0:0:0:
369,336,92730,1,8,0:0:0:0:
374,324,92805,2,0,L|290:247,1,99.6800012167969,8|0,0:0|1:0,0:0:0:0:
62,110,93105,5,8,3:0:0:0:
76,102,93180,1,0,1:0:0:0:
91,99,93255,2,0,P|118:135|105:210,1,99.6800012167969,0|8,1:0|3:0,0:0:0:0:
363,139,93555,1,0,0:0:0:0:
362,155,93630,1,0,0:0:0:0:
358,169,93705,2,0,P|313:174|254:125,1,99.6800012167969,4|4,3:0|3:0,0:0:0:0:
182,383,94005,1,4,3:0:0:0:
168,374,94080,1,0,0:0:0:0:
157,363,94155,6,0,P|174:321|264:289,1,108.579995526642,12|0,0:0|0:0,0:0:0:0:
47,113,94455,2,0,P|93:139|117:187,1,108.579995526642,8|0,0:0|1:0,0:0:0:0:
272,22,94755,2,0,L|149:41,1,108.579995526642,8|0,0:0|1:0,0:0:0:0:
390,57,95055,2,0,L|497:40,1,108.579995526642,8|0,0:0|1:0,0:0:0:0:
504,127,95280,1,0,1:0:0:0:
504,127,95355,6,0,L|396:143,1,108.579995526642,8|0,0:0|1:0,0:0:0:0:
425,329,95655,2,0,P|459:287|455:209,1,108.579995526642,8|0,0:0|1:0,0:0:0:0:
263,119,95955,2,0,P|268:172|301:213,1,108.579995526642,8|0,0:0|1:0,0:0:0:0:
333,384,96255,2,0,L|225:367,1,108.579995526642,8|0,0:0|1:0,0:0:0:0:
154,328,96480,1,0,1:0:0:0:
154,328,96555,6,0,B|109:356|109:356|41:352,1,108.579995526642,12|0,0:0|1:0,0:0:0:0:
2,89,96855,2,0,B|47:61|47:61|115:65,1,108.579995526642,8|0,0:0|1:0,0:0:0:0:
88,262,97155,2,0,L|66:141,1,108.579995526642,8|0,0:0|1:0,0:0:0:0:
244,11,97455,2,0,L|263:117,1,108.579995526642,8|0,0:0|1:0,0:0:0:0:
244,208,97680,1,0,1:0:0:0:
244,208,97755,6,0,P|202:198|170:136,1,108.579995526642,8|0,0:0|1:0,0:0:0:0:
304,300,98055,2,0,P|274:331|204:328,1,108.579995526642,8|0,0:0|1:0,0:0:0:0:
412,289,98355,2,0,P|424:330|386:389,1,108.579995526642,12|0,0:0|1:0,0:0:0:0:
462,153,98655,1,12,0:0:0:0:
304,300,98805,1,0,1:0:0:0:
462,153,98955,6,0,L|316:167,1,136.170000831116,10|0,1:2|1:0,0:0:0:0:
244,127,99255,2,0,L|127:120,1,90.7800005540771,10|2,1:2|1:0,0:0:0:0:
54,234,99555,2,0,P|21:288|24:340,1,90.7800005540771,10|0,1:2|1:0,0:0:0:0:
80,384,99780,1,0,1:0:0:0:
80,384,99855,2,0,P|113:330|110:278,1,90.7800005540771,8|0,1:2|1:0,0:0:0:0:
249,215,100155,6,0,P|287:269|290:332,1,90.7800005540771,10|2,1:2|1:0,0:0:0:0:
378,330,100380,1,0,1:0:0:0:
378,330,100455,2,0,P|416:276|419:213,1,90.7800005540771,10|0,1:2|1:0,0:0:0:0:
468,55,100755,2,0,L|357:76,1,90.7800005540771,10|0,1:2|1:0,0:0:0:0:
332,146,100980,1,0,1:0:0:0:
332,146,101055,1,10,1:2:0:0:
263,0,101205,1,2,1:0:0:0:
161,140,101355,6,0,L|100:151,3,45.3900002770386,14|0|0|0,1:2|1:0|1:0|1:0,0:0:0:0:
76,224,101655,2,0,L|2:202,1,45.3900002770386,0|0,1:0|1:0,0:0:0:0:
113,305,101805,6,0,L|124:363,3,45.3900002770386,14|0|0|0,1:2|1:0|1:0|1:0,0:0:0:0:
204,286,102105,2,0,L|215:217,1,45.3900002770386,0|0,1:0|1:0,0:0:0:0:
298,321,102255,6,0,L|353:302,3,45.3900002770386,14|0|0|0,1:2|1:0|1:0|1:0,0:0:0:0:
383,227,102555,2,0,L|459:237,1,45.3900002770386,0|0,1:0|1:0,0:0:0:0:
368,136,102705,6,0,L|350:77,3,45.3900002770386,14|0|0|0,1:2|1:0|1:0|1:0,0:0:0:0:
275,56,103005,2,0,L|294:2,1,45.3900002770386,0|0,1:0|1:0,0:0:0:0:
288,140,103155,6,0,B|240:169|240:169|180:161,1,108.579995526642,10|0,0:0|0:0,0:0:0:0:
103,164,103380,2,0,B|153:192|153:192|173:240,1,108.579995526642,10|0,0:0|0:0,0:0:0:0:
217,310,103605,1,10,0:0:0:0:
