osu file format v14

[General]
AudioFilename: audio.mp3
AudioLeadIn: 0
PreviewTime: 49830
Countdown: 0
SampleSet: Soft
StackLeniency: 0.4
Mode: 0
LetterboxInBreaks: 0
WidescreenStoryboard: 0

[Editor]
DistanceSpacing: 0.3
BeatDivisor: 4
GridSize: 16
TimelineZoom: 2.799999

[Metadata]
Title:Thrill, Risk, Heartless
TitleUnicode:Thrill, Risk, Heartless
Artist:LiSA
ArtistUnicode:LiSA
Creator:Sotarks
Version:Kalibe's Hard
Source:Sword Art Online: Fatal Bullet
Tags:ソードアート・オンライン フェイタル・バレット opening ps4 playstation sony op edit cut ver version akitoshi corinn appleeaterx kalibe meg iMage-- Milan- Haruto Haruto_Aizawa
BeatmapID:1524240
BeatmapSetID:718447

[Difficulty]
HPDrainRate:5
CircleSize:3.9
OverallDifficulty:6
ApproachRate:8
SliderMultiplier:1.4
SliderTickRate:1

[Events]
//Background and Video events
0,0,"BG.jpg",0,0
//Break Periods
//Storyboard Layer 0 (Background)
//Storyboard Layer 1 (Fail)
//Storyboard Layer 2 (Pass)
//Storyboard Layer 3 (Foreground)
//Storyboard Sound Samples

[TimingPoints]
555,300,4,2,22,32,1,0
1155,-192.307692307692,4,2,22,32,0,0
4755,-108.695652173913,4,2,22,32,0,0
5355,-98.0392156862744,4,2,22,62,0,0
7155,-192.307692307692,4,2,22,62,0,0
7680,-192.307692307692,4,2,22,5,0,0
7755,-121.951219512195,4,2,22,62,0,0
10455,-121.951219512195,4,2,22,32,0,0
10755,-121.951219512195,4,2,22,42,0,0
11355,-121.951219512195,4,2,22,52,0,0
11955,-192.307692307692,4,2,22,62,0,0
12555,-98.0392156862745,4,2,22,82,0,0
22155,-121.951219512195,4,2,22,62,0,0
26655,-121.951219512195,4,2,22,62,0,0
26955,-98.0392156862746,4,2,22,72,0,0
31755,-138.888888888889,4,2,22,62,0,0
36555,-98.0392156862745,4,2,22,72,0,0
41355,-108.695652173913,4,2,22,72,0,0
46155,-121.951219512195,4,2,22,62,0,0
48555,-121.951219512195,4,2,22,82,0,0
49905,-192.307692307692,4,2,22,52,0,0
50955,-89.2857142857143,4,2,22,92,0,1
69855,-98.0392156862745,4,2,22,92,0,0
70155,-89.2857142857143,4,2,22,92,0,1
74655,-98.0392156862745,4,2,22,92,0,1
74955,-81.9672131147541,4,2,22,92,0,1
77355,-121.951219512195,4,2,22,82,0,0
82155,-121.951219512195,4,2,22,92,0,0
82755,-81.967213114754,4,2,22,92,0,0
83955,-192.307692307692,4,2,22,52,0,0
84555,-89.2857142857143,4,2,22,92,0,0
98955,-98.0392156862745,4,2,22,92,0,0

[Colours]
Combo1 : 212,212,212
Combo2 : 21,125,97
Combo3 : 116,190,175
Combo4 : 243,215,156
Combo5 : 247,133,104
SliderBorder : 255,255,255
SliderTrackOverride : 0,0,0

[HitObjects]
0,329,1155,6,0,L|148:351,1,145.599999111328,2|2,0:0|0:0,0:0:0:0:
240,316,2355,2,0,P|271:254|211:209,1,145.599999111328,2|2,0:0|0:0,0:0:0:0:
126,245,3555,2,0,B|161:160|103:188|142:98,1,145.599999111328,2|2,0:0|0:0,0:0:0:0:
216,36,4755,5,2,0:0:0:0:
285,101,4905,1,2,0:0:0:0:
285,101,4980,1,2,0:0:0:0:
285,101,5055,2,0,L|361:89,1,64.3999978381348,8|0,0:0|0:0,0:0:0:0:
441,46,5355,6,0,P|455:77|451:113,1,71.400000435791,0|0,1:0|0:0,0:0:0:0:
361,186,5655,2,0,P|396:191|430:201,1,71.400000435791,0|0,1:0|0:0,0:0:0:0:
495,278,5955,2,0,P|459:283|425:293,1,71.400000435791,8|8,0:0|0:0,0:0:0:0:
341,348,6255,2,0,P|327:313|333:272,1,71.400000435791,8|8,0:0|0:0,0:0:0:0:
394,206,6555,5,12,0:0:0:0:
124,276,7005,2,0,L|133:324,2,35.7000002178955,0|0|12,1:0|1:0|0:0,0:0:0:0:
111,263,7755,6,0,L|235:286,1,114.800001751709,4|0,1:0|1:0,0:0:0:0:
229,289,8205,1,0,0:0:0:0:
278,352,8355,2,0,P|307:345|346:341,1,57.4000008758545,0|0,1:0|0:0,0:0:0:0:
384,278,8655,2,0,P|377:248|373:210,1,57.4000008758545,0|0,1:0|0:0,0:0:0:0:
441,177,8955,6,0,P|383:183|337:151,1,114.800001751709,0|0,1:0|1:0,0:0:0:0:
217,46,9555,2,0,P|159:40|113:71,1,114.800001751709,0|0,1:0|1:0,0:0:0:0:
39,99,10005,1,0,0:0:0:0:
36,105,10155,2,0,P|27:132|22:160,1,57.4000008758545,4|0,1:0|0:0,0:0:0:0:
49,236,10455,6,0,L|88:220,3,28.7000004379273,8|8|8|8,1:2|0:0|0:0|0:0,0:0:0:0:
107,200,10755,2,0,L|143:207,3,28.7000004379273,8|8|8|8,1:2|0:0|0:0|0:0,0:0:0:0:
170,185,11055,6,0,L|176:212,3,28.7000004379273,8|8|8|8,1:2|0:0|0:0|0:0,0:0:0:0:
203,242,11355,2,0,L|193:282,3,28.7000004379273,8|8|8|8,1:2|0:0|0:0|0:0,0:0:0:0:
164,295,11655,2,0,L|169:337,3,28.7000004379273,8|8|8|8,1:2|0:0|0:0|0:0,0:0:0:0:
147,339,11955,6,0,L|295:361,1,145.599999111328,12|2,0:0|1:0,0:0:0:0:
378,325,12705,5,2,1:0:0:0:
383,321,12855,2,0,P|405:253|353:201,1,142.800000871582,10|2,0:0|1:0,0:0:0:0:
442,129,13305,2,0,L|524:145,1,71.400000435791,2|8,1:0|0:0,0:0:0:0:
491,53,13605,6,0,P|434:94|357:80,1,142.800000871582,2|0,1:0|1:0,0:0:0:0:
293,39,14055,1,10,0:0:0:0:
293,39,14355,6,0,L|367:58,1,71.400000435791,2|2,1:0|1:0,0:0:0:0:
265,139,14655,2,0,L|335:157,1,71.400000435791,10|0,0:0|0:0,0:0:0:0:
188,101,14955,6,0,B|153:165|208:185|175:248,1,142.800000871582,2|10,1:0|0:0,0:0:0:0:
168,249,15405,1,0,0:0:0:0:
90,211,15555,2,0,P|87:247|75:296,1,71.400000435791,2|2,1:0|1:0,0:0:0:0:
36,384,15855,1,8,0:0:0:0:
118,358,16005,5,2,1:0:0:0:
118,358,16155,2,0,P|152:371|193:368,1,71.400000435791,2|0,0:0|1:0,0:0:0:0:
258,298,16455,2,0,P|291:285|326:286,1,71.400000435791,10|2,0:0|0:0,0:0:0:0:
413,310,16755,6,0,L|405:345,3,35.7000002178955,2|0|2|0,1:0|0:0|1:0|1:0,0:0:0:0:
426,370,17055,2,0,L|449:287,1,71.400000435791,10|0,0:0|0:0,0:0:0:0:
351,204,17355,6,0,L|328:287,1,71.400000435791,2|2,1:0|1:0,0:0:0:0:
425,187,17655,2,0,B|349:206|368:142|281:161,1,142.800000871582,10|2,0:0|1:0,0:0:0:0:
207,105,18105,2,0,P|203:69|216:37,1,71.400000435791,2|8,1:0|0:0,0:0:0:0:
298,85,18405,6,0,P|276:157|259:226,1,142.800000871582,2|0,1:0|1:0,0:0:0:0:
306,301,18855,2,0,P|244:258|171:270,1,142.800000871582,10|2,0:0|1:0,0:0:0:0:
105,308,19305,1,2,1:0:0:0:
105,308,19455,2,0,L|112:381,1,71.400000435791,10|0,0:0|0:0,0:0:0:0:
13,269,19755,6,0,L|20:341,1,71.400000435791,2|2,1:0|1:0,0:0:0:0:
91,233,20055,2,0,L|82:82,1,142.800000871582,10|2,0:0|1:0,0:0:0:0:
5,52,20505,2,0,L|80:69,1,71.400000435791,2|8,1:0|0:0,0:0:0:0:
131,158,20805,6,0,P|165:147|206:141,1,71.400000435791,6|2,1:0|0:0,0:0:0:0:
303,77,21105,2,0,L|285:152,2,71.400000435791,0|10|10,1:0|0:0|0:0,0:0:0:0:
381,21,21555,2,0,P|415:30|455:37,1,71.400000435791,8|10,0:0|0:0,0:0:0:0:
510,118,21855,2,0,P|474:124|440:133,1,71.400000435791,10|8,0:0|0:0,0:0:0:0:
368,185,22155,5,4,1:0:0:0:
463,248,22455,1,0,1:0:0:0:
404,346,22755,2,0,L|286:330,1,114.800001751709,2|0,1:0|1:0,0:0:0:0:
214,244,23355,5,2,1:0:0:0:
312,302,23655,1,0,1:0:0:0:
214,362,23955,2,0,P|184:318|205:257,1,114.800001751709,0|2,1:0|1:0,0:0:0:0:
277,178,24555,6,0,P|334:170|396:158,1,114.800001751709,6|0,1:0|1:0,0:0:0:0:
439,96,25005,1,0,0:0:0:0:
382,47,25155,2,0,P|326:44|280:80,1,114.800001751709,2|0,1:0|1:0,0:0:0:0:
208,42,25605,6,0,P|178:49|135:56,2,57.4000008758545,2|2|0,0:0|1:0|0:0,0:0:0:0:
275,81,26055,2,0,L|254:198,1,114.800001751709,2|4,1:0|3:0,0:0:0:0:
283,266,26505,1,4,3:0:0:0:
234,330,26655,6,0,B|186:319|186:319|129:364,1,114.800001751709,14|6,0:0|1:0,0:0:0:0:
71,317,27105,1,0,1:0:0:0:
10,383,27255,2,0,P|-20:327|15:245,1,142.800000871582,8|0,0:0|1:0,0:0:0:0:
76,197,27705,2,0,P|109:207|151:213,1,71.400000435791,0|8,1:0|0:0,0:0:0:0:
213,281,28005,6,0,P|246:271|288:265,1,71.400000435791,0|0,1:0|0:0,0:0:0:0:
349,211,28305,1,2,1:0:0:0:
277,163,28455,2,0,B|256:119|256:119|297:21,1,142.800000871582,10|2,0:0|1:0,0:0:0:0:
376,17,28905,1,2,1:0:0:0:
376,17,29055,1,10,0:0:0:0:
497,138,29355,6,0,B|422:129|443:188|360:175,1,142.800000871582,4|8,1:0|0:0,0:0:0:0:
309,109,29805,2,0,P|264:191|278:242,1,142.800000871582,0|0,0:0|1:0,0:0:0:0:
349,275,30255,1,10,0:0:0:0:
423,316,30405,6,0,P|353:307|298:350,1,142.800000871582,2|0,1:0|1:0,0:0:0:0:
240,270,30855,2,0,P|170:278|115:235,1,142.800000871582,8|8,0:0|0:0,0:0:0:0:
68,163,31305,2,0,L|84:113,5,35.7000002178955,8|8|8|8|4|4,0:0|0:0|3:0|3:0|3:0|3:0,0:0:0:0:
35,185,31755,6,0,L|69:81,1,100.800002460938,6|0,1:0|1:0,0:0:0:0:
174,34,32355,2,0,P|204:76|190:126,1,100.800002460938,2|0,1:0|1:0,0:0:0:0:
126,219,32955,5,2,1:0:0:0:
205,127,33255,1,0,1:0:0:0:
314,178,33555,1,2,1:0:0:0:
241,212,33705,2,0,P|290:202|351:191,1,100.800002460938,2|0,0:0|1:0,0:0:0:0:
404,241,34155,6,0,P|424:194|404:145,1,100.800002460938,4|8,1:0|0:0,0:0:0:0:
344,93,34605,1,8,0:0:0:0:
340,99,34680,1,0,0:0:0:0:
334,104,34755,2,0,L|293:93,5,25.2000006152344,0|0|8|8|0|0,1:0|0:0|0:0|0:0|1:0|0:0,0:0:0:0:
290,80,35205,1,8,0:0:0:0:
210,119,35355,6,0,L|172:125,3,25.2000006152344,8|0|8|0,1:2|0:0|0:0|0:0,0:0:0:0:
156,94,35655,2,0,L|120:88,3,25.2000006152344,8|8|8|8,0:0|0:0|0:0|0:0,0:0:0:0:
94,72,35955,6,0,L|102:124,1,50.4000012304688,4|8,1:0|0:0,0:0:0:0:
8,204,36255,2,0,L|16:152,1,50.4000012304688,4|4,3:0|3:0,0:0:0:0:
82,242,36555,6,0,P|152:284|212:261,1,142.800000871582,6|8,1:0|0:0,0:0:0:0:
216,257,37005,1,0,0:0:0:0:
260,183,37155,2,0,P|295:176|335:167,1,71.400000435791,0|0,1:0|1:0,0:0:0:0:
381,236,37455,1,8,0:0:0:0:
444,172,37605,6,0,P|431:224|408:315,1,142.800000871582,0|2,1:0|1:0,0:0:0:0:
344,367,38055,2,0,P|308:371|273:383,1,71.400000435791,10|2,0:0|0:0,0:0:0:0:
207,314,38355,2,0,P|171:310|136:298,1,71.400000435791,2|2,1:0|1:0,0:0:0:0:
47,355,38655,1,10,0:0:0:0:
47,355,38955,6,0,P|18:293|58:232,1,142.800000871582,4|8,1:0|0:0,0:0:0:0:
120,180,39405,2,0,L|200:197,1,71.400000435791,0|0,0:0|1:0,0:0:0:0:
71,105,39705,2,0,L|151:88,1,71.400000435791,0|10,1:0|0:0,0:0:0:0:
261,157,40005,6,0,B|186:139|195:191|122:173,1,142.800000871582,0|0,1:0|1:0,0:0:0:0:
140,278,40455,2,0,L|292:302,1,142.800000871582,12|8,0:0|0:0,0:0:0:0:
366,343,40905,2,0,L|380:292,5,35.7000002178955,0|0|8|0|0|0,0:0|0:0|0:0|0:0|0:0|0:0,0:0:0:0:
384,366,41355,6,0,L|422:235,1,128.79999567627,6|2,1:0|0:0,0:0:0:0:
489,201,41805,1,0,1:0:0:0:
435,141,41955,2,0,P|370:131|315:167,1,128.79999567627,10|0,0:0|0:0,0:0:0:0:
318,162,42555,6,0,P|312:129|303:82,1,64.3999978381348,2|0,1:0|1:0,0:0:0:0:
234,63,42855,2,0,P|228:95|219:143,1,64.3999978381348,2|0,0:0|1:0,0:0:0:0:
155,193,43155,2,0,P|122:135|150:82,1,128.79999567627,10|0,0:0|0:0,0:0:0:0:
147,84,43755,6,0,P|114:93|70:98,1,64.3999978381348,2|0,1:0|1:0,0:0:0:0:
13,171,44055,2,0,P|44:175|75:184,1,64.3999978381348,2|0,0:0|1:0,0:0:0:0:
166,228,44355,2,0,P|103:226|50:275,1,128.79999567627,10|0,0:0|0:0,0:0:0:0:
46,264,44805,1,0,0:0:0:0:
23,353,44955,6,0,P|52:345|95:338,1,64.3999978381348,2|2,1:0|1:0,0:0:0:0:
158,303,45255,2,0,P|187:311|230:318,1,64.3999978381348,2|0,0:0|1:0,0:0:0:0:
304,377,45555,2,0,P|337:326|319:257,1,128.79999567627,14|8,0:0|3:0,0:0:0:0:
254,220,46005,1,0,0:0:0:0:
254,220,46155,6,0,L|373:240,1,114.800001751709,2|2,1:0|1:0,0:0:0:0:
295,115,46755,2,0,L|414:135,1,114.800001751709,2|2,1:0|1:0,0:0:0:0:
284,206,47355,6,0,L|165:186,1,114.800001751709,2|2,1:0|1:0,0:0:0:0:
243,311,47955,2,0,L|124:291,1,114.800001751709,2|0,1:0|1:0,0:0:0:0:
125,285,48405,1,2,1:0:0:0:
64,354,48555,6,0,B|38:297|38:297|60:238,1,114.800001751709,12|0,0:0|1:0,0:0:0:0:
0,169,49005,2,0,B|57:143|57:143|116:165,1,114.800001751709,12|0,0:0|1:0,0:0:0:0:
180,97,49455,1,12,0:0:0:0:
180,97,49605,2,0,B|206:154|206:154|184:213,1,114.800001751709,8|2,0:0|0:0,0:0:0:0:
129,291,50055,6,0,P|197:280|244:336,1,145.599999111328,2|2,0:0|0:0,0:0:0:0:
243,333,50955,6,0,B|326:313|308:387|399:365,1,156.800001914063,6|8,1:0|0:0,0:0:0:0:
464,309,51405,2,0,P|453:270|451:221,1,78.4000009570313,0|0,0:0|1:0,0:0:0:0:
380,168,51705,2,0,P|341:179|292:181,1,78.4000009570313,0|8,1:0|0:0,0:0:0:0:
357,258,52005,6,0,P|283:209|217:229,1,156.800001914063,0|0,1:0|1:0,0:0:0:0:
145,281,52455,2,0,B|134:233|120:191|120:191|160:129,1,156.800001914063,10|2,0:0|1:0,0:0:0:0:
209,60,52905,2,0,P|247:64|278:87,1,78.4000009570313,0|10,1:0|0:0,0:0:0:0:
278,87,53355,6,0,P|198:99|118:114,1,156.800001914063,2|10,1:0|0:0,0:0:0:0:
44,60,53805,2,0,P|38:100|27:144,1,78.4000009570313,2|0,0:0|1:0,0:0:0:0:
58,226,54105,2,0,P|98:232|142:243,1,78.4000009570313,2|8,1:0|0:0,0:0:0:0:
83,319,54405,6,0,P|149:260|226:276,1,156.800001914063,2|0,1:0|1:0,0:0:0:0:
283,328,54855,2,0,P|305:297|302:249,1,78.4000009570313,10|0,0:0|0:0,0:0:0:0:
282,168,55155,2,0,P|320:175|359:179,1,78.4000009570313,2|0,1:0|1:0,0:0:0:0:
410,259,55455,2,0,P|371:263|311:276,1,78.4000009570313,10|0,0:0|0:0,0:0:0:0:
251,342,55755,5,2,1:0:0:0:
251,342,55905,1,2,1:0:0:0:
251,342,56055,2,0,P|213:326|166:334,1,78.4000009570313,10|0,0:0|0:0,0:0:0:0:
75,368,56355,5,2,1:0:0:0:
75,368,56505,1,2,1:0:0:0:
75,368,56655,2,0,P|62:329|66:278,1,78.4000009570313,10|0,0:0|1:0,0:0:0:0:
131,199,56955,5,2,0:0:0:0:
131,199,57105,1,2,1:0:0:0:
131,199,57255,2,0,L|216:179,1,78.4000009570313,10|0,0:0|0:0,0:0:0:0:
316,96,57555,5,2,1:0:0:0:
316,96,57705,1,2,1:0:0:0:
316,96,57855,2,0,L|336:181,1,78.4000009570313,10|0,0:0|0:0,0:0:0:0:
250,254,58155,6,0,P|311:212|389:224,1,156.800001914063,2|10,1:0|0:0,0:0:0:0:
495,207,58605,2,0,P|479:245|469:291,1,78.4000009570313,2|0,0:0|1:0,0:0:0:0:
408,352,58905,2,0,P|371:336|333:327,1,78.4000009570313,2|8,1:0|0:0,0:0:0:0:
259,269,59205,6,0,P|206:319|117:298,1,156.800001914063,6|2,1:0|1:0,0:0:0:0:
41,346,59655,1,10,0:0:0:0:
118,292,59805,1,2,1:0:0:0:
45,232,59955,6,0,L|-1:223,2,39.2000004785156,10|0|2,0:0|0:0|1:0,0:0:0:0:
114,169,60255,2,0,L|159:161,3,39.2000004785156,10|8|8|8,0:0|0:0|0:0|0:0,0:0:0:0:
107,148,60555,6,0,B|190:129|177:197|261:179,1,156.800001914063,4|8,1:0|0:0,0:0:0:0:
240,92,61005,1,0,0:0:0:0:
240,92,61155,2,0,P|277:100|321:107,1,78.4000009570313,0|0,1:0|0:0,0:0:0:0:
402,168,61455,1,8,0:0:0:0:
454,91,61605,6,0,P|435:167|419:243,1,156.800001914063,0|0,1:0|1:0,0:0:0:0:
479,315,62055,2,0,P|401:265|343:285,1,156.800001914063,10|2,0:0|1:0,0:0:0:0:
265,233,62505,1,0,1:0:0:0:
265,233,62655,2,0,P|300:251|348:260,1,78.4000009570313,10|0,0:0|0:0,0:0:0:0:
291,341,62955,6,0,P|252:349|218:367,1,78.4000009570313,2|0,1:0|1:0,0:0:0:0:
163,290,63255,1,10,0:0:0:0:
78,354,63405,2,0,P|46:304|74:217,1,156.800001914063,2|2,1:0|1:0,0:0:0:0:
82,207,63855,1,8,0:0:0:0:
5,152,64005,6,0,P|84:166|171:181,1,156.800001914063,2|0,1:0|1:0,0:0:0:0:
225,55,64455,2,0,P|229:94|237:136,1,78.4000009570313,10|0,0:0|0:0,0:0:0:0:
246,141,64755,1,2,1:0:0:0:
312,208,64905,2,0,L|304:246,2,39.2000004785156,0|0|14,1:0|1:0|0:0,0:0:0:0:
393,161,65205,1,0,0:0:0:0:
393,161,65355,6,0,P|437:218|403:294,1,156.800001914063,2|10,1:0|0:0,0:0:0:0:
408,290,65955,2,0,P|373:273|329:272,1,78.4000009570313,2|2,1:0|1:0,0:0:0:0:
257,350,66255,2,0,P|221:367|183:368,1,78.4000009570313,10|0,0:0|1:0,0:0:0:0:
123,307,66555,6,0,P|134:268|148:208,1,78.4000009570313,2|2,0:0|1:0,0:0:0:0:
74,107,66855,1,10,0:0:0:0:
35,177,67005,1,2,0:0:0:0:
67,251,67155,2,0,P|106:240|166:226,1,78.4000009570313,2|2,1:0|1:0,0:0:0:0:
228,161,67455,2,0,P|189:151|152:141,1,78.4000009570313,10|0,0:0|0:0,0:0:0:0:
0,69,67755,6,0,P|79:83|146:44,1,156.800001914063,2|10,1:0|0:0,0:0:0:0:
239,95,68205,2,0,L|244:146,2,39.2000004785156,2|0|8,1:0|1:0|0:0,0:0:0:0:
326,59,68505,2,0,L|333:17,2,39.2000004785156,2|0|8,1:0|1:0|0:0,0:0:0:0:
386,131,68805,1,10,0:0:0:0:
388,133,68880,1,8,0:0:0:0:
390,135,68955,6,0,L|438:128,2,39.2000004785156,4|4|8,3:0|3:0|0:0,0:0:0:0:
336,212,69255,2,0,L|294:202,2,39.2000004785156,10|8|0,0:0|0:0|1:0,0:0:0:0:
404,276,69555,6,0,P|424:270|453:266,2,39.2000004785156,10|0|0,0:0|0:0|1:0,0:0:0:0:
332,333,69855,2,0,P|311:325|289:319,3,35.7000002178955,6|0|0|0,3:0|0:0|0:0|0:0,0:0:0:0:
339,359,70155,6,0,P|258:332|194:365,1,156.800001914063,14|8,0:0|0:0,0:0:0:0:
59,233,70755,2,0,P|129:263|200:235,1,156.800001914063,10|8,0:0|0:0,0:0:0:0:
209,240,71205,1,0,1:0:0:0:
213,146,71355,6,0,P|175:156|123:162,1,78.4000009570313,10|0,0:0|1:0,0:0:0:0:
52,117,71655,2,0,P|90:122|128:132,1,78.4000009570313,8|0,0:0|1:0,0:0:0:0:
187,58,71955,2,0,P|225:52|263:42,1,78.4000009570313,10|0,0:0|1:0,0:0:0:0:
319,118,72255,2,0,P|357:123|395:133,1,78.4000009570313,8|0,0:0|1:0,0:0:0:0:
473,79,72555,6,0,P|396:67|329:104,1,156.800001914063,14|8,0:0|0:0,0:0:0:0:
179,219,73155,2,0,P|246:255|322:244,1,156.800001914063,10|8,0:0|0:0,0:0:0:0:
329,230,73605,1,0,1:0:0:0:
422,204,73755,6,0,P|411:242|405:292,1,78.4000009570313,10|0,0:0|1:0,0:0:0:0:
348,354,74055,2,0,P|310:343|260:337,1,78.4000009570313,8|0,0:0|1:0,0:0:0:0:
211,265,74355,2,0,P|173:276|123:282,1,78.4000009570313,10|0,0:0|1:0,0:0:0:0:
36,349,74655,1,12,0:0:0:0:
36,349,74955,6,0,B|16:311|16:311|31:268,1,85.3999964816286,2|0,1:0|1:0,0:0:0:0:
112,209,75255,2,0,B|132:171|132:171|117:128,1,85.3999964816286,10|0,0:0|1:0,0:0:0:0:
31,75,75555,2,0,P|112:88|215:103,1,170.799992963257,10|10,0:0|0:0,0:0:0:0:
209,96,76005,1,0,0:0:0:0:
284,27,76155,6,0,P|307:62|304:121,1,85.3999964816286,14|0,0:0|1:0,0:0:0:0:
303,206,76455,2,0,P|326:171|323:112,1,85.3999964816286,14|0,0:0|1:0,0:0:0:0:
419,78,76755,6,0,P|411:46|407:16,2,56.9333309877524,8|4|4,0:0|3:0|3:0,0:0:0:0:
489,117,77055,2,0,P|494:89|496:60,2,56.9333309877524,8|4|4,3:0|3:0|3:0,0:0:0:0:
441,182,77355,6,0,P|384:156|325:174,1,114.800001751709,4|0,1:0|0:0,0:0:0:0:
323,164,77805,1,0,1:0:0:0:
261,104,77955,2,0,P|235:161|253:220,1,114.800001751709,10|0,0:0|0:0,0:0:0:0:
366,334,78555,6,0,P|309:307|260:325,1,114.800001751709,2|0,1:0|0:0,0:0:0:0:
251,325,79005,1,0,1:0:0:0:
179,276,79155,2,0,P|122:303|73:285,1,114.800001751709,10|0,0:0|0:0,0:0:0:0:
68,278,79605,1,0,0:0:0:0:
120,209,79755,5,6,1:0:0:0:
43,142,79905,2,0,L|166:119,1,114.800001751709,0|0,1:0|1:0,0:0:0:0:
222,57,80355,2,0,B|254:108|254:108|234:167,1,114.800001751709,10|0,0:0|0:0,0:0:0:0:
159,199,80805,1,0,0:0:0:0:
159,199,80955,6,0,B|251:163|236:248|332:201,1,172.200002627564,10|0,0:0|1:0,0:0:0:0:
379,140,81555,2,0,P|426:179|400:281,1,172.200002627564,10|4,3:0|3:0,0:0:0:0:
445,353,82155,6,0,P|394:324|337:325,1,114.800001751709,6|2,1:0|0:0,0:0:0:0:
271,378,82605,1,0,0:0:0:0:
195,308,82755,6,0,P|148:323|98:286,2,113.866661975505,8|8|8,0:0|0:0|0:0,0:0:0:0:
284,236,83355,1,12,0:0:0:0:
284,236,83955,6,0,B|296:187|296:187|273:145|273:145|291:88,1,145.599999111328,2|14,0:0|0:0,0:0:0:0:
352,43,84705,6,0,P|389:39|428:20,2,78.4000009570313,2|2|12,1:0|1:0|0:0,0:0:0:0:
287,99,85155,2,0,P|204:56|132:77,1,156.800001914063,2|14,1:0|0:0,0:0:0:0:
67,31,85605,6,0,B|27:127|27:127|59:179,1,156.800001914063,2|8,1:0|0:0,0:0:0:0:
124,222,86055,2,0,P|146:187|136:146,1,78.4000009570313,2|2,1:0|1:0,0:0:0:0:
35,249,86355,2,0,L|47:338,1,78.4000009570313,10|0,0:0|1:0,0:0:0:0:
111,383,86655,1,10,0:0:0:0:
111,383,86805,1,0,1:0:0:0:
168,319,86955,6,0,B|251:350|238:293|326:322,1,156.800001914063,14|2,0:0|1:0,0:0:0:0:
396,363,87405,2,0,B|415:328|415:328|396:279,2,78.4000009570313,12|2|2,0:0|1:0|1:0,0:0:0:0:
320,320,87855,2,0,P|311:283|339:236,1,78.4000009570313,14|2,0:0|1:0,0:0:0:0:
391,191,88155,5,2,1:0:0:0:
329,130,88305,2,0,B|242:120|267:175|181:166,1,156.800001914063,8|2,0:0|1:0,0:0:0:0:
103,231,88755,2,0,P|66:164|109:102,1,156.800001914063,8|4,0:0|3:0,0:0:0:0:
99,97,89205,1,4,3:0:0:0:
169,42,89355,6,0,P|192:74|191:118,1,78.4000009570313,14|2,0:0|1:0,0:0:0:0:
113,208,89655,1,2,1:0:0:0:
113,208,89805,2,0,B|170:218|170:218|193:253|193:253|254:266,1,156.800001914063,12|2,0:0|1:0,0:0:0:0:
329,315,90255,2,0,B|350:282|350:282|338:238,1,78.4000009570313,14|2,0:0|1:0,0:0:0:0:
267,182,90555,5,2,1:0:0:0:
343,141,90705,2,0,P|416:186|491:151,1,156.800001914063,8|2,0:0|1:0,0:0:0:0:
502,81,91155,6,0,P|465:79|426:98,1,78.4000009570313,10|0,0:0|1:0,0:0:0:0:
357,46,91455,2,0,P|320:48|281:29,1,78.4000009570313,8|0,0:0|1:0,0:0:0:0:
205,92,91755,6,0,L|148:82,3,39.2000004785156,8|8|8|8,0:0|0:0|0:0|0:0,0:0:0:0:
136,53,92055,2,0,L|73:60,3,39.2000004785156,0|0|0|0,1:0|1:0|1:0|1:0,0:0:0:0:
59,78,92355,2,0,B|40:112|40:112|56:156,1,78.4000009570313,8|4,3:0|3:0,0:0:0:0:
125,211,92655,6,0,L|112:259,3,39.2000004785156,8|8|8|8,0:0|0:0|0:0|0:0,0:0:0:0:
77,272,92955,2,0,L|83:328,3,39.2000004785156,0|0|8|0,1:0|1:0|3:0|1:0,0:0:0:0:
99,350,93255,2,0,P|135:338|178:340,1,78.4000009570313,0|8,1:0|3:0,0:0:0:0:
258,276,93555,2,0,P|294:288|337:286,1,78.4000009570313,0|4,0:0|3:0,0:0:0:0:
409,353,93855,5,4,3:0:0:0:
449,285,94005,1,4,3:0:0:0:
414,214,94155,1,12,0:0:0:0:
256,283,94455,6,0,L|267:360,1,78.4000009570313,8|0,0:0|1:0,0:0:0:0:
341,272,94755,2,0,L|329:190,1,78.4000009570313,8|0,0:0|1:0,0:0:0:0:
262,138,95055,1,8,0:0:0:0:
320,74,95205,2,0,L|329:32,2,39.2000004785156,0|0|8,1:0|1:0|0:0,0:0:0:0:
262,138,95505,6,0,P|220:128|174:121,1,78.4000009570313,0|8,1:0|0:0,0:0:0:0:
32,42,95955,2,0,P|42:80|50:132,1,78.4000009570313,8|0,0:0|1:0,0:0:0:0:
94,195,96255,1,8,0:0:0:0:
41,280,96405,2,0,L|-4:271,2,39.2000004785156,0|0|12,1:0|1:0|0:0,0:0:0:0:
84,356,96705,6,0,P|121:338|164:341,1,78.4000009570313,0|8,1:0|0:0,0:0:0:0:
217,274,97005,2,0,P|254:292|297:289,1,78.4000009570313,0|8,1:0|0:0,0:0:0:0:
363,345,97305,1,0,1:0:0:0:
363,345,97455,2,0,P|382:311|375:262,1,78.4000009570313,8|0,0:0|1:0,0:0:0:0:
338,187,97755,6,0,P|405:231|487:211,1,156.800001914063,8|8,0:0|0:0,0:0:0:0:
424,139,98205,1,0,1:0:0:0:
508,97,98355,6,0,P|470:111|425:111,1,78.4000009570313,12|0,0:0|1:0,0:0:0:0:
362,49,98655,2,0,P|322:50|286:64,1,78.4000009570313,12|0,0:0|1:0,0:0:0:0:
214,143,98955,6,0,B|126:160|126:160|73:126,1,142.800000871582,10|10,1:2|1:2,0:0:0:0:
57,215,99405,1,2,1:0:0:0:
57,215,99555,2,0,B|74:303|74:303|40:356,1,142.800000871582,10|8,1:2|1:2,0:0:0:0:
131,373,100005,1,0,1:0:0:0:
131,373,100155,2,0,B|219:356|219:356|272:390,1,142.800000871582,10|10,1:2|1:2,0:0:0:0:
344,217,100755,6,0,P|313:198|278:195,1,71.400000435791,10|0,1:2|1:0,0:0:0:0:
202,248,101055,2,0,P|171:266|136:269,1,71.400000435791,10|2,1:2|1:0,0:0:0:0:
52,185,101355,6,0,L|67:130,5,35.7000002178955,14|0|0|0|0|0,1:2|1:0|1:0|1:0|1:0|1:0,0:0:0:0:
98,121,101805,2,0,L|86:68,5,35.7000002178955,14|0|0|0|0|0,1:2|1:0|1:0|1:0|1:0|1:0,0:0:0:0:
72,50,102255,6,0,P|148:89|206:67,1,142.800000871582,14|0,1:2|1:0,0:0:0:0:
280,27,102705,2,0,P|326:95|307:155,1,142.800000871582,14|0,1:2|1:0,0:0:0:0:
240,224,103155,6,0,B|218:278|218:278|240:331,2,107.100000653687,10|10|10,0:0|0:0|0:0,0:0:0:0:
