osu file format v14

[General]
AudioFilename: audio.mp3
AudioLeadIn: 0
PreviewTime: 49830
Countdown: 0
SampleSet: Soft
StackLeniency: 0.7
Mode: 0
LetterboxInBreaks: 0
WidescreenStoryboard: 1

[Editor]
Bookmarks: 26055
DistanceSpacing: 1.2
BeatDivisor: 3
GridSize: 16
TimelineZoom: 2.299999

[Metadata]
Title:Thrill, Risk, Heartless
TitleUnicode:Thrill, Risk, Heartless
Artist:LiSA
ArtistUnicode:LiSA
Creator:Sotarks
Version:Insane
Source:Sword Art Online: Fatal Bullet
Tags:ソードアート・オンライン フェイタル・バレット opening ps4 playstation sony op edit cut ver version akitoshi corinn appleeaterx kalibe meg iMage-- Milan- Haruto Haruto_Aizawa
BeatmapID:1522240
BeatmapSetID:718447

[Difficulty]
HPDrainRate:5.2
CircleSize:4
OverallDifficulty:7.8
ApproachRate:9
SliderMultiplier:1.82
SliderTickRate:1

[Events]
//Background and Video events
0,0,"BG.jpg",0,0
//Break Periods
2,7955,9555
//Storyboard Layer 0 (Background)
//Storyboard Layer 1 (Fail)
//Storyboard Layer 2 (Pass)
//Storyboard Layer 3 (Foreground)
//Storyboard Sound Samples

[TimingPoints]
555,300,4,2,22,32,1,0
1155,-192.307692307692,4,2,22,32,0,0
5355,-98.0392156862744,4,2,22,62,0,0
7155,-192.307692307692,4,2,22,62,0,0
7680,-192.307692307692,4,2,22,5,0,0
7755,-121.951219512195,4,2,22,62,0,0
10455,-121.951219512195,4,2,22,32,0,0
10755,-121.951219512195,4,2,22,42,0,0
11355,-121.951219512195,4,2,22,52,0,0
11955,-192.307692307692,4,2,22,62,0,0
12555,-98.0392156862745,4,2,22,82,0,0
22155,-138.888888888889,4,2,22,62,0,0
26655,-192.307692307693,4,2,22,62,0,0
26955,-98.0392156862746,4,2,22,72,0,0
31755,-138.888888888889,4,2,22,62,0,0
36555,-98.0392156862745,4,2,22,72,0,0
41355,-108.695652173913,4,2,22,72,0,0
46155,-121.951219512195,4,2,22,62,0,0
48555,-121.951219512195,4,2,22,82,0,0
49905,-192.307692307692,4,2,22,52,0,0
50955,-75.7575757575758,4,2,22,92,0,1
69855,-98.0392156862745,4,2,22,92,0,0
70155,-75.7575757575758,4,2,22,92,0,1
74655,-98.0392156862745,4,2,22,92,0,1
74955,-81.9672131147541,4,2,22,92,0,1
77355,-121.951219512195,4,2,22,82,0,0
82155,-121.951219512195,4,2,22,92,0,0
82755,-98.0392156862745,4,2,22,92,0,0
83955,-192.307692307692,4,2,22,52,0,0
84555,-81.967213114754,4,2,22,92,0,0
98955,-98.0392156862745,4,2,22,92,0,0

[Colours]
Combo1 : 212,212,212
Combo2 : 21,125,97
Combo3 : 116,190,175
Combo4 : 243,215,156
Combo5 : 247,133,104
SliderBorder : 255,255,255
SliderTrackOverride : 0,0,0

[HitObjects]
436,181,1155,6,0,B|376:131|372:197|297:128,1,141.959999133545,2|0,0:0|0:0,0:0:0:0:
248,78,1755,2,0,P|274:132|294:219,1,141.959999133545,2|0,0:0|0:0,0:0:0:0:
239,273,2355,2,0,B|221:298|221:298|195:262|218:182,1,141.959999133545,2|0,0:0|0:0,0:0:0:0:
169,131,2955,2,0,P|177:158|123:253,1,141.959999133545,2|0,0:0|0:0,0:0:0:0:
59,286,3555,2,0,B|100:279|100:279|201:332,1,141.959999133545,2|0,0:0|0:0,0:0:0:0:
269,328,4155,2,0,B|230:330|230:330|249:276|317:280,1,141.959999133545,2|0,0:0|0:0,0:0:0:0:
390,319,4755,6,0,P|394:297|393:283,3,23.6599998555908,2|2|2|2,0:0|0:0|0:0|0:0,0:0:0:0:
366,224,5055,1,8,0:0:0:0:
366,224,5355,6,0,P|314:204|268:217,1,92.8200005665283,0|0,1:0|0:0,0:0:0:0:
269,124,5655,2,0,P|218:146|194:188,1,92.8200005665283,0|0,1:0|0:0,0:0:0:0:
127,121,5955,2,0,P|106:173|119:219,1,92.8200005665283,8|8,0:0|0:0,0:0:0:0:
25,218,6255,2,0,P|47:268|89:292,1,92.8200005665283,8|8,0:0|0:0,0:0:0:0:
185,257,6555,1,12,0:0:0:0:
385,193,7005,2,0,P|379:239|384:258,1,46.4100002832642,0|0,1:0|1:0,0:0:0:0:
415,350,7155,6,0,B|439:240|376:294|407:176,1,165.619998989136,12|0,0:0|0:0,0:0:0:0:
447,123,7755,5,4,1:0:0:0:
195,220,10155,5,4,1:0:0:0:
130,115,10455,2,0,L|137:157,3,37.3100005693054,8|8|8|8,1:2|0:0|0:0|0:0,0:0:0:0:
221,82,10755,2,0,L|214:118,3,37.3100005693054,8|8|8|8,1:2|0:0|0:0|0:0,0:0:0:0:
303,149,11055,2,0,L|296:112,3,37.3100005693054,8|8|8|8,1:2|0:0|0:0|0:0,0:0:0:0:
386,125,11355,2,0,L|392:88,3,37.3100005693054,8|8|8|8,1:2|0:0|0:0|0:0,0:0:0:0:
473,119,11655,2,0,L|479:155,3,37.3100005693054,8|8|8|8,1:2|0:0|0:0|0:0,0:0:0:0:
412,36,11955,6,0,L|376:219,1,165.619998989136,12|0,0:0|0:0,0:0:0:0:
409,276,12555,6,0,P|350:274|311:314,1,92.8200005665283,2|2,1:0|1:0,0:0:0:0:
144,315,12855,2,0,P|192:352|309:304,1,185.640001133057,10|2,0:0|1:0,0:0:0:0:
222,186,13305,2,0,P|208:239|240:292,1,92.8200005665283,2|8,1:0|0:0,0:0:0:0:
291,230,13605,1,2,1:0:0:0:
147,159,13755,2,0,P|134:102|175:56,1,92.8200005665283,2|0,0:0|1:0,0:0:0:0:
334,67,14055,2,0,P|256:95|231:221,1,185.640001133057,10|2,0:0|1:0,0:0:0:0:
291,230,14505,1,2,1:0:0:0:
441,200,14655,1,10,0:0:0:0:
441,200,14955,6,0,P|382:247|376:289,1,92.8200005665283,2|2,1:0|1:0,0:0:0:0:
227,290,15255,2,0,P|267:269|290:229,1,92.8200005665283,10|0,0:0|0:0,0:0:0:0:
260,147,15555,1,2,1:0:0:0:
126,263,15705,2,0,L|143:364,1,92.8200005665283,2|8,1:0|0:0,0:0:0:0:
55,207,16005,1,2,1:0:0:0:
55,207,16155,2,0,L|130:110,1,92.8200005665283,2|0,0:0|1:0,0:0:0:0:
247,59,16455,1,10,0:0:0:0:
247,59,16605,2,0,L|172:156,1,92.8200005665283,2|2,0:0|1:0,0:0:0:0:
338,79,16905,1,2,1:0:0:0:
338,79,16980,1,0,1:0:0:0:
338,79,17055,2,0,P|427:86|463:151,1,139.230000849792,10|0,0:0|0:0,0:0:0:0:
458,197,17355,6,0,P|457:261|488:304,1,92.8200005665283,2|2,1:0|1:0,0:0:0:0:
376,158,17655,2,0,P|308:172|277:295,1,185.640001133057,10|2,0:0|1:0,0:0:0:0:
378,339,18105,2,0,P|383:293|366:250,1,92.8200005665283,2|8,1:0|0:0,0:0:0:0:
298,307,18405,1,2,1:0:0:0:
192,280,18555,2,0,L|74:295,1,92.8200005665283,2|0,0:0|1:0,0:0:0:0:
264,110,18855,2,0,P|166:137|130:219,1,185.640001133057,10|2,0:0|1:0,0:0:0:0:
249,218,19305,1,2,1:0:0:0:
346,133,19455,1,10,0:0:0:0:
346,133,19755,6,0,P|348:83|312:34,1,92.8200005665283,2|2,1:0|1:0,0:0:0:0:
185,71,20055,2,0,P|248:90|272:130,1,92.8200005665283,10|0,0:0|0:0,0:0:0:0:
98,101,20355,1,2,1:0:0:0:
98,101,20505,2,0,P|96:51|132:2,1,92.8200005665283,2|8,1:0|0:0,0:0:0:0:
165,255,20805,2,0,L|186:52,1,185.640001133057,6|0,1:0|1:0,0:0:0:0:
246,163,21255,1,10,0:0:0:0:
255,29,21405,1,10,0:0:0:0:
94,120,21555,1,8,0:0:0:0:
262,24,21705,1,10,0:0:0:0:
162,172,21855,1,10,0:0:0:0:
184,70,22005,1,8,0:0:0:0:
246,279,22155,6,0,P|298:245|375:254,1,131.040003199219,4|0,1:0|1:0,0:0:0:0:
291,345,22605,1,0,0:0:0:0:
291,345,22755,2,0,L|147:313,1,131.040003199219,2|0,1:0|1:0,0:0:0:0:
96,208,23205,1,0,0:0:0:0:
96,208,23355,2,0,P|161:209|211:142,1,131.040003199219,2|0,1:0|1:0,0:0:0:0:
280,50,23805,2,0,P|246:72|229:116,1,65.5200015996094,0|0,0:0|1:0,0:0:0:0:
319,184,24105,2,0,P|318:141|308:115,2,65.5200015996094,2|2|2,0:0|1:0|0:0,0:0:0:0:
235,256,24555,6,0,P|292:274|323:364,1,131.040003199219,6|0,1:0|1:0,0:0:0:0:
185,354,25005,1,0,0:0:0:0:
185,354,25155,2,0,B|112:366|112:366|90:337|115:303,1,131.040003199219,2|0,1:0|1:0,0:0:0:0:
149,181,25605,1,2,0:0:0:0:
149,181,25755,2,0,P|150:235|129:260,1,65.5200015996094,2|0,1:0|0:0,0:0:0:0:
57,161,26055,2,0,P|56:107|77:82,1,65.5200015996094,2|0,1:0|0:0,0:0:0:0:
152,37,26355,2,0,L|162:85,1,32.7600007998047,4|0,3:0|0:0,0:0:0:0:
240,116,26505,2,0,L|246:83,1,32.7600007998047,4|0,3:0|0:0,0:0:0:0:
343,26,26655,2,0,L|329:118,1,70.9799995667725,14|0,0:0|0:0,0:0:0:0:
380,163,26955,6,0,B|351:276|419:222|385:353,1,185.640001133057,6|8,1:0|0:0,0:0:0:0:
244,252,27405,2,0,P|300:273|326:330,1,92.8200005665283,0|0,0:0|1:0,0:0:0:0:
237,335,27705,1,0,1:0:0:0:
172,292,27855,1,8,0:0:0:0:
234,159,28005,2,0,L|245:262,1,92.8200005665283,0|0,1:0|0:0,0:0:0:0:
168,105,28305,1,2,1:0:0:0:
168,105,28380,1,0,1:0:0:0:
168,105,28455,2,0,P|217:76|258:80,1,92.8200005665283,10|2,0:0|0:0,0:0:0:0:
408,145,28755,2,0,L|346:133,1,46.4100002832642,2|0,1:0|1:0,0:0:0:0:
234,159,28905,2,0,L|296:147,1,46.4100002832642,2|0,1:0|1:0,0:0:0:0:
329,66,29055,2,0,L|324:237,1,139.230000849792,10|0,0:0|0:0,0:0:0:0:
400,234,29355,6,0,B|301:234|346:316|215:300,1,185.640001133057,4|8,1:0|0:0,0:0:0:0:
159,201,29805,2,0,P|223:202|261:242,1,92.8200005665283,0|0,0:0|1:0,0:0:0:0:
128,279,30105,1,0,1:0:0:0:
75,223,30255,1,10,0:0:0:0:
121,98,30405,2,0,B|114:157|114:157|136:211|136:211|125:299,1,185.640001133057,2|0,1:0|1:0,0:0:0:0:
199,119,30855,2,0,P|196:63|159:29,1,92.8200005665283,8|0,0:0|1:0,0:0:0:0:
234,192,31155,2,0,P|247:244|257:257,1,46.4100002832642,8|8,0:0|0:0,0:0:0:0:
287,124,31305,2,0,P|274:72|264:59,1,46.4100002832642,8|8,0:0|0:0,0:0:0:0:
357,172,31455,2,0,P|364:193|366:216,3,46.4100002832642,8|8|4|4,3:0|3:0|3:0|3:0,0:0:0:0:
408,106,31755,6,0,P|395:170|394:243,1,131.040003199219,6|0,1:0|1:0,0:0:0:0:
445,344,32205,1,0,0:0:0:0:
445,344,32355,2,0,B|467:312|467:312|418:287|356:331,1,131.040003199219,2|0,1:0|1:0,0:0:0:0:
264,365,32805,1,0,0:0:0:0:
264,365,32955,2,0,P|229:340|222:309,1,65.5200015996094,2|0,1:0|0:0,0:0:0:0:
170,190,33255,2,0,P|198:205|211:235,1,65.5200015996094,0|2,1:0|0:0,0:0:0:0:
84,181,33555,2,0,P|100:137|120:122,2,65.5200015996094,2|2|2,1:0|0:0|1:0,0:0:0:0:
194,108,34005,1,0,1:0:0:0:
194,108,34080,1,0,1:0:0:0:
194,108,34155,6,0,L|337:99,1,131.040003199219,4|8,1:0|0:0,0:0:0:0:
438,164,34605,1,8,0:0:0:0:
438,164,34680,1,0,0:0:0:0:
438,164,34755,2,0,L|443:206,3,32.7600007998047,0|0|8|8,1:0|0:0|0:0|0:0,0:0:0:0:
358,230,35055,2,0,L|361:197,3,32.7600007998047,0|0|8|0,1:0|0:0|0:0|0:0,0:0:0:0:
409,296,35355,5,8,1:2:0:0:
381,312,35430,1,0,0:0:0:0:
348,316,35505,1,8,0:0:0:0:
317,307,35580,1,0,0:0:0:0:
292,286,35655,2,0,P|254:268|245:270,1,32.7600007998047,8|8,0:0|0:0,0:0:0:0:
183,290,35805,2,0,P|167:283|156:272,1,32.7600007998047,8|8,0:0|0:0,0:0:0:0:
132,197,35955,1,4,1:0:0:0:
247,75,36105,1,8,0:0:0:0:
247,75,36180,1,0,1:0:0:0:
247,75,36255,2,0,L|251:118,3,32.7600007998047,4|4|4|4,3:0|3:0|3:0|3:0,0:0:0:0:
314,11,36555,6,0,P|294:119|306:203,1,185.640001133057,6|8,1:0|0:0,0:0:0:0:
400,331,37005,2,0,P|358:288|338:252,1,92.8200005665283,0|0,0:0|1:0,0:0:0:0:
226,221,37305,1,0,1:0:0:0:
303,193,37455,1,8,0:0:0:0:
248,300,37605,2,0,P|196:303|159:261,1,92.8200005665283,0|0,1:0|0:0,0:0:0:0:
197,136,37905,1,2,1:0:0:0:
197,136,37980,1,0,1:0:0:0:
197,136,38055,2,0,B|224:176|224:176|226:236,1,92.8200005665283,10|2,0:0|0:0,0:0:0:0:
123,82,38355,2,0,P|171:54|181:54,1,46.4100002832642,2|0,1:0|1:0,0:0:0:0:
248,63,38505,2,0,P|268:53|285:36,1,46.4100002832642,2|0,1:0|1:0,0:0:0:0:
418,68,38655,2,0,P|349:53|270:92,1,139.230000849792,10|0,0:0|0:0,0:0:0:0:
315,153,38955,6,0,B|350:182|350:182|377:267|305:326,1,185.640001133057,4|8,1:0|0:0,0:0:0:0:
168,255,39405,2,0,P|238:258|272:298,1,92.8200005665283,0|0,0:0|1:0,0:0:0:0:
198,331,39705,1,0,1:0:0:0:
120,321,39855,1,10,0:0:0:0:
189,145,40005,2,0,L|198:341,1,185.640001133057,0|0,1:0|1:0,0:0:0:0:
104,142,40455,2,0,P|124:86|162:64,1,92.8200005665283,12|0,0:0|0:0,0:0:0:0:
241,172,40755,2,0,P|184:138|177:118,2,61.8800003776855,8|8|8,0:0|0:0|3:0,0:0:0:0:
335,168,41055,2,0,P|392:134|394:123,2,61.8800003776855,8|8|4,0:0|0:0|3:0,0:0:0:0:
288,96,41355,5,6,1:0:0:0:
288,96,41505,2,0,L|296:290,1,167.439994379151,0|0,1:0|1:0,0:0:0:0:
149,348,41955,1,10,0:0:0:0:
149,348,42105,2,0,P|187:296|143:199,1,167.439994379151,0|0,1:0|0:0,0:0:0:0:
8,92,42555,1,2,1:0:0:0:
8,92,42705,2,0,B|44:71|81:101|85:105|89:109|111:147|190:118,1,167.439994379151,0|0,1:0|1:0,0:0:0:0:
326,52,43155,2,0,P|270:52|237:81,1,83.7199971895753,10|0,0:0|1:0,0:0:0:0:
274,197,43455,2,0,P|330:197|363:168,1,83.7199971895753,0|0,0:0|0:0,0:0:0:0:
480,55,43755,5,2,1:0:0:0:
480,55,43905,2,0,L|471:258,1,167.439994379151,0|0,1:0|1:0,0:0:0:0:
359,357,44355,1,10,0:0:0:0:
359,357,44505,2,0,B|362:313|362:313|303:267|237:318,1,167.439994379151,0|0,1:0|0:0,0:0:0:0:
72,351,44955,2,0,P|21:327|18:287,1,83.7199971895753,2|2,1:0|1:0,0:0:0:0:
0,159,45255,2,0,P|51:183|54:223,1,83.7199971895753,2|0,0:0|1:0,0:0:0:0:
119,58,45555,2,0,B|188:38|188:38|294:97,1,167.439994379151,14|8,0:0|3:0,0:0:0:0:
466,272,46155,5,2,1:0:0:0:
384,311,46455,1,2,1:0:0:0:
297,304,46755,1,2,1:0:0:0:
235,248,47055,1,2,1:0:0:0:
333,67,47355,5,2,1:0:0:0:
244,161,47655,1,2,1:0:0:0:
117,157,47955,1,2,1:0:0:0:
32,62,48255,1,0,1:0:0:0:
32,62,48405,1,2,1:0:0:0:
109,231,48555,6,0,L|118:139,1,74.6200011386109,12|0,0:0|1:0,0:0:0:0:
197,268,48855,1,0,1:0:0:0:
197,268,49005,2,0,L|206:176,1,74.6200011386109,12|0,0:0|1:0,0:0:0:0:
291,314,49305,1,0,1:0:0:0:
282,145,49455,1,12,0:0:0:0:
291,314,49605,1,8,0:0:0:0:
291,314,49905,5,2,0:0:0:0:
291,314,50055,2,0,P|320:327|347:324,1,47.3199997111816,2|2,0:0|0:0,0:0:0:0:
451,346,50355,2,0,P|418:320|404:256,1,94.6399994223633,2|2,0:0|0:0,0:0:0:0:
419,58,50955,6,0,B|321:56|363:121|243:115,1,180.179999450134,6|0,1:0|0:0,0:0:0:0:
254,115,51255,2,0,P|186:88|134:115,1,120.119999633423,8|0,0:0|0:0,0:0:0:0:
179,288,51555,2,0,L|193:164,1,120.119999633423,0|0,1:0|1:0,0:0:0:0:
96,314,51855,1,8,0:0:0:0:
259,260,52005,2,0,B|323:236|323:236|423:235|435:359,1,240.239999266846,0|0,1:0|1:0,0:0:0:0:
428,186,52455,2,0,P|414:122|422:57,1,120.119999633423,10|0,0:0|0:0,0:0:0:0:
267,142,52755,2,0,P|271:201|258:259,1,120.119999633423,2|0,1:0|1:0,0:0:0:0:
168,71,53055,2,0,P|89:48|37:169,1,180.179999450134,10|0,0:0|0:0,0:0:0:0:
27,112,53355,6,0,B|54:182|54:182|37:259,1,120.119999633423,2|0,1:0|1:0,0:0:0:0:
175,303,53655,1,10,0:0:0:0:
175,303,53805,2,0,B|165:258|165:258|191:188,1,120.119999633423,2|0,0:0|1:0,0:0:0:0:
374,158,54105,2,0,P|306:169|256:121,1,120.119999633423,2|8,1:0|0:0,0:0:0:0:
446,46,54405,2,0,L|460:305,1,240.239999266846,2|0,1:0|1:0,0:0:0:0:
332,87,54855,2,0,P|282:57|225:71,1,120.119999633423,10|0,0:0|0:0,0:0:0:0:
200,206,55155,2,0,P|250:236|307:222,1,120.119999633423,2|0,1:0|1:0,0:0:0:0:
111,103,55455,2,0,B|97:239|97:239|125:318,1,180.179999450134,10|0,0:0|0:0,0:0:0:0:
111,279,55755,6,0,P|160:320|230:317,1,120.119999633423,2|2,1:0|1:0,0:0:0:0:
429,192,56055,2,0,B|372:179|372:179|286:218|286:218|170:201,1,240.239999266846,10|2,0:0|1:0,0:0:0:0:
63,88,56505,1,2,1:0:0:0:
261,18,56655,2,0,L|270:150,1,120.119999633423,10|0,0:0|1:0,0:0:0:0:
131,268,56955,1,2,0:0:0:0:
199,205,57105,1,2,1:0:0:0:
270,324,57255,2,0,L|400:309,1,120.119999633423,10|0,0:0|0:0,0:0:0:0:
457,162,57555,1,2,1:0:0:0:
389,99,57705,1,2,1:0:0:0:
318,218,57855,2,0,L|188:203,1,120.119999633423,10|0,0:0|0:0,0:0:0:0:
61,52,58155,6,0,P|113:109|110:178,1,120.119999633423,2|0,1:0|0:0,0:0:0:0:
142,301,58455,1,10,0:0:0:0:
142,301,58605,2,0,P|154:243|198:203,1,120.119999633423,2|0,0:0|1:0,0:0:0:0:
350,97,58905,2,0,P|337:154|293:194,1,120.119999633423,2|8,1:0|0:0,0:0:0:0:
303,23,59205,2,0,P|421:44|412:164,1,240.239999266846,6|2,1:0|1:0,0:0:0:0:
246,113,59655,2,0,L|109:100,1,120.119999633423,10|2,0:0|1:0,0:0:0:0:
22,312,59955,2,0,L|159:299,1,120.119999633423,10|2,0:0|1:0,0:0:0:0:
106,141,60255,2,0,L|115:212,3,60.0599998167114,10|8|8|8,0:0|0:0|0:0|0:0,0:0:0:0:
126,101,60555,6,0,L|140:254,1,120.119999633423,4|0,1:0|1:0,0:0:0:0:
217,363,60855,2,0,L|227:243,1,120.119999633423,8|0,0:0|0:0,0:0:0:0:
306,84,61155,2,0,P|301:171|347:222,1,120.119999633423,0|0,1:0|0:0,0:0:0:0:
462,258,61455,1,8,0:0:0:0:
401,58,61605,2,0,P|329:0|205:76,1,240.239999266846,0|0,1:0|1:0,0:0:0:0:
136,226,62055,2,0,P|195:178|197:114,1,120.119999633423,10|0,0:0|0:0,0:0:0:0:
45,206,62355,2,0,P|54:283|116:316,1,120.119999633423,2|0,1:0|1:0,0:0:0:0:
293,212,62655,2,0,B|359:208|359:208|423:236|410:346,1,180.179999450134,10|0,0:0|0:0,0:0:0:0:
411,301,62955,6,0,B|368:243|400:186|403:182|406:178|458:148|413:43,1,240.239999266846,2|10,1:0|0:0,0:0:0:0:
239,87,63405,2,0,P|323:95|345:151,1,120.119999633423,2|0,1:0|0:0,0:0:0:0:
86,178,63705,2,0,P|170:170|192:114,1,120.119999633423,2|8,1:0|0:0,0:0:0:0:
24,66,64005,2,0,L|52:333,1,240.239999266846,2|0,1:0|1:0,0:0:0:0:
224,240,64455,2,0,P|288:272|336:320,1,120.119999633423,10|0,0:0|0:0,0:0:0:0:
416,163,64755,2,0,P|438:230|438:298,1,120.119999633423,2|0,1:0|1:0,0:0:0:0:
440,278,64980,1,0,1:0:0:0:
440,278,65055,1,14,0:0:0:0:
294,56,65355,6,0,L|132:35,1,120.119999633423,2|0,1:0|0:0,0:0:0:0:
2,187,65655,2,0,B|45:161|90:189|90:189|157:260|239:195,1,240.239999266846,10|2,0:0|1:0,0:0:0:0:
395,100,66105,1,2,1:0:0:0:
305,224,66255,2,0,P|289:301|293:354,1,120.119999633423,10|0,0:0|1:0,0:0:0:0:
169,141,66555,1,2,0:0:0:0:
169,141,66705,1,2,1:0:0:0:
273,120,66855,1,10,0:0:0:0:
147,58,67005,1,2,0:0:0:0:
256,34,67155,1,2,1:0:0:0:
256,34,67305,1,2,1:0:0:0:
56,83,67455,2,0,L|89:308,1,180.179999450134,10|0,0:0|0:0,0:0:0:0:
82,261,67755,6,0,P|165:273|216:292,1,120.119999633423,2|0,1:0|0:0,0:0:0:0:
199,284,67980,1,8,0:0:0:0:
199,284,68055,1,10,0:0:0:0:
381,192,68205,2,0,P|298:203|247:222,1,120.119999633423,2|8,1:0|0:0,0:0:0:0:
466,268,68505,1,2,1:0:0:0:
466,268,68580,1,0,1:0:0:0:
466,268,68655,1,8,0:0:0:0:
413,76,68805,2,0,P|385:161|378:226,1,120.119999633423,10|4,0:0|3:0,0:0:0:0:
256,68,69105,1,8,0:0:0:0:
256,68,69180,1,8,0:0:0:0:
256,68,69255,2,0,P|178:46|109:44,1,120.119999633423,10|0,0:0|1:0,0:0:0:0:
10,168,69555,2,0,P|88:146|157:144,1,120.119999633423,10|0,0:0|1:0,0:0:0:0:
224,183,69780,1,0,1:0:0:0:
224,183,69855,2,0,P|291:206|383:209,1,139.230000849792,6|0,3:0|0:0,0:0:0:0:
358,211,70155,6,0,P|371:135|408:97,1,120.119999633423,14|0,0:0|1:0,0:0:0:0:
441,279,70455,2,0,P|376:318|298:288,1,120.119999633423,8|0,0:0|1:0,0:0:0:0:
142,281,70755,2,0,P|200:279|248:314,1,120.119999633423,10|0,0:0|1:0,0:0:0:0:
67,356,71055,2,0,P|36:290|59:225,1,120.119999633423,8|0,0:0|1:0,0:0:0:0:
96,174,71280,1,0,0:0:0:0:
95,173,71355,2,0,L|82:34,1,120.119999633423,10|0,0:0|1:0,0:0:0:0:
225,134,71655,2,0,L|213:253,1,120.119999633423,8|0,0:0|1:0,0:0:0:0:
336,103,71955,2,0,L|481:78,1,120.119999633423,10|0,0:0|1:0,0:0:0:0:
512,246,72255,2,0,L|367:221,1,120.119999633423,8|0,0:0|1:0,0:0:0:0:
339,302,72480,1,0,1:0:0:0:
339,302,72555,6,0,P|285:358|206:343,1,120.119999633423,14|0,0:0|1:0,0:0:0:0:
61,366,72855,2,0,P|118:353|153:306,1,120.119999633423,8|0,0:0|1:0,0:0:0:0:
78,161,73155,2,0,L|68:311,1,120.119999633423,10|0,0:0|1:0,0:0:0:0:
219,165,73455,2,0,L|211:45,1,120.119999633423,8|0,0:0|1:0,0:0:0:0:
313,20,73680,1,0,1:0:0:0:
313,20,73755,2,0,P|304:95|308:157,1,120.119999633423,10|0,0:0|1:0,0:0:0:0:
388,286,74055,2,0,P|389:226|380:166,1,120.119999633423,8|0,0:0|1:0,0:0:0:0:
305,304,74355,1,10,0:0:0:0:
470,271,74505,1,0,1:0:0:0:
302,221,74655,2,0,B|254:221|254:221|222:241|222:241|137:241,1,139.230000849792,12|0,0:0|0:0,0:0:0:0:
168,241,74955,6,0,P|140:164|102:134,1,111.019995426117,2|0,1:0|1:0,0:0:0:0:
274,45,75255,2,0,P|238:87|225:140,1,111.019995426117,10|0,0:0|1:0,0:0:0:0:
391,238,75555,2,0,P|378:184|342:142,1,111.019995426117,10|0,0:0|1:0,0:0:0:0:
283,298,75855,1,10,0:0:0:0:
272,202,76005,1,0,0:0:0:0:
156,340,76155,2,0,L|34:319,1,111.019995426117,14|0,0:0|1:0,0:0:0:0:
151,111,76455,2,0,L|273:90,1,111.019995426117,14|0,0:0|1:0,0:0:0:0:
370,229,76755,6,0,P|414:224|454:210,2,74.0133302840781,8|4|4,0:0|3:0|3:0,0:0:0:0:
281,217,77055,2,0,P|245:211|196:198,2,74.0133302840781,8|4|4,3:0|3:0|3:0,0:0:0:0:
221,123,77355,5,4,1:0:0:0:
221,123,77505,2,0,P|183:223|180:290,1,149.240002277222,0|0,1:0|1:0,0:0:0:0:
141,69,77955,2,0,P|209:30|317:127,1,223.860003415833,10|0,0:0|0:0,0:0:0:0:
349,301,78555,1,2,1:0:0:0:
349,301,78705,2,0,P|265:246|205:239,1,149.240002277222,0|0,1:0|1:0,0:0:0:0:
9,267,79155,2,0,P|73:260|154:127,1,223.860003415833,10|0,0:0|0:0,0:0:0:0:
354,45,79755,1,6,1:0:0:0:
354,45,79905,2,0,P|286:54|188:45,1,149.240002277222,0|0,1:0|1:0,0:0:0:0:
421,140,80355,2,0,P|305:145|248:241,1,223.860003415833,10|0,0:0|0:0,0:0:0:0:
108,357,80955,6,0,P|98:372|83:384,3,37.3100005693054,10|0|0|0,0:0|0:0|1:0|1:0,0:0:0:0:
99,277,81255,2,0,P|108:261|123:249,3,37.3100005693054,8|0|0|0,3:0|0:0|1:0|1:0,0:0:0:0:
24,320,81555,2,0,P|14:335|0:347,3,37.3100005693054,10|0|0|0,3:0|0:0|1:0|1:0,0:0:0:0:
15,240,81855,2,0,P|24:224|39:212,3,37.3100005693054,8|8|4|4,3:0|3:0|3:0|3:0,0:0:0:0:
9,176,82155,6,0,L|251:150,1,223.860003415833,6|0,1:0|0:0,0:0:0:0:
315,186,82680,1,0,0:0:0:0:
315,186,82755,2,0,L|450:179,2,123.760000755371,8|8|8,0:0|0:0|0:0,0:0:0:0:
161,54,83355,5,12,0:0:0:0:
161,54,83955,2,0,B|206:161|133:121|180:229,1,173.506665607666,2|0,0:0|0:0,0:0:0:0:
176,221,84555,6,0,P|201:285|192:348,1,111.019995426117,14|2,0:0|1:0,0:0:0:0:
287,193,84855,1,2,1:0:0:0:
287,193,85005,2,0,P|286:137|308:87,1,111.019995426117,12|2,0:0|1:0,0:0:0:0:
434,203,85305,1,2,1:0:0:0:
434,203,85455,2,0,P|456:253|455:308,1,111.019995426117,14|2,0:0|1:0,0:0:0:0:
312,359,85755,1,2,1:0:0:0:
312,359,85905,2,0,B|190:297|214:403|85:324,1,222.039990852234,8|2,0:0|1:0,0:0:0:0:
139,161,86355,2,0,P|169:232|157:297,1,111.019995426117,10|0,0:0|1:0,0:0:0:0:
51,139,86655,2,0,P|53:83|79:35,1,111.019995426117,10|0,0:0|1:0,0:0:0:0:
226,138,86955,6,0,L|344:119,1,111.019995426117,14|2,0:0|1:0,0:0:0:0:
444,252,87255,1,2,1:0:0:0:
444,252,87405,2,0,L|326:233,1,111.019995426117,12|2,0:0|1:0,0:0:0:0:
209,325,87705,1,2,1:0:0:0:
372,324,87855,1,14,0:0:0:0:
253,235,88005,1,2,1:0:0:0:
122,317,88155,2,0,P|57:307|28:253,1,111.019995426117,2|8,1:0|0:0,0:0:0:0:
97,130,88455,2,0,L|104:270,1,111.019995426117,2|2,1:0|1:0,0:0:0:0:
24,93,88755,2,0,P|63:55|118:51,1,111.019995426117,8|0,0:0|0:0,0:0:0:0:
179,156,89055,1,4,3:0:0:0:
179,156,89205,1,4,3:0:0:0:
284,38,89355,6,0,P|303:101|315:188,1,111.019995426117,14|2,0:0|1:0,0:0:0:0:
372,285,89655,1,2,1:0:0:0:
372,285,89805,2,0,P|382:230|399:177,1,111.019995426117,12|2,0:0|1:0,0:0:0:0:
281,277,90105,1,2,1:0:0:0:
281,277,90255,2,0,P|212:292|140:290,1,111.019995426117,14|2,0:0|1:0,0:0:0:0:
52,190,90555,1,2,1:0:0:0:
52,190,90705,2,0,P|121:205|193:203,1,111.019995426117,8|2,0:0|1:0,0:0:0:0:
270,100,91005,1,2,1:0:0:0:
270,100,91155,2,0,P|201:115|129:113,1,111.019995426117,10|0,0:0|1:0,0:0:0:0:
305,184,91455,2,0,P|374:199|446:197,1,111.019995426117,8|0,0:0|1:0,0:0:0:0:
491,161,91680,1,0,1:0:0:0:
491,161,91755,6,0,L|496:241,5,55.5099977130586,8|8|8|8|0|0,0:0|0:0|0:0|0:0|1:0|1:0,0:0:0:0:
413,124,92205,2,0,L|416:68,5,55.5099977130586,0|0|8|8|4|4,1:0|1:0|3:0|3:0|3:0|3:0,0:0:0:0:
335,92,92655,1,8,0:0:0:0:
307,89,92730,1,8,0:0:0:0:
279,87,92805,1,8,0:0:0:0:
252,84,92880,1,8,0:0:0:0:
224,82,92955,6,0,P|216:45|200:22,3,55.5099977130586,0|0|8|0,1:0|1:0|3:0|1:0,0:0:0:0:
201,164,93255,2,0,P|188:188|183:215,3,55.5099977130586,0|0|8|0,1:0|1:0|3:0|1:0,0:0:0:0:
232,298,93555,2,0,L|116:286,1,111.019995426117,0|4,0:0|3:0,0:0:0:0:
266,217,93855,2,0,L|382:205,1,111.019995426117,4|4,3:0|3:0,0:0:0:0:
466,55,94155,6,0,P|402:101|298:102,1,166.529993139176,12|0,0:0|0:0,0:0:0:0:
316,107,94455,2,0,P|259:78|197:80,1,111.019995426117,8|0,0:0|1:0,0:0:0:0:
49,158,94755,2,0,P|106:128|168:130,1,111.019995426117,8|0,0:0|1:0,0:0:0:0:
301,244,95055,2,0,P|243:214|181:216,1,111.019995426117,8|0,0:0|1:0,0:0:0:0:
134,255,95280,1,0,1:0:0:0:
134,255,95355,2,0,L|141:375,1,111.019995426117,8|0,0:0|1:0,0:0:0:0:
301,244,95655,2,0,L|307:133,1,111.019995426117,8|0,0:0|1:0,0:0:0:0:
159,69,95955,2,0,B|264:77|205:14|356:25,1,166.529993139176,8|0,0:0|0:0,0:0:0:0:
314,23,96255,2,0,P|386:41|427:90,1,111.019995426117,8|0,0:0|1:0,0:0:0:0:
401,264,96555,6,0,B|348:232|348:232|274:250,1,111.019995426117,12|0,0:0|1:0,0:0:0:0:
117,254,96855,2,0,B|170:286|170:286|244:268,1,111.019995426117,8|0,0:0|1:0,0:0:0:0:
66,200,97155,2,0,L|75:318,1,111.019995426117,8|0,0:0|1:0,0:0:0:0:
185,203,97455,2,0,L|193:92,1,111.019995426117,8|0,0:0|1:0,0:0:0:0:
126,40,97680,1,0,1:0:0:0:
126,40,97755,2,0,B|184:62|184:62|227:44|227:44|293:72,1,166.529993139176,8|0,0:0|0:0,0:0:0:0:
280,66,98055,2,0,P|306:137|305:191,1,111.019995426117,8|0,0:0|1:0,0:0:0:0:
255,315,98355,1,12,0:0:0:0:
356,241,98505,1,0,1:0:0:0:
247,323,98655,2,0,P|178:337|116:255,1,166.529993139176,12|0,0:0|0:0,0:0:0:0:
148,204,98955,6,0,P|137:149|130:141,3,46.4100002832642,10|0|0|0,1:2|1:0|1:0|1:0,0:0:0:0:
84,85,99255,2,0,P|132:69|148:73,1,46.4100002832642,10|0,1:2|1:0,0:0:0:0:
199,101,99405,2,0,P|221:96|241:84,1,46.4100002832642,2|0,1:0|1:0,0:0:0:0:
319,56,99555,2,0,P|325:78|323:101,3,46.4100002832642,10|0|0|0,1:2|1:0|1:0|1:0,0:0:0:0:
399,153,99855,2,0,P|397:129|403:107,3,46.4100002832642,8|0|0|0,1:2|1:0|1:0|1:0,0:0:0:0:
335,206,100155,6,0,P|280:221|271:227,1,46.4100002832642,10|0,1:2|1:0,0:0:0:0:
243,276,100305,2,0,P|221:283|197:285,1,46.4100002832642,2|0,1:0|1:0,0:0:0:0:
115,254,100455,2,0,P|97:208|97:198,3,46.4100002832642,10|0|0|0,1:2|1:0|1:0|1:0,0:0:0:0:
168,137,100755,2,0,L|104:131,3,46.4100002832642,10|0|0|0,1:2|1:0|1:0|1:0,0:0:0:0:
240,90,101055,2,0,L|304:84,3,46.4100002832642,10|0|2|0,1:2|1:0|1:0|1:0,0:0:0:0:
332,37,101355,6,0,L|319:210,1,139.230000849792,14|0,1:2|1:0,0:0:0:0:
327,188,101655,2,0,L|331:245,1,46.4100002832642,0|0,1:0|1:0,0:0:0:0:
409,301,101805,2,0,B|318:293|371:355|240:336,1,139.230000849792,14|0,1:2|1:0,0:0:0:0:
269,330,102105,2,0,P|218:307|211:308,1,46.4100002832642,0|0,1:0|1:0,0:0:0:0:
126,353,102255,2,0,L|107:192,1,139.230000849792,14|0,1:2|1:0,0:0:0:0:
99,205,102555,2,0,L|106:148,1,46.4100002832642,0|0,1:0|1:0,0:0:0:0:
187,103,102705,2,0,L|192:149,3,46.4100002832642,14|0|0|0,1:2|1:0|1:0|1:0,0:0:0:0:
284,201,103005,2,0,L|278:154,1,46.4100002832642,0|0,1:0|1:0,0:0:0:0:
367,112,103155,6,0,L|360:265,2,139.230000849792,10|10|10,0:0|0:0|0:0,0:0:0:0:
