osu file format v14

[General]
AudioFilename: audio.mp3
AudioLeadIn: 0
PreviewTime: 114630
Countdown: 0
SampleSet: Soft
StackLeniency: 0.5
Mode: 0
LetterboxInBreaks: 0
WidescreenStoryboard: 1

[Editor]
Bookmarks: 43155,49905,115755,180544,218955
DistanceSpacing: 1.4
BeatDivisor: 4
GridSize: 4
TimelineZoom: 2.499999

[Metadata]
Title:Thrill, Risk, Heartless
TitleUnicode:Thrill, Risk, Heartless
Artist:LiSA
ArtistUnicode:LiSA
Creator:SkyFlame
Version:Tycani's Expert
Source:Sword Art Online: Fatal Bullet
Tags:grandfinals gf hr1 osu! world cup owc 2020 ソードアート・オンライン フェイタル・バレット opening sao ps4 playstation sony op full ver. ver version female vocal japanese video game anime rock jrock j-rock akitoshi -Laura- Corinn kalibe ohwow -_ex_- - Ex kowari tycani
BeatmapID:4412275
BeatmapSetID:1312103

[Difficulty]
HPDrainRate:5
CircleSize:3.8
OverallDifficulty:8.5
ApproachRate:9.3
SliderMultiplier:1.6
SliderTickRate:1

[Events]
//Background and Video events
0,0,"kirito kun and friends.jpg",0,0
//Break Periods
2,180744,184789
//Storyboard Layer 0 (Background)
//Storyboard Layer 1 (Fail)
//Storyboard Layer 2 (Pass)
//Storyboard Layer 3 (Foreground)
//Storyboard Layer 4 (Overlay)
//Storyboard Sound Samples

[TimingPoints]
418,272.727272727273,4,2,4,40,1,0
554,292.682926829268,4,2,4,40,1,0
1139,301.507537688442,4,2,1,80,1,0
1742,301.507537688442,4,2,1,80,1,0
1742,-83.3333333333333,4,2,1,80,0,0
2345,303.030303030303,4,2,1,80,1,0
2345,-111.111111111111,4,2,1,80,0,0
2951,298.507462686567,4,2,1,80,1,0
3548,-133.333333333333,4,2,1,80,0,0
4145,300,4,2,1,80,1,0
5345,-76.9230769230769,4,2,1,80,0,0
6545,-200,4,2,1,80,0,0
7145,306.122448979592,4,2,1,80,1,0
7145,-133.333333333333,4,2,1,80,0,0
7757,295.566502463054,4,2,1,80,1,0
8052,-133.333333333333,4,2,1,80,0,0
8348,303.030303030303,4,2,1,80,1,0
8954,303.030303030303,4,2,1,80,1,0
8954,-133.333333333333,4,2,1,80,0,0
9560,285.714285714286,4,2,1,80,1,0
9560,-133.333333333333,4,2,1,80,0,0
9845,303.79746835443,4,2,1,80,1,0
10148,297.766749379653,4,2,1,80,1,0
10148,-80,4,2,1,80,0,0
11934,307.692307692308,4,2,1,80,1,0
12549,303.030303030303,4,2,1,80,1,0
12852,-80,4,2,1,80,0,0
13761,300,4,2,1,80,1,0
13761,-80,4,2,1,80,0,0
16161,298.507462686567,4,2,1,80,1,0
16459,-80,4,2,1,80,0,0
17355,300,4,2,1,80,1,0
17655,-80,4,2,1,80,0,0
20805,-66.6666666666667,4,2,1,80,0,0
22455,-133.333333333333,4,2,1,80,0,0
22755,-100,4,2,1,80,0,0
23655,-133.333333333333,4,2,1,80,0,0
24555,-100,4,2,1,80,0,0
25155,-133.333333333333,4,2,1,80,0,0
26655,-86.9565217391303,4,2,1,80,0,0
26955,-100,4,2,1,80,0,0
31755,-133.333333333333,4,2,1,80,0,0
32955,-100,4,2,1,80,0,0
34155,294.117647058824,4,2,1,80,1,0
34155,-86.9565217391304,4,2,1,80,0,0
34449,-100,4,2,1,80,0,0
35331,306.122448979592,4,2,1,80,1,0
35943,300,4,2,1,80,1,0
36543,303.030303030303,4,2,1,80,1,0
36543,-83.3333333333333,4,2,1,80,0,0
37149,-100,4,2,1,80,0,0
37755,300,4,2,1,80,1,0
41955,-133.333333333333,4,2,1,80,0,0
45555,-100,4,2,1,80,0,0
46155,295.566502463054,4,2,1,80,1,0
47337,304.568527918782,4,2,1,80,1,0
48555,300,4,2,1,80,1,0
48555,-83.3333333333333,4,2,1,80,0,0
50955,-83.3333333333333,4,2,1,80,0,1
64155,297.766749379653,4,2,1,80,1,1
64452,-83.3333333333333,4,2,1,80,0,1
65346,300,4,2,1,80,1,1
65346,-83.3333333333333,4,2,1,80,0,1
66546,302.267002518892,4,2,1,80,1,1
67150,-83.3333333333333,4,2,1,80,0,1
67755,300,4,2,1,80,1,1
67755,-83.3333333333333,4,2,1,80,0,1
69855,-83.3333333333333,4,2,1,80,0,0
70155,300.751879699248,4,2,1,80,1,1
70155,-66.6666666666667,4,2,1,80,0,1
72561,301.507537688442,4,2,1,80,1,1
72561,-66.6666666666667,4,2,1,80,0,1
73767,291.26213592233,4,2,1,80,1,1
74640,315.789473684211,4,2,1,80,1,1
74640,-66.6666666666667,4,2,1,80,0,1
74955,300,4,2,1,80,1,1
74955,-66.6666666666667,4,2,1,80,0,1
75255,-66.6666666666667,4,2,1,80,0,0
75555,-76.9230769230769,4,2,1,80,0,0
76155,-66.6666666666667,4,2,1,80,0,0
76755,292.682926829268,4,2,1,80,1,0
76755,-333.333333333333,4,2,1,80,0,0
77340,301.507537688442,4,2,1,80,1,0
77641,-80,4,2,1,80,0,0
80807,-66.6666666666667,4,2,1,80,0,0
81259,298.507462686567,4,2,1,80,1,0
81557,-66.6666666666667,4,2,1,80,0,0
81856,285.714285714286,4,2,1,80,1,0
82141,303.030303030303,4,2,1,80,1,0
82444,-80,4,2,1,80,0,0
83959,296.296296296296,4,2,1,80,1,0
84551,291.26213592233,4,2,1,80,1,0
84551,-66.6666666666667,4,2,1,80,0,0
84987,302.267002518892,4,2,1,80,1,0
84987,-66.6666666666667,4,2,1,80,0,0
85138,302.267002518892,4,2,1,80,1,0
85440,-66.6666666666667,4,2,1,80,0,0
85742,300,4,2,1,80,1,0
86342,-66.6666666666667,4,2,1,80,0,0
86942,303.030303030303,4,2,1,80,1,0
87093,-200,4,2,1,80,0,0
88154,300,4,2,1,80,1,0
88154,-200,4,2,1,80,0,0
89054,285.714285714286,4,2,1,80,1,0
89339,315.789473684211,4,2,1,80,1,0
89339,-76.9230769230769,4,2,1,80,0,0
89654,303.030303030303,4,2,1,80,1,0
89805,-76.9230769230769,4,2,1,80,0,0
90563,298.136645962733,4,2,1,80,1,0
91159,-500,4,2,1,80,0,0
91755,300,4,2,1,80,1,0
91755,-83.3333333333333,4,2,1,80,0,0
95955,-66.6666666666667,4,2,1,80,0,0
96555,297.029702970297,4,2,1,80,1,0
97149,304.568527918782,4,2,1,80,1,0
97758,304.568527918782,4,2,1,80,1,0
98367,294.117647058824,4,2,1,80,1,0
98955,299.25187032419,4,2,1,80,1,0
98955,-66.6666666666667,4,2,1,80,0,0
100152,289.156626506024,4,2,1,80,1,0
100152,-66.6666666666667,4,2,1,80,0,0
100730,304.568527918782,4,2,1,80,1,0
100730,-1000,4,2,1,80,0,0
101339,306.122448979592,4,2,1,80,1,0
101339,-83.3333333333333,4,2,1,80,0,0
102563,298.136645962733,4,2,1,80,1,0
102861,-83.3333333333333,4,2,1,80,0,0
103755,300,4,2,1,80,1,0
103755,-83.3333333333333,4,2,1,80,0,0
106455,-133.333333333333,4,2,1,80,0,0
110955,-100,4,2,1,80,0,0
113355,-83.3333333333333,4,2,1,80,0,0
115755,-83.3333333333333,4,2,1,80,0,1
118155,297.029702970297,4,2,1,80,1,1
118155,-83.3333333333333,4,2,1,80,0,1
120531,303.030303030303,4,2,1,80,1,1
121743,-83.3333333333333,4,2,1,80,0,1
122955,300,4,2,1,80,1,1
122955,-83.3333333333333,4,2,1,80,0,1
134655,-83.3333333333333,4,2,1,80,0,0
134955,-66.6666666666667,4,2,1,80,0,1
139755,-83.3333333333333,4,2,1,80,0,1
141555,306.122448979592,4,2,1,80,1,1
141861,315.789473684211,4,2,1,80,1,1
142176,289.855072463768,4,2,1,80,1,0
142176,-66.6666666666667,4,2,1,80,0,0
142755,300,4,2,1,80,1,0
143355,300,4,2,1,80,1,0
144105,-76.9230769230769,4,2,1,80,0,0
146955,297.766749379653,4,2,1,80,1,0
148890,-83.3333333333333,4,2,1,80,0,0
149337,304.568527918782,4,2,1,80,1,0
149946,300,4,2,1,80,1,0
150546,300,4,2,1,80,1,0
151146,304.568527918782,4,2,1,80,1,0
151146,-83.3333333333333,4,2,1,80,0,0
151755,297.029702970297,4,2,1,80,1,0
152200,-83.3333333333333,4,2,1,80,0,0
153537,303.030303030303,4,2,1,80,1,0
153537,-83.3333333333333,4,2,1,80,0,0
154143,303.030303030303,4,2,1,80,1,0
154294,-71.4285714285714,4,2,1,80,0,0
155052,-83.3333333333333,4,2,1,80,0,0
155355,295.20295202952,4,2,1,80,1,0
155945,-71.4285714285714,4,2,1,80,0,0
156535,305.149396058487,4,2,1,80,1,0
156687,-66.6666666666667,4,2,1,80,0,0
157450,-83.3333333333333,4,2,1,80,0,0
157755,295.566502463054,4,2,1,80,1,0
158050,-83.3333333333333,4,2,1,80,0,0
158937,306.122448979592,4,2,1,80,1,0
160161,303.030303030303,4,2,1,80,1,0
160312,-83.3333333333333,4,2,1,80,0,0
160691,-81.6326530612245,4,2,1,80,0,0
160767,295.566502463054,4,2,1,80,1,0
161062,-83.3333333333333,4,2,1,80,0,0
161358,300,4,2,1,80,1,0
169758,292.682926829268,4,2,1,80,1,0
170636,314.13612565445,4,2,1,80,1,0
170950,301.129234629862,4,2,1,80,1,0
173359,300,4,2,1,80,1,0
175459,303.030303030303,4,2,1,80,1,0
175762,299.21456177534,4,2,1,80,1,0
175762,-76.9230769230769,4,2,1,80,0,0
176061,-71.4285714285714,4,2,1,80,0,0
176360,-66.6666666666667,4,2,1,80,0,0
176659,-133.333333333333,4,2,1,80,0,0
176958,-66.6666666666667,4,2,1,80,0,0
178155,300,4,2,1,80,1,0
179355,297.324083250743,4,2,1,80,1,0
179355,-66.6666666666667,4,2,1,80,0,0
180544,311.688311688312,4,2,1,80,1,0
181790,291.26213592233,4,2,1,80,1,0
182955,300,4,2,1,80,1,0
184755,294.117647058824,4,2,1,80,1,0
185343,303.79746835443,4,2,1,80,1,0
185798,-133.333333333333,4,2,1,80,0,0
186558,301.507537688442,4,2,1,80,1,0
187613,-133.333333333333,4,2,1,80,0,0
187764,297.766749379653,4,2,1,80,1,0
188210,-133.333333333333,4,2,1,80,0,0
188955,300,4,2,1,80,1,0
189855,-83.3333333333333,4,2,1,80,0,0
190155,303.030303030303,4,2,1,80,1,0
190609,-83.3333333333333,4,2,1,80,0,0
191367,298.507462686567,4,2,1,80,1,0
191516,-83.3333333333333,4,2,1,80,0,0
192561,300,4,2,1,80,1,0
193011,-83.3333333333333,4,2,1,80,0,0
194661,-125,4,2,1,80,0,0
197361,295.566502463054,4,2,1,80,1,0
199134,307.692307692308,4,2,1,80,1,0
199749,300,4,2,1,80,1,1
199749,-83.3333333333333,4,2,1,80,0,1
204249,306.122448979592,4,2,1,80,1,1
204249,-83.3333333333333,4,2,1,80,0,1
204555,300,4,2,1,80,1,1
204555,-83.3333333333333,4,2,1,80,0,1
218880,-83.3333333333333,4,2,1,80,0,0
218955,-66.6666666666667,4,2,1,80,0,1
223755,298.507462686567,4,2,1,80,1,0
223755,-76.9230769230769,4,2,1,80,0,0
226143,306.122448979592,4,2,1,80,1,0
226143,-66.6666666666667,4,2,1,80,0,0
226755,300,4,2,1,80,1,0
226755,-333.333333333333,4,2,1,80,0,0
227355,300,4,2,1,80,1,0
227505,-76.9230769230769,4,2,1,80,0,0
227955,-100,4,2,1,80,0,0
228705,-83.3333333333333,4,2,1,80,0,0
229155,-100,4,2,1,80,0,0
230955,301.129234629862,4,2,1,80,1,0
230955,-66.6666666666667,4,2,1,80,0,0
231958,-100,4,2,1,80,0,0
233364,298.507462686567,4,2,1,80,1,0
233364,-66.6666666666667,4,2,1,80,0,0
234259,-76.9230769230769,4,2,1,80,0,0
235752,302.267002518892,4,2,1,80,1,0
236205,-76.9230769230769,4,2,1,80,0,0
236961,300,4,2,1,80,1,0
237111,-76.9230769230769,4,2,1,80,0,0
238161,303.413400758534,4,2,1,80,1,0
238161,-66.6666666666667,4,2,1,80,0,0
239071,-76.9230769230769,4,2,1,80,0,0
239374,298.507462686567,4,2,1,80,1,0
239523,-76.9230769230769,4,2,1,80,0,0
240568,296.296296296296,4,2,1,80,1,0
241753,302.267002518892,4,2,1,80,1,0
242659,-83.3333333333333,4,2,1,80,0,0
242962,301.507537688442,4,2,1,80,1,0
242962,-76.9230769230769,4,2,1,80,0,0
244168,296.846011131725,4,2,1,80,1,0
244168,-76.9230769230769,4,2,1,80,0,0
245355,301.129234629862,4,2,1,80,1,0
245355,-76.9230769230769,4,2,1,80,0,0
247161,292.682926829268,4,2,1,80,1,0
247746,300,4,2,1,80,1,0
247746,-76.9230769230769,4,2,1,80,0,0
248046,-90.9090909090909,4,2,1,80,0,0
248946,301.507537688442,4,2,1,80,1,0
248946,-90.9090909090909,4,2,1,80,0,0
250152,296.296296296296,4,2,1,80,1,0
250152,-66.6666666666667,4,2,1,80,0,0
251040,304.568527918782,4,2,1,80,1,0
251040,-66.6666666666667,4,2,1,80,0,0
251344,304.568527918782,4,2,1,80,1,0
251953,300,4,2,1,80,1,0

[Colours]
Combo1 : 230,0,0
Combo2 : 180,255,255
Combo3 : 255,75,75
Combo4 : 0,230,230
SliderBorder : 237,28,36

[HitObjects]
161,100,1139,6,0,B|102:136|32:110|7:60|59:-14|119:40,1,240,2|0,2:0|2:0,2:0:0:0:
220,170,1742,6,0,B|128:203|126:330|126:330|110:274|52:260,1,288,2|0,2:0|2:0,2:0:0:0:
296,214,2345,6,0,L|448:180,1,144,2|0,2:0|2:0,2:0:0:0:
226,26,2951,6,0,P|144:39|144:181,1,240,2|0,2:0|2:0,2:0:0:0:
237,278,3548,2,0,B|185:243|185:243|124:268,1,120,2|0,2:0|2:0,2:0:0:0:
262,375,4145,6,0,B|303:328|269:257|220:270|190:212|234:147,1,240,2|0,2:0|2:0,2:0:0:0:
361,61,4745,5,8,1:3:0:0:
384,54,4820,1,8,1:3:0:0:
407,47,4895,1,4,1:3:0:0:
430,40,4970,1,4,1:3:0:0:
453,33,5045,1,8,2:0:0:0:
464,45,5345,6,0,B|440:53|440:53|378:-1|301:2,1,156,6|0,1:2|2:0,2:0:0:0:
256,46,5645,1,8,2:0:0:0:
309,219,5795,1,8,2:0:0:0:
78,102,5945,1,8,2:0:0:0:
138,281,6095,1,8,2:0:0:0:
342,125,6245,1,8,2:0:0:0:
298,370,6395,1,8,2:0:0:0:
298,370,6470,1,8,2:0:0:0:
298,370,6545,6,0,B|262:359|268:348|219:332,1,80,12|0,1:3|2:0,2:0:0:0:
51,384,6995,1,0,1:0:0:0:
51,384,7070,1,0,1:0:0:0:
51,384,7145,2,0,P|21:360|106:318,1,180,8|0,2:0|2:0,2:0:0:0:
143,110,7757,6,0,P|129:152|121:193,1,80,4|0,1:2|2:0,2:0:0:0:
64,75,8052,2,0,P|101:33|166:29,1,120.000004577637,0|0,1:0|1:0,2:0:0:0:
161,27,8651,1,0,1:0:0:0:
228,220,8954,6,0,P|174:184|108:192,1,120.000004577637,0|0,1:0|1:0,2:0:0:0:
0,182,9560,2,0,P|54:218|120:210,1,120.000004577637,0|0,1:0|1:0,2:0:0:0:
0,357,10148,6,0,B|58:343|58:343|90:352|90:352|151:338,1,150,4|0,1:2|2:0,2:0:0:0:
268,289,10445,2,0,L|328:308,3,50,8|8|8|8,1:2|2:0|2:0|2:0,2:0:0:0:
228,220,10743,1,8,1:2:0:0:
204,199,10817,1,8,2:0:0:0:
190,171,10892,1,8,2:0:0:0:
187,140,10966,1,8,2:0:0:0:
196,110,11041,1,8,1:2:0:0:
214,85,11115,1,8,2:0:0:0:
241,69,11190,1,8,2:0:0:0:
271,63,11264,1,8,2:0:0:0:
302,69,11339,6,0,L|316:132,1,50,8|8,1:2|2:0,2:0:0:0:
473,225,11487,2,0,L|487:162,1,50,8|8,2:0|2:0,2:0:0:0:
418,23,11636,1,8,1:2:0:0:
410,67,11711,1,8,2:0:0:0:
402,111,11785,1,8,1:2:0:0:
394,155,11860,1,8,2:0:0:0:
386,199,11934,1,12,2:0:0:0:
395,214,12549,5,6,1:2:0:0:
217,123,12700,1,2,2:0:0:0:
305,336,12852,2,0,P|244:322|195:311,1,100,10|0,2:0|2:0,2:0:0:0:
70,222,13155,1,2,1:2:0:0:
228,112,13306,2,0,P|240:53|249:-4,1,100,2|8,2:0|2:0,2:0:0:0:
29,147,13609,5,2,1:2:0:0:
133,278,13761,2,0,P|121:337|112:394,1,100,2|0,2:0|1:0,2:0:0:0:
116,92,14061,1,10,2:0:0:0:
261,261,14211,1,2,2:0:0:0:
324,122,14361,2,0,P|341:75|333:17,1,100,2|0,1:2|2:0,2:0:0:0:
206,207,14661,2,0,P|272:217|336:269,1,150,10|0,2:0|2:0,2:0:0:0:
352,313,14961,5,6,1:2:0:0:
423,104,15111,1,2,2:0:0:0:
206,207,15261,2,0,P|197:138|194:96,1,100,10|0,2:0|2:0,2:0:0:0:
240,339,15561,1,2,1:2:0:0:
102,220,15711,2,0,P|41:200|-3:187,1,100,2|8,2:0|2:0,2:0:0:0:
229,28,16011,5,2,1:2:0:0:
85,124,16161,1,2,2:0:0:0:
306,232,16310,1,2,1:2:0:0:
414,116,16459,2,0,B|432:111|432:111|462:134|521:139,1,100,10|0,2:0|2:0,2:0:0:0:
385,296,16758,1,2,1:2:0:0:
210,121,16907,1,2,1:2:0:0:
210,121,16981,1,0,1:0:0:0:
210,121,17056,2,0,P|233:74|227:24,1,100,14|0,2:0|2:0,2:0:0:0:
102,220,17355,5,6,1:2:0:0:
307,148,17505,1,2,2:0:0:0:
180,363,17655,2,0,P|225:371|289:386,1,100,10|0,2:0|2:0,2:0:0:0:
202,212,17955,1,2,1:2:0:0:
393,86,18105,2,0,P|403:134|407:184,1,100,2|8,2:0|2:0,2:0:0:0:
288,265,18405,5,2,1:2:0:0:
493,370,18555,2,0,P|437:352|364:337,1,100,2|0,2:0|1:0,2:0:0:0:
312,175,18855,1,10,2:0:0:0:
493,62,19005,2,0,P|489:109|488:169,1,100,2|0,2:0|1:0,2:0:0:0:
334,16,19305,1,2,1:2:0:0:
202,212,19455,2,0,P|123:243|44:241,1,150,10|0,2:0|2:0,2:0:0:0:
20,223,19755,5,6,1:2:0:0:
176,330,19905,1,2,2:0:0:0:
252,104,20055,2,0,P|240:53|231:-2,1,100,10|0,2:0|2:0,2:0:0:0:
293,250,20355,1,2,1:2:0:0:
109,119,20505,2,0,P|54:108|-2:99,1,100,2|8,2:0|2:0,2:0:0:0:
313,34,20805,6,0,B|401:15|401:15|443:29|443:29|506:23,1,180,6|0,1:2|2:0,2:0:0:0:
503,57,21105,1,8,2:0:0:0:
373,220,21255,1,8,2:0:0:0:
454,340,21405,1,8,2:0:0:0:
461,143,21555,1,8,2:0:0:0:
247,96,21705,1,8,2:0:0:0:
316,293,21855,1,8,2:0:0:0:
192,232,22005,1,4,2:3:0:0:
70,352,22155,5,6,1:2:0:0:
62,343,22455,2,0,P|48:318|49:280,1,60.0000000000001,0|2,1:0|2:0,2:0:0:0:
156,155,22755,2,0,B|210:120|213:49|135:24|139:107,1,160,2|0,1:2|1:0,2:0:0:0:
140,83,23205,1,2,2:0:0:0:
202,247,23355,5,2,1:2:0:0:
194,257,23655,2,0,P|182:293|180:320,1,60.0000000000001,2|0,1:2|2:0,2:0:0:0:
314,189,23955,2,0,P|310:159|299:131,1,60.0000000000001,2|2,1:2|2:0,2:0:0:0:
272,318,24255,1,8,1:3:0:0:
272,318,24330,1,8,1:3:0:0:
272,318,24405,1,4,1:3:0:0:
503,259,24555,6,0,B|427:238|426:282|331:267,1,160,6|0,1:2|1:0,2:0:0:0:
418,316,25005,1,2,2:0:0:0:
500,175,25155,2,0,P|499:115|464:68,1,120,2|0,1:2|1:0,2:0:0:0:
395,119,25605,1,2,2:0:0:0:
270,37,25755,6,0,P|241:24|201:25,1,60.0000000000001,2|0,1:2|2:0,2:0:0:0:
84,178,26055,2,0,P|113:176|140:163,1,60.0000000000001,2|2,1:2|2:0,2:0:0:0:
254,230,26355,1,8,1:3:0:0:
265,257,26430,1,8,1:3:0:0:
267,287,26505,1,4,1:3:0:0:
257,315,26580,1,4,1:3:0:0:
237,337,26655,2,0,B|185:347|185:347|157:337|157:337|100:350,1,138,8|0,2:0|2:0,2:0:0:0:
16,318,26955,6,0,P|20:278|23:226,1,80,6|0,1:2|2:0,2:0:0:0:
260,150,27255,2,0,P|256:190|253:242,1,80,8|0,2:0|2:0,2:0:0:0:
194,79,27555,1,0,1:0:0:0:
347,139,27705,1,0,1:0:0:0:
167,280,27855,1,8,2:0:0:0:
237,337,28005,6,0,P|282:364|397:358,1,160,0|2,1:0|1:2,2:0:0:0:
413,343,28380,1,0,1:0:0:0:
413,343,28455,1,10,2:0:0:0:
327,227,28605,1,2,2:0:0:0:
451,139,28755,2,0,L|460:93,1,40,2|0,1:2|1:0,2:0:0:0:
340,220,28905,2,0,L|349:266,1,40,2|0,1:2|1:0,2:0:0:0:
494,364,29055,1,10,2:0:0:0:
477,378,29355,6,0,P|432:362|384:355,1,80,6|0,1:2|2:0,2:0:0:0:
168,238,29655,2,0,P|213:254|261:261,1,80,8|0,2:0|2:0,2:0:0:0:
340,220,29955,1,0,1:0:0:0:
259,351,30105,1,0,1:0:0:0:
160,151,30255,1,10,2:0:0:0:
77,311,30405,2,0,P|61:272|59:223,1,80,2|0,1:2|2:0,2:0:0:0:
57,234,30705,5,0,1:0:0:0:
189,53,30855,1,12,2:0:0:0:
260,182,31005,1,0,1:0:0:0:
414,6,31155,1,8,2:0:0:0:
433,41,31230,1,8,2:0:0:0:
442,79,31305,1,8,2:0:0:0:
440,119,31380,1,8,2:0:0:0:
428,157,31455,2,0,P|421:178|419:197,3,40,8|8|4|4,1:3|1:3|1:3|1:3,2:0:0:0:
452,276,31755,6,0,P|407:241|324:241,1,120,6|0,1:2|1:0,2:0:0:0:
345,234,32205,1,2,2:0:0:0:
247,334,32355,1,2,1:2:0:0:
241,346,32655,2,0,P|209:360|177:361,1,60.0000000000001,0|2,1:0|2:0,2:0:0:0:
84,256,32955,6,0,P|31:244|52:137,1,160,2|2,1:2|1:2,2:0:0:0:
84,79,33405,1,2,2:0:0:0:
166,122,33555,1,2,1:2:0:0:
351,25,33705,1,8,2:0:0:0:
333,191,33855,1,8,1:3:0:0:
310,170,33930,1,8,1:3:0:0:
296,144,34005,1,4,1:3:0:0:
291,115,34080,1,4,1:3:0:0:
296,85,34155,6,0,B|323:94|323:94|378:58|448:66,1,138,6|0,1:2|2:0,2:0:0:0:
495,125,34449,2,0,L|484:167,3,40,8|8|8|8,1:2|2:0|2:0|2:0,2:0:0:0:
428,292,34743,2,0,L|417:250,3,40,8|8|8|8,1:2|2:0|2:0|2:0,2:0:0:0:
291,115,35037,2,0,L|280:157,3,40,8|8|8|8,1:2|2:0|2:0|2:0,2:0:0:0:
171,255,35331,5,8,1:2:0:0:
136,261,35407,1,8,2:0:0:0:
102,258,35484,1,8,2:0:0:0:
70,243,35560,1,8,2:0:0:0:
44,220,35637,1,8,1:2:0:0:
27,189,35713,1,8,2:0:0:0:
20,155,35790,1,8,2:0:0:0:
24,120,35866,1,8,2:0:0:0:
39,89,35943,1,12,1:2:0:0:
219,29,36093,1,8,2:0:0:0:
150,223,36243,2,0,L|129:277,1,40,8|8,1:3|1:3,2:0:0:0:
29,79,36393,2,0,L|8:25,1,40,4|4,1:3|1:3,2:0:0:0:
237,178,36543,6,0,B|320:191|366:125|366:125|340:76,1,192,6|8,1:2|2:0,2:0:0:0:
219,29,36997,1,0,2:0:0:0:
78,172,37149,2,0,P|37:182|-12:196,1,80,0|0,1:0|2:0,2:0:0:0:
214,291,37452,1,10,2:0:0:0:
140,110,37603,2,0,P|126:44|120:11,1,80.5386666666667,2|0,2:0|1:0,2:0:0:0:
62,279,37905,5,2,1:2:0:0:
70,286,37980,1,0,1:0:0:0:
70,286,38055,1,10,2:0:0:0:
228,167,38205,1,2,2:0:0:0:
315,305,38355,2,0,L|300:352,1,40,2|0,1:2|1:0,2:0:0:0:
215,181,38505,2,0,L|200:134,1,40,2|0,1:2|1:0,2:0:0:0:
358,66,38655,2,0,P|332:109|324:206,1,120,10|0,2:0|2:0,2:0:0:0:
390,225,38955,6,0,P|440:212|478:206,1,80,6|0,1:2|1:0,2:0:0:0:
250,70,39255,1,10,2:0:0:0:
230,266,39405,2,0,P|224:308|218:349,1,80,2|0,2:0|1:0,2:0:0:0:
125,229,39705,1,0,1:0:0:0:
267,84,39855,2,0,P|321:88|354:92,2,80,10|2|0,2:0|2:0|2:0,2:0:0:0:
183,154,40305,1,0,1:0:0:0:
318,314,40455,2,0,B|349:337|349:337|389:325|403:265,1,120,12|0,2:0|2:0,2:0:0:0:
358,143,40755,6,0,L|343:75,2,53.3333333333333,8|8|8,1:3|1:3|1:3,2:0:0:0:
499,228,41055,2,0,L|484:296,2,53.3333333333333,4|4|4,1:3|1:3|1:3,2:0:0:0:
463,115,41355,5,6,1:2:0:0:
254,197,41655,5,2,1:2:0:0:
224,274,41805,1,0,1:0:0:0:
199,65,41955,2,0,P|206:123|207:136,1,60.0000000000001,10|0,2:0|2:0,2:0:0:0:
84,286,42255,2,0,P|77:228|76:215,1,60.0000000000001,2|0,2:0|2:0,2:0:0:0:
84,8,42555,5,4,1:2:0:0:
286,90,42705,1,0,1:0:0:0:
150,206,42855,2,0,P|120:209|90:213,1,60.0000000000001,2|0,2:0|2:0,2:0:0:0:
305,108,43155,2,0,P|334:111|364:115,2,60.0000000000001,10|2|2,2:0|2:0|2:0,2:0:0:0:
250,335,43755,5,6,1:2:0:0:
196,133,43905,1,0,1:0:0:0:
396,241,44055,2,0,P|356:230|325:221,1,60.0000000000001,2|0,2:0|2:0,2:0:0:0:
81,179,44355,1,10,2:0:0:0:
138,309,44505,1,0,1:0:0:0:
211,147,44655,2,0,P|226:103|222:52,1,90.0000000000002,2|2,2:0|2:0,2:0:0:0:
200,28,44955,5,2,1:2:0:0:
3,106,45105,1,2,1:2:0:0:
73,238,45255,2,0,P|79:201|81:170,1,60.0000000000001,2|0,2:0|2:0,2:0:0:0:
209,342,45555,2,0,B|272:326|300:264|300:264|352:289,1,160,14|8,2:0|1:3,2:0:0:0:
198,234,46005,1,4,1:3:0:0:
274,88,46155,5,6,1:2:0:0:
274,88,46450,1,2,1:2:0:0:
274,88,46746,1,2,1:2:0:0:
274,88,47041,1,2,1:2:0:0:
274,88,47337,1,2,1:2:0:0:
274,88,47641,1,2,1:2:0:0:
274,88,47946,2,0,P|258:152|251:193,1,80,2|0,1:2|2:0,2:0:0:0:
295,250,48250,1,0,1:0:0:0:
163,122,48402,1,2,2:0:0:0:
424,6,48555,6,0,B|432:33|432:33|385:64|383:149,1,144,14|0,2:0|2:0,2:0:0:0:
402,172,48855,1,0,1:0:0:0:
258,345,49005,2,0,B|323:266|323:266|422:300,1,192,12|0,2:0|1:0,2:0:0:0:
197,256,49455,5,8,2:0:0:0:
285,50,49605,1,8,2:0:0:0:
276,36,49905,5,2,2:0:0:0:
185,26,50055,1,2,2:0:0:0:
148,109,50205,1,2,2:0:0:0:
215,170,50355,1,2,2:0:0:0:
294,125,50655,1,2,2:0:0:0:
42,49,50955,6,0,P|54:113|60:153,1,96,6|0,1:2|2:0,2:0:0:0:
249,288,51255,2,0,P|237:224|231:184,1,96,8|0,2:0|2:0,2:0:0:0:
59,252,51555,1,0,1:0:0:0:
167,106,51705,1,0,1:0:0:0:
264,307,51855,1,8,2:0:0:0:
325,171,52005,6,0,B|426:146|416:202|516:189,1,192,0|0,1:0|1:0,2:0:0:0:
366,377,52455,2,0,P|330:335|337:238,1,144,10|0,2:0|2:0,2:0:0:0:
399,212,52755,2,0,P|408:158|387:109,1,96,2|0,1:2|1:0,2:0:0:0:
78,178,53055,2,0,P|145:190|231:227,1,144,10|0,2:0|2:0,2:0:0:0:
267,149,53355,6,0,P|261:104|253:45,1,96,6|0,1:2|2:0,2:0:0:0:
128,266,53655,1,10,2:0:0:0:
26,79,53805,2,0,P|84:91|123:101,1,96,2|0,2:0|1:0,2:0:0:0:
229,314,54105,2,0,P|171:302|132:292,1,96,2|8,1:2|2:0,2:0:0:0:
357,126,54405,6,0,B|398:170|398:170|362:210|351:303,1,192,2|0,1:2|1:0,2:0:0:0:
204,134,54855,2,0,B|150:107|148:35|148:35|190:52,1,144,10|0,2:0|2:0,2:0:0:0:
179,54,55155,2,0,P|114:77|91:103,1,96,2|0,1:2|1:0,2:0:0:0:
90,119,55380,1,0,1:0:0:0:
84,142,55455,2,0,B|136:190|131:243|131:243|98:277,1,144,12|0,2:0|2:0,2:0:0:0:
66,339,55755,6,0,P|31:302|26:249,1,96,6|0,1:2|2:0,2:0:0:0:
302,182,56055,2,0,P|238:200|201:210,1,96,10|0,2:0|2:0,2:0:0:0:
172,133,56355,1,2,1:2:0:0:
299,280,56505,1,2,1:2:0:0:
398,95,56655,2,0,P|401:51|410:-5,1,96,10|0,2:0|2:0,2:0:0:0:
285,82,56955,5,2,1:2:0:0:
468,171,57105,1,2,1:2:0:0:
290,292,57255,2,0,P|245:307|195:325,1,96,10|0,2:0|2:0,2:0:0:0:
352,354,57555,1,2,1:2:0:0:
236,207,57705,1,2,1:2:0:0:
36,377,57855,1,10,2:0:0:0:
48,367,58155,6,0,P|72:319|71:269,1,96,6|0,1:2|2:0,2:0:0:0:
9,106,58455,1,10,2:0:0:0:
245,192,58605,2,0,P|181:180|145:175,1,96,2|0,2:0|1:0,2:0:0:0:
231,376,58905,2,0,P|278:368|325:359,1,96,2|8,2:0|2:0,2:0:0:0:
450,184,59205,6,0,B|465:77|378:57|378:57|346:106,1,192,6|2,1:2|1:2,2:0:0:0:
363,279,59655,2,0,P|439:296|494:308,1,96,10|2,2:0|2:0,2:0:0:0:
291,146,59955,1,10,2:0:0:0:
255,153,60030,1,8,2:0:0:0:
220,160,60105,1,10,2:0:0:0:
185,167,60180,1,8,2:0:0:0:
150,175,60255,1,10,2:0:0:0:
114,182,60330,1,8,2:0:0:0:
79,189,60405,1,8,2:0:0:0:
44,197,60480,1,8,2:0:0:0:
9,204,60555,6,0,P|81:219|109:227,1,96,6|0,1:2|2:0,2:0:0:0:
253,49,60855,2,0,P|181:34|153:26,1,96,8|0,2:0|2:0,2:0:0:0:
234,171,61155,1,0,1:0:0:0:
366,43,61305,1,0,1:0:0:0:
420,230,61455,2,0,P|407:284|399:346,1,96,8|0,2:0|2:0,2:0:0:0:
492,112,61755,2,0,P|440:124|362:142,1,96,0|0,1:0|2:0,2:0:0:0:
194,336,62055,6,0,P|216:290|304:273,1,144,10|0,2:0|2:0,2:0:0:0:
290,288,62355,2,0,P|226:271|187:261,1,96,2|0,1:2|1:0,2:0:0:0:
46,62,62655,2,0,B|33:126|80:171|80:171|112:148,1,144,10|0,2:0|2:0,2:0:0:0:
158,76,62955,6,0,B|226:54|226:54|267:65|267:65|366:38,1,192,2|10,1:2|2:0,2:0:0:0:
183,247,63405,2,0,P|167:318|164:347,1,96,2|0,2:0|1:0,2:0:0:0:
397,249,63705,2,0,P|413:178|416:149,1,96,2|8,1:2|2:0,2:0:0:0:
288,356,64005,6,0,P|349:308|475:313,1,191.359994140625,2|0,1:2|1:0,2:0:0:0:
271,176,64452,2,0,B|204:137|163:144|163:144|134:173,1,144,10|0,2:0|2:0,2:0:0:0:
112,200,64750,2,0,P|74:172|56:127,1,96,2|0,1:2|1:0,2:0:0:0:
65,116,64973,1,0,1:0:0:0:
73,104,65048,2,0,B|103:74|139:65|139:65|149:43,1,96,14|0,2:0|2:0,2:0:0:0:
26,249,65346,6,0,P|19:297|15:352,1,96,6|0,1:2|2:0,2:0:0:0:
257,191,65646,2,0,P|264:143|268:88,1,96,10|0,2:0|2:0,2:0:0:0:
180,260,65946,1,2,1:2:0:0:
356,180,66096,1,2,1:2:0:0:
257,384,66246,2,0,P|216:371|159:358,1,96,10|0,2:0|2:0,2:0:0:0:
345,283,66546,5,2,1:2:0:0:
130,182,66697,1,2,1:2:0:0:
371,100,66848,1,10,2:0:0:0:
157,0,66999,1,2,2:0:0:0:
260,243,67150,2,0,P|239:167|231:127,1,96.0000000000001,2|2,1:2|1:2,2:0:0:0:
512,36,67452,2,0,P|445:37|356:80,1,144,10|0,2:0|2:0,2:0:0:0:
438,157,67755,6,0,P|451:213|457:260,1,96,6|0,1:2|2:0,2:0:0:0:
248,365,68055,1,10,2:0:0:0:
464,352,68205,2,0,P|396:336|357:328,1,96,2|0,2:0|1:0,2:0:0:0:
187,230,68505,2,0,P|197:183|208:136,1,96,2|8,1:2|2:0,2:0:0:0:
37,381,68805,6,0,B|15:314|15:314|23:263|23:263|-4:174,1,192,6|0,1:2|1:0,2:0:0:0:
86,18,69255,1,10,2:0:0:0:
120,7,69330,1,8,2:0:0:0:
156,10,69405,1,8,2:0:0:0:
188,24,69480,1,8,2:0:0:0:
213,50,69555,2,0,L|203:105,1,48,10|8,2:0|2:0,2:0:0:0:
337,220,69705,2,0,L|326:165,1,48,8|8,2:0|2:0,2:0:0:0:
447,3,69855,1,14,2:0:0:0:
447,3,70155,6,0,B|478:52|478:52|462:113,1,120,14|0,2:0|1:0,2:0:0:0:
263,265,70455,2,0,B|232:216|232:216|248:155,1,120,8|0,2:0|1:0,2:0:0:0:
479,256,70756,5,10,2:0:0:0:
312,88,70906,1,0,1:0:0:0:
321,348,71057,5,8,2:0:0:0:
456,154,71207,1,0,1:0:0:0:
239,285,71358,6,0,B|136:229|52:238|52:238|25:184,1,240,10|8,2:0|2:0,2:0:0:0:
133,120,71809,1,0,1:0:0:0:
102,323,71959,2,0,B|54:365|54:365|-10:351,1,120,10|0,2:0|1:0,2:0:0:0:
205,179,72260,2,0,B|259:166|259:166|307:208,1,120,8|0,2:0|1:0,2:0:0:0:
509,376,72561,6,0,B|453:349|453:349|440:293|440:293|303:241,1,240,14|8,2:0|2:0,2:0:0:0:
441,167,73013,1,0,1:0:0:0:
257,113,73164,2,0,B|217:65|217:65|228:1,1,120,10|0,2:0|1:0,2:0:0:0:
454,181,73465,2,0,B|494:229|494:229|483:293,1,120,8|0,2:0|1:0,2:0:0:0:
446,311,73691,1,0,1:0:0:0:
446,311,73767,5,10,2:0:0:0:
207,256,73912,1,0,1:0:0:0:
512,82,74058,5,10,2:0:0:0:
273,137,74203,1,0,1:0:0:0:
397,384,74349,5,8,1:3:0:0:
428,351,74422,1,8,1:3:0:0:
446,310,74495,1,4,1:3:0:0:
448,266,74567,1,4,1:3:0:0:
435,223,74640,2,0,B|384:187|384:187|315:213,1,120,12|0,2:0|2:0,2:0:0:0:
61,378,74955,6,0,B|69:337|93:312|93:312|35:263|23:150,1,240,14|0,2:0|2:0,2:0:0:0:
133,26,75405,1,0,1:0:0:0:
133,26,75480,1,0,1:0:0:0:
133,26,75555,2,0,B|121:62|121:62|172:36,1,69.3333333333333,8|0,2:0|2:0,2:0:0:0:
227,109,75755,2,0,B|265:126|265:126|309:117,1,69.3333333333333,8|0,2:0|2:0,2:0:0:0:
395,77,75955,2,0,B|425:68|425:68|412:115,1,69.3333333333333,8|0,2:0|2:0,2:0:0:0:
343,256,76155,6,0,B|321:165|321:165|327:122|327:122|300:15,1,240,14|0,2:0|2:0,2:0:0:0:
301,22,76755,6,0,L|287:77,1,48.0000000000001,2|0,2:0|2:0,2:0:0:0:
63,196,77340,5,6,1:2:0:0:
343,256,77490,1,2,2:0:0:0:
174,384,77641,2,0,P|151:330|144:282,1,100,10|0,2:0|2:0,2:0:0:0:
261,171,77943,5,2,1:2:0:0:
100,354,78093,2,0,P|39:338|-13:332,1,100,2|8,2:0|2:0,2:0:0:0:
61,185,78395,1,2,2:0:0:0:
260,366,78546,2,0,P|255:304|248:242,1,100,2|0,1:2|2:0,2:0:0:0:
144,40,78847,2,0,P|149:102|156:164,1,100,10|0,2:0|2:0,2:0:0:0:
338,225,79149,1,2,1:2:0:0:
338,225,79299,1,2,1:2:0:0:
266,1,79450,2,0,P|249:86|246:117,1,100,10|0,2:0|2:0,2:0:0:0:
441,157,79752,5,6,1:2:0:0:
276,349,79902,2,0,P|350:361|386:369,1,100,2|8,2:0|2:0,2:0:0:0:
334,204,80204,1,2,2:0:0:0:
476,300,80355,1,2,1:2:0:0:
476,300,80505,1,2,2:0:0:0:
244,212,80656,1,10,2:0:0:0:
504,39,80807,6,0,P|458:101|293:105,1,240,6|0,1:2|1:0,2:0:0:0:
305,112,81184,1,0,1:0:0:0:
305,112,81259,1,8,2:0:0:0:
271,80,81333,1,8,2:0:0:0:
228,63,81408,1,8,2:0:0:0:
182,65,81482,1,8,2:0:0:0:
140,84,81557,2,0,L|128:148,1,60,8|8,1:3|1:3,2:0:0:0:
47,258,81706,2,0,L|36:200,1,60,8|8,1:3|1:3,2:0:0:0:
173,266,81856,1,4,1:3:0:0:
169,283,81927,1,4,1:3:0:0:
165,300,81998,1,4,1:3:0:0:
161,317,82070,1,4,1:3:0:0:
157,334,82141,5,6,1:2:0:0:
267,220,82292,1,2,2:0:0:0:
41,99,82444,2,0,P|110:88|147:83,1,100,10|0,2:0|2:0,2:0:0:0:
279,233,82747,1,2,1:2:0:0:
250,0,82898,2,0,P|238:77|232:122,1,100,2|8,2:0|2:0,2:0:0:0:
390,239,83201,5,2,2:0:0:0:
171,347,83353,2,0,P|222:338|280:331,1,100,2|0,1:2|2:0,2:0:0:0:
439,121,83656,2,0,P|388:130|330:137,1,100,10|0,2:0|2:0,2:0:0:0:
173,213,83959,1,2,1:2:0:0:
173,213,84107,1,2,1:2:0:0:
380,369,84255,1,14,2:0:0:0:
310,244,84403,1,0,1:0:0:0:
310,244,84477,1,0,1:0:0:0:
310,244,84551,6,0,L|245:264,1,60,8|0,2:0|2:0,2:0:0:0:
100,373,84696,1,0,1:0:0:0:
71,366,84769,1,0,1:0:0:0:
49,346,84842,1,0,1:0:0:0:
40,318,84915,1,0,1:0:0:0:
47,289,84987,2,0,L|62:230,1,60,8|0,2:0|2:0,2:0:0:0:
131,133,85138,1,0,1:0:0:0:
125,115,85213,1,0,1:0:0:0:
119,97,85289,1,0,1:0:0:0:
113,79,85364,1,0,1:0:0:0:
106,62,85440,6,0,B|172:76|172:76|195:96|195:96|288:117,1,180,12|0,2:0|2:0,2:0:0:0:
394,60,85742,5,12,2:0:0:0:
209,222,85892,1,8,2:0:0:0:
456,299,86042,1,8,2:0:0:0:
371,177,86192,1,8,2:0:0:0:
371,177,86267,1,8,2:0:0:0:
371,177,86342,2,0,L|356:244,1,60,8|8,1:3|1:3,2:0:0:0:
270,367,86492,2,0,L|255:300,1,60,8|8,1:3|1:3,2:0:0:0:
219,137,86642,1,4,1:3:0:0:
219,137,86717,1,4,1:3:0:0:
219,137,86792,1,4,1:3:0:0:
219,137,86867,1,4,1:3:0:0:
219,137,86942,5,8,2:0:0:0:
472,200,87093,2,0,P|470:180|460:197,6,40,8|0|0|0|0|0|0,2:0|2:0|2:0|2:0|2:0|2:0|2:0,2:0:0:0:
500,284,88154,2,0,P|498:304|488:287,6,40,0|0|0|0|0|0|0,2:0|2:0|2:0|2:0|2:0|2:0|2:0,2:0:0:0:
402,308,89196,5,0,1:0:0:0:
402,308,89268,1,0,1:0:0:0:
402,308,89339,2,0,B|351:322|351:322|315:311|315:311|187:347,1,207.895990478516,12|0,2:0|1:0,2:0:0:0:
87,218,89805,2,0,B|9:173|24:87|24:87|90:101,1,208,12|0,2:0|1:0,2:0:0:0:
97,317,90260,1,12,2:0:0:0:
247,241,90411,2,0,L|254:183,1,52,0|0,1:0|1:0,2:0:0:0:
73,7,90563,5,8,1:3:0:0:
52,57,90662,5,8,1:3:0:0:
67,110,90761,5,8,1:3:0:0:
111,142,90861,5,4,1:3:0:0:
166,141,90960,5,4,1:3:0:0:
208,107,91059,5,4,1:3:0:0:
195,100,91159,6,2,L|187:51,1,48,8|0,2:0|2:0,2:0:0:0:
296,355,91755,6,0,B|315:284|315:284|280:221|280:221|314:71,1,288,4|0,1:2|1:0,2:0:0:0:
158,290,92355,2,0,L|59:318,1,96,10|0,2:0|2:0,2:0:0:0:
262,260,92655,1,0,1:0:0:0:
84,187,92805,2,0,L|66:89,1,96,0|2,1:0|2:0,2:0:0:0:
164,273,93105,2,0,B|72:305|104:357|-3:389,1,192,8|0,2:0|1:0,2:0:0:0:
94,198,93555,1,10,2:0:0:0:
220,341,93705,1,0,1:0:0:0:
216,353,94005,1,8,2:0:0:0:
144,121,94155,6,0,B|328:149|328:149|364:174|364:174|441:190,1,288,4|0,1:2|1:0,2:0:0:0:
316,37,94755,1,10,2:0:0:0:
311,48,95055,1,0,1:2:0:0:
420,185,95205,2,0,P|443:137|436:86,1,96,0|2,2:0|2:0,2:0:0:0:
211,207,95505,1,8,2:0:0:0:
327,257,95655,1,0,1:0:0:0:
327,257,95805,1,0,1:0:0:0:
145,265,95955,6,0,P|260:260|325:375,2,240.000009155274,12|8|0,2:0|2:0|1:0,2:0:0:0:
93,359,96753,5,0,1:0:0:0:
8,375,96951,5,0,1:0:0:0:
31,154,97149,6,0,B|301:144|240:266|502:279,1,479.952,4|0,1:2|2:0,2:0:0:0:
486,278,98367,5,8,2:0:0:0:
352,216,98514,1,0,1:0:0:0:
453,64,98661,2,0,P|466:132|458:162,1,80,8|0,2:0|1:0,2:0:0:0:
368,313,98955,6,0,B|333:343|333:343|269:307|185:316,1,180,4|0,1:2|2:0,2:0:0:0:
127,265,99254,2,0,L|110:196,1,60,8|8,2:0|2:0,2:0:0:0:
241,139,99403,2,0,L|224:208,1,60,8|8,2:0|2:0,2:0:0:0:
99,318,99553,1,8,2:0:0:0:
103,280,99628,1,8,2:0:0:0:
107,243,99703,1,8,2:0:0:0:
112,206,99777,1,8,2:0:0:0:
116,169,99852,1,8,2:0:0:0:
120,131,99927,1,8,2:0:0:0:
125,94,100002,1,8,2:0:0:0:
129,57,100077,1,8,2:0:0:0:
133,20,100152,6,0,P|106:16|67:38,3,60,8|8|8|8,1:3|1:3|1:3|1:3,2:0:0:0:
241,139,100441,1,4,1:3:0:0:
273,153,100513,1,4,1:3:0:0:
308,151,100585,1,4,1:3:0:0:
338,134,100658,1,4,1:3:0:0:
358,104,100730,6,0,L|352:78,1,24,8|0,2:0|2:0,2:0:0:0:
222,153,101339,6,0,P|217:197|210:255,1,96,6|2,1:2|2:0,2:0:0:0:
371,73,101645,1,8,2:0:0:0:
126,8,101798,2,0,P|133:100|135:140,1,96,2|0,2:0|1:0,2:0:0:0:
311,183,102104,1,2,2:0:0:0:
120,289,102257,1,8,2:0:0:0:
209,349,102410,2,0,P|264:355|325:366,1,96.0511970703126,2|0,1:2|2:0,2:0:0:0:
137,196,102712,5,2,1:2:0:0:
137,196,102786,1,0,1:0:0:0:
137,196,102861,2,0,P|79:189|21:184,1,96,10|0,2:0|2:0,2:0:0:0:
236,94,103159,1,2,1:2:0:0:
266,112,103233,1,0,1:0:0:0:
300,123,103308,1,2,1:2:0:0:
336,126,103382,1,0,1:0:0:0:
371,120,103457,2,0,P|390:73|379:25,1,96,10|0,2:0|2:0,2:0:0:0:
224,225,103755,6,0,B|250:324|314:268|346:402,1,192,4|8,1:2|2:0,2:0:0:0:
406,274,104205,1,0,2:0:0:0:
241,316,104355,2,0,P|166:332|116:343,1,96,0|0,1:0|1:0,2:0:0:0:
323,208,104655,1,10,2:0:0:0:
165,125,104805,2,0,P|73:123|99:26,1,192,2|0,1:2|1:0,2:0:0:0:
229,302,105255,2,0,B|187:263|129:275|129:275|152:314,1,144,12|0,2:0|2:0,2:0:0:0:
320,367,105555,5,8,1:3:0:0:
338,321,105655,5,8,1:3:0:0:
338,271,105755,5,8,1:3:0:0:
315,228,105855,5,4,1:3:0:0:
287,188,105955,5,4,1:3:0:0:
280,139,106055,5,4,1:3:0:0:
296,94,106155,5,6,1:2:0:0:
354,331,106305,1,0,1:0:0:0:
434,243,106455,2,0,L|419:184,1,60.0000000000001,2|0,2:0|1:0,2:0:0:0:
172,233,106755,1,10,2:0:0:0:
172,233,107055,1,2,2:0:0:0:
172,233,107355,5,2,1:2:0:0:
12,264,107505,1,8,2:0:0:0:
88,270,107655,2,0,L|22:283,1,60.0000000000001,2|0,2:0|1:0,2:0:0:0:
251,120,107955,2,0,P|298:138|289:46,1,180,10|0,2:0|2:0,2:0:0:0:
169,150,108555,5,6,1:2:0:0:
227,350,108705,2,0,L|163:341,1,60.0000000000001,0|2,1:0|2:0,2:0:0:0:
302,311,109005,1,0,1:0:0:0:
32,251,109155,2,0,L|165:235,1,120,10|2,2:0|2:0,2:0:0:0:
151,236,109755,5,2,1:2:0:0:
250,132,109905,1,2,2:0:0:0:
322,328,110055,1,2,2:0:0:0:
322,328,110355,2,0,L|241:346,1,60.0000000000001,10|0,2:0|1:0,2:0:0:0:
387,251,110655,2,0,P|397:208|442:170,1,90.0000000000002,4|0,1:3|2:0,2:0:0:0:
490,121,110955,6,0,B|404:107|411:154|303:132,2,160,6|2|2,1:2|1:2|1:2,2:0:0:0:
406,81,111705,1,0,2:0:0:0:
268,194,111855,2,0,P|286:241|291:289,1,80,2|0,1:2|2:0,2:0:0:0:
71,153,112155,6,0,B|92:82|151:119|172:29,2,160,2|2|2,1:2|1:2|1:2,2:0:0:0:
48,32,112905,1,0,2:0:0:0:
256,57,113055,1,0,1:0:0:0:
114,227,113205,1,2,2:0:0:0:
305,358,113355,6,0,B|363:341|363:341|386:289|386:289|462:264,1,192,12|0,2:0|1:0,2:0:0:0:
207,172,113805,2,0,B|164:145|150:78|197:55|197:55|265:87,1,192,12|0,2:0|1:0,2:0:0:0:
177,340,114255,1,12,2:0:0:0:
390,190,114405,1,8,2:0:0:0:
379,203,114705,6,0,L|363:143,2,48,10|8|10,2:0|2:0|2:0,2:0:0:0:
427,380,115005,1,2,1:2:0:0:
254,320,115155,1,10,2:0:0:0:
255,278,115230,1,8,2:0:0:0:
269,238,115305,1,8,2:0:0:0:
295,205,115380,1,8,2:0:0:0:
322,173,115455,1,10,2:0:0:0:
344,138,115530,1,8,2:0:0:0:
358,98,115605,1,8,2:0:0:0:
365,57,115680,1,8,2:0:0:0:
368,15,115755,6,0,B|340:35|340:35|273:7|210:8,1,144,6|0,1:2|2:0,2:0:0:0:
163,64,116055,1,8,2:0:0:0:
310,181,116205,2,0,P|254:192|198:205,1,96,0|0,1:0|2:0,2:0:0:0:
80,104,116505,1,0,1:0:0:0:
9,318,116655,1,8,2:0:0:0:
123,243,116805,5,0,2:0:0:0:
123,243,116880,1,0,2:0:0:0:
123,243,116955,2,0,P|59:231|1:223,1,96,0|0,1:0|1:0,2:0:0:0:
233,336,117255,2,0,P|297:348|355:356,1,96,10|0,2:0|2:0,2:0:0:0:
199,173,117555,1,2,1:2:0:0:
104,336,117705,1,0,1:0:0:0:
302,252,117855,2,0,B|347:214|337:162|337:162|299:140,1,144,10|0,2:0|2:0,2:0:0:0:
263,106,118155,6,0,B|236:66|236:66|251:18,1,96,2|0,1:2|1:0,2:0:0:0:
447,110,118452,1,10,2:0:0:0:
394,182,118600,2,0,P|479:158|470:252,1,192,2|2,1:2|1:2,2:0:0:0:
356,64,119046,1,8,2:0:0:0:
231,205,119194,6,0,B|154:230|154:230|129:276|129:276|56:302,1,192,2|0,1:2|1:0,2:0:0:0:
111,112,119640,2,0,P|95:50|87:11,1,96,10|0,2:0|2:0,2:0:0:0:
229,92,119937,1,2,1:2:0:0:
36,233,120085,1,0,1:0:0:0:
36,233,120159,1,0,1:0:0:0:
36,233,120234,2,0,B|145:269|145:269|181:256,1,144,12|0,2:0|2:0,2:0:0:0:
242,177,120531,5,4,1:2:0:0:
278,312,120682,1,2,2:0:0:0:
108,214,120834,1,10,2:0:0:0:
144,348,120985,1,2,2:0:0:0:
324,222,121137,5,2,1:2:0:0:
156,140,121288,1,2,1:2:0:0:
297,14,121440,1,10,2:0:0:0:
297,14,121743,6,0,P|377:6|411:2,1,96,2|0,1:2|2:0,2:0:0:0:
146,158,122046,2,0,P|66:166|32:170,1,96,10|0,2:0|2:0,2:0:0:0:
176,33,122349,1,2,1:2:0:0:
269,152,122500,1,0,1:0:0:0:
111,282,122652,2,0,P|45:263|-9:252,1,96,10|0,2:0|2:0,2:0:0:0:
198,352,122955,6,0,B|245:286|340:301|340:301|327:333,1,192,2|10,1:2|2:0,2:0:0:0:
179,209,123405,2,0,P|174:143|175:102,1,96,2|0,2:0|1:0,2:0:0:0:
414,157,123705,2,0,P|419:223|418:264,1,96,2|8,1:2|2:0,2:0:0:0:
108,37,124005,6,0,B|178:21|178:21|229:40|229:40|296:24,1,192,6|2,1:2|1:2,2:0:0:0:
179,209,124455,2,0,P|92:187|59:181,1,96,10|0,2:0|2:0,2:0:0:0:
300,134,124755,1,10,2:0:0:0:
300,134,124830,1,8,2:0:0:0:
300,134,124905,2,0,L|310:191,1,48,2|0,1:2|1:0,2:0:0:0:
255,344,125055,1,10,2:0:0:0:
220,354,125130,1,8,2:0:0:0:
185,350,125205,1,8,2:0:0:0:
154,332,125280,1,8,2:0:0:0:
133,303,125355,6,0,P|84:311|36:322,1,96,6|0,1:2|2:0,2:0:0:0:
308,181,125655,2,0,P|357:173|405:162,1,96,8|0,2:0|2:0,2:0:0:0:
221,259,125955,1,0,1:0:0:0:
309,65,126105,1,0,1:0:0:0:
65,29,126255,1,8,2:0:0:0:
4,94,126405,6,0,B|106:53|101:120|197:89,1,192,4|0,1:2|1:0,2:0:0:0:
402,162,126855,2,0,P|409:108|417:55,1,96,10|0,2:0|2:0,2:0:0:0:
287,220,127155,1,2,1:2:0:0:
500,180,127305,1,0,1:0:0:0:
364,375,127455,2,0,P|306:361|252:352,1,96,10|0,2:0|2:0,2:0:0:0:
276,126,127755,6,0,P|351:151|371:260,1,192,2|10,1:2|2:0,2:0:0:0:
270,354,128205,1,2,1:2:0:0:
270,354,128280,1,0,1:0:0:0:
270,354,128355,1,0,1:0:0:0:
118,238,128505,2,0,P|126:177|132:134,1,96,2|8,1:2|2:0,2:0:0:0:
322,26,128805,6,0,B|371:6|421:22|405:51|453:82|504:62,1,192,2|0,1:2|1:0,2:0:0:0:
333,224,129255,2,0,P|284:212|212:201,1,96,10|0,2:0|2:0,2:0:0:0:
163,52,129555,1,8,1:3:0:0:
163,52,129630,1,8,1:3:0:0:
163,52,129705,2,0,L|218:64,1,48,4|4,1:3|1:3,2:0:0:0:
457,186,129855,6,0,P|381:210|355:330,1,192,12|6,2:0|1:2,2:0:0:0:
348,309,130455,1,10,2:0:0:0:
511,361,130605,1,2,2:0:0:0:
335,327,130755,2,0,P|282:339|233:356,1,96,2|0,1:2|1:0,2:0:0:0:
442,300,131055,2,0,P|456:254|467:207,1,96,10|0,2:0|2:0,2:0:0:0:
346,72,131355,5,2,1:2:0:0:
289,172,131505,1,2,2:0:0:0:
193,108,131655,1,10,2:0:0:0:
132,205,131805,1,2,2:0:0:0:
138,216,131955,2,0,P|231:238|259:247,1,96,2|0,1:2|1:0,2:0:0:0:
125,45,132255,2,0,P|78:57|31:67,1,96,10|0,2:0|2:0,2:0:0:0:
288,171,132555,6,0,P|308:261|246:330,1,192,2|8,1:2|2:0,2:0:0:0:
55,260,133005,1,2,1:2:0:0:
55,260,133080,1,0,1:0:0:0:
55,260,133155,1,0,1:0:0:0:
192,110,133305,1,2,1:2:0:0:
246,329,133455,1,8,2:0:0:0:
6,137,133605,6,0,B|30:143|30:143|91:104|198:110,1,192,6|0,1:2|1:0,2:0:0:0:
362,169,134055,1,8,2:0:0:0:
389,146,134130,1,8,2:0:0:0:
404,113,134205,1,8,2:0:0:0:
403,78,134280,1,8,2:0:0:0:
387,46,134355,2,0,L|336:59,1,48,8|8,1:3|1:3,2:0:0:0:
237,121,134505,2,0,L|186:108,1,48,4|4,1:3|1:3,2:0:0:0:
0,59,134655,1,12,2:0:0:0:
0,59,134955,6,0,B|53:30|53:30|112:46,1,120,14|0,2:0|1:0,2:0:0:0:
134,225,135255,2,0,B|81:254|81:254|22:238,1,120,8|0,2:0|1:0,2:0:0:0:
190,109,135555,5,10,2:0:0:0:
230,295,135705,1,0,1:0:0:0:
65,141,135855,5,8,2:0:0:0:
24,352,136005,1,0,1:0:0:0:
250,207,136155,6,0,B|296:180|336:202|332:218|362:243|421:221,1,180,10|0,2:0|2:0,2:0:0:0:
419,221,136455,2,0,B|450:168|450:168|422:111,1,120,8|0,2:0|1:0,2:0:0:0:
186,1,136755,5,10,2:0:0:0:
332,164,136905,1,0,1:0:0:0:
402,20,137055,5,8,2:0:0:0:
238,89,137205,1,0,1:0:0:0:
238,89,137280,1,0,1:0:0:0:
238,89,137355,6,0,B|163:76|163:76|146:15|146:15|28:-3,1,240,14|8,2:0|2:0,2:0:0:0:
4,193,137805,1,0,1:0:0:0:
250,222,137955,5,10,2:0:0:0:
64,96,138105,1,0,1:0:0:0:
4,314,138255,5,8,2:0:0:0:
161,124,138405,1,0,1:0:0:0:
278,323,138555,6,0,B|334:334|334:334|394:283,1,120,10|0,2:0|1:0,2:0:0:0:
481,161,138855,2,0,B|433:120|433:120|377:131,1,120,8|0,2:0|1:0,2:0:0:0:
238,233,139155,5,10,2:0:0:0:
349,371,139305,1,0,1:0:0:0:
481,161,139455,1,12,2:0:0:0:
481,161,139755,6,0,P|471:201|461:261,1,96,6|0,1:2|1:0,2:0:0:0:
291,102,140055,1,10,2:0:0:0:
408,36,140205,1,0,1:0:0:0:
330,227,140355,2,0,B|229:251|240:174|134:207,1,192,2|10,1:2|2:0,2:0:0:0:
37,99,140805,1,0,1:0:0:0:
37,99,140880,1,0,1:0:0:0:
37,99,140955,6,0,L|101:84,1,48,14|0,2:0|2:0,2:0:0:0:
196,41,141105,2,0,L|132:26,1,48,0|0,1:0|2:0,2:0:0:0:
6,186,141255,1,14,2:0:0:0:
6,186,141555,5,8,2:0:0:0:
71,191,141657,5,8,2:0:0:0:
135,173,141759,5,8,2:0:0:0:
196,147,141861,5,8,2:0:0:0:
257,120,141966,5,8,2:0:0:0:
323,110,142071,5,8,2:0:0:0:
390,117,142176,6,0,B|459:166|421:225|376:248|282:216|349:119|277:74|185:103|170:127,1,360.000013732911,6|0,1:2|1:0,2:0:0:0:
182,116,142683,1,0,1:0:0:0:
182,116,142755,1,8,2:0:0:0:
171,250,142905,1,0,2:0:0:0:
289,187,143055,1,0,1:0:0:0:
87,68,143205,1,0,1:0:0:0:
87,68,143505,5,2,1:2:0:0:
92,85,143580,1,2,2:0:0:0:
97,102,143655,1,2,1:2:0:0:
119,185,143805,1,2,2:0:0:0:
164,22,143955,1,10,2:0:0:0:
0,134,144105,2,0,B|166:87|155:207|305:176,1,312,2|4,1:2|1:2,2:0:0:0:
219,302,144705,6,0,P|163:320|107:350,1,104,0|0,1:0|2:0,2:0:0:0:
320,271,145005,1,0,1:0:0:0:
320,271,145080,1,0,1:0:0:0:
320,271,145155,2,0,P|368:254|391:201,1,104,8|0,2:0|2:0,2:0:0:0:
219,145,145455,1,2,1:2:0:0:
241,295,145605,1,0,1:0:0:0:
303,97,145755,5,2,2:0:0:0:
134,178,145905,1,0,1:0:0:0:
134,178,145980,1,0,1:0:0:0:
134,178,146055,2,0,P|141:262|142:297,1,104,2|0,1:2|2:0,2:0:0:0:
331,356,146355,1,10,2:0:0:0:
323,212,146505,2,0,P|243:211|121:322,1,208,0|0,1:0|2:0,2:0:0:0:
411,118,146955,5,6,1:2:0:0:
312,221,147103,2,0,P|237:210|170:147,1,160,0|0,1:0|1:0,2:0:0:0:
184,148,147476,1,0,1:0:0:0:
193,140,147550,2,0,P|203:93|195:47,1,80,8|0,2:0|2:0,2:0:0:0:
75,198,147848,5,2,1:2:0:0:
285,330,147997,2,0,P|203:341|117:397,1,160,0|0,1:0|1:0,2:0:0:0:
58,344,148443,2,0,P|34:307|37:258,1,80,0|0,1:0|2:0,2:0:0:0:
249,163,148741,1,8,2:0:0:0:
180,214,148890,2,0,B|129:228|87:194|103:170|53:142|0:163,1,192,0|0,1:0|2:0,2:0:0:0:
226,77,149337,5,4,1:2:0:0:
145,300,149489,1,0,1:0:0:0:
145,300,149565,1,0,2:0:0:0:
145,300,149641,1,0,2:0:0:0:
80,134,149793,5,0,1:0:0:0:
121,146,149869,1,0,1:0:0:0:
162,158,149946,1,8,2:0:0:0:
224,222,150146,5,0,1:0:0:0:
313,142,150346,5,0,1:0:0:0:
428,105,150546,5,0,1:0:0:0:
507,194,150746,5,0,1:0:0:0:
457,263,150946,5,0,1:0:0:0:
302,124,151146,6,0,B|276:139|276:139|294:197,1,64,12|0,2:0|2:0,2:0:0:0:
502,73,151349,6,8,B|502:42|502:42|442:29,1,64,12|8,2:0|2:0,2:0:0:0:
407,272,151552,6,0,B|432:287|432:287|474:242,1,64,4|0,2:0|2:0,2:0:0:0:
375,47,151755,5,6,1:2:0:0:
304,261,151903,1,0,1:0:0:0:
304,261,152200,2,0,L|312:313,2,48,2|0|10,1:2|1:2|2:0,2:0:0:0:
283,103,152497,1,2,2:0:0:0:
168,199,152646,5,2,1:2:0:0:
393,337,152794,2,0,P|272:345|211:390,1,192,2|0,1:2|1:0,2:0:0:0:
59,286,153240,1,2,1:2:0:0:
59,286,153314,1,0,2:0:0:0:
59,286,153388,1,0,2:0:0:0:
298,384,153537,2,0,P|253:370|197:364,1,96,10|0,2:0|2:0,2:0:0:0:
148,292,153840,2,0,P|153:244|167:198,1,96,2|0,2:0|2:0,2:0:0:0:
11,10,154143,5,6,1:2:0:0:
2,95,154294,2,0,B|14:117|41:130|41:130|53:90|96:70|96:70|141:83|141:83|202:51,1,224,2|0,2:0|1:0,2:0:0:0:
180,53,154673,1,0,1:0:0:0:
183,42,154749,1,8,2:0:0:0:
102,108,154900,1,0,2:0:0:0:
307,163,155052,2,0,P|328:128|316:65,1,96,2|0,1:2|2:0,2:0:0:0:
189,228,155355,5,6,1:2:0:0:
190,237,155428,1,0,1:0:0:0:
192,246,155502,1,0,1:0:0:0:
194,255,155576,1,0,1:0:0:0:
196,264,155650,1,0,1:0:0:0:
307,163,155797,1,2,2:0:0:0:
73,294,155945,2,0,P|183:288|282:338,1,224,10|2,2:0|2:0,2:0:0:0:
203,137,156388,2,0,L|146:147,1,56,2|0,2:0|2:0,2:0:0:0:
8,169,156535,5,4,1:2:0:0:
323,243,156687,2,0,B|376:187|325:128|325:128|319:130|319:130|282:104|278:64|278:64|301:38,1,240,2|2,1:2|1:2,2:0:0:0:
304,38,157069,1,2,2:0:0:0:
313,31,157145,1,10,2:0:0:0:
364,27,157221,1,2,2:0:0:0:
411,50,157297,1,2,2:0:0:0:
456,76,157374,1,2,2:0:0:0:
508,74,157450,2,0,P|486:64|461:62,1,48,2|2,1:2|2:0,2:0:0:0:
343,143,157603,2,0,P|366:140|388:130,1,48,2|2,1:2|2:0,2:0:0:0:
478,179,157755,5,2,2:0:0:0:
497,233,157853,5,2,2:0:0:0:
497,290,157952,5,2,2:0:0:0:
476,343,158050,6,0,P|453:332|403:328,2,64,2|2|2,2:0|2:0|2:0,2:0:0:0:
353,255,158346,1,10,2:0:0:0:
300,262,158444,1,2,2:0:0:0:
249,278,158543,1,2,2:0:0:0:
206,309,158641,1,10,2:0:0:0:
162,339,158740,1,2,2:0:0:0:
111,355,158838,1,2,2:0:0:0:
59,364,158937,5,12,2:0:0:0:
234,172,159090,1,8,2:0:0:0:
10,105,159243,1,0,1:0:0:0:
10,105,159319,1,0,1:0:0:0:
10,105,159396,1,8,2:0:0:0:
285,16,159549,1,8,2:0:0:0:
249,278,159702,1,0,1:0:0:0:
249,278,159778,1,0,1:0:0:0:
249,278,159855,1,8,2:0:0:0:
71,22,160008,1,8,2:0:0:0:
365,107,160161,1,0,1:0:0:0:
365,107,160236,1,0,1:0:0:0:
365,107,160312,2,0,P|341:109|309:117,1,48,8|0,2:0|2:0,2:0:0:0:
105,194,160464,2,0,P|128:199|152:201,1,48,8|0,2:0|2:0,2:0:0:0:
411,322,160615,5,8,1:3:0:0:
411,322,160691,2,0,P|330:325|249:384,1,143.999995605469,8|4,1:3|1:3,2:0:0:0:
106,290,161062,2,0,P|73:282|35:284,2,64,4|4|4,1:3|1:3|1:3,2:0:0:0:
240,204,161358,6,0,B|226:116|177:144|165:62,1,160,6|2,1:2|1:2,2:0:0:0:
225,12,161808,1,2,2:0:0:0:
220,232,161958,2,0,B|216:298|141:283|136:373,1,160,10|2,2:0|2:0,2:0:0:0:
136,362,162558,6,0,P|96:357|51:361,1,80,2|0,2:0|1:0,2:0:0:0:
293,311,162858,2,0,P|333:316|378:312,1,80,2|0,1:2|2:0,2:0:0:0:
106,196,163158,1,10,2:0:0:0:
306,145,163308,1,0,1:0:0:0:
196,82,163458,1,2,2:0:0:0:
26,231,163683,5,8,2:0:0:0:
26,231,163758,2,0,B|96:206|120:276|203:247,1,160,10|2,2:0|2:0,2:0:0:0:
250,213,164208,1,2,1:2:0:0:
501,304,164358,2,0,B|432:328|409:260|328:288,1,160,10|2,2:0|1:2,2:0:0:0:
216,330,164808,1,0,1:0:0:0:
328,368,164958,5,2,1:2:0:0:
173,175,165108,2,0,B|156:99|231:105|205:5,1,160,8|0,2:0|1:0,2:0:0:0:
213,27,165558,5,8,2:0:0:0:
90,85,165708,1,0,1:0:0:0:
143,257,165858,1,8,2:3:0:0:
143,257,166158,6,0,P|98:249|48:244,1,80,6|0,1:2|2:0,2:0:0:0:
343,200,166458,2,0,P|388:208|438:213,1,80,2|0,1:2|1:0,2:0:0:0:
220,117,166758,1,10,2:0:0:0:
249,322,166908,1,2,2:0:0:0:
477,291,167058,1,2,1:2:0:0:
477,291,167358,5,2,1:2:0:0:
413,350,167508,1,0,1:0:0:0:
282,240,167658,2,0,P|293:197|306:154,1,80,2|0,1:2|2:0,2:0:0:0:
71,368,167958,2,0,P|64:303|38:200,1,160,10|2,2:0|2:0,2:0:0:0:
104,122,168408,5,8,2:0:0:0:
104,122,168483,1,8,2:0:0:0:
104,122,168558,1,14,1:2:0:0:
350,69,168708,2,0,P|280:65|205:5,1,160,8|0,2:0|1:0,2:0:0:0:
231,174,169158,2,0,P|240:135|262:95,1,80,10|0,2:0|2:0,2:0:0:0:
105,22,169458,2,0,P|66:30|30:49,1,80,2|0,1:2|2:0,2:0:0:0:
104,122,169758,5,2,1:2:0:0:
104,122,169904,1,0,1:0:0:0:
42,312,170050,2,0,P|34:257|28:223,1,80,8|0,2:0|2:0,2:0:0:0:
221,281,170343,5,8,1:3:0:0:
221,281,170416,1,8,1:3:0:0:
221,281,170489,1,4,1:3:0:0:
221,281,170562,1,4,1:3:0:0:
221,281,170636,2,0,P|173:268|122:252,1,80,12|0,2:0|2:0,2:0:0:0:
324,158,170950,6,0,B|402:137|404:186|487:169,2,160,6|2|2,1:2|1:2|1:2,2:0:0:0:
407,122,171702,1,2,2:0:0:0:
502,261,171853,2,0,P|490:311|483:348,1,80,10|0,2:0|2:0,2:0:0:0:
484,339,172154,6,0,B|411:320|409:361|321:347,2,160,2|2|2,1:2|1:2|1:2,2:0:0:0:
402,300,172907,1,2,2:0:0:0:
228,349,173057,1,2,1:2:0:0:
285,173,173208,1,10,2:0:0:0:
285,173,173283,1,8,2:0:0:0:
285,173,173359,6,0,P|351:183|372:187,1,80,6|0,1:2|2:0,2:0:0:0:
110,231,173659,2,0,P|44:221|23:217,1,80,2|0,1:2|2:0,2:0:0:0:
239,24,173959,2,0,B|254:103|179:94|184:175,1,160,2|2,1:2|1:2,2:0:0:0:
284,275,174409,1,2,2:0:0:0:
84,334,174559,5,2,1:2:0:0:
285,173,174709,1,8,2:0:0:0:
71,54,174859,2,0,P|76:104|80:148,1,80,0|0,1:0|2:0,2:0:0:0:
198,331,175159,2,0,P|193:281|189:237,1,80,8|0,2:0|2:0,2:0:0:0:
152,216,175384,1,8,2:0:0:0:
152,216,175459,2,0,L|158:167,1,40,10|0,2:0|2:0,2:0:0:0:
295,51,175610,2,0,L|301:100,1,40,8|0,2:0|2:0,2:0:0:0:
381,291,175762,6,0,P|451:295|498:219,1,156,6|0,1:2|2:0,2:0:0:0:
440,165,176061,6,0,B|380:142|359:166|364:178|329:207|284:190,1,168,6|0,1:2|2:0,2:0:0:0:
228,130,176360,6,0,B|185:67|201:-3|275:9|285:45|275:58,1,180,14|0,2:0|2:0,2:0:0:0:
276,54,176659,6,0,L|179:31,1,90.0000000000002,2|0,1:2|2:0,2:0:0:0:
118,75,176958,6,0,B|133:165|49:144|70:239,1,180,6|0,1:2|2:0,2:0:0:0:
253,384,177258,2,0,B|268:294|184:315|205:220,1,180,14|0,2:0|2:0,2:0:0:0:
64,153,177557,5,8,1:3:0:0:
64,153,177632,1,8,1:3:0:0:
64,153,177706,1,8,1:3:0:0:
64,153,177781,1,8,1:3:0:0:
64,153,177856,2,0,L|138:167,3,60,4|4|4|4,1:3|1:3|1:3|1:3,2:0:0:0:
227,180,178155,5,14,2:0:0:0:
65,44,178305,1,0,1:0:0:0:
32,256,178455,1,0,1:0:0:0:
225,78,178605,5,12,2:0:0:0:
49,243,178755,1,0,1:0:0:0:
271,319,178905,1,0,1:0:0:0:
64,153,179055,5,12,2:0:0:0:
356,90,179205,1,8,2:0:0:0:
356,90,179280,1,8,2:0:0:0:
356,90,179355,2,0,L|345:157,1,60,8|0,2:0|2:0,2:0:0:0:
203,234,179503,2,0,L|192:167,1,60,8|0,1:3|2:0,2:0:0:0:
302,11,179652,5,4,1:3:0:0:
302,11,179800,1,4,1:3:0:0:
291,215,179949,1,4,1:3:0:0:
291,215,180098,1,4,1:3:0:0:
340,293,180246,1,4,1:3:0:0:
340,293,180395,1,4,1:3:0:0:
290,377,180544,5,4,2:0:0:0:
474,346,185343,6,0,B|400:363|383:317|309:339,1,160,4|0,1:2|2:0,2:0:0:0:
247,286,185798,2,0,P|251:244|255:220,2,60.0000000000001,0|0|0,3:0|2:0|2:0,2:0:0:0:
379,211,186254,2,0,P|308:211|212:151,1,179.625006866455,0|0,3:0|3:0,2:0:0:0:
282,100,186859,1,0,2:0:0:0:
110,51,187010,1,0,2:0:0:0:
170,227,187161,1,0,3:0:0:0:
170,227,187613,2,0,L|178:185,1,30.0000000000001,0|0,1:0|2:0,2:0:0:0:
24,2,187764,6,0,P|66:44|71:153,1,160,0|0,1:0|2:0,2:0:0:0:
6,222,188210,2,0,P|11:186|84:140,1,120,0|0,3:0|2:0,2:0:0:0:
144,76,188657,1,2,2:0:0:0:
279,117,188806,1,0,2:0:0:0:
506,21,188955,5,4,1:2:0:0:
462,8,189030,1,8,1:3:0:0:
418,12,189105,1,8,1:3:0:0:
377,31,189180,1,8,1:3:0:0:
346,63,189255,2,0,L|361:122,1,40,4|4,1:3|1:3,2:0:0:0:
471,149,189405,2,0,L|456:207,1,40,4|4,1:3|1:3,2:0:0:0:
404,246,189555,1,0,1:0:0:0:
407,257,189630,1,0,1:0:0:0:
410,268,189705,1,0,1:0:0:0:
413,279,189780,1,0,1:0:0:0:
417,290,189855,2,0,P|456:298|521:314,1,96,12|0,2:0|2:0,2:0:0:0:
300,179,190155,5,12,2:0:0:0:
282,263,190306,1,0,1:0:0:0:
114,233,190458,1,0,1:0:0:0:
297,384,190609,6,0,L|313:326,1,48,12|0,2:0|1:0,2:0:0:0:
99,250,190761,2,0,L|115:308,1,48,0|0,1:0|1:0,2:0:0:0:
131,374,190912,1,0,1:0:0:0:
218,185,191064,5,12,2:0:0:0:
13,145,191215,1,0,1:0:0:0:
30,52,191367,1,0,1:0:0:0:
230,197,191516,2,0,B|289:182|289:182|315:126|315:126|389:110,1,192,14|0,2:0|1:0,2:0:0:0:
153,129,191964,5,12,2:0:0:0:
383,206,192113,1,0,1:0:0:0:
120,250,192262,5,12,2:0:0:0:
297,102,192411,1,0,1:0:0:0:
254,301,192561,5,12,2:0:0:0:
217,57,192711,1,0,1:0:0:0:
72,80,192861,1,0,1:0:0:0:
278,295,193011,6,0,B|319:316|319:316|389:270|361:190,1,192,12|0,2:0|1:0,2:0:0:0:
179,140,193461,5,12,2:0:0:0:
387,56,193611,1,0,1:0:0:0:
429,141,193761,1,0,1:0:0:0:
216,216,193911,2,0,B|152:191|152:191|133:129|133:129|72:112,1,192,12|0,2:0|1:0,2:0:0:0:
286,12,194361,1,12,2:0:0:0:
286,12,194661,2,0,L|280:55,1,32,4|0,1:3|2:0,2:0:0:0:
206,56,194811,2,0,L|212:99,1,32,4|0,1:3|2:0,2:0:0:0:
302,242,194961,5,12,1:2:0:0:
304,251,195036,1,8,1:3:0:0:
306,260,195111,1,8,1:3:0:0:
308,269,195186,1,8,1:3:0:0:
310,278,195261,2,0,L|317:320,1,32,8|0,1:3|1:0,2:0:0:0:
501,197,195411,5,12,1:2:0:0:
479,174,195486,1,8,1:3:0:0:
450,160,195561,1,8,1:3:0:0:
418,159,195636,1,8,1:3:0:0:
388,169,195711,2,0,P|375:175|354:176,1,32,8|4,1:3|1:3,2:0:0:0:
210,87,195861,5,12,2:0:0:0:
210,87,196161,5,6,1:2:0:0:
385,21,196311,1,8,2:0:0:0:
385,21,196386,1,8,2:0:0:0:
385,21,196461,1,8,2:0:0:0:
270,187,196611,2,0,L|229:178,2,32,0|0|8,1:0|1:0|2:0,1:0:0:0:
452,220,196911,1,0,1:0:0:0:
452,220,196986,1,0,1:0:0:0:
452,220,197061,1,4,1:3:0:0:
462,250,197136,1,4,1:3:0:0:
463,281,197211,1,4,1:3:0:0:
454,312,197286,1,4,1:3:0:0:
437,338,197361,5,12,2:0:0:0:
216,287,197508,1,8,2:0:0:0:
206,300,197804,5,8,2:0:0:0:
413,115,197952,1,8,2:0:0:0:
406,102,198247,5,0,1:0:0:0:
108,161,198395,2,0,B|61:148|88:103|169:105|187:182,1,160,8|2,2:0|2:0,2:0:0:0:
238,245,198838,1,2,2:0:0:0:
324,215,198986,1,2,2:0:0:0:
323,125,199134,1,2,2:0:0:0:
236,98,199441,1,2,2:0:0:0:
42,297,199749,6,0,B|107:277|113:325|193:311,1,144,6|0,1:2|2:0,2:0:0:0:
238,245,200049,2,0,P|305:254|348:265,1,96,8|0,2:0|2:0,2:0:0:0:
157,181,200349,1,0,1:0:0:0:
345,126,200499,1,0,1:0:0:0:
115,45,200649,1,8,2:0:0:0:
255,229,200799,6,0,B|279:129|209:138|234:33,1,192,0|0,1:0|1:0,2:0:0:0:
50,162,201249,2,0,P|56:216|57:259,1,96,10|0,2:0|2:0,2:0:0:0:
241,149,201549,1,2,1:2:0:0:
136,64,201699,1,0,1:0:0:0:
346,21,201849,1,10,2:0:0:0:
358,31,202149,5,2,1:2:0:0:
241,149,202299,1,0,1:0:0:0:
451,203,202449,1,10,2:0:0:0:
364,262,202599,2,0,P|350:211|350:159,1,96,2|0,2:0|1:0,2:0:0:0:
494,310,202899,1,2,2:0:0:0:
494,310,202974,1,2,2:0:0:0:
494,310,203049,1,10,2:0:0:0:
302,351,203199,6,0,B|244:287|171:313|171:313|169:344|216:359,1,192,2|0,1:2|1:0,2:0:0:0:
364,262,203649,2,0,P|325:247|266:215,1,96,10|0,2:0|2:0,2:0:0:0:
147,103,203949,1,2,1:2:0:0:
9,292,204099,1,0,1:0:0:0:
9,292,204174,1,0,1:0:0:0:
9,292,204249,2,0,B|66:256|102:265|102:265|131:248|135:227,1,144,12|0,2:0|2:0,2:0:0:0:
95,168,204555,6,0,P|7:175|-31:178,1,96,6|0,1:2|2:0,2:0:0:0:
277,221,204855,2,0,P|365:214|403:211,1,96,10|0,2:0|2:0,2:0:0:0:
231,82,205155,1,2,1:2:0:0:
189,294,205305,1,2,1:2:0:0:
372,213,205455,2,0,B|419:185|401:119|401:119|358:101,1,144,10|0,2:0|2:0,2:0:0:0:
366,104,205755,6,0,P|337:84|347:23,1,96,2|2,2:0|1:2,2:0:0:0:
500,218,206055,1,10,2:0:0:0:
306,286,206205,1,0,2:0:0:0:
306,286,206280,1,0,2:0:0:0:
306,286,206355,1,2,1:2:0:0:
477,359,206505,1,2,1:2:0:0:
439,150,206655,2,0,B|377:132|361:173|277:164,1,144,10|0,2:0|2:0,2:0:0:0:
231,218,206955,6,0,P|182:208|133:197,1,96,6|0,1:2|2:0,2:0:0:0:
162,18,207255,1,10,2:0:0:0:
4,139,207405,2,0,P|19:203|24:242,1,96,2|0,2:0|1:0,2:0:0:0:
226,338,207705,2,0,P|233:290|245:244,1,96,2|8,1:2|2:0,2:0:0:0:
61,31,208005,6,0,P|125:105|222:98,1,192,6|10,1:2|2:0,2:0:0:0:
370,19,208455,1,2,1:2:0:0:
378,27,208530,1,0,1:0:0:0:
378,27,208605,1,2,1:2:0:0:
359,198,208755,1,10,2:0:0:0:
356,231,208830,1,8,2:0:0:0:
353,264,208905,2,0,L|346:320,1,48,0|0,1:0|1:0,2:0:0:0:
448,180,209055,1,8,2:0:0:0:
424,138,209130,1,8,2:0:0:0:
384,113,209205,1,8,2:0:0:0:
336,111,209280,1,8,2:0:0:0:
294,133,209355,6,0,P|242:127|191:121,1,96,6|0,1:2|2:0,2:0:0:0:
347,311,209655,2,0,P|399:317|450:323,1,96,8|0,2:0|2:0,2:0:0:0:
223,224,209955,1,0,1:0:0:0:
424,138,210105,1,0,1:0:0:0:
174,29,210255,1,8,2:0:0:0:
117,254,210405,6,0,P|55:257|27:142,1,192,0|0,1:0|1:0,2:0:0:0:
289,99,210855,2,0,B|264:146|200:143|200:143|208:101,1,144,10|0,2:0|2:0,2:0:0:0:
174,29,211155,2,0,P|117:27|75:54,1,96,2|0,1:2|1:0,2:0:0:0:
199,232,211455,2,0,P|241:252|289:248,1,96,10|0,2:0|2:0,2:0:0:0:
369,36,211755,5,6,1:2:0:0:
396,249,211905,1,0,1:0:0:0:
148,156,212055,1,10,2:0:0:0:
319,118,212205,2,0,B|413:102|419:160|527:140,1,192,2|2,2:0|1:2,2:0:0:0:
279,226,212655,1,8,2:0:0:0:
54,24,212805,6,0,B|69:46|69:46|169:31|247:124,1,192,6|0,1:2|1:0,2:0:0:0:
105,298,213255,2,0,P|42:261|61:184,1,144,10|0,2:0|2:0,2:0:0:0:
109,147,213555,1,2,1:2:0:0:
307,206,213705,1,0,1:0:0:0:
307,206,213780,1,0,1:0:0:0:
307,206,213855,2,0,P|229:218|197:226,1,96,12|0,2:0|2:0,2:0:0:0:
420,85,214155,6,0,B|488:73|490:17|490:17|451:-4,1,144,6|0,1:2|2:0,2:0:0:0:
357,20,214455,2,0,P|376:96|380:129,1,96,10|0,2:0|2:0,2:0:0:0:
292,222,214755,1,2,1:2:0:0:
475,278,214905,1,2,2:0:0:0:
278,367,215055,2,0,P|221:357|169:349,1,96,10|0,2:0|2:0,2:0:0:0:
471,197,215355,5,2,1:2:0:0:
355,309,215505,1,2,1:2:0:0:
258,149,215655,1,10,2:0:0:0:
120,271,215805,1,2,2:0:0:0:
39,108,215955,2,0,P|49:50|55:7,1,96,2|2,1:2|2:0,2:0:0:0:
268,134,216255,2,0,B|217:144|217:144|195:184|195:184|139:196,1,144,14|0,2:0|2:0,2:0:0:0:
73,259,216555,6,0,L|128:272,1,48,6|0,1:2|2:0,2:0:0:0:
320,323,216705,1,8,2:0:0:0:
320,323,216780,1,8,2:0:0:0:
320,323,216855,1,10,2:0:0:0:
136,353,217005,5,2,1:2:0:0:
363,183,217155,1,8,1:3:0:0:
363,183,217230,1,8,1:3:0:0:
363,183,217305,1,8,1:3:0:0:
123,50,217455,1,8,2:0:0:0:
131,77,217530,1,8,2:0:0:0:
139,104,217605,2,0,L|153:157,1,48,14|0,2:0|2:0,2:0:0:0:
188,245,217755,5,0,1:0:0:0:
188,245,217830,1,0,1:0:0:0:
188,245,217905,1,8,2:0:0:0:
222,235,217980,1,8,2:0:0:0:
258,234,218055,1,10,2:0:0:0:
293,242,218130,1,8,2:0:0:0:
325,258,218205,2,0,P|346:266|379:269,1,48,0|0,1:0|1:0,2:0:0:0:
471,195,218355,1,8,2:0:0:0:
490,165,218430,1,8,2:0:0:0:
498,130,218505,1,8,2:0:0:0:
492,95,218580,1,8,2:0:0:0:
473,64,218655,1,8,2:0:0:0:
445,43,218730,1,8,2:0:0:0:
410,34,218805,1,8,2:0:0:0:
375,38,218880,1,8,2:0:0:0:
343,56,218955,6,0,B|283:66|283:66|238:38|238:38|166:49,1,180,14|0,2:0|2:0,2:0:0:0:
105,102,219255,2,0,B|51:117|51:117|7:69,1,120,8|0,2:0|1:0,2:0:0:0:
264,154,219555,5,10,2:0:0:0:
7,228,219705,1,0,1:0:0:0:
7,228,219780,1,0,1:0:0:0:
7,228,219855,1,8,2:0:0:0:
246,318,220005,1,0,1:0:0:0:
42,155,220155,5,10,2:0:0:0:
136,368,220305,1,0,1:0:0:0:
344,211,220455,5,8,2:0:0:0:
128,240,220605,1,0,1:0:0:0:
387,384,220755,6,0,B|416:335|416:335|399:265,1,120,10|0,2:0|1:0,2:0:0:0:
257,88,221055,2,0,B|228:137|228:137|245:207,1,120,8|0,2:0|1:0,2:0:0:0:
223,232,221280,1,0,1:0:0:0:
223,232,221355,6,0,B|288:250|335:218|309:181|385:144|460:178,1,240,14|8,2:0|2:0,2:0:0:0:
312,328,221805,1,0,1:0:0:0:
156,160,221955,5,10,2:0:0:0:
373,222,222105,1,0,1:0:0:0:
348,70,222255,5,8,2:0:0:0:
78,117,222405,1,0,1:0:0:0:
78,117,222480,1,0,1:0:0:0:
78,117,222555,6,0,B|137:105|137:105|187:137|187:137|253:125,1,180,10|0,2:0|2:0,2:0:0:0:
348,70,222855,2,0,B|301:31|301:31|244:48,1,120,8|0,2:0|1:0,2:0:0:0:
239,261,223155,5,12,2:0:0:0:
490,136,223305,1,0,1:0:0:0:
244,47,223455,5,12,2:0:0:0:
360,306,223605,1,0,1:0:0:0:
104,218,223755,6,0,B|205:177|213:249|321:211,1,208,6|10,1:2|2:0,2:0:0:0:
162,102,224202,1,2,1:2:0:0:
355,22,224352,2,0,P|349:83|345:134,1,104,2|0,1:2|2:0,2:0:0:0:
214,284,224650,2,0,P|220:223|224:172,1,104,10|0,2:0|2:0,2:0:0:0:
487,99,224949,5,12,2:0:0:0:
22,179,225247,1,12,2:0:0:0:
282,368,225546,5,8,1:3:0:0:
293,318,225645,5,8,1:3:0:0:
276,269,225745,5,8,1:3:0:0:
246,226,225844,5,4,1:3:0:0:
223,180,225944,5,4,1:3:0:0:
222,129,226043,5,4,1:3:0:0:
249,85,226143,6,0,B|188:98|160:152|160:152|123:98|136:83|136:83|116:59|86:56|86:56|96:36|96:36|164:12|164:12|191:31,1,360,4|0,1:2|1:0,2:0:0:0:
332,128,226755,6,0,L|321:185,1,48.0000000000001,10|0,2:0|2:0,2:0:0:0:
312,166,227205,1,0,1:0:0:0:
147,231,227355,5,6,1:2:0:0:
400,260,227505,2,0,P|316:266|219:344,1,208,0|0,1:0|1:0,2:0:0:0:
221,340,227955,2,0,P|266:371|256:267,1,240,10|0,2:0|2:0,2:0:0:0:
62,198,228555,5,6,1:2:0:0:
314,127,228705,2,0,B|216:104|222:168|114:141,1,192,0|0,1:0|1:0,2:0:0:0:
0,346,229155,2,0,P|51:341|161:389,1,160,10|0,2:0|2:0,2:0:0:0:
111,306,229605,1,2,2:0:0:0:
302,256,229755,5,8,2:0:0:0:
302,256,229830,1,8,1:3:0:0:
302,256,229905,2,0,L|244:244,1,40,8|0,1:3|2:0,2:0:0:0:
142,193,230055,1,8,1:3:0:0:
142,193,230130,1,8,1:3:0:0:
142,193,230205,2,0,L|200:181,1,40,8|0,1:3|2:0,2:0:0:0:
235,115,230355,5,4,1:3:0:0:
236,107,230430,1,4,1:3:0:0:
237,99,230505,1,4,1:3:0:0:
238,91,230580,1,4,1:3:0:0:
239,83,230655,1,4,1:3:0:0:
240,75,230730,1,4,1:3:0:0:
242,67,230805,1,4,1:3:0:0:
243,59,230880,1,4,1:3:0:0:
244,51,230955,6,0,B|198:49|181:13|181:13|169:11|169:11|121:42|124:75|124:75|161:96|165:131|165:131|230:137|240:173|240:173|230:205,1,360,4|0,1:2|1:0,2:0:0:0:
141,244,231557,5,8,2:0:0:0:
333,190,231758,5,8,2:0:0:0:
460,249,231958,6,0,L|393:240,1,53.3333333333333,8|0,2:0|2:0,2:0:0:0:
123,212,232159,1,12,2:0:0:0:
123,212,232761,6,0,B|231:167|203:44|203:44|148:56|145:98,1,280,2|0,2:0|2:0,2:0:0:0:
147,86,233364,6,0,B|239:73|280:125|280:125|309:78|378:69,1,240,12|0,2:0|1:0,2:0:0:0:
450,257,233811,5,12,2:0:0:0:
508,93,233961,1,0,1:0:0:0:
361,165,234110,1,0,1:0:0:0:
512,317,234259,6,0,B|396:285|419:345|289:321,1,208,12|0,2:0|1:0,2:0:0:0:
233,125,234707,2,0,B|349:93|326:153|456:129,1,208,12|0,2:0|1:0,2:0:0:0:
288,226,235155,5,12,2:0:0:0:
288,226,235229,1,8,2:0:0:0:
288,226,235304,2,0,L|236:215,1,52,8|0,2:0|2:0,2:0:0:0:
87,196,235453,1,4,1:3:0:0:
87,196,235528,1,4,1:3:0:0:
87,196,235602,1,4,1:3:0:0:
87,196,235677,1,4,1:3:0:0:
87,196,235752,5,12,1:2:0:0:
115,15,235903,1,0,1:0:0:0:
207,25,236054,1,0,1:0:0:0:
0,127,236205,6,0,B|100:121|90:192|208:190,1,208,12|0,2:0|1:0,2:0:0:0:
388,79,236658,1,12,2:0:0:0:
303,20,236809,1,0,1:0:0:0:
265,135,236961,5,2,1:2:0:0:
504,99,237111,2,0,P|422:100|332:193,1,208,12|0,2:0|1:0,2:0:0:0:
276,338,237561,2,0,P|343:352|390:361,1,104,12|0,2:0|2:0,2:0:0:0:
512,242,237861,2,0,P|460:251|410:262,1,104,4|0,1:3|2:0,2:0:0:0:
199,175,238161,6,0,B|159:104|190:37|258:37|258:37|277:105,1,240,12|0,2:0|1:0,2:0:0:0:
168,258,238616,5,12,2:0:0:0:
102,94,238767,1,0,1:0:0:0:
296,169,238919,1,0,1:0:0:0:
55,286,239071,6,0,B|183:261|152:331|270:313,1,208.310024525917,12|0,2:0|1:0,2:0:0:0:
396,97,239523,2,0,B|291:80|322:150|197:139,1,208,12|0,2:0|1:0,2:0:0:0:
133,326,239971,5,12,2:0:0:0:
332,240,240120,1,0,1:0:0:0:
82,209,240269,5,12,2:0:0:0:
382,338,240418,1,0,1:0:0:0:
382,338,240493,1,0,1:0:0:0:
382,338,240568,1,8,2:0:0:0:
415,318,240642,1,8,2:0:0:0:
437,286,240716,1,8,2:0:0:0:
443,248,240790,1,8,2:0:0:0:
433,211,240864,2,0,L|427:163,3,40,0|0|0|0,1:0|1:0|1:0|1:0,2:0:0:0:
476,106,241160,5,8,1:3:0:0:
457,98,241234,1,8,1:3:0:0:
438,90,241308,1,8,1:3:0:0:
419,82,241382,1,8,1:3:0:0:
400,74,241456,2,0,L|395:29,1,40,8|0,1:3|2:0,2:0:0:0:
320,4,241605,1,8,2:0:0:0:
272,13,241679,1,8,2:0:0:0:
224,22,241753,2,0,L|216:70,1,40,8|0,2:0|1:0,2:0:0:0:
218,156,241904,5,0,1:0:0:0:
218,156,241979,1,0,1:0:0:0:
218,156,242055,1,0,1:0:0:0:
218,156,242130,1,0,1:0:0:0:
218,156,242206,2,0,L|211:200,1,40,0|0,1:0|1:0,2:0:0:0:
160,254,242357,2,0,P|148:259|112:261,3,40,0|0|0|0,1:0|1:0|1:0|1:0,2:0:0:0:
244,308,242659,2,0,P|263:309|305:326,3,48,8|8|8|8,1:3|1:3|1:3|1:3,2:0:0:0:
357,281,242962,6,0,B|276:296|276:296|261:345|261:345|175:366,1,208,14|8,1:2|2:0,2:0:0:0:
279,209,243414,1,0,1:0:0:0:
73,166,243565,1,8,2:0:0:0:
107,280,243715,1,0,1:0:0:0:
207,101,243866,1,8,2:0:0:0:
26,49,244017,5,0,1:0:0:0:
26,49,244092,1,0,1:0:0:0:
26,49,244168,2,0,B|72:73|72:73|130:52,1,102.39208410637,8|0,2:0|1:0,2:0:0:0:
302,94,244464,2,0,B|252:76|252:76|206:100,1,104,8|0,2:0|1:0,2:0:0:0:
69,221,244761,1,8,2:0:0:0:
216,266,244910,1,0,1:0:0:0:
25,360,245058,1,8,2:0:0:0:
98,194,245206,1,0,1:0:0:0:
98,194,245281,1,0,1:0:0:0:
98,194,245355,6,0,B|201:172|187:243|316:223,1,208,14|8,2:0|2:0,2:0:0:0:
431,160,245806,1,0,1:0:0:0:
212,77,245957,1,8,2:0:0:0:
295,238,246107,1,0,1:0:0:0:
491,97,246258,6,0,B|512:52|512:52|490:1,1,104,8|0,2:0|1:0,2:0:0:0:
467,13,246484,1,0,1:0:0:0:
467,13,246559,2,0,B|402:0|402:0|358:37|358:37|253:16,1,208,8|8,2:0|2:0,2:0:0:0:
97,100,247011,1,0,1:0:0:0:
137,274,247161,5,12,2:0:0:0:
473,333,247453,1,12,2:0:0:0:
433,239,247746,6,0,P|358:232|296:300,1,156,12|0,1:2|2:0,2:0:0:0:
301,283,248046,2,0,L|313:337,3,44,8|0|0|0,1:2|1:0|1:0|1:0,2:0:0:0:
247,375,248346,1,8,1:2:0:0:
225,374,248421,1,0,1:0:0:0:
203,369,248496,1,0,1:0:0:0:
183,360,248571,1,0,1:0:0:0:
164,349,248646,1,8,1:2:0:0:
145,338,248721,1,0,1:0:0:0:
124,331,248796,1,0,1:0:0:0:
102,328,248871,1,0,1:0:0:0:
80,329,248946,6,0,L|74:279,3,44,8|0|0|0,1:2|1:0|1:0|1:0,2:0:0:0:
175,247,249247,2,0,L|181:197,3,44,8|0|0|0,1:2|1:0|1:0|1:0,2:0:0:0:
117,146,249549,1,8,1:2:0:0:
95,147,249624,1,0,1:0:0:0:
73,145,249699,1,0,1:0:0:0:
51,140,249775,1,0,1:0:0:0:
31,130,249850,1,8,1:2:0:0:
57,111,249925,1,0,1:0:0:0:
73,82,250001,1,0,1:0:0:0:
76,50,250076,1,0,1:0:0:0:
64,19,250152,6,0,B|114:12|114:12|138:25|138:25|193:17,1,120,12|0,1:2|1:0,2:0:0:0:
179,18,250374,1,0,1:0:0:0:
179,18,250448,1,0,1:0:0:0:
295,123,250596,1,8,1:2:0:0:
286,145,250670,1,0,1:0:0:0:
277,167,250744,1,0,1:0:0:0:
268,189,250818,1,0,1:0:0:0:
259,211,250892,1,0,1:0:0:0:
296,29,251040,6,0,L|362:13,1,60,12|0,1:2|1:0,2:0:0:0:
464,114,251192,2,0,L|398:98,1,60,0|0,1:2|1:0,2:0:0:0:
405,99,251344,1,0,1:0:0:0:
259,211,251496,1,8,1:2:0:0:
286,229,251572,1,0,1:0:0:0:
319,231,251648,1,0,1:0:0:0:
349,216,251724,1,0,1:0:0:0:
367,188,251800,1,0,1:0:0:0:
210,46,251953,5,8,2:0:0:0:
109,209,252178,5,8,2:0:0:0:
376,332,252403,5,8,2:0:0:0:
