osu file format v14

[General]
AudioFilename: audio.mp3
AudioLeadIn: 0
PreviewTime:114630
Countdown: 0
SampleSet: Soft
StackLeniency: 0.5
Mode: 0
LetterboxInBreaks: 0
WidescreenStoryboard: 1

[Editor]
Bookmarks: 51630,91755
DistanceSpacing: 1
BeatDivisor: 4
GridSize: 4
TimelineZoom: 3.499999

[Metadata]
Title:Thrill, Risk, Heartless
TitleUnicode:Thrill, Risk, Heartless
Artist:LiSA
ArtistUnicode:LiSA
Creator:SkyFlame
Version:Kalibe's Extra
Source:Sword Art Online: Fatal Bullet
Tags:grandfinals gf hr1 osu! world cup owc 2020 ソードアート・オンライン フェイタル・バレット opening sao ps4 playstation sony op full ver. ver version female vocal japanese video game anime rock jrock j-rock akitoshi -Laura- Corinn kalibe ohwow -_ex_- - Ex kowari tycani
BeatmapID:3197547
BeatmapSetID:1312103

[Difficulty]
HPDrainRate:6
CircleSize:4.1
OverallDifficulty:8.7
ApproachRate:9.5
SliderMultiplier:1.67
SliderTickRate:1

[Events]
//Background and Video events
0,0,"kirito kun and friends.jpg",0,0
//Break Periods
2,79952,86417
//Storyboard Layer 0 (Background)
//Storyboard Layer 1 (Fail)
//Storyboard Layer 2 (Pass)
//Storyboard Layer 3 (Foreground)
//Storyboard Layer 4 (Overlay)
//Storyboard Sound Samples

[TimingPoints]
418,272.727272727273,4,2,4,40,1,0
554,292.682926829268,4,2,4,40,1,0
1139,301.507537688442,4,2,6,40,1,0
1139,-166.666666666667,4,2,6,40,0,0
1591,-166.666666666667,4,2,6,10,0,0
1742,301.507537688442,4,2,6,40,1,0
1742,-166.666666666667,4,2,6,40,0,0
2194,-166.666666666667,4,2,6,10,0,0
2345,303.030303030303,4,2,6,40,1,0
2345,-166.666666666667,4,2,6,40,0,0
2799,-166.666666666667,4,2,6,10,0,0
2951,298.507462686567,4,2,6,40,1,0
2951,-166.666666666667,4,2,6,40,0,0
3398,-166.666666666667,4,2,6,10,0,0
3548,-166.666666666667,4,2,6,40,0,0
3995,-166.666666666667,4,2,6,10,0,0
4145,300,4,2,6,40,1,0
4145,-166.666666666667,4,2,6,40,0,0
4595,-166.666666666667,4,2,6,10,0,0
4745,-166.666666666667,4,2,6,70,0,0
5045,-83.3333333333334,4,2,6,70,0,0
7145,306.122448979592,4,2,6,70,1,0
7145,-133.333333333333,4,2,6,70,0,0
7757,295.566502463054,4,2,6,70,1,0
7757,-133.333333333333,4,2,6,70,0,0
8348,303.030303030303,4,2,6,70,1,0
8348,-133.333333333333,4,2,6,70,0,0
8954,303.030303030303,4,2,6,70,1,0
8954,-133.333333333333,4,2,6,70,0,0
9560,285.714285714286,4,2,6,70,1,0
9560,-133.333333333333,4,2,6,70,0,0
9845,303.79746835443,4,2,6,70,1,0
10148,297.766749379653,4,2,6,70,1,0
10148,-133.333333333333,4,2,6,70,0,0
11339,-83.3333333333333,4,2,6,70,0,0
11934,307.692307692308,4,2,6,60,1,0
11934,-200,4,2,6,60,0,0
12549,303.030303030303,4,2,6,70,1,0
13761,300,4,2,6,70,1,0
16161,298.507462686567,4,2,6,70,1,0
17056,-83.3333333333333,4,2,6,70,0,0
17355,300,4,2,6,70,1,0
22155,-133.333333333333,4,2,6,60,0,0
26655,-200,4,2,6,80,0,0
26955,-100,4,2,6,70,0,0
31755,-133.333333333333,4,2,6,60,0,0
34155,294.117647058824,4,2,6,60,1,0
35331,306.122448979592,4,2,6,60,1,0
35943,300,4,2,6,60,1,0
36393,-71.4285714285714,4,2,6,60,0,0
36543,303.030303030303,4,2,6,70,1,0
37755,300,4,2,6,70,1,0
40855,-83.3333333333333,4,2,6,70,0,0
41355,-133.333333333333,4,2,6,60,0,0
46155,295.566502463054,4,2,6,60,1,0
47337,304.568527918782,4,2,6,60,1,0
48555,300,4,2,6,80,1,0
49905,-100,4,2,6,40,0,0
50955,-90.9090909090909,4,2,6,80,0,1
59955,-71.4285714285714,4,2,6,80,0,1
60480,-71.4285714285714,4,2,6,80,0,0
60555,-90.9090909090909,4,2,6,80,0,1
64155,297.766749379653,4,2,6,80,1,1
64452,-90.9090909090909,4,2,6,80,0,1
65346,300,4,2,6,80,1,1
65346,-90.9090909090909,4,2,6,80,0,1
66546,302.267002518892,4,2,6,80,1,1
67150,-90.9090909090909,4,2,6,80,0,1
67755,300,4,2,6,80,1,1
67755,-90.9090909090909,4,2,6,80,0,1
70080,-90.9090909090909,4,2,6,80,0,0
70155,300.751879699248,4,2,6,80,1,1
70155,-90.9090909090909,4,2,6,80,0,1
72561,301.507537688442,4,2,6,80,1,1
72561,-90.9090909090909,4,2,6,80,0,1
73767,291.26213592233,4,2,6,80,1,1
73767,-90.9090909090909,4,2,6,80,0,1
74640,315.789473684211,4,2,6,80,1,1
74640,-90.9090909090909,4,2,6,80,0,1
74955,300,4,2,6,60,1,0
75555,-76.9230769230769,4,2,6,60,0,0
76155,-133.333333333333,4,2,6,60,0,0
76755,292.682926829268,4,2,6,60,1,0
76755,-200,4,2,6,60,0,0
77340,301.507537688442,4,2,6,70,1,0
81259,298.507462686567,4,2,6,70,1,0
81856,285.714285714286,4,2,6,70,1,0
82141,303.030303030303,4,2,6,70,1,0
83959,296.296296296296,4,2,6,70,1,0
84551,291.26213592233,4,2,6,70,1,0
84987,302.267002518892,4,2,6,70,1,0
85138,302.267002518892,4,2,6,70,1,0
85742,300,4,2,6,70,1,0
86942,303.030303030303,4,2,6,60,1,0
87548,-133.333333333333,4,2,6,60,0,0
88154,300,4,2,6,60,1,0
88154,-133.333333333333,4,2,6,60,0,0
89054,285.714285714286,4,2,6,60,1,0
89196,-100,4,2,6,70,0,0
89339,315.789473684211,4,2,6,70,1,0
89654,303.030303030303,4,2,6,70,1,0
90563,298.136645962733,4,2,6,70,1,0
91755,300,4,2,6,70,1,0
91905,-111.111111111111,4,2,6,70,0,0
96555,297.029702970297,4,2,6,60,1,0
97149,304.568527918782,4,2,6,80,1,0
97758,304.568527918782,4,2,6,60,1,0
97758,-125,4,2,6,60,0,0
98367,294.117647058824,4,2,6,60,1,0
98955,299.25187032419,4,2,6,70,1,0
100152,289.156626506024,4,2,6,70,1,0
100730,304.568527918782,4,2,6,50,1,0
100730,-142.857142857143,4,2,6,50,0,0
101339,306.122448979592,4,2,6,70,1,0
102563,298.136645962733,4,2,6,70,1,0
103755,300,4,2,6,70,1,0
106155,-133.333333333333,4,2,6,60,0,0
113355,-100,4,2,6,80,0,0
114855,-76.9230769230769,4,2,6,80,0,0
115755,-90.9090909090909,4,2,6,80,0,1
118155,297.029702970297,4,2,6,80,1,1
118155,-90.9090909090909,4,2,6,80,0,1
120531,303.030303030303,4,2,6,80,1,1
120531,-90.9090909090909,4,2,6,80,0,1
122955,300,4,2,6,80,1,1
122955,-90.9090909090909,4,2,6,80,0,1
125280,-90.9090909090909,4,2,6,80,0,0
125355,-90.9090909090909,4,2,6,80,0,1
134880,-90.9090909090909,4,2,6,80,0,0
134955,-90.9090909090909,4,2,6,80,0,1
139455,-166.666666666667,4,2,6,80,0,1
139755,-90.9090909090909,4,2,6,80,0,1
141555,306.122448979592,4,2,6,80,1,1
141657,-90.9090909090909,4,2,6,80,0,1
141861,315.789473684211,4,2,6,80,1,1
141966,-90.9090909090909,4,2,6,80,0,1
142176,289.855072463768,4,2,6,60,1,0
142755,300,4,2,6,60,1,0
143355,300,4,2,6,60,1,0
146955,297.766749379653,4,2,6,60,1,0
149337,304.568527918782,4,2,6,60,1,0
149946,300,4,2,6,60,1,0
150546,300,4,2,6,60,1,0
151146,304.568527918782,4,2,6,60,1,0
151755,297.029702970297,4,2,6,60,1,0
153537,303.030303030303,4,2,6,60,1,0
154143,303.030303030303,4,2,6,60,1,0
155355,295.20295202952,4,2,6,60,1,0
156535,305.149396058487,4,2,6,60,1,0
157755,295.566502463054,4,2,6,60,1,0
158937,306.122448979592,4,2,6,60,1,0
160161,303.030303030303,4,2,6,60,1,0
160767,295.566502463054,4,2,6,60,1,0
161358,300,4,2,6,50,1,0
161358,-125,4,2,6,50,0,0
169758,292.682926829268,4,2,6,50,1,0
170636,314.13612565445,4,2,6,50,1,0
170636,-125,4,2,6,50,0,0
170950,301.129234629862,4,2,6,60,1,0
170950,-111.111111111111,4,2,6,60,0,0
173359,300,4,2,6,60,1,0
173359,-111.111111111111,4,2,6,60,0,0
175459,303.030303030303,4,2,6,60,1,0
175762,299.21456177534,4,2,6,70,1,0
176061,-100,4,2,6,73,0,0
176360,-100,4,2,6,75,0,0
176659,-100,4,2,6,78,0,0
176958,-100,4,2,6,80,0,0
177258,-100,4,2,6,83,0,0
177557,-100,4,2,6,85,0,0
177706,-71.4285714285714,4,2,6,85,0,0
177856,-71.4285714285714,4,2,6,88,0,0
178155,300,4,2,6,90,1,0
179355,297.324083250743,4,2,6,70,1,0
180544,311.688311688312,4,2,6,50,1,0
181479,-133.333333333333,4,2,6,50,0,0
181790,291.26213592233,4,2,6,50,1,0
182955,300,4,2,6,50,1,0
184305,-133.333333333333,4,2,6,50,0,0
184755,294.117647058824,4,2,6,50,1,0
185196,-133.333333333333,4,2,6,50,0,0
185343,303.79746835443,4,2,6,60,1,0
185343,-117.647058823529,4,2,6,60,0,0
186558,301.507537688442,4,2,6,60,1,0
186859,-117.647058823529,4,2,6,60,0,0
187764,297.766749379653,4,2,6,60,1,0
187764,-117.647058823529,4,2,6,60,0,0
188955,300,4,2,6,80,1,0
190155,303.030303030303,4,2,6,80,1,0
191367,298.507462686567,4,2,6,80,1,0
192561,300,4,2,6,80,1,0
195261,-76.9230769230769,4,2,6,80,0,0
197361,295.566502463054,4,2,6,80,1,0
199134,307.692307692308,4,2,6,80,1,0
199441,-200,4,2,6,40,0,0
199749,300,4,2,6,80,1,1
199749,-90.9090909090909,4,2,6,80,0,1
204249,306.122448979592,4,2,6,80,1,1
204249,-90.9090909090909,4,2,6,80,0,1
204555,300,4,2,6,80,1,1
204555,-90.9090909090909,4,2,6,80,0,1
209280,-90.9090909090909,4,2,6,80,0,0
209355,-90.9090909090909,4,2,6,80,0,1
218355,-76.9230769230769,4,2,6,80,0,1
218880,-76.9230769230769,4,2,6,80,0,0
218955,-90.9090909090909,4,2,6,80,0,1
223755,298.507462686567,4,2,6,80,1,1
223755,-90.9090909090909,4,2,6,80,0,1
226068,-90.9090909090909,4,2,6,80,0,0
226143,306.122448979592,4,2,6,80,1,1
226755,300,4,2,6,80,1,1
227355,300,4,2,6,80,1,1
230955,301.129234629862,4,2,6,80,1,1
231557,-83.3333333333333,4,2,6,80,0,1
232159,-166.666666666667,4,2,6,60,0,0
232686,-100,4,2,6,60,0,0
233364,298.507462686567,4,2,6,70,1,0
235752,302.267002518892,4,2,6,70,1,0
236961,300,4,2,6,70,1,0
238161,303.413400758534,4,2,6,70,1,0
239374,298.507462686567,4,2,6,70,1,0
240568,296.296296296296,4,2,6,70,1,0
241753,302.267002518892,4,2,6,70,1,0
241753,-76.9230769230769,4,2,6,70,0,0
242962,301.507537688442,4,2,6,70,1,0
244168,296.846011131725,4,2,6,70,1,0
245355,301.129234629862,4,2,6,70,1,0
247161,292.682926829268,4,2,6,70,1,0
247746,300,4,2,6,70,1,0
248946,301.507537688442,4,2,6,70,1,0
250152,296.296296296296,4,2,6,75,1,0
250596,-100,4,2,6,80,0,0
251040,304.568527918782,4,2,6,85,1,0
251344,304.568527918782,4,2,6,85,1,0
251496,-100,4,2,6,90,0,0
251953,300,4,2,6,70,1,0
252403,-200,4,2,6,70,0,0

[Colours]
Combo1 : 230,0,0
Combo2 : 180,255,255
Combo3 : 255,75,75
Combo4 : 0,230,230

[HitObjects]
310,155,1139,6,0,P|297:229|283:303,1,150.3,2|0,2:0|2:0,2:0:0:0:
355,337,1742,6,0,P|281:326|232:384,1,150.3,2|0,2:0|2:0,2:0:0:0:
179,290,2345,6,0,B|143:304|121:332|121:332|96:313|46:310,1,150.3,2|0,2:0|2:0,2:0:0:0:
109,230,2951,6,0,B|141:170|82:157|112:79,1,150.3,2|0,2:0|2:0,2:0:0:0:
43,40,3548,6,0,B|137:68|137:68|180:37,1,150.3,2|0,2:0|2:0,2:0:0:0:
148,160,4145,6,0,B|242:132|242:132|285:163,1,150.3,2|0,2:0|2:0,2:0:0:0:
372,343,4745,6,0,L|381:303,1,25.0499999999999,4|0,3:0|3:0,2:0:0:0:
359,257,4895,2,0,L|353:281,1,25.0499999999999,8|8,3:0|3:0,2:0:0:0:
450,364,5045,6,0,B|369:344|380:400|304:383,1,150.3,12|0,2:0|2:0,2:0:0:0:
237,343,5345,1,12,2:0:0:0:
391,174,5645,5,8,3:0:0:0:
353,281,5795,1,8,3:0:0:0:
261,31,5945,5,8,2:0:0:0:
302,197,6095,1,8,2:0:0:0:
512,52,6245,5,8,2:0:0:0:
449,279,6395,1,8,2:0:0:0:
394,147,6545,5,8,2:0:0:0:
405,157,6995,5,8,3:0:0:0:
405,157,7070,1,8,3:0:0:0:
405,157,7145,2,0,B|344:149|344:149|291:184|291:184|217:161,1,187.875,10|0,2:0|2:0,2:0:0:0:
182,106,7757,6,0,P|194:132|195:174,1,62.6250000000002,4|0,2:0|2:0,2:0:0:0:
287,279,8052,2,0,P|299:253|300:211,1,62.6250000000002,0|0,3:0|2:0,2:0:0:0:
391,118,8348,2,0,P|330:127|276:85,1,125.25,0|0,3:0|3:0,2:0:0:0:
239,23,8802,1,2,2:0:0:0:
327,27,8954,6,0,P|318:56|309:94,1,62.6250000000002,0|0,3:0|2:0,2:0:0:0:
443,220,9257,2,0,P|414:211|376:202,1,62.6250000000002,0|0,3:0|2:0,2:0:0:0:
238,347,9560,2,0,P|287:312|346:327,1,125.187379777909,0|8,3:0|3:0,2:0:0:0:
439,331,9996,5,2,2:0:0:0:
265,231,10148,2,0,L|366:214,1,93.9375000000002,4|0,3:2|2:0,2:0:0:0:
392,192,10445,5,8,2:0:0:0:
361,170,10520,1,8,2:0:0:0:
323,168,10594,1,8,2:0:0:0:
290,186,10669,1,8,2:0:0:0:
268,216,10743,1,8,2:0:0:0:
238,239,10817,1,8,3:0:0:0:
202,252,10892,1,8,3:0:0:0:
164,247,10966,1,8,2:0:0:0:
134,223,11041,1,8,2:0:0:0:
116,189,11115,1,8,2:0:0:0:
125,152,11190,1,8,2:0:0:0:
150,124,11264,1,8,2:0:0:0:
178,109,11339,6,0,L|243:119,1,50.1,8|8,2:0|2:0,2:0:0:0:
325,205,11487,2,0,L|312:259,1,50.1,8|8,2:0|2:0,2:0:0:0:
416,97,11636,2,0,L|403:43,1,50.1,8|8,2:0|2:0,2:0:0:0:
512,169,11785,5,8,3:0:0:0:
512,169,11860,1,8,3:0:0:0:
512,169,11934,2,0,P|449:121|386:133,1,146.125,10|0,2:0|2:0,2:0:0:0:
328,185,12549,5,4,2:0:0:0:
388,384,12700,1,2,2:0:0:0:
450,282,12852,6,0,B|392:270|392:270|343:295|343:295|282:284,1,167,8|0,2:0|3:0,2:0:0:0:
178,195,13306,2,0,L|132:202,1,41.75,8|0,3:0|2:0,2:0:0:0:
38,281,13458,1,8,2:0:0:0:
32,187,13609,6,0,P|13:223|25:268,1,84.0622333333333,2|0,3:2|2:0,2:0:0:0:
250,383,13911,2,0,P|269:347|257:302,1,83.5,2|8,3:2|2:0,2:0:0:0:
70,360,14211,5,2,2:0:0:0:
70,360,14286,1,2,2:0:0:0:
70,360,14361,2,0,L|155:374,1,83.5,8|0,3:0|3:0,2:0:0:0:
114,180,14661,2,0,L|199:166,1,83.5,8|0,2:0|2:0,2:0:0:0:
274,226,14961,5,4,2:0:0:0:
135,85,15111,2,0,L|180:78,1,41.75,2|2,3:2|2:0,2:0:0:0:
301,124,15261,6,0,P|286:165|279:205,1,83.5,8|0,2:0|2:0,2:0:0:0:
119,359,15561,2,0,P|111:317|97:278,1,83.5,2|0,3:2|3:0,2:0:0:0:
176,175,15861,5,8,2:0:0:0:
231,349,16011,1,2,2:0:0:0:
371,179,16161,5,2,2:0:0:0:
274,226,16310,1,0,3:0:0:0:
444,368,16459,1,8,2:0:0:0:
332,318,16608,5,2,2:0:0:0:
512,195,16758,1,0,3:0:0:0:
316,24,16907,1,8,3:0:0:0:
316,24,16981,1,8,3:0:0:0:
316,24,17056,2,0,B|287:67|287:67|308:120,1,100.2,12|2,2:0|2:0,2:0:0:0:
414,168,17355,6,0,B|320:147|352:235|231:205,1,167,4|8,2:0|2:0,2:0:0:0:
168,136,17805,1,2,2:0:0:0:
280,289,17955,2,0,P|265:330|260:380,1,83.5,8|0,3:0|3:0,2:0:0:0:
108,224,18255,1,8,2:0:0:0:
23,365,18405,6,0,P|96:308|176:320,1,167,2|0,3:2|3:0,2:0:0:0:
273,384,18855,1,8,2:0:0:0:
344,219,19005,5,2,2:0:0:0:
178,291,19155,1,8,3:0:0:0:
243,193,19305,5,0,3:0:0:0:
428,332,19455,2,0,P|444:292|448:251,1,83.5,8|0,2:0|2:0,2:0:0:0:
411,157,19755,5,4,2:0:0:0:
290,286,19905,2,0,L|349:273,1,41.75,2|2,3:2|2:0,2:0:0:0:
497,117,20055,6,0,P|414:68|341:96,1,167,12|0,2:0|3:0,2:0:0:0:
233,29,20505,2,0,P|245:68|251:112,1,83.5,2|8,2:0|2:0,2:0:0:0:
166,313,20805,5,4,2:0:0:0:
300,206,20955,1,2,2:0:0:0:
134,133,21105,5,8,2:0:0:0:
341,63,21255,1,8,2:0:0:0:
221,26,21405,1,8,2:0:0:0:
290,286,21555,1,12,2:0:0:0:
330,166,21705,5,8,3:0:0:0:
159,236,21855,1,8,3:0:0:0:
330,370,22005,1,8,3:0:0:0:
239,334,22155,6,0,P|254:272|267:201,1,125.25,4|0,2:0|3:0,2:0:0:0:
272,219,22605,1,0,2:0:0:0:
337,278,22755,2,0,P|366:266|396:258,1,62.6250000000002,0|0,3:0|2:0,2:0:0:0:
483,129,23055,2,0,P|452:121|423:109,1,62.6250000000002,0|0,3:0|2:0,2:0:0:0:
326,54,23355,6,0,P|333:86|339:132,1,62.6250000000002,0|0,3:0|2:0,2:0:0:0:
484,215,23655,2,0,P|490:184|495:153,1,62.6250000000002,0|0,3:0|2:0,2:0:0:0:
363,243,23955,2,0,L|379:376,1,125.25,4|0,3:0|3:0,2:0:0:0:
276,280,24405,5,2,2:0:0:0:
276,280,24480,1,2,2:0:0:0:
276,280,24555,2,0,L|264:343,1,62.6250000000002,4|0,2:0|2:0,2:0:0:0:
168,214,24855,2,0,L|179:275,1,62.6250000000002,0|0,3:0|2:0,2:0:0:0:
20,384,25155,2,0,P|77:344|129:359,1,125.25,0|0,3:0|3:0,2:0:0:0:
177,203,25605,1,2,2:0:0:0:
97,144,25755,6,0,P|65:142|36:131,1,62.6250000000002,0|0,3:0|2:0,2:0:0:0:
258,251,26055,2,0,P|287:240|318:238,1,62.6250000000002,4|0,3:0|2:0,2:0:0:0:
150,381,26355,1,8,3:0:0:0:
127,350,26430,1,8,3:0:0:0:
121,312,26505,1,8,3:0:0:0:
138,278,26580,1,8,3:0:0:0:
155,260,26655,6,0,L|161:330,1,62.625,12|0,2:0|2:0,2:0:0:0:
83,228,26955,6,0,B|176:200|146:288|260:255,1,167,4|8,3:2|2:0,2:0:0:0:
348,172,27405,2,0,P|341:130|339:89,1,83.5,2|0,2:0|3:0,2:0:0:0:
242,154,27705,5,8,3:0:0:0:
427,57,27855,1,8,2:0:0:0:
288,17,28005,6,0,P|347:71|427:56,1,167,0|0,3:0|3:0,2:0:0:0:
491,139,28380,1,0,3:0:0:0:
480,151,28455,2,0,P|467:190|452:244,1,83.5,8|0,2:0|2:0,2:0:0:0:
263,382,28755,5,0,3:0:0:0:
240,353,28830,1,0,3:0:0:0:
229,317,28905,1,0,3:0:0:0:
237,281,28980,1,0,3:0:0:0:
262,253,29055,2,0,P|323:242|378:290,1,125.25,8|0,2:0|2:0,2:0:0:0:
428,347,29355,6,0,P|387:353|336:375,1,83.5,4|0,2:0|2:0,2:0:0:0:
181,196,29655,2,0,P|219:211|261:217,1,83.5,8|0,2:0|2:0,2:0:0:0:
349,153,29955,1,0,3:0:0:0:
201,305,30105,1,8,3:0:0:0:
77,195,30255,1,8,2:0:0:0:
102,297,30405,6,0,P|141:289|189:282,1,83.5,0|0,3:0|2:0,2:0:0:0:
278,116,30705,2,0,P|317:124|365:131,1,83.5,2|8,2:0|2:0,2:0:0:0:
428,215,31005,1,2,2:0:0:0:
247,38,31155,5,8,2:0:0:0:
214,64,31230,1,8,2:0:0:0:
191,99,31305,1,8,2:0:0:0:
195,140,31380,1,8,2:0:0:0:
218,174,31455,1,8,3:0:0:0:
240,209,31530,1,8,3:0:0:0:
249,249,31605,1,8,3:0:0:0:
237,289,31680,1,0,3:0:0:0:
215,316,31755,6,0,L|81:294,1,125.25,4|0,2:0|3:0,2:0:0:0:
80,303,32205,1,0,2:0:0:0:
154,217,32355,2,0,P|184:207|217:205,1,62.6250000000002,0|0,3:0|2:0,2:0:0:0:
283,366,32655,2,0,P|313:376|346:378,1,62.6250000000002,0|0,3:0|2:0,2:0:0:0:
447,333,32955,6,0,P|441:301|434:254,1,62.6250000000002,0|0,3:0|2:0,2:0:0:0:
302,186,33255,2,0,P|297:216|291:247,1,62.6250000000002,0|0,3:0|2:0,2:0:0:0:
402,120,33555,5,4,3:0:0:0:
319,354,33705,1,8,2:0:0:0:
272,253,33855,5,0,3:0:0:0:
483,177,34005,1,8,3:0:0:0:
483,177,34080,1,8,3:0:0:0:
483,177,34155,2,0,P|440:168|390:158,1,83.5,4|0,2:0|2:0,2:0:0:0:
238,38,34449,5,8,2:0:0:0:
276,23,34522,1,8,2:0:0:0:
317,27,34596,1,8,2:0:0:0:
353,47,34669,1,8,2:0:0:0:
375,82,34743,2,0,L|384:137,1,41.75,8|0,2:0|3:0,2:0:0:0:
486,26,34890,6,0,L|475:67,1,41.75,8|0,2:0|3:0,2:0:0:0:
327,198,35037,1,8,3:0:0:0:
294,223,35110,1,8,3:0:0:0:
252,228,35184,1,8,2:0:0:0:
212,213,35257,1,8,2:0:0:0:
162,204,35331,5,12,2:0:0:0:
205,178,35407,1,8,2:0:0:0:
255,176,35484,1,8,2:0:0:0:
296,204,35560,1,8,2:0:0:0:
328,242,35637,1,8,2:0:0:0:
370,268,35713,1,8,2:0:0:0:
420,270,35790,1,8,2:0:0:0:
464,246,35866,1,8,2:0:0:0:
495,206,35943,6,0,P|490:165|485:105,1,83.5,6|8,2:0|2:0,2:0:0:0:
349,58,36168,2,0,P|344:99|339:159,1,83.5,2|0,3:2|3:0,2:0:0:0:
269,301,36393,6,0,P|297:298|342:285,1,58.45,2|2,2:0|2:0,2:0:0:0:
411,183,36543,6,0,B|338:158|325:236|240:207,1,167,4|8,2:0|2:0,2:0:0:0:
134,132,36997,1,2,2:0:0:0:
232,22,37149,6,0,P|253:55|251:99,1,83.5,8|0,3:0|3:0,2:0:0:0:
81,310,37452,2,0,P|60:277|62:233,1,83.5,8|0,2:0|3:0,2:0:0:0:
155,153,37755,5,2,2:0:0:0:
278,295,37905,1,0,3:0:0:0:
278,295,37980,1,0,3:0:0:0:
278,295,38055,2,0,L|256:389,1,83.5,8|0,2:0|2:0,2:0:0:0:
143,251,38355,5,8,3:0:0:0:
143,251,38430,1,0,3:0:0:0:
143,251,38505,2,0,L|203:238,1,41.75,0|0,3:0|2:0,2:0:0:0:
322,142,38655,2,0,L|450:159,1,125.25,10|0,2:0|2:0,2:0:0:0:
501,236,38955,6,0,P|459:240|419:256,1,83.5,4|0,2:0|3:0,2:0:0:0:
290,44,39255,2,0,P|328:59|370:62,1,83.5,8|0,2:0|2:0,2:0:0:0:
463,140,39555,5,0,3:0:0:0:
288,216,39705,1,8,3:0:0:0:
425,360,39855,1,8,2:0:0:0:
374,242,40005,6,0,B|304:226|288:297|213:280,1,167,4|0,3:0|3:0,2:0:0:0:
42,371,40455,2,0,P|15:324|47:263,1,125.25,12|0,2:0|2:0,2:0:0:0:
135,192,40755,5,12,2:0:0:0:
146,205,40855,2,0,L|126:278,1,66.8,8|0,3:0|3:0,2:0:0:0:
223,358,41055,5,8,3:0:0:0:
234,345,41155,2,0,L|214:272,1,66.8,8|0,3:0|3:0,2:0:0:0:
261,163,41355,6,0,P|202:202|142:189,1,125.25,4|2,2:0|2:0,2:0:0:0:
50,131,41805,1,8,3:0:0:0:
153,116,41955,6,0,L|133:185,1,62.6250000000002,8|0,2:0|3:0,2:0:0:0:
284,78,42255,2,0,L|264:147,1,62.6250000000002,2|0,2:0|2:0,2:0:0:0:
200,38,42555,5,4,3:0:0:0:
266,138,42705,2,0,P|325:129|393:121,1,125.25,0|0,3:0|2:0,2:0:0:0:
496,51,43155,6,0,P|480:77|472:113,1,62.6250000000002,8|0,2:0|3:0,2:0:0:0:
357,228,43455,2,0,P|340:201|333:171,1,62.6250000000002,2|0,2:0|2:0,2:0:0:0:
390,98,43755,5,4,2:0:0:0:
390,98,43905,2,0,P|378:159|365:232,1,125.25,0|0,3:0|3:0,2:0:0:0:
447,285,44355,6,0,L|523:274,1,62.6250000000002,8|0,2:0|3:0,2:0:0:0:
328,370,44655,2,0,L|266:361,1,62.6250000000002,2|0,2:0|2:0,2:0:0:0:
206,313,44955,5,4,3:0:0:0:
206,313,45105,1,0,3:0:0:0:
278,240,45255,2,0,P|272:207|270:173,1,62.6250000000002,2|0,2:0|3:0,2:0:0:0:
96,363,45555,6,0,P|66:313|100:257,1,125.25,12|8,2:0|3:0,2:0:0:0:
108,272,46005,1,0,3:0:0:0:
108,272,46155,5,4,3:2:0:0:
34,170,46450,1,0,3:0:0:0:
99,63,46746,1,0,3:0:0:0:
222,40,47041,1,0,3:0:0:0:
296,142,47337,1,0,3:0:0:0:
231,249,47641,1,0,3:0:0:0:
108,272,47946,1,0,3:0:0:0:
34,170,48250,5,0,3:0:0:0:
231,249,48402,1,8,3:0:0:0:
117,49,48555,6,0,L|134:178,1,125.25,12|0,2:0|2:0,2:0:0:0:
209,78,48855,2,0,L|216:126,1,41.75,8|0,3:0|2:0,2:0:0:0:
251,248,49005,6,0,P|312:256|361:209,1,125.25,12|0,2:0|2:0,2:0:0:0:
474,150,49305,2,0,L|418:129,1,41.75,8|0,3:0|2:0,2:0:0:0:
334,65,49455,5,12,2:0:0:0:
388,328,49605,1,8,2:0:0:0:
512,348,49905,5,2,2:0:0:0:
448,308,50055,1,2,2:0:0:0:
373,313,50205,1,2,2:0:0:0:
311,356,50355,1,2,2:0:0:0:
239,378,50505,1,2,2:0:0:0:
169,348,50655,2,0,P|141:284|169:235,1,125.25,2|0,2:0|2:0,2:0:0:0:
280,199,50955,6,0,L|142:223,1,137.775,6|0,2:0|2:0,2:0:0:0:
37,268,51255,2,0,P|48:222|51:172,1,91.85,8|0,2:0|2:0,2:0:0:0:
289,294,51555,2,0,P|278:340|275:390,1,91.85,0|0,3:0|2:0,2:0:0:0:
167,301,51855,1,8,2:0:0:0:
199,125,52005,6,0,B|228:207|158:222|167:309,1,183.7,4|0,2:0|3:0,2:0:0:0:
341,157,52455,2,0,B|365:77|365:77|330:22,1,137.775,8|0,2:0|2:0,2:0:0:0:
275,96,52755,5,4,3:0:0:0:
443,226,52905,1,8,3:0:0:0:
306,293,53055,2,0,P|313:340|315:392,1,91.85,8|0,2:0|2:0,2:0:0:0:
503,317,53355,6,0,L|405:333,1,91.85,2|0,3:2|2:0,2:0:0:0:
203,358,53655,2,0,L|216:299,1,45.925,8|0,2:0|2:0,2:0:0:0:
195,195,53805,6,0,P|237:211|294:217,1,91.85,2|0,2:0|3:0,2:0:0:0:
506,87,54105,2,0,P|463:70|417:64,1,91.85,8|8,3:0|2:0,2:0:0:0:
261,127,54405,6,0,B|363:102|346:182|442:155,1,183.7,4|0,2:0|3:0,2:0:0:0:
202,69,54855,2,0,P|172:105|181:158,1,91.85,8|0,2:0|2:0,2:0:0:0:
385,40,55155,1,8,3:0:0:0:
335,267,55305,5,0,3:0:0:0:
335,267,55380,1,0,3:0:0:0:
335,267,55455,2,0,B|346:217|346:217|327:179|327:179|344:130,1,137.775,12|0,2:0|2:0,2:0:0:0:
380,53,55755,6,0,L|325:62,1,45.925,4|0,3:2|2:0,2:0:0:0:
251,194,55905,2,0,L|296:201,1,45.925,0|0,3:0|2:0,2:0:0:0:
465,158,56055,6,0,P|424:224|448:281,1,137.775,8|0,2:0|2:0,2:0:0:0:
501,361,56355,6,0,P|474:366|445:376,1,45.925,2|0,3:2|2:0,2:0:0:0:
352,293,56505,2,0,P|325:288|296:278,1,45.925,2|0,2:0|2:0,2:0:0:0:
207,367,56655,2,0,P|161:374|116:382,1,91.85,8|8,2:0|3:0,2:0:0:0:
14,169,56955,6,0,L|24:214,1,45.925,2|0,2:0|2:0,2:0:0:0:
172,120,57105,2,0,L|162:165,1,45.925,8|0,3:0|2:0,2:0:0:0:
61,76,57255,6,0,L|201:101,1,137.775,8|0,2:0|2:0,2:0:0:0:
279,49,57555,6,0,P|286:73|292:114,1,45.925,2|0,3:2|2:0,2:0:0:0:
363,246,57705,2,0,P|370:222|376:181,1,45.925,0|0,3:0|2:0,2:0:0:0:
512,88,57855,6,0,P|455:123|384:103,1,137.775,8|0,2:0|2:0,2:0:0:0:
274,197,58155,6,0,P|318:190|376:178,1,91.85,8|0,3:0|3:0,2:0:0:0:
485,11,58455,2,0,P|439:20|394:27,1,91.85,8|0,2:0|2:0,2:0:0:0:
304,107,58755,5,0,3:0:0:0:
477,204,58905,1,8,3:0:0:0:
276,349,59055,1,8,2:0:0:0:
376,190,59205,6,0,B|358:247|358:247|389:306|389:306|372:364,1,183.7,4|0,2:0|3:0,2:0:0:0:
260,177,59655,5,8,2:0:0:0:
477,310,59805,1,8,3:0:0:0:
447,186,59955,6,0,P|419:195|393:208,1,58.45,0|0,3:0|3:0,2:0:0:0:
276,349,60105,2,0,P|248:339|222:326,1,58.45,8|8,3:0|3:0,2:0:0:0:
126,220,60255,1,8,2:0:0:0:
161,199,60330,1,8,2:0:0:0:
201,192,60405,1,8,2:0:0:0:
241,200,60480,1,8,2:0:0:0:
271,227,60555,6,0,P|257:295|241:372,1,137.775,6|0,2:0|2:0,2:0:0:0:
135,308,60855,2,0,P|120:264|129:211,1,91.85,8|0,2:0|2:0,2:0:0:0:
383,119,61155,2,0,P|398:163|389:216,1,91.85,8|0,3:0|3:0,2:0:0:0:
204,112,61455,1,8,2:0:0:0:
463,35,61605,6,0,P|384:92|299:69,1,183.7,4|0,2:0|3:0,2:0:0:0:
205,15,62055,2,0,L|185:114,1,91.85,8|0,2:0|2:0,2:0:0:0:
319,48,62355,5,4,3:0:0:0:
268,226,62505,1,8,3:0:0:0:
97,109,62655,2,0,P|41:165|59:219,1,137.775,8|0,2:0|2:0,2:0:0:0:
120,286,62955,6,0,P|74:296|33:317,1,91.85,4|0,3:0|3:0,2:0:0:0:
214,135,63255,2,0,P|168:125|127:104,1,91.85,8|0,2:0|2:0,2:0:0:0:
54,214,63555,1,0,3:0:0:0:
239,314,63705,1,8,3:0:0:0:
100,384,63855,5,8,2:0:0:0:
158,268,64005,2,0,B|254:250|238:339|342:315,1,182.475338939412,4|0,2:0|3:0,2:0:0:0:
465,267,64452,6,0,P|450:309|438:359,1,91.85,8|0,2:0|2:0,2:0:0:0:
277,181,64750,2,0,P|292:137|303:93,1,91.85,8|0,3:0|3:0,2:0:0:0:
394,31,64973,5,0,3:0:0:0:
400,39,65048,2,0,B|373:105|416:118|388:181,1,137.775,12|0,2:0|2:0,2:0:0:0:
483,95,65346,6,0,L|411:108,1,45.925,4|0,2:0|2:0,2:0:0:0:
422,250,65496,2,0,L|350:263,1,45.925,0|0,3:0|2:0,2:0:0:0:
254,170,65646,2,0,B|216:212|216:212|238:298,1,137.775,8|0,2:0|2:0,2:0:0:0:
230,380,65946,6,0,L|288:363,1,45.925,2|0,3:2|2:0,2:0:0:0:
310,218,66096,2,0,L|252:201,1,45.925,0|0,3:0|2:0,2:0:0:0:
137,268,66246,2,0,P|121:313|138:351,1,91.85,8|8,2:0|3:0,2:0:0:0:
82,198,66546,5,2,2:0:0:0:
236,290,66697,1,0,3:0:0:0:
310,218,66848,5,8,2:0:0:0:
138,351,66999,1,2,2:0:0:0:
177,139,67150,6,0,L|190:201,1,45.925,0|0,3:0|2:0,2:0:0:0:
326,78,67301,2,0,L|315:137,1,45.925,0|0,3:0|2:0,2:0:0:0:
180,33,67452,6,0,P|244:42|332:53,1,137.775,8|0,2:0|2:0,2:0:0:0:
414,128,67755,6,0,P|376:153|326:151,1,91.85,4|0,2:0|3:0,2:0:0:0:
137,268,68055,1,8,2:0:0:0:
225,215,68205,6,0,B|329:220|295:287|399:290,1,183.7,2|0,2:0|3:0,2:0:0:0:
485,225,68655,1,8,2:0:0:0:
292,360,68805,6,0,B|229:344|229:344|168:372|168:372|114:358,1,183.7,4|2,2:0|2:0,2:0:0:0:
33,204,69255,1,8,2:0:0:0:
63,169,69330,1,8,2:0:0:0:
106,153,69405,1,8,3:0:0:0:
151,159,69480,1,8,3:0:0:0:
189,183,69555,5,0,3:0:0:0:
215,200,69630,1,0,3:0:0:0:
246,204,69705,1,8,3:0:0:0:
276,192,69780,1,8,3:0:0:0:
296,167,69855,6,0,P|231:121|178:142,1,137.775,12|0,2:0|2:0,2:0:0:0:
62,92,70155,6,0,P|74:135|85:187,1,91.85,12|0,2:0|2:0,2:0:0:0:
286,15,70455,2,0,P|274:58|263:110,1,91.85,8|0,2:0|2:0,2:0:0:0:
31,295,70756,6,0,P|43:252|54:200,1,91.85,8|0,2:0|2:0,2:0:0:0:
255,372,71057,2,0,P|243:329|232:277,1,91.85,8|8,2:0|3:0,2:0:0:0:
129,351,71282,5,8,3:0:0:0:
129,351,71358,2,0,L|234:362,1,91.85,8|0,2:0|2:0,2:0:0:0:
379,256,71658,2,0,L|470:265,1,91.85,8|0,2:0|2:0,2:0:0:0:
393,37,71959,6,0,L|402:128,1,91.85,8|0,2:0|2:0,2:0:0:0:
298,287,72260,2,0,L|307:378,1,91.85,8|8,2:0|3:0,2:0:0:0:
418,353,72485,5,8,3:0:0:0:
418,353,72561,2,0,P|375:329|328:336,1,91.85,8|0,2:0|2:0,2:0:0:0:
209,210,72862,2,0,P|166:234|119:227,1,91.85,8|0,2:0|2:0,2:0:0:0:
276,32,73164,6,0,P|300:75|293:122,1,91.85,8|0,2:0|2:0,2:0:0:0:
55,297,73465,2,0,P|31:258|35:213,1,91.85,8|8,2:0|3:0,2:0:0:0:
133,151,73691,5,8,3:0:0:0:
148,146,73767,2,0,B|248:128|222:218|327:193,1,183.700005606079,8|8,2:0|2:0,2:0:0:0:
456,96,74203,2,0,L|473:29,1,45.925,0|0,3:0|2:0,2:0:0:0:
361,142,74349,5,8,2:0:0:0:
338,176,74422,1,8,3:0:0:0:
341,217,74495,1,8,3:0:0:0:
361,252,74567,1,8,3:0:0:0:
397,271,74640,2,0,B|440:251|490:236|490:236|456:190,1,137.775,12|0,2:0|2:0,2:0:0:0:
390,149,74955,5,4,2:0:0:0:
295,384,75255,1,2,2:0:0:0:
171,287,75405,5,0,3:0:0:0:
171,287,75480,1,0,3:0:0:0:
171,287,75555,2,0,P|157:253|169:212,1,72.3666666666667,8|0,2:0|2:0,2:0:0:0:
263,21,75755,2,0,P|277:55|265:96,1,72.3666666666667,8|0,2:0|2:0,2:0:0:0:
169,129,75955,6,0,L|55:109,1,72.3666666666667,8|0,2:0|2:0,2:0:0:0:
245,245,76155,2,0,L|372:226,1,125.25,4|0,3:0|2:0,2:0:0:0:
473,141,76605,5,0,2:0:0:0:
473,141,76680,1,2,2:0:0:0:
473,141,76755,2,0,B|458:188|458:188|471:219|471:219|458:266,1,125.25,2|0,2:0|2:0,2:0:0:0:
431,367,77340,5,4,2:0:0:0:
256,192,77415,12,0,79752,2:0:0:0:
333,122,86942,5,8,2:0:0:0:
144,173,87093,1,8,2:0:0:0:
222,224,87396,5,0,2:0:0:0:
144,173,87548,2,0,P|102:224|117:278,1,125.25,2|2,2:0|2:0,2:0:0:0:
134,268,88002,1,0,2:0:0:0:
79,361,88154,6,0,P|108:351|147:350,1,62.6250000000002,2|0,2:0|2:0,2:0:0:0:
226,299,88454,2,0,P|236:270|237:231,1,62.6250000000002,2|0,2:0|2:0,2:0:0:0:
173,163,88754,2,0,P|144:153|105:152,1,62.6250000000002,2|0,2:0|2:0,2:0:0:0:
27,202,89054,1,2,2:0:0:0:
157,132,89196,5,0,3:0:0:0:
157,132,89268,1,8,3:0:0:0:
157,132,89339,2,0,B|248:155|228:96|326:125,1,166.888666666667,8|0,2:0|3:0,2:0:0:0:
468,45,89805,2,0,L|458:85,1,41.75,12|0,2:0|2:0,2:0:0:0:
405,189,89957,6,0,L|490:175,1,83.5,2|0,2:0|3:0,2:0:0:0:
267,30,90260,2,0,L|352:44,1,83.5,8|0,2:0|3:0,2:0:0:0:
379,26,90487,5,0,3:0:0:0:
379,26,90563,2,0,L|361:96,1,55.6666666666667,8|8,2:0|2:0,2:0:0:0:
272,150,90761,5,8,3:0:0:0:
263,157,90861,2,0,L|273:231,1,55.6666666666667,0|2,3:0|2:0,2:0:0:0:
315,309,91059,5,8,3:0:0:0:
326,301,91159,2,0,P|237:249|177:283,1,167,12|0,2:0|2:0,2:0:0:0:
51,375,91606,2,0,L|66:318,1,41.75,2|0,2:0|2:0,2:0:0:0:
89,195,91755,5,4,3:2:0:0:
18,244,91905,2,0,P|76:286|143:261,1,150.3,0|0,3:0|3:0,2:0:0:0:
192,87,92355,2,0,L|173:170,1,75.1500000000001,12|0,2:0|2:0,2:0:0:0:
108,34,92655,5,8,3:0:0:0:
192,191,92805,2,0,P|267:227|333:199,1,150.3,0|8,3:0|2:0,2:0:0:0:
385,99,93255,2,0,P|375:61|368:15,1,75.1500000000001,2|0,2:0|3:0,2:0:0:0:
493,231,93555,1,12,2:0:0:0:
505,145,93705,6,0,P|467:149|428:172,1,75.1500000000001,8|0,3:0|2:0,2:0:0:0:
276,315,94005,1,8,2:0:0:0:
385,374,94155,5,4,2:0:0:0:
350,261,94305,2,0,P|272:283|219:236,1,150.3,0|0,3:0|3:0,2:0:0:0:
108,379,94755,6,0,P|119:344|134:287,1,75.1500000000001,12|0,2:0|2:0,2:0:0:0:
226,155,95055,2,0,P|235:191|247:227,1,75.1500000000001,8|0,3:0|3:0,2:0:0:0:
277,317,95355,5,2,2:0:0:0:
153,215,95505,2,0,B|76:199|85:265|-3:250,1,150.3,8|0,2:0|3:0,2:0:0:0:
72,324,95955,2,0,P|108:312|150:309,1,75.1500000000001,8|8,2:0|3:0,2:0:0:0:
228,130,96255,2,0,P|264:142|306:145,1,75.1500000000001,8|8,2:0|3:0,2:0:0:0:
474,49,96555,6,0,P|464:87|454:138,1,55.6666666666667,2|0,2:0|2:0,2:0:0:0:
373,191,96753,2,0,P|383:229|393:280,1,55.6666666666667,2|0,2:0|2:0,2:0:0:0:
485,316,96951,2,0,L|471:373,1,55.6666666666667,2|0,2:0|2:0,2:0:0:0:
381,288,97149,6,0,B|275:248|260:382|129:323,1,250.5,12|0,2:0|2:0,2:0:0:0:
64,248,97758,6,0,P|60:214|49:183,1,66.8,0|0,2:0|2:0,2:0:0:0:
178,257,98062,2,0,P|174:290|163:321,1,66.8,0|0,2:0|2:0,2:0:0:0:
62,168,98367,5,8,2:0:0:0:
145,329,98514,1,0,3:0:0:0:
264,263,98661,5,8,2:0:0:0:
57,363,98808,1,8,3:0:0:0:
57,363,98881,1,8,3:0:0:0:
57,363,98955,2,0,B|27:309|27:309|63:248,1,125.25,12|0,2:0|2:0,2:0:0:0:
17,168,99254,6,0,L|68:176,1,41.75,8|8,3:0|3:0,2:0:0:0:
244,95,99403,2,0,L|193:103,1,41.75,8|8,3:0|3:0,2:0:0:0:
128,51,99553,5,8,2:0:0:0:
112,85,99628,1,8,2:0:0:0:
119,121,99703,1,8,2:0:0:0:
137,153,99777,1,8,2:0:0:0:
159,183,99852,1,8,3:0:0:0:
171,218,99927,1,8,3:0:0:0:
169,255,100002,1,8,3:0:0:0:
150,287,100077,1,8,3:0:0:0:
114,316,100152,5,8,2:0:0:0:
156,297,100224,1,8,2:0:0:0:
201,295,100296,1,8,2:0:0:0:
241,316,100368,1,8,2:0:0:0:
274,347,100441,1,8,3:0:0:0:
317,361,100513,1,8,3:0:0:0:
362,355,100585,1,0,3:0:0:0:
398,327,100658,1,0,3:0:0:0:
421,296,100730,6,0,B|434:244|434:244|417:199|417:199|437:161|437:161|428:96,1,204.575,8|0,2:0|2:0,2:0:0:0:
486,33,101339,6,0,P|405:87|338:64,1,167,4|8,2:0|2:0,2:0:0:0:
202,217,101798,1,2,2:0:0:0:
185,111,101951,2,0,P|223:124|275:131,1,83.5,4|0,3:0|3:0,2:0:0:0:
437,211,102257,5,8,2:0:0:0:
329,377,102410,2,0,B|360:308|286:287|335:206,1,164.840133333333,2|8,2:0|3:0,2:0:0:0:
408,131,102786,5,8,3:0:0:0:
420,127,102861,2,0,P|439:164|423:205,1,83.5,8|0,2:0|2:0,2:0:0:0:
218,329,103159,1,0,3:0:0:0:
199,301,103233,1,0,3:0:0:0:
192,268,103308,1,0,3:0:0:0:
205,237,103382,1,0,3:0:0:0:
231,216,103457,2,0,L|323:231,1,83.5,8|0,2:0|2:0,2:0:0:0:
506,347,103755,6,0,P|413:358|318:373,1,167,4|8,2:0|2:0,2:0:0:0:
244,312,104205,1,2,2:0:0:0:
446,245,104355,2,0,P|403:236|361:228,1,83.5,0|0,3:0|3:0,2:0:0:0:
190,114,104655,5,8,2:0:0:0:
269,182,104805,2,0,P|310:126|268:40,1,167,0|0,3:0|3:0,2:0:0:0:
114,208,105255,2,0,L|134:323,1,83.5,12|0,2:0|2:0,2:0:0:0:
260,169,105555,5,8,2:0:0:0:
191,210,105655,2,0,L|133:201,1,55.6666666666667,8|8,3:0|3:0,2:0:0:0:
184,344,105855,5,8,3:0:0:0:
115,303,105955,2,0,L|57:312,1,55.6666666666667,0|0,3:0|3:0,2:0:0:0:
0,364,106155,6,0,P|15:307|36:224,1,125.25,4|2,2:0|2:0,2:0:0:0:
130,171,106605,1,0,3:0:0:0:
4,56,106755,6,0,P|33:65|75:70,1,62.6250000000002,8|0,2:0|2:0,2:0:0:0:
189,134,107055,2,0,P|158:138|128:147,1,62.6250000000002,2|0,2:0|2:0,2:0:0:0:
42,216,107355,5,0,3:0:0:0:
184,344,107505,2,0,P|223:288|190:232,1,125.25,8|0,2:0|3:0,2:0:0:0:
109,319,107955,6,0,L|183:330,1,62.6250000000002,8|0,2:0|3:0,2:0:0:0:
286,212,108255,2,0,L|347:221,1,62.6250000000002,2|0,2:0|2:0,2:0:0:0:
504,331,108555,6,0,P|444:337|380:361,1,125.25,4|2,2:0|2:0,2:0:0:0:
305,298,109005,1,0,3:0:0:0:
378,215,109155,2,0,P|388:183|384:143,1,62.6250000000002,8|0,2:0|2:0,2:0:0:0:
480,248,109455,2,0,P|479:279|488:308,1,62.6250000000002,2|0,2:0|2:0,2:0:0:0:
409,371,109755,6,0,P|377:370|348:379,1,62.6250000000002,4|0,3:0|3:0,2:0:0:0:
271,219,110055,2,0,P|239:219|210:210,1,62.6250000000002,2|0,2:0|3:0,2:0:0:0:
108,316,110355,5,8,2:0:0:0:
74,133,110505,1,8,3:0:0:0:
74,133,110580,1,8,3:0:0:0:
74,133,110655,2,0,L|87:203,2,62.6250000000002,0|2|4,3:0|2:0|2:0,2:0:0:0:
55,127,111255,5,0,3:0:0:0:
166,69,111555,1,0,3:0:0:0:
270,138,111855,1,0,3:0:0:0:
284,262,112155,1,0,3:0:0:0:
251,141,112455,1,0,3:0:0:0:
340,53,112755,1,0,3:0:0:0:
464,67,113055,1,2,3:2:0:0:
468,71,113205,1,0,3:0:0:0:
498,159,113355,6,0,P|437:169|392:130,1,125.25,12|0,2:0|2:0,2:0:0:0:
351,249,113655,2,0,L|361:307,1,41.75,8|0,3:0|2:0,2:0:0:0:
217,165,113805,6,0,P|156:155|111:194,1,125.25,12|0,2:0|2:0,2:0:0:0:
37,82,114105,2,0,L|47:24,1,41.75,8|0,3:0|2:0,2:0:0:0:
138,73,114255,5,8,2:0:0:0:
55,313,114405,1,8,2:0:0:0:
9,201,114555,5,2,3:2:0:0:
193,345,114705,1,8,2:0:0:0:
193,345,114780,1,8,2:0:0:0:
193,345,114855,6,0,L|248:330,1,54.275,8|8,3:0|3:0,2:0:0:0:
395,225,115005,2,0,L|340:210,1,54.275,8|0,3:0|3:0,2:0:0:0:
206,148,115155,6,0,P|196:170|191:212,1,54.275,8|8,2:0|3:0,2:0:0:0:
329,382,115305,2,0,P|339:360|344:318,1,54.275,8|8,2:0|3:0,2:0:0:0:
280,260,115455,5,8,2:0:0:0:
280,260,115530,1,8,2:0:0:0:
280,260,115605,1,8,2:0:0:0:
280,260,115680,1,8,2:0:0:0:
280,260,115755,6,0,L|426:241,1,137.775,6|0,2:0|2:0,2:0:0:0:
507,193,116055,2,0,P|522:153|504:105,1,91.85,10|0,2:0|2:0,2:0:0:0:
368,24,116355,5,0,3:0:0:0:
241,175,116505,1,2,2:0:0:0:
219,183,116580,1,2,2:0:0:0:
196,181,116655,1,8,2:0:0:0:
277,90,116805,6,0,B|346:102|346:102|378:139|378:139|449:154,1,183.7,2|0,3:2|3:0,2:0:0:0:
305,335,117255,2,0,P|294:291|303:231,1,91.85,8|0,2:0|2:0,2:0:0:0:
207,378,117555,5,0,3:0:0:0:
394,279,117705,1,8,3:0:0:0:
196,154,117855,2,0,P|144:210|163:270,1,137.775,8|0,2:0|2:0,2:0:0:0:
109,369,118155,6,0,P|152:353|207:345,1,91.85,4|0,2:0|3:0,2:0:0:0:
316,219,118452,1,8,2:0:0:0:
200,142,118600,1,2,2:0:0:0:
281,329,118749,5,0,3:0:0:0:
117,220,118897,1,8,3:0:0:0:
308,98,119046,2,0,P|351:104|411:109,1,91.85,8|2,2:0|2:0,2:0:0:0:
205,43,119343,6,0,B|182:84|182:84|195:126,1,91.85,0|0,2:0|3:0,2:0:0:0:
396,308,119640,2,0,B|419:267|419:267|405:224,1,91.85,8|0,2:0|2:0,2:0:0:0:
306,119,119937,1,2,2:0:0:0:
96,285,120085,1,8,3:0:0:0:
89,264,120159,1,8,3:0:0:0:
97,242,120234,2,0,P|160:255|235:268,1,137.775,12|0,2:0|2:0,2:0:0:0:
166,383,120531,6,0,L|159:326,1,45.925,4|0,2:0|2:0,2:0:0:0:
312,212,120682,2,0,L|322:262,1,45.925,2|0,2:0|2:0,2:0:0:0:
257,374,120834,2,0,L|237:275,1,91.85,8|0,2:0|2:0,2:0:0:0:
208,77,121137,6,0,P|231:83|273:91,1,45.925,2|0,3:2|2:0,2:0:0:0:
357,24,121288,2,0,P|379:19|401:13,1,45.925,0|0,3:0|2:0,2:0:0:0:
505,77,121440,2,0,P|525:121|506:164,1,91.85,8|0,2:0|3:0,2:0:0:0:
396,244,121743,5,2,2:0:0:0:
512,337,121894,1,0,3:0:0:0:
419,158,122046,5,8,2:0:0:0:
295,373,122197,1,0,2:0:0:0:
464,252,122349,6,0,L|407:261,1,45.925,2|0,3:2|2:0,2:0:0:0:
308,190,122500,2,0,L|258:199,1,45.925,0|0,3:0|2:0,2:0:0:0:
148,299,122652,2,0,B|128:341|128:341|149:381,1,91.85,8|0,2:0|2:0,2:0:0:0:
234,274,122879,5,2,2:0:0:0:
234,274,122955,2,0,B|139:237|144:319|40:285,1,183.7,0|8,3:0|2:0,2:0:0:0:
84,110,123405,6,0,B|107:150|107:150|92:199,1,91.85,2|0,2:0|3:0,2:0:0:0:
243,380,123705,2,0,B|229:336|229:336|252:296,1,91.85,2|8,2:0|2:0,2:0:0:0:
171,220,124005,6,0,P|275:266|334:231,1,183.7,4|0,2:0|3:0,2:0:0:0:
457,95,124455,5,8,2:0:0:0:
320,208,124605,1,0,3:0:0:0:
269,23,124755,5,8,2:0:0:0:
475,116,124905,1,8,3:0:0:0:
475,116,124980,1,8,3:0:0:0:
475,116,125055,5,8,2:0:0:0:
466,161,125130,1,8,2:0:0:0:
459,206,125205,1,8,2:0:0:0:
450,251,125280,1,8,2:0:0:0:
442,296,125355,6,0,P|371:250|321:269,1,137.775,6|0,2:0|2:0,2:0:0:0:
233,323,125655,2,0,P|215:280|228:228,1,91.85,8|0,2:0|2:0,2:0:0:0:
365,14,125955,2,0,P|383:57|370:109,1,91.85,0|0,3:0|3:0,2:0:0:0:
300,171,126255,1,8,2:0:0:0:
96,105,126405,6,0,B|162:92|162:92|195:54|195:54|269:41,1,183.7,4|0,2:0|3:0,2:0:0:0:
391,134,126855,2,0,P|379:177|370:227,1,91.85,8|0,2:0|2:0,2:0:0:0:
171,376,127155,2,0,P|162:330|150:286,1,91.85,0|0,3:0|3:0,2:0:0:0:
409,371,127455,2,0,P|337:336|272:360,1,137.775,8|0,2:0|2:0,2:0:0:0:
263,369,127755,5,0,3:0:0:0:
460,296,127905,1,8,3:0:0:0:
282,156,128055,1,8,2:0:0:0:
251,259,128205,6,0,P|294:246|348:241,1,91.85,2|0,2:0|3:0,2:0:0:0:
494,56,128505,2,0,P|448:51|404:37,1,91.85,8|8,3:0|2:0,2:0:0:0:
210,104,128805,6,0,B|310:89|283:171|388:153,1,183.7,4|0,2:0|3:0,2:0:0:0:
250,12,129255,5,8,2:0:0:0:
312,241,129405,1,2,2:0:0:0:
411,128,129555,1,0,3:0:0:0:
186,195,129705,5,8,3:0:0:0:
186,195,129780,1,8,3:0:0:0:
186,195,129855,2,0,P|114:186|40:176,1,137.775,12|0,2:0|2:0,2:0:0:0:
84,80,130155,6,0,L|130:96,1,45.925,4|0,2:0|2:0,2:0:0:0:
260,176,130305,2,0,L|201:191,1,45.925,2|0,2:0|2:0,2:0:0:0:
68,304,130455,2,0,P|110:278|159:285,1,91.85,8|0,2:0|2:0,2:0:0:0:
370,379,130755,6,0,P|376:352|382:316,1,45.925,2|0,3:2|2:0,2:0:0:0:
258,249,130905,2,0,P|264:276|270:312,1,45.925,0|0,3:0|2:0,2:0:0:0:
472,204,131055,2,0,P|426:195|370:182,1,91.85,8|0,2:0|2:0,2:0:0:0:
252,92,131355,5,2,2:0:0:0:
363,159,131505,1,0,3:0:0:0:
237,234,131655,5,8,2:0:0:0:
429,99,131805,1,2,2:0:0:0:
319,16,131955,6,0,P|326:36|330:66,1,45.925,0|0,3:2|2:0,2:0:0:0:
247,256,132105,2,0,P|254:236|258:206,1,45.925,0|0,3:0|2:0,2:0:0:0:
154,114,132255,2,0,B|77:110|94:149|15:151,1,137.775,8|0,2:0|2:0,2:0:0:0:
0,132,132555,6,0,P|11:176|11:222,1,91.85,4|0,3:0|3:0,2:0:0:0:
233,38,132855,2,0,P|232:83|243:128,1,91.85,8|0,2:0|2:0,2:0:0:0:
91,42,133155,5,0,3:0:0:0:
225,144,133305,1,8,3:0:0:0:
69,305,133455,1,8,2:0:0:0:
309,190,133605,6,0,P|222:171|155:229,1,183.7,4|0,2:0|3:0,2:0:0:0:
69,305,133980,1,0,3:0:0:0:
103,293,134055,1,8,2:0:0:0:
138,301,134130,1,8,2:0:0:0:
166,323,134205,1,0,3:0:0:0:
193,347,134280,1,0,3:0:0:0:
224,365,134355,1,8,3:0:0:0:
260,367,134430,1,8,3:0:0:0:
291,347,134505,1,0,3:0:0:0:
306,313,134580,1,0,3:0:0:0:
284,282,134655,2,0,L|124:312,1,137.775,12|0,2:0|2:0,2:0:0:0:
44,343,134955,6,0,P|37:297|63:256,1,91.85,12|0,2:0|2:0,2:0:0:0:
244,163,135255,2,0,P|288:169|348:179,1,91.85,8|0,2:0|3:0,2:0:0:0:
431,94,135555,5,8,2:0:0:0:
325,145,135705,1,0,3:0:0:0:
403,243,135855,5,8,2:0:0:0:
245,100,136005,1,2,2:0:0:0:
239,126,136080,1,2,2:0:0:0:
233,152,136155,5,8,2:0:0:0:
337,56,136305,1,0,3:0:0:0:
262,266,136455,5,8,2:0:0:0:
334,176,136605,1,0,3:0:0:0:
175,232,136755,5,8,2:0:0:0:
322,364,136905,1,0,3:0:0:0:
288,248,137055,5,8,2:0:0:0:
117,361,137205,1,2,2:0:0:0:
89,356,137280,1,2,2:0:0:0:
61,352,137355,5,12,2:0:0:0:
23,219,137505,1,0,3:0:0:0:
159,273,137655,5,8,2:0:0:0:
216,88,137805,1,0,3:0:0:0:
98,157,137955,5,8,2:0:0:0:
274,230,138105,1,0,3:0:0:0:
173,294,138255,5,8,2:0:0:0:
379,188,138405,1,2,2:0:0:0:
388,214,138480,1,2,2:0:0:0:
389,241,138555,5,8,2:0:0:0:
487,196,138705,1,0,3:0:0:0:
302,308,138855,5,8,2:0:0:0:
445,362,139005,1,0,3:0:0:0:
369,165,139155,5,8,2:0:0:0:
173,294,139305,1,2,2:0:0:0:
173,294,139380,1,2,2:0:0:0:
173,294,139455,2,0,L|161:204,1,75.1499999999998,12|0,2:0|2:0,2:0:0:0:
183,146,139755,6,0,L|196:238,1,91.85,4|0,2:0|3:0,2:0:0:0:
109,346,139980,1,0,3:0:0:0:
100,341,140055,2,0,L|89:244,1,91.85,8|0,2:0|3:0,2:0:0:0:
236,75,140355,5,8,3:0:0:0:
83,166,140505,1,0,3:0:0:0:
251,328,140655,2,0,P|296:320|341:314,1,91.85,8|0,2:0|2:0,2:0:0:0:
408,168,140955,5,12,2:0:0:0:
356,296,141105,1,0,3:0:0:0:
168,120,141255,5,12,2:0:0:0:
232,336,141405,1,0,3:0:0:0:
292,80,141555,5,8,2:0:0:0:
300,100,141657,2,0,P|291:130|287:167,1,61.2333333333333,8|8,2:0|2:0,2:0:0:0:
201,216,141861,5,8,2:0:0:0:
193,236,141966,2,0,P|202:266|206:303,1,61.2333333333333,8|8,2:0|2:0,2:0:0:0:
286,381,142176,6,0,P|202:332|139:353,1,167,4|0,2:0|2:0,2:0:0:0:
20,232,142610,1,8,3:0:0:0:
20,232,142683,1,8,3:0:0:0:
20,232,142755,2,0,L|112:252,1,83.5,8|0,2:0|2:0,2:0:0:0:
24,328,143055,5,0,3:0:0:0:
192,200,143205,1,0,3:0:0:0:
108,152,143355,5,2,2:0:0:0:
278,265,143505,1,8,3:0:0:0:
278,265,143580,1,8,3:0:0:0:
278,265,143655,2,0,P|286:222|306:173,1,83.5,0|2,3:0|2:0,2:0:0:0:
188,372,143955,5,10,2:0:0:0:
376,240,144105,2,0,B|394:280|394:280|380:321,2,83.5,8|2|2,3:0|2:0|2:0,2:0:0:0:
299,184,144555,6,0,P|392:228|464:196,1,167,4|2,2:0|2:0,2:0:0:0:
297,306,145005,1,8,3:0:0:0:
297,306,145080,1,8,3:0:0:0:
297,306,145155,2,0,B|208:288|226:360|121:338,1,167,8|0,2:0|3:0,2:0:0:0:
71,170,145605,6,0,B|66:231|53:286|53:286|109:248,1,167,8|0,3:0|3:0,2:0:0:0:
139,341,145980,1,2,2:0:0:0:
139,341,146055,2,0,P|99:332|50:325,1,83.5,10|0,2:0|2:0,2:0:0:0:
201,153,146355,5,8,2:0:0:0:
275,224,146505,2,0,P|186:237|103:253,1,167,8|0,3:0|2:0,2:0:0:0:
16,104,146955,6,0,P|24:138|33:195,1,83.5,4|0,2:0|2:0,2:0:0:0:
237,50,147252,2,0,P|229:84|220:141,1,83.5,2|8,2:0|3:0,2:0:0:0:
221,131,147476,1,8,3:0:0:0:
221,131,147550,1,8,2:0:0:0:
140,81,147848,5,0,3:0:0:0:
318,153,147997,1,0,3:0:0:0:
182,221,148146,1,2,2:0:0:0:
321,47,148294,1,8,3:0:0:0:
345,54,148369,1,8,3:0:0:0:
368,61,148443,2,0,P|360:101|352:147,1,83.5,2|0,2:0|3:0,2:0:0:0:
435,313,148741,5,8,2:0:0:0:
300,239,148890,2,0,P|376:176|440:195,1,167,8|2,3:0|2:0,2:0:0:0:
335,374,149337,5,4,2:0:0:0:
435,313,149489,2,0,P|359:250|295:269,1,167,8|0,3:0|3:0,2:0:0:0:
231,313,149869,5,2,3:2:0:0:
223,320,149946,2,0,P|203:282|215:232,1,83.5,8|0,2:0|2:0,2:0:0:0:
420,114,150246,2,0,P|440:152|428:202,1,83.5,0|0,3:0|3:0,2:0:0:0:
356,357,150546,5,2,2:0:0:0:
320,192,150696,1,8,3:0:0:0:
324,213,150771,1,8,3:0:0:0:
329,234,150846,1,4,3:0:0:0:
238,309,151146,5,8,2:0:0:0:
434,190,151349,5,8,2:0:0:0:
268,32,151552,5,8,2:0:0:0:
225,133,151755,5,4,2:0:0:0:
225,133,151903,2,0,P|263:123|318:116,1,83.5,0|0,3:0|2:0,2:0:0:0:
512,228,152200,1,8,3:0:0:0:
512,228,152274,1,8,3:0:0:0:
512,228,152349,2,0,B|429:195|435:286|333:247,1,167,8|0,2:0|3:0,2:0:0:0:
262,310,152794,6,0,P|257:267|243:218,1,83.5,8|2,3:0|2:0,2:0:0:0:
411,117,153091,1,8,3:0:0:0:
411,117,153165,1,8,3:0:0:0:
411,117,153240,2,0,P|415:158|426:198,1,83.5,2|0,2:0|2:0,2:0:0:0:
229,329,153537,5,8,2:0:0:0:
325,177,153688,2,0,P|241:131|171:166,1,167,8|0,3:0|2:0,2:0:0:0:
67,123,154143,5,4,2:0:0:0:
195,162,154294,2,0,P|204:120|223:63,1,83.5,0|2,3:0|2:0,2:0:0:0:
276,311,154597,6,0,L|220:335,1,41.75,8|8,3:0|3:0,2:0:0:0:
88,377,154749,2,0,P|79:335|60:278,1,83.5,8|0,2:0|2:0,2:0:0:0:
254,230,155052,5,8,3:0:0:0:
254,230,155203,2,0,P|263:272|282:329,1,84.0622333333333,0|2,3:0|2:0,2:0:0:0:
111,223,155502,5,0,3:0:0:0:
112,202,155576,1,0,3:0:0:0:
116,181,155650,1,4,3:0:0:0:
225,118,155797,1,2,2:0:0:0:
125,36,155945,5,8,2:0:0:0:
300,158,156093,2,0,B|361:146|361:146|403:167|403:167|472:152,1,167,8|2,3:0|2:0,2:0:0:0:
466,162,156462,1,2,2:0:0:0:
466,162,156535,6,0,L|450:253,1,83.5,4|0,2:0|3:0,2:0:0:0:
375,326,156763,2,0,L|385:375,2,41.75,2|2|0,2:0|2:0|2:0,2:0:0:0:
300,247,156992,1,8,3:0:0:0:
300,247,157069,1,8,3:0:0:0:
300,247,157145,6,0,L|367:231,1,55.6666666666667,8|2,2:0|2:0,2:0:0:0:
210,362,157348,2,0,L|287:342,1,55.6666666666667,2|12,2:0|3:0,2:0:0:0:
125,256,157552,2,0,L|179:243,1,55.6666666666667,2|2,2:0|2:0,2:0:0:0:
52,350,157755,5,4,3:0:0:0:
265,270,157902,1,8,3:0:0:0:
265,270,157976,1,8,3:0:0:0:
265,270,158050,2,0,B|279:308|279:308|260:356,1,83.5,2|0,2:0|2:0,2:0:0:0:
139,167,158346,6,0,B|177:153|177:153|225:172,1,83.5,12|0,2:0|2:0,2:0:0:0:
441,307,158641,2,0,B|403:321|403:321|355:302,1,83.5,12|0,2:0|2:0,2:0:0:0:
283,242,158937,5,12,2:0:0:0:
411,48,159090,1,8,2:0:0:0:
294,9,159243,2,0,L|308:60,1,41.75,8|8,3:0|3:0,2:0:0:0:
406,237,159396,5,12,2:0:0:0:
197,342,159549,1,8,2:0:0:0:
283,242,159702,2,0,L|273:291,1,41.75,8|8,3:0|3:0,2:0:0:0:
331,384,159855,5,8,2:0:0:0:
216,168,160008,1,8,2:0:0:0:
126,269,160161,2,0,L|184:251,1,41.75,8|8,3:0|3:0,2:0:0:0:
375,203,160312,5,8,2:0:0:0:
153,60,160464,1,8,2:0:0:0:
294,9,160615,1,8,2:0:0:0:
314,35,160691,1,8,2:0:0:0:
326,66,160767,1,8,2:0:0:0:
326,99,160840,1,0,3:0:0:0:
314,130,160914,5,8,3:0:0:0:
219,191,161062,1,8,3:0:0:0:
350,240,161210,1,0,3:0:0:0:
269,327,161358,6,0,P|302:333|349:345,1,66.8,4|0,2:0|3:0,2:0:0:0:
356,334,161658,5,2,2:0:0:0:
256,301,161808,1,0,3:0:0:0:
356,334,161958,2,0,P|385:286|354:213,1,133.6,8|2,2:0|2:0,2:0:0:0:
260,151,162408,6,0,P|268:119|276:77,1,66.8,0|0,3:0|2:0,2:0:0:0:
376,55,162708,1,0,3:0:0:0:
376,55,162858,2,0,P|368:87|360:129,1,66.8,0|0,3:0|2:0,2:0:0:0:
201,241,163158,5,8,2:0:0:0:
140,180,163308,2,0,B|118:140|118:140|150:55,1,133.6,0|8,3:0|3:0,2:0:0:0:
156,65,163683,1,8,3:0:0:0:
156,65,163758,6,0,P|163:98|161:139,1,66.8,4|0,2:0|3:0,2:0:0:0:
53,267,164058,2,0,P|46:234|48:193,1,66.8,2|0,2:0|3:0,2:0:0:0:
238,141,164358,5,8,2:0:0:0:
131,221,164508,1,2,2:0:0:0:
161,147,164658,1,0,3:0:0:0:
212,290,164808,1,0,3:0:0:0:
158,347,164958,5,2,2:0:0:0:
264,225,165108,2,0,L|343:239,1,66.8,8|2,2:0|2:0,2:0:0:0:
377,302,165408,5,0,3:0:0:0:
238,141,165558,2,0,L|303:129,1,66.8,8|0,2:0|3:0,2:0:0:0:
371,58,165858,1,12,3:0:0:0:
371,58,166158,6,0,P|331:32|243:43,1,133.6,4|2,2:0|2:0,2:0:0:0:
147,117,166608,1,0,3:0:0:0:
72,89,166758,6,0,P|67:55|55:15,1,66.8,8|0,2:0|2:0,2:0:0:0:
228,115,167058,2,0,P|232:81|241:49,1,66.8,2|0,2:0|3:0,2:0:0:0:
98,180,167358,6,0,P|93:214|81:254,1,66.8,2|0,2:0|3:0,2:0:0:0:
244,359,167658,2,0,P|235:326|230:293,1,66.8,8|0,3:0|3:0,2:0:0:0:
38,381,167958,2,0,P|99:339|158:358,1,133.6,8|2,2:0|2:0,2:0:0:0:
253,235,168408,5,8,3:0:0:0:
255,258,168483,1,8,3:0:0:0:
251,281,168558,1,4,3:0:0:0:
193,189,168708,2,0,L|332:211,1,133.6,8|0,2:0|3:0,2:0:0:0:
424,235,169158,6,0,P|416:201|409:150,1,66.8,8|0,2:0|2:0,2:0:0:0:
251,281,169458,2,0,P|256:313|264:346,1,66.8,8|0,3:0|3:0,2:0:0:0:
337,245,169758,5,2,2:0:0:0:
337,245,169904,1,0,3:0:0:0:
267,168,170050,5,8,2:0:0:0:
424,235,170197,1,2,2:0:0:0:
286,336,170343,1,8,3:0:0:0:
255,350,170416,1,8,3:0:0:0:
221,353,170489,1,8,3:0:0:0:
190,339,170562,1,8,3:0:0:0:
169,312,170636,6,0,L|193:205,1,100.2,8|0,2:0|2:0,2:0:0:0:
213,180,170950,2,0,L|195:261,1,75.1500000000001,4|0,2:0|2:0,2:0:0:0:
44,183,171251,6,0,P|84:175|124:162,1,75.1500000000001,2|0,2:0|2:0,2:0:0:0:
195,83,171552,2,0,P|235:91|275:104,1,75.1500000000001,2|0,2:0|2:0,2:0:0:0:
361,165,171853,2,0,P|401:157|441:144,1,75.1500000000001,2|0,2:0|2:0,2:0:0:0:
509,62,172154,5,2,2:0:0:0:
436,115,172455,1,0,3:0:0:0:
421,204,172756,1,2,2:0:0:0:
478,273,173057,1,0,3:0:0:0:
380,366,173208,5,8,2:0:0:0:
380,366,173283,1,8,2:0:0:0:
380,366,173359,2,0,L|462:355,1,75.1500000000001,4|0,2:0|2:0,2:0:0:0:
336,203,173659,6,0,P|315:233|313:274,1,75.1500000000001,2|0,2:0|2:0,2:0:0:0:
211,343,173959,2,0,P|181:322|140:320,1,75.1500000000001,2|0,2:0|2:0,2:0:0:0:
102,202,174259,2,0,P|123:171|125:134,1,75.1500000000001,2|0,2:0|2:0,2:0:0:0:
212,223,174559,5,0,3:0:0:0:
72,369,174709,1,8,2:0:0:0:
1,293,174859,2,0,L|79:279,1,75.1500000000001,0|0,3:0|2:0,2:0:0:0:
204,375,175159,5,8,2:0:0:0:
272,156,175309,1,0,2:0:0:0:
272,156,175384,1,8,3:0:0:0:
272,156,175459,1,8,2:0:0:0:
356,232,175610,1,8,2:0:0:0:
233,298,175762,5,6,2:0:0:0:
236,288,175911,1,0,3:0:0:0:
358,360,176061,5,4,3:0:0:0:
333,255,176210,1,2,2:0:0:0:
164,380,176360,5,12,2:0:0:0:
225,207,176510,1,2,2:0:0:0:
418,290,176659,5,4,3:0:0:0:
391,175,176809,1,2,2:0:0:0:
124,304,176958,5,4,2:0:0:0:
184,137,177108,1,2,2:0:0:0:
333,255,177258,5,12,2:0:0:0:
271,12,177407,1,2,2:0:0:0:
62,203,177557,5,8,2:0:0:0:
62,203,177632,1,8,2:0:0:0:
62,203,177706,2,0,P|56:168|39:123,1,58.45,8|8,3:0|3:0,2:0:0:0:
182,62,177856,1,0,3:0:0:0:
182,62,177931,1,0,3:0:0:0:
182,62,178006,2,0,P|188:97|205:142,1,58.45,8|8,3:0|3:0,2:0:0:0:
161,327,178155,5,12,2:0:0:0:
275,161,178305,1,0,3:0:0:0:
88,45,178455,1,0,3:0:0:0:
145,213,178605,5,12,2:0:0:0:
370,86,178755,1,0,3:0:0:0:
506,188,178905,1,0,3:0:0:0:
398,301,179055,5,12,2:0:0:0:
480,42,179205,1,8,2:0:0:0:
485,70,179280,1,8,2:0:0:0:
491,98,179355,1,12,2:0:0:0:
390,177,179503,5,8,3:0:0:0:
351,78,179652,1,8,3:0:0:0:
268,29,179800,5,0,3:0:0:0:
235,205,179949,1,0,3:0:0:0:
130,266,180098,5,8,3:0:0:0:
67,43,180246,1,8,3:0:0:0:
174,101,180395,1,8,3:0:0:0:
64,199,180544,5,4,2:0:0:0:
64,199,181479,2,0,L|32:344,1,125.211503246754,2|0,2:0|2:0,2:0:0:0:
87,380,181935,5,2,2:0:0:0:
219,271,182081,1,2,2:0:0:0:
151,234,182226,1,2,2:0:0:0:
217,359,182372,5,2,2:0:0:0:
301,316,182518,1,0,2:0:0:0:
318,223,182663,1,0,2:0:0:0:
237,174,182809,1,0,2:0:0:0:
150,211,182955,1,2,2:0:0:0:
150,235,183255,5,2,2:0:0:0:
237,272,183405,1,0,2:0:0:0:
318,223,183555,1,0,2:0:0:0:
301,130,183705,1,0,2:0:0:0:
217,88,183855,1,2,2:0:0:0:
198,75,184305,6,0,L|208:156,1,62.6250000000002,2|0,2:0|2:0,2:0:0:0:
396,22,184605,2,0,L|386:103,1,62.6250023889543,2|0,2:0|2:0,2:0:0:0:
378,163,184828,1,2,2:0:0:0:
378,163,184902,5,2,2:0:0:0:
357,166,184975,1,2,2:0:0:0:
336,170,185049,1,2,2:0:0:0:
315,174,185122,1,2,2:0:0:0:
294,178,185196,2,0,L|301:141,1,31.3125000000001,8|8,3:0|3:0,2:0:0:0:
425,240,185343,6,0,P|417:275|411:311,1,70.9750000000003,4|0,3:0|2:0,2:0:0:0:
212,211,185646,1,2,2:0:0:0:
327,269,185798,6,0,B|256:254|257:316|179:298,1,141.950000000001,2|2,3:0|2:0,2:0:0:0:
76,370,186254,2,0,B|66:297|46:232|46:232|120:255,1,212.481410311222,2|2,3:0|3:0,2:0:0:0:
222,194,186859,6,0,P|187:188|156:171,1,70.9750000000003,2|0,2:0|2:0,2:0:0:0:
38,44,187161,2,0,P|72:38|103:21,1,70.9750000000003,2|0,3:0|2:0,2:0:0:0:
195,74,187462,1,2,2:0:0:0:
44,180,187613,5,0,3:0:0:0:
44,180,187764,2,0,P|113:139|170:155,1,141.950000000001,0|2,3:0|2:0,2:0:0:0:
286,47,188210,1,2,3:0:0:0:
286,47,188359,2,0,P|277:81|272:116,1,70.9750000000003,2|0,2:0|2:0,2:0:0:0:
325,344,188657,2,0,P|334:291|343:239,1,106.4625,2|0,2:0|2:0,2:0:0:0:
385,172,188955,5,4,2:0:0:0:
232,285,189105,2,0,L|219:220,2,41.75,8|8|0,3:0|3:0|3:0,2:0:0:0:
152,367,189405,5,8,3:0:0:0:
323,243,189555,1,0,3:0:0:0:
179,163,189705,1,0,3:0:0:0:
179,163,189780,1,0,3:0:0:0:
179,163,189855,1,12,2:0:0:0:
232,285,190005,1,0,3:0:0:0:
382,75,190155,6,0,P|371:115|361:158,1,83.5,12|0,2:0|3:0,2:0:0:0:
232,54,190458,1,0,3:0:0:0:
449,157,190609,6,0,B|389:169|389:169|359:205|359:205|295:220,1,167,10|0,2:0|3:0,2:0:0:0:
485,342,191064,2,0,P|445:333|392:326,1,83.5,12|0,2:0|3:0,2:0:0:0:
506,228,191367,1,0,3:0:0:0:
318,375,191516,6,0,B|300:337|300:337|312:291,1,83.5,12|0,2:0|3:0,2:0:0:0:
449,157,191814,1,0,3:0:0:0:
312,32,191964,6,0,P|351:43|397:49,1,83.5,8|0,2:0|2:0,2:0:0:0:
181,224,192262,2,0,P|192:185|198:139,1,83.5,8|0,2:0|3:0,2:0:0:0:
166,76,192486,1,0,3:0:0:0:
166,76,192561,5,8,2:0:0:0:
309,185,192711,1,8,3:0:0:0:
160,360,192861,1,0,3:0:0:0:
80,215,193011,5,12,2:0:0:0:
197,142,193161,1,8,3:0:0:0:
339,274,193311,1,0,3:0:0:0:
169,232,193461,5,12,2:0:0:0:
360,118,193611,1,8,3:0:0:0:
220,14,193761,1,0,3:0:0:0:
274,181,193911,5,12,2:0:0:0:
452,24,194061,1,8,3:0:0:0:
512,176,194211,1,0,3:0:0:0:
327,84,194361,5,12,2:0:0:0:
385,328,194511,1,8,3:0:0:0:
202,250,194661,1,0,3:0:0:0:
319,200,194811,5,0,3:0:0:0:
145,372,194961,1,14,2:0:0:0:
41,285,195111,5,0,3:0:0:0:
41,285,195186,1,8,3:0:0:0:
41,285,195261,2,0,L|26:211,1,54.275,0|0,3:0|3:0,2:0:0:0:
151,177,195411,5,8,2:0:0:0:
256,370,195561,1,0,3:0:0:0:
400,303,195711,1,0,3:0:0:0:
410,278,195786,1,0,3:0:0:0:
410,250,195861,5,8,2:0:0:0:
270,170,196011,1,2,2:0:0:0:
451,100,196161,5,4,2:0:0:0:
294,267,196311,1,8,2:0:0:0:
256,288,196386,1,8,2:0:0:0:
212,287,196461,1,8,2:0:0:0:
172,267,196536,1,8,2:0:0:0:
138,239,196611,1,0,3:0:0:0:
95,229,196686,1,0,3:0:0:0:
55,246,196761,6,0,L|62:300,1,54.275,10|0,2:0|2:0,2:0:0:0:
227,144,196911,2,0,L|234:198,1,54.275,8|8,3:0|3:0,2:0:0:0:
180,353,197061,5,0,3:0:0:0:
170,311,197136,1,0,3:0:0:0:
161,269,197211,1,8,3:0:0:0:
152,227,197286,1,8,3:0:0:0:
143,185,197361,5,12,2:0:0:0:
357,97,197508,1,12,2:0:0:0:
237,22,197656,2,0,L|246:63,1,41.75,8|8,3:0|3:0,2:0:0:0:
286,258,197804,5,8,2:0:0:0:
481,118,197952,1,8,2:0:0:0:
372,29,198099,2,0,L|361:80,1,41.75,8|8,3:0|3:0,2:0:0:0:
483,293,198247,5,10,2:0:0:0:
227,144,198395,1,10,2:0:0:0:
256,321,199441,6,0,L|324:336,1,62.625,2|0,2:0|2:0,2:0:0:0:
420,346,199749,6,0,B|277:369,1,137.775,4|0,2:0|2:0,2:0:0:0:
175,319,200049,2,0,B|156:279|156:279|183:237,1,91.85,8|0,2:0|2:0,2:0:0:0:
402,99,200349,2,0,B|427:139|427:139|408:179,1,91.85,0|0,2:0|2:0,2:0:0:0:
306,252,200649,1,8,2:0:0:0:
288,74,200799,6,0,B|257:161|335:171|302:260,1,183.7,4|0,2:0|3:0,2:0:0:0:
510,322,201249,2,0,B|428:303|428:303|380:339,1,137.775,8|0,2:0|2:0,2:0:0:0:
322,384,201549,1,0,3:0:0:0:
222,258,201699,1,8,3:0:0:0:
360,112,201849,2,0,P|405:104|462:90,1,91.85,8|0,2:0|2:0,2:0:0:0:
276,16,202149,6,0,P|245:54|251:101,1,91.85,0|0,3:0|3:0,2:0:0:0:
483,231,202449,2,0,P|514:193|508:146,1,91.85,8|0,2:0|2:0,2:0:0:0:
390,30,202749,1,8,3:0:0:0:
256,233,202899,2,0,L|250:172,2,45.925,2|2|8,2:0|2:0|2:0,2:0:0:0:
366,363,203199,6,0,B|383:297|383:297|363:254|363:254|386:179,1,183.7,4|0,2:0|3:0,2:0:0:0:
409,115,203574,1,0,3:0:0:0:
409,115,203649,1,8,2:0:0:0:
282,182,203799,1,2,2:0:0:0:
482,273,203949,1,0,3:0:0:0:
254,351,204099,5,8,3:0:0:0:
254,351,204174,1,8,3:0:0:0:
254,351,204249,2,0,P|319:302|373:316,1,137.775,12|0,2:0|2:0,2:0:0:0:
489,236,204555,6,0,L|429:251,1,45.925,6|0,2:0|2:0,2:0:0:0:
261,148,204705,2,0,L|321:163,1,45.925,2|0,2:0|2:0,2:0:0:0:
419,29,204855,6,0,B|445:69|445:69|420:162,1,137.775,8|0,2:0|2:0,2:0:0:0:
359,278,205155,6,0,L|346:233,1,45.925,2|0,3:2|2:0,2:0:0:0:
224,360,205305,2,0,L|236:315,1,45.925,2|0,2:0|2:0,2:0:0:0:
406,381,205455,2,0,L|315:366,1,91.85,8|8,2:0|3:0,2:0:0:0:
67,331,205755,6,0,P|93:326|135:312,1,45.925,2|0,2:0|2:0,2:0:0:0:
259,237,205905,2,0,P|233:232|191:218,1,45.925,2|0,2:0|2:0,2:0:0:0:
88,109,206055,6,0,P|47:176|72:229,1,137.775,8|0,2:0|2:0,2:0:0:0:
128,170,206355,6,0,L|114:112,1,45.925,2|0,3:2|2:0,2:0:0:0:
249,24,206505,2,0,L|235:82,1,45.925,2|0,2:0|2:0,2:0:0:0:
390,125,206655,6,0,P|323:139|250:158,1,137.775,8|0,2:0|2:0,2:0:0:0:
313,253,206955,6,0,P|333:214|322:157,1,91.85,8|0,3:0|3:0,2:0:0:0:
131,39,207255,2,0,P|111:78|122:135,1,91.85,8|0,2:0|2:0,2:0:0:0:
337,22,207555,5,0,3:0:0:0:
192,92,207705,1,2,2:0:0:0:
313,253,207855,1,8,2:0:0:0:
118,357,208005,6,0,B|189:338|189:338|236:362|236:362|303:346,1,183.7,4|0,2:0|3:0,2:0:0:0:
448,271,208455,5,8,2:0:0:0:
217,165,208605,2,0,L|205:93,1,45.925,0|0,3:0|3:0,2:0:0:0:
286,31,208755,5,8,2:0:0:0:
322,24,208830,1,8,2:0:0:0:
357,32,208905,1,8,3:0:0:0:
384,56,208980,1,8,3:0:0:0:
410,99,209055,5,8,2:0:0:0:
360,90,209130,1,8,2:0:0:0:
314,111,209205,1,8,2:0:0:0:
290,155,209280,1,8,2:0:0:0:
307,202,209355,6,0,L|444:228,1,137.775,4|0,2:0|2:0,2:0:0:0:
507,83,209655,2,0,P|505:129|516:185,1,91.85,8|2,2:0|2:0,2:0:0:0:
312,292,209955,2,0,P|314:246|303:190,1,91.85,0|0,3:0|3:0,2:0:0:0:
465,318,210255,1,8,2:0:0:0:
283,376,210405,6,0,B|220:361|220:361|166:383|166:383|91:371,1,183.7,4|0,2:0|3:0,2:0:0:0:
3,303,210855,1,8,2:0:0:0:
204,180,211005,1,0,2:0:0:0:
83,76,211155,1,2,2:0:0:0:
152,300,211305,2,0,L|144:240,2,45.925,0|2|8,3:0|2:0|2:0,2:0:0:0:
48,216,211605,5,0,3:0:0:0:
216,76,211755,2,0,B|241:116|241:116|229:168,1,91.85,4|0,2:0|3:0,2:0:0:0:
61,98,212055,5,8,2:0:0:0:
232,259,212205,2,0,P|276:262|341:273,1,91.85,2|0,2:0|2:0,2:0:0:0:
500,167,212505,2,0,P|454:163|408:156,1,91.85,2|8,2:0|2:0,2:0:0:0:
254,356,212805,6,0,P|345:293|409:314,1,183.7,2|0,2:0|3:0,2:0:0:0:
487,378,213255,1,8,2:0:0:0:
343,251,213405,1,2,2:0:0:0:
423,141,213555,5,0,3:0:0:0:
288,351,213705,1,8,3:0:0:0:
288,351,213780,1,8,3:0:0:0:
288,351,213855,2,0,P|201:376|155:344,1,137.775,12|0,2:0|2:0,2:0:0:0:
77,292,214155,6,0,L|100:230,1,45.925,6|0,2:0|2:0,2:0:0:0:
215,169,214305,2,0,L|230:212,1,45.925,2|0,2:0|2:0,2:0:0:0:
34,116,214455,6,0,P|97:66|152:83,1,137.775,8|0,2:0|2:0,2:0:0:0:
244,18,214755,6,0,L|233:78,1,45.925,2|0,3:2|2:0,2:0:0:0:
411,179,214905,2,0,L|422:119,1,45.925,2|0,2:0|2:0,2:0:0:0:
337,50,215055,2,0,P|329:96|316:152,1,91.85,8|0,2:0|2:0,2:0:0:0:
269,333,215355,5,2,2:0:0:0:
398,277,215505,1,0,3:0:0:0:
469,374,215655,5,8,2:0:0:0:
300,233,215805,1,2,2:0:0:0:
475,188,215955,6,0,L|414:201,1,45.925,2|0,3:2|2:0,2:0:0:0:
345,348,216105,2,0,L|284:361,1,45.925,2|0,2:0|2:0,2:0:0:0:
157,299,216255,6,0,B|135:219|135:219|171:172,1,137.775,8|0,2:0|2:0,2:0:0:0:
234,120,216555,1,4,3:0:0:0:
78,40,216705,5,0,3:0:0:0:
78,40,216780,1,0,3:0:0:0:
78,40,216855,2,0,L|127:48,1,45.925,8|8,2:0|3:0,2:0:0:0:
207,111,217005,2,0,L|269:97,1,45.925,8|0,3:0|3:0,2:0:0:0:
405,18,217155,5,8,2:0:0:0:
380,45,217230,1,8,3:0:0:0:
372,80,217305,1,0,3:0:0:0:
382,115,217380,1,0,3:0:0:0:
400,146,217455,1,8,2:0:0:0:
408,181,217530,1,8,2:0:0:0:
397,216,217605,2,0,L|338:207,1,45.925,8|8,2:0|2:0,2:0:0:0:
176,302,217755,5,0,3:0:0:0:
176,302,217830,1,0,3:0:0:0:
176,302,217905,5,8,2:0:0:0:
215,277,217980,1,8,2:0:0:0:
260,279,218055,1,8,2:0:0:0:
296,306,218130,1,8,2:0:0:0:
329,337,218205,1,8,3:0:0:0:
370,356,218280,1,8,3:0:0:0:
414,343,218355,2,0,L|429:275,1,54.275,8|8,2:0|2:0,2:0:0:0:
307,150,218505,2,0,L|321:201,1,54.275,8|8,3:0|3:0,2:0:0:0:
512,63,218655,6,0,B|469:31|469:31|410:49,1,108.55,2|0,2:0|3:0,2:0:0:0:
438,205,218880,5,8,3:0:0:0:
438,205,218955,2,0,P|446:157|457:101,1,91.85,12|0,2:0|2:0,2:0:0:0:
231,32,219255,5,8,2:0:0:0:
344,136,219405,1,0,3:0:0:0:
230,204,219555,5,8,2:0:0:0:
322,51,219705,1,0,3:0:0:0:
173,128,219855,5,8,2:0:0:0:
305,259,220005,1,0,3:0:0:0:
312,285,220080,1,0,3:0:0:0:
310,312,220155,5,8,2:0:0:0:
154,370,220305,1,0,3:0:0:0:
212,283,220455,5,8,2:0:0:0:
403,361,220605,1,0,3:0:0:0:
290,239,220755,5,8,2:0:0:0:
489,186,220905,1,0,3:0:0:0:
254,155,221055,5,8,2:0:0:0:
420,339,221205,1,0,3:0:0:0:
429,314,221280,1,0,3:0:0:0:
431,287,221355,5,12,2:0:0:0:
370,180,221505,1,0,3:0:0:0:
445,56,221655,5,8,2:0:0:0:
273,138,221805,1,0,3:0:0:0:
215,34,221955,5,8,2:0:0:0:
368,149,222105,1,0,3:0:0:0:
230,240,222255,5,8,2:0:0:0:
318,23,222405,1,0,3:0:0:0:
325,49,222480,1,0,3:0:0:0:
329,76,222555,5,8,2:0:0:0:
161,155,222705,1,0,3:0:0:0:
236,27,222855,5,8,2:0:0:0:
398,131,223005,1,0,3:0:0:0:
234,111,223155,5,12,2:0:0:0:
455,41,223305,1,0,3:0:0:0:
234,111,223455,1,12,2:0:0:0:
466,250,223755,6,0,P|454:294|446:349,1,91.85,6|0,2:0|3:0,2:0:0:0:
309,165,224053,2,0,P|321:121|329:66,1,91.85,8|0,2:0|3:0,2:0:0:0:
299,288,224352,6,0,P|255:300|200:308,1,91.85,2|0,2:0|3:0,2:0:0:0:
423,135,224650,2,0,P|467:123|522:115,1,91.85,8|0,2:0|3:0,2:0:0:0:
371,223,224949,5,14,2:0:0:0:
203,102,225098,1,0,3:0:0:0:
336,30,225247,5,14,2:0:0:0:
218,272,225396,1,0,3:0:0:0:
54,54,225546,5,8,2:0:0:0:
70,73,225645,2,0,P|60:102|50:148,1,61.2333333333333,8|8,3:0|3:0,2:0:0:0:
204,179,225844,5,8,3:0:0:0:
220,160,225944,2,0,P|210:131|200:85,1,61.2333333333333,0|0,3:0|3:0,2:0:0:0:
104,211,226143,6,0,P|193:197|245:250,1,167,4|0,2:0|2:0,2:0:0:0:
176,291,226602,1,2,2:0:0:0:
361,169,226755,2,0,P|413:229|396:308,1,167,12|0,2:0|2:0,2:0:0:0:
283,165,227205,6,0,P|322:152|363:144,1,83.5,0|2,3:0|2:0,2:0:0:0:
503,294,227505,2,0,P|463:306|422:314,1,83.5,0|0,3:0|2:0,2:0:0:0:
323,254,227805,1,0,3:0:0:0:
476,98,227955,2,0,B|395:75|403:150|313:124,1,167,12|0,2:0|2:0,2:0:0:0:
245,49,228405,6,0,P|278:28|324:29,1,83.5,0|2,3:0|2:0,2:0:0:0:
469,189,228705,2,0,P|433:210|392:209,1,83.5,0|0,3:0|2:0,2:0:0:0:
317,125,229005,1,0,3:0:0:0:
290,319,229155,6,0,B|302:262|302:262|283:219|283:219|299:159,1,167,12|0,2:0|2:0,2:0:0:0:
432,301,229605,2,0,L|379:311,1,41.75,2|0,2:0|2:0,2:0:0:0:
172,380,229755,5,8,2:0:0:0:
155,351,229830,1,8,3:0:0:0:
155,317,229905,1,0,3:0:0:0:
170,287,229980,1,0,3:0:0:0:
187,258,230055,1,8,3:0:0:0:
198,226,230130,1,0,3:0:0:0:
193,192,230205,1,0,3:0:0:0:
172,165,230280,1,0,3:0:0:0:
148,199,230355,5,0,3:0:0:0:
186,215,230430,1,0,3:0:0:0:
226,206,230505,1,8,3:0:0:0:
259,180,230580,1,8,3:0:0:0:
286,148,230655,1,0,3:0:0:0:
323,130,230730,1,0,3:0:0:0:
364,127,230805,1,0,3:0:0:0:
402,143,230880,1,0,3:0:0:0:
427,175,230955,6,0,P|416:213|404:275,1,83.5,4|0,2:0|2:0,2:0:0:0:
242,49,231256,2,0,P|253:89|262:129,1,83.5,8|0,2:0|3:0,2:0:0:0:
247,230,231481,5,8,3:0:0:0:
237,220,231557,2,0,P|219:185|245:117,1,66.8,8|0,2:0|2:0,2:0:0:0:
399,58,231758,2,0,P|417:93|391:161,1,66.8,8|0,2:0|2:0,2:0:0:0:
487,239,231958,2,0,P|452:230|417:227,1,66.8,8|0,2:0|2:0,2:0:0:0:
251,343,232159,6,0,P|297:318|355:327,1,100.2,8|0,2:0|2:0,2:0:0:0:
503,355,232686,6,0,L|462:364,1,41.75,2|0,2:0|2:0,2:0:0:0:
436,380,232837,2,0,B|463:311|463:311|434:259|434:259|462:209|462:209|448:138,1,250.5,2|0,2:0|2:0,2:0:0:0:
432,127,233364,5,12,2:0:0:0:
247,230,233513,1,2,2:0:0:0:
348,296,233662,1,2,2:0:0:0:
156,132,233811,5,12,2:0:0:0:
259,317,233961,1,2,2:0:0:0:
325,216,234110,1,2,2:0:0:0:
168,384,234259,5,12,2:0:0:0:
353,281,234408,1,2,2:0:0:0:
252,215,234558,1,2,2:0:0:0:
428,384,234707,5,12,2:0:0:0:
325,199,234856,1,2,2:0:0:0:
259,300,235005,1,2,2:0:0:0:
424,200,235155,5,8,2:0:0:0:
232,140,235304,1,0,3:0:0:0:
468,16,235453,5,8,2:0:0:0:
320,88,235602,1,0,3:0:0:0:
320,88,235677,1,0,3:0:0:0:
320,88,235752,2,0,L|336:180,1,83.5,12|0,2:0|2:0,2:0:0:0:
424,116,236054,5,0,2:0:0:0:
240,316,236205,2,0,P|250:275|256:224,1,83.5,12|0,2:0|2:0,2:0:0:0:
176,179,236507,5,0,2:0:0:0:
360,379,236658,2,0,P|350:338|344:287,1,83.5,12|0,2:0|2:0,2:0:0:0:
251,349,236961,5,2,2:0:0:0:
477,244,237111,2,0,P|436:195|330:210,1,167,12|0,2:0|2:0,2:0:0:0:
458,372,237561,5,8,2:0:0:0:
332,284,237711,1,2,2:0:0:0:
456,153,237861,1,0,3:0:0:0:
456,153,238011,1,0,3:0:0:0:
238,47,238161,6,0,P|278:56|321:64,1,83.5,12|0,2:0|2:0,2:0:0:0:
421,24,238464,1,2,2:0:0:0:
157,178,238616,6,0,P|197:169|240:161,1,83.5,12|0,2:0|2:0,2:0:0:0:
340,201,238919,1,2,2:0:0:0:
55,70,239071,6,0,P|95:79|138:87,1,83.5,12|0,2:0|2:0,2:0:0:0:
238,47,239374,1,2,2:0:0:0:
36,284,239523,6,0,P|76:275|119:267,1,83.5,12|0,2:0|2:0,2:0:0:0:
219,307,239821,1,2,2:0:0:0:
266,28,239971,6,0,P|325:92|302:169,1,167,12|12,2:0|2:0,2:0:0:0:
129,249,240418,2,0,L|189:236,1,41.75,0|0,3:0|3:0,2:0:0:0:
279,195,240568,5,8,2:0:0:0:
319,184,240642,1,8,2:0:0:0:
358,196,240716,1,8,2:0:0:0:
387,225,240790,1,8,2:0:0:0:
412,258,240864,1,0,3:0:0:0:
449,275,240938,1,0,3:0:0:0:
490,267,241012,2,0,L|506:213,1,41.75,8|8,3:0|3:0,2:0:0:0:
371,351,241160,5,8,3:0:0:0:
333,369,241234,1,8,3:0:0:0:
291,364,241308,1,0,3:0:0:0:
256,340,241382,1,0,3:0:0:0:
222,308,241456,5,8,2:0:0:0:
180,289,241530,1,8,2:0:0:0:
134,291,241605,1,8,2:0:0:0:
94,314,241679,1,8,2:0:0:0:
71,353,241753,6,0,P|59:327|58:292,1,54.275,0|0,3:0|3:0,2:0:0:0:
181,207,241904,2,0,P|193:233|194:268,1,54.275,8|8,3:0|3:0,2:0:0:0:
92,148,242055,5,8,3:0:0:0:
121,116,242130,1,8,3:0:0:0:
160,99,242206,1,0,3:0:0:0:
203,103,242281,1,0,3:0:0:0:
242,122,242357,1,8,3:0:0:0:
274,150,242433,1,8,3:0:0:0:
316,159,242508,1,2,2:0:0:0:
357,145,242584,1,2,2:0:0:0:
390,117,242659,2,0,P|323:68|247:95,1,162.825,6|0,2:0|2:0,2:0:0:0:
137,18,242962,6,0,L|163:117,1,83.5,12|0,2:0|2:0,2:0:0:0:
8,223,243263,2,0,B|43:198|43:198|86:202,1,83.5,8|2,2:0|2:0,2:0:0:0:
179,297,243565,2,0,B|182:337|182:337|157:372,1,83.5,8|0,2:0|2:0,2:0:0:0:
58,307,243866,6,0,L|75:216,1,83.5,8|0,2:0|3:0,2:0:0:0:
85,151,244092,1,0,3:0:0:0:
85,151,244168,1,8,2:0:0:0:
168,277,244316,1,2,2:0:0:0:
138,51,244464,5,8,2:0:0:0:
220,188,244613,1,0,3:0:0:0:
250,38,244761,5,8,2:0:0:0:
168,277,244910,1,2,2:0:0:0:
178,118,245058,5,8,2:0:0:0:
260,357,245206,1,0,3:0:0:0:
260,357,245281,1,0,3:0:0:0:
260,357,245355,6,0,P|301:347|362:338,1,83.5,12|0,2:0|2:0,2:0:0:0:
470,185,245656,2,0,P|485:222|475:273,1,83.5,8|2,2:0|2:0,2:0:0:0:
346,116,245957,2,0,P|340:75|355:36,1,83.5,8|0,2:0|2:0,2:0:0:0:
250,235,246258,6,0,L|155:257,1,83.5,8|0,2:0|3:0,2:0:0:0:
96,279,246484,1,0,3:0:0:0:
96,279,246559,1,8,2:0:0:0:
193,159,246710,1,2,2:0:0:0:
40,190,246860,5,8,2:0:0:0:
207,68,247011,1,0,3:0:0:0:
71,21,247161,5,12,2:0:0:0:
168,253,247307,1,2,2:0:0:0:
275,149,247453,5,12,2:0:0:0:
178,381,247600,1,2,2:0:0:0:
168,253,247746,6,0,P|207:262|257:271,1,83.5,12|0,2:0|2:0,2:0:0:0:
425,370,248046,5,8,2:0:0:0:
449,346,248121,1,0,3:0:0:0:
462,315,248196,1,0,3:0:0:0:
466,281,248271,1,0,3:0:0:0:
453,250,248346,1,8,2:0:0:0:
430,224,248421,1,0,3:0:0:0:
418,192,248496,1,0,3:0:0:0:
422,158,248571,1,0,3:0:0:0:
442,131,248646,1,8,2:0:0:0:
465,165,248721,5,0,3:0:0:0:
431,190,248796,1,0,3:0:0:0:
389,191,248871,1,0,3:0:0:0:
352,169,248946,1,8,2:0:0:0:
315,148,249021,1,0,3:0:0:0:
270,152,249096,1,0,3:0:0:0:
237,177,249172,1,0,3:0:0:0:
221,215,249247,6,0,L|234:270,1,41.75,8|0,2:0|2:0,2:0:0:0:
118,144,249398,2,0,L|131:89,1,41.75,0|0,3:0|3:0,2:0:0:0:
12,263,249549,2,0,P|50:252|113:237,1,83.5,8|0,2:0|3:0,2:0:0:0:
113,229,249775,1,0,3:0:0:0:
113,229,249850,6,0,L|86:363,1,125.25,10|0,2:0|3:0,2:0:0:0:
112,368,250152,5,8,2:0:0:0:
152,359,250226,1,8,3:0:0:0:
193,351,250300,1,8,3:0:0:0:
233,342,250374,1,8,3:0:0:0:
273,331,250448,2,0,L|257:271,1,41.75,0|0,3:0|3:0,2:0:0:0:
228,128,250596,5,8,2:0:0:0:
268,137,250670,1,8,3:0:0:0:
309,145,250744,1,8,3:0:0:0:
349,154,250818,1,8,3:0:0:0:
389,165,250892,2,0,L|373:225,1,41.75,0|0,3:0|3:0,2:0:0:0:
235,216,251040,5,12,2:0:0:0:
200,185,251116,1,8,3:0:0:0:
193,139,251192,1,8,3:0:0:0:
213,97,251268,1,8,3:0:0:0:
253,74,251344,2,0,L|321:88,1,41.75,0|0,3:0|3:0,2:0:0:0:
453,275,251496,5,12,2:0:0:0:
488,244,251572,1,8,3:0:0:0:
495,198,251648,1,8,3:0:0:0:
475,156,251724,1,8,3:0:0:0:
435,133,251800,2,0,L|367:147,1,41.75,8|0,3:0|3:0,2:0:0:0:
280,265,251953,6,0,L|297:361,1,83.5,10|0,2:0|2:0,2:0:0:0:
312,319,252178,2,0,L|297:236,1,83.5,10|0,2:0|2:0,2:0:0:0:
293,82,252403,6,0,L|307:157,1,62.625,14|0,2:0|2:0,2:0:0:0:
