osu file format v14

[General]
AudioFilename: audio.mp3
AudioLeadIn: 0
PreviewTime:114630
Countdown: 0
SampleSet: Soft
StackLeniency: 0.7
Mode: 0
LetterboxInBreaks: 0
WidescreenStoryboard: 1

[Editor]
Bookmarks: 554,22155,50955,77340,96555,115755,142176,161358,180777,180855,181011,181245,181375,181556,181582,181790,181887,182081,182154,182275,182445,182590,182663,182809,182955,183105,183180,183330,183480,183630,183705,183855,184005,184155,184305,184455,184530,184680,184828,184975,185122,185269,185418,185570,185722,185798,185874,185950,186102,186254,186406,186558,186708,186784,186934,187085,187236,187311,199749,233364
DistanceSpacing: 1.4
BeatDivisor: 4
GridSize: 4
TimelineZoom: 3.399998

[Metadata]
Title:Thrill, Risk, Heartless
TitleUnicode:Thrill, Risk, Heartless
Artist:LiSA
ArtistUnicode:LiSA
Creator:SkyFlame
Version:Collab Hard
Source:Sword Art Online: Fatal Bullet
Tags:grandfinals gf hr1 osu! world cup owc 2020 ソードアート・オンライン フェイタル・バレット opening sao ps4 playstation sony op full ver. ver version female vocal japanese video game anime rock jrock j-rock akitoshi -Laura- Corinn kalibe ohwow -_ex_- - Ex kowari tycani
BeatmapID:3197544
BeatmapSetID:1312103

[Difficulty]
HPDrainRate:4.5
CircleSize:3.5
OverallDifficulty:6.5
ApproachRate:8
SliderMultiplier:1.4
SliderTickRate:1

[Events]
//Background and Video events
0,0,"kirito kun and friends.jpg",0,0
//Break Periods
2,87293,88446
2,180744,186863
//Storyboard Layer 0 (Background)
//Storyboard Layer 1 (Fail)
//Storyboard Layer 2 (Pass)
//Storyboard Layer 3 (Foreground)
//Storyboard Layer 4 (Overlay)
//Storyboard Sound Samples

[TimingPoints]
418,272.727272727273,4,2,4,40,1,0
554,292.682926829268,4,2,4,40,1,0
1139,301.507537688442,4,2,0,40,1,0
1139,-125,4,2,0,40,0,0
1742,301.507537688442,4,2,0,40,1,0
2345,303.030303030303,4,2,0,40,1,0
2951,298.507462686567,4,2,0,40,1,0
2951,-125,4,2,0,40,0,0
4145,300,4,2,0,40,1,0
4745,-125,4,2,1,60,0,0
5045,-125,4,2,1,62,0,0
5345,-125,4,2,1,65,0,0
6545,-125,4,2,1,62,0,0
6995,-125,4,2,1,60,0,0
7145,306.122448979592,4,2,1,64,1,0
7757,295.566502463054,4,2,1,60,1,0
7757,-125,4,2,1,60,0,0
8348,303.030303030303,4,2,1,60,1,0
8348,-125,4,2,1,60,0,0
8954,303.030303030303,4,2,1,60,1,0
8954,-125,4,2,1,60,0,0
9560,285.714285714286,4,2,1,60,1,0
9560,-125,4,2,1,60,0,0
9845,303.79746835443,4,2,1,60,1,0
10148,297.766749379653,4,2,1,65,1,0
10445,-111.111111111111,4,2,1,65,0,0
11934,307.692307692308,4,2,1,68,1,0
11934,-111.111111111111,4,2,1,68,0,0
12549,303.030303030303,4,2,2,70,1,0
12624,-100,4,2,1,70,0,0
13761,300,4,2,1,70,1,0
16161,298.507462686567,4,2,1,70,1,0
17355,300,4,2,1,70,1,0
22155,-111.111111111111,4,2,1,64,0,0
26955,-111.111111111111,4,2,1,68,0,0
31755,-111.111111111111,4,2,1,64,0,0
34155,294.117647058824,4,2,1,68,1,0
34449,-111.111111111111,4,2,1,68,0,0
35331,306.122448979592,4,2,1,72,1,0
35331,-111.111111111111,4,2,1,72,0,0
35943,300,4,2,1,72,1,0
35943,-111.111111111111,4,2,1,72,0,0
36543,303.030303030303,4,2,1,68,1,0
36543,-111.111111111111,4,2,1,68,0,0
37755,300,4,2,1,68,1,0
38055,-111.111111111111,4,2,1,68,0,0
41355,-117.647058823529,4,2,1,70,0,0
46155,295.566502463054,4,2,1,70,1,0
46155,-117.647058823529,4,2,1,70,0,0
47337,304.568527918782,4,2,1,70,1,0
47337,-117.647058823529,4,2,1,70,0,0
48555,300,4,2,1,74,1,0
48555,-105.263157894737,4,2,1,74,0,0
50955,-90.9090909090909,4,2,2,80,0,1
51030,-90.9090909090909,4,2,1,80,0,1
60480,-90.9090909090909,4,2,1,80,0,0
60555,-90.9090909090909,4,2,2,82,0,1
60630,-90.9090909090909,4,2,1,82,0,1
64155,297.766749379653,4,2,1,82,1,1
64452,-90.9090909090909,4,2,1,82,0,1
65346,300,4,2,1,82,1,1
65346,-90.9090909090909,4,2,1,82,0,1
66546,302.267002518892,4,2,1,82,1,1
66546,-90.9090909090909,4,2,1,82,0,1
67755,300,4,2,1,82,1,1
67755,-90.9090909090909,4,2,1,82,0,1
70080,-90.9090909090909,4,2,1,82,0,0
70155,300.751879699248,4,2,1,85,1,1
70155,-90.9090909090909,4,2,1,85,0,1
72561,301.507537688442,4,2,1,85,1,1
72561,-90.9090909090909,4,2,1,85,0,1
73767,291.26213592233,4,2,1,85,1,1
73767,-90.9090909090909,4,2,1,85,0,1
74640,315.789473684211,4,2,1,85,1,1
74955,300,4,2,1,80,1,1
74955,-90.9090909090909,4,2,1,80,0,1
75555,-90.9090909090909,4,2,1,84,0,1
76155,-90.9090909090909,4,2,1,65,0,1
76755,292.682926829268,4,2,1,70,1,1
76755,-90.9090909090909,4,2,1,70,0,1
77340,301.507537688442,4,2,2,75,1,0
77434,-100,4,2,1,75,0,0
81259,298.507462686567,4,2,1,75,1,0
81856,285.714285714286,4,2,1,75,1,0
82141,303.030303030303,4,2,1,75,1,0
83959,296.296296296296,4,2,1,75,1,0
84551,291.26213592233,4,2,1,75,1,0
84987,302.267002518892,4,2,1,75,1,0
85138,302.267002518892,4,2,1,75,1,0
85742,300,4,2,1,75,1,0
86942,303.030303030303,4,2,1,60,1,0
88154,300,4,2,1,60,1,0
89054,285.714285714286,4,2,1,60,1,0
89339,315.789473684211,4,2,1,62,1,0
89654,303.030303030303,4,2,1,62,1,0
89957,-100,4,2,1,64,0,0
90563,298.136645962733,4,2,1,64,1,0
91159,-100,4,2,1,66,0,0
91755,300,4,2,1,68,1,0
91905,-125,4,2,1,68,0,0
96555,297.029702970297,4,2,1,62,1,0
96555,-125,4,2,1,62,0,0
97149,304.568527918782,4,2,1,68,1,0
97758,304.568527918782,4,2,1,68,1,0
98367,294.117647058824,4,2,1,70,1,0
98367,-111.111111111111,4,2,1,70,0,0
98955,299.25187032419,4,2,1,70,1,0
99254,-111.111111111111,4,2,1,70,0,0
100152,289.156626506024,4,2,1,70,1,0
100152,-111.111111111111,4,2,1,70,0,0
100730,304.568527918782,4,2,1,62,1,0
100730,-111.111111111111,4,2,1,62,0,0
101339,306.122448979592,4,2,1,68,1,0
101339,-111.111111111111,4,2,1,68,0,0
102563,298.136645962733,4,2,1,68,1,0
103159,-111.111111111111,4,2,1,68,0,0
103755,300,4,2,1,68,1,0
103755,-111.111111111111,4,2,1,68,0,0
106155,-117.647058823529,4,2,1,70,0,0
110955,-99.9999999999999,4,2,1,72,0,0
113355,-99.9999999999999,4,2,1,76,0,0
114705,-99.9999999999999,4,2,1,78,0,0
115755,-90.9090909090909,4,2,2,80,0,1
115830,-90.9090909090909,4,2,1,80,0,1
118155,297.029702970297,4,2,1,80,1,1
118155,-90.9090909090909,4,2,1,80,0,1
120531,303.030303030303,4,2,1,80,1,1
120531,-90.9090909090909,4,2,1,80,0,1
122955,300,4,2,1,80,1,1
122955,-90.9090909090909,4,2,1,80,0,1
125280,-90.9090909090909,4,2,1,80,0,0
125355,-90.9090909090909,4,2,2,82,0,1
125430,-90.9090909090909,4,2,1,82,0,1
134955,-90.9090909090909,4,2,1,85,0,1
139755,-90.9090909090909,4,2,1,80,0,1
140955,-90.9090909090909,4,2,1,84,0,1
141555,306.122448979592,4,2,1,84,1,1
141555,-90.9090909090909,4,2,1,84,0,1
141861,315.789473684211,4,2,1,84,1,1
141861,-90.9090909090909,4,2,1,84,0,1
142176,289.855072463768,4,2,2,72,1,0
142320,-111.111111111111,4,2,2,72,0,0
142755,300,4,2,2,72,1,0
143205,-111.111111111111,4,2,2,72,0,0
143355,300,4,2,1,72,1,0
143955,-111.111111111111,4,2,1,72,0,0
146955,297.766749379653,4,2,1,72,1,0
147103,-111.111111111111,4,2,1,72,0,0
149337,304.568527918782,4,2,1,72,1,0
149489,-111.111111111111,4,2,1,72,0,0
149946,300,4,2,1,72,1,0
150396,-111.111111111111,4,2,1,72,0,0
150546,300,4,2,1,72,1,0
151146,304.568527918782,4,2,1,80,1,0
151146,-111.111111111111,4,2,1,80,0,0
151755,297.029702970297,4,2,1,74,1,0
151903,-111.111111111111,4,2,1,74,0,0
153537,303.030303030303,4,2,1,74,1,0
153688,-111.111111111111,4,2,1,74,0,0
154143,303.030303030303,4,2,1,74,1,0
154294,-111.111111111111,4,2,1,74,0,0
155355,295.20295202952,4,2,1,74,1,0
155945,-111.111111111111,4,2,1,74,0,0
156535,305.149396058487,4,2,1,74,1,0
156687,-111.111111111111,4,2,1,74,0,0
157755,295.566502463054,4,2,1,74,1,0
158937,306.122448979592,4,2,1,80,1,0
160161,303.030303030303,4,2,1,80,1,0
160767,295.566502463054,4,2,1,80,1,0
161358,300,4,2,1,68,1,0
161358,-111.111111111111,4,2,1,68,0,0
169758,292.682926829268,4,2,1,68,1,0
169758,-111.111111111111,4,2,1,68,0,0
170636,314.13612565445,4,2,1,68,1,0
170636,-111.111111111111,4,2,1,68,0,0
170950,301.129234629862,4,2,1,70,1,0
170950,-125,4,2,1,70,0,0
173359,300,4,2,1,70,1,0
173359,-125,4,2,1,70,0,0
175459,303.030303030303,4,2,1,70,1,0
175459,-125,4,2,1,70,0,0
175762,299.21456177534,4,2,1,75,1,0
175762,-111.111111111111,4,2,1,75,0,0
176958,-111.111111111111,4,2,1,80,0,0
178155,300,4,2,1,85,1,0
179355,297.324083250743,4,2,1,85,1,0
179949,-125,4,2,1,85,0,0
180544,311.688311688312,4,2,1,85,1,0
181790,291.26213592233,4,2,1,85,1,0
182955,300,4,2,1,85,1,0
184755,294.117647058824,4,2,1,85,1,0
185343,303.79746835443,4,2,1,85,1,0
186558,301.507537688442,4,2,1,85,1,0
187613,-100,4,2,1,50,0,0
187764,297.766749379653,4,2,1,50,1,0
188657,-100,4,2,1,70,0,0
188955,300,4,2,1,80,1,0
188955,-111.111111111111,4,2,1,80,0,0
190155,303.030303030303,4,2,1,90,1,0
191367,298.507462686567,4,2,1,90,1,0
192561,300,4,2,1,90,1,0
197361,295.566502463054,4,2,1,95,1,0
199134,307.692307692308,4,2,1,95,1,0
199749,300,4,2,2,82,1,1
199749,-90.9090909090909,4,2,2,82,0,1
199824,-90.9090909090909,4,2,1,82,0,1
204249,306.122448979592,4,2,1,82,1,1
204555,300,4,2,1,82,1,1
204555,-90.9090909090909,4,2,1,82,0,1
209280,-90.9090909090909,4,2,1,82,0,0
209355,-90.9090909090909,4,2,2,84,0,1
209430,-90.9090909090909,4,2,1,84,0,1
218880,-90.9090909090909,4,2,1,84,0,0
218955,-90.9090909090909,4,2,1,90,0,1
223755,298.507462686567,4,2,1,82,1,1
223755,-90.9090909090909,4,2,1,82,0,1
224949,-90.9090909090909,4,2,1,85,0,1
226068,-90.9090909090909,4,2,1,85,0,0
226143,306.122448979592,4,2,1,82,1,0
226296,-111.111111111111,4,2,1,82,0,0
226755,300,4,2,1,82,1,0
227355,300,4,2,1,82,1,0
227505,-111.111111111111,4,2,1,82,0,0
229755,-111.111111111111,4,2,1,85,0,0
230955,301.129234629862,4,2,1,82,1,0
230955,-111.111111111111,4,2,1,82,0,0
231557,-111.111111111111,4,2,1,85,0,0
232159,-111.111111111111,4,2,1,70,0,0
232761,-111.111111111111,4,2,1,75,0,0
233364,298.507462686567,4,2,2,80,1,0
233364,-90.9090909090909,4,2,2,80,0,0
233438,-90.9090909090909,4,2,1,80,0,0
235752,302.267002518892,4,2,1,80,1,0
235752,-90.9090909090909,4,2,1,80,0,0
236961,300,4,2,1,80,1,0
237261,-90.9090909090909,4,2,1,80,0,0
238161,303.413400758534,4,2,1,80,1,0
238312,-90.9090909090909,4,2,1,80,0,0
239374,298.507462686567,4,2,1,80,1,0
239672,-90.9090909090909,4,2,1,80,0,0
240568,296.296296296296,4,2,1,84,1,0
240716,-90.9090909090909,4,2,1,84,0,0
241753,302.267002518892,4,2,1,84,1,0
242055,-90.9090909090909,4,2,1,84,0,0
242962,301.507537688442,4,2,1,80,1,0
242962,-90.9090909090909,4,2,1,80,0,0
244168,296.846011131725,4,2,1,80,1,0
244168,-90.9090909090909,4,2,1,80,0,0
245355,301.129234629862,4,2,1,80,1,0
245355,-90.9090909090909,4,2,1,80,0,0
247161,292.682926829268,4,2,1,80,1,0
247161,-90.9090909090909,4,2,1,80,0,0
247746,300,4,2,1,82,1,0
248046,-90.9090909090909,4,2,1,82,0,0
248946,301.507537688442,4,2,1,82,1,0
249096,-90.9090909090909,4,2,1,82,0,0
250152,296.296296296296,4,2,1,84,1,0
250152,-90.9090909090909,4,2,1,84,0,0
251040,304.568527918782,4,2,1,84,1,0
251040,-90.9090909090909,4,2,1,84,0,0
251344,304.568527918782,4,2,1,84,1,0
251496,-90.9090909090909,4,2,1,84,0,0
251953,300,4,2,1,82,1,0
251953,-90.9090909090909,4,2,1,82,0,0

[Colours]
Combo1 : 230,0,0
Combo2 : 180,255,255
Combo3 : 255,75,75
Combo4 : 0,230,230
SliderBorder : 237,28,36

[HitObjects]
82,117,1139,6,0,P|34:215|82:315,2,224.0056,2|2|2,2:0|2:0|2:0,2:0:0:0:
395,121,2951,2,0,P|443:219|395:319,2,224.0056,2|2|2,2:0|2:0|2:0,2:0:0:0:
95,25,4745,2,0,L|47:33,2,28,2|0|0,1:2|1:2|1:2,2:0:0:0:
173,15,5045,1,12,2:0:0:0:
260,145,5345,1,14,2:0:0:0:
157,263,5645,6,0,L|149:337,1,56,10|8,2:0|2:0,2:0:0:0:
217,360,5945,2,0,L|285:329,1,56,10|8,2:0|2:0,2:0:0:0:
276,258,6245,2,0,L|215:214,1,56,10|8,2:0|2:0,2:0:0:0:
164,182,6545,1,2,1:2:0:0:
367,64,6995,2,0,L|377:11,2,28,0|0|14,1:2|1:2|2:0,2:0:0:0:
499,348,7757,6,0,L|365:324,1,112,6|0,1:2|1:2,2:0:0:0:
328,182,8348,2,0,L|194:158,1,112,0|0,1:2|1:2,2:0:0:0:
127,33,8954,2,0,P|94:85|108:149,1,112,0|0,1:2|1:2,2:0:0:0:
189,262,9560,2,0,P|222:210|208:146,1,111.944,0|0,1:2|1:2,2:0:0:0:
81,242,10148,1,6,1:2:0:0:
182,361,10445,6,0,L|235:352,3,31.5,8|8|8|8,2:0|2:0|2:0|2:0,2:0:0:0:
251,332,10743,2,0,L|282:337,3,31.5,8|8|8|8,2:0|2:0|2:0|2:0,2:0:0:0:
322,356,11041,2,0,L|375:347,3,31.5,8|8|8|8,2:0|2:0|2:0|2:0,2:0:0:0:
391,327,11339,2,0,L|422:332,3,31.5,8|8|8|8,2:0|2:0|2:0|2:0,2:0:0:0:
463,348,11636,1,8,2:0:0:0:
496,266,11785,1,0,1:2:0:0:
496,266,11860,1,0,1:2:0:0:
496,266,11934,2,0,B|478:226|496:190|496:190|468:173|468:173|490:134|485:93,1,189,14|0,2:0|2:0,2:0:0:0:
414,31,12549,6,0,L|327:31,1,70,6|2,1:2|1:2,2:0:0:0:
246,34,12852,1,10,2:0:0:0:
55,81,13155,2,0,P|50:41|62:-4,1,70,2|2,1:2|1:2,2:0:0:0:
152,47,13458,5,10,2:0:0:0:
152,47,13609,2,0,L|148:192,1,139.547333333333,2|2,1:2|1:2,2:0:0:0:
66,240,14061,2,0,L|75:318,1,70,10|2,2:0|2:0,2:0:0:0:
152,368,14361,2,0,P|201:363|233:336,1,70,2|2,1:2|1:2,2:0:0:0:
251,260,14661,1,10,2:0:0:0:
251,64,14961,6,0,L|346:49,1,70,2|2,1:2|1:2,2:0:0:0:
416,31,15261,1,10,2:0:0:0:
497,168,15561,2,0,P|467:188|422:185,1,70,2|2,1:2|1:2,2:0:0:0:
420,286,15861,5,10,2:0:0:0:
420,286,16011,2,0,P|347:252|331:190,1,139.533333333333,2|2,1:2|1:2,2:0:0:0:
355,104,16459,2,0,L|268:95,1,70,10|2,2:0|2:0,2:0:0:0:
206,37,16758,2,0,L|114:51,1,70,2|2,1:2|1:2,2:0:0:0:
88,57,16981,1,0,1:2:0:0:
88,57,17056,1,14,2:0:0:0:
12,238,17355,6,0,P|2:291|13:321,1,70,6|2,1:2|1:2,2:0:0:0:
80,369,17655,1,10,2:0:0:0:
219,230,17955,2,0,L|207:132,1,70,2|2,1:2|1:2,2:0:0:0:
137,103,18255,5,10,2:0:0:0:
137,103,18405,2,0,B|201:70|201:70|277:85,1,140,2|2,1:2|1:2,2:0:0:0:
354,129,18855,2,0,L|344:205,1,70,10|2,2:0|2:0,2:0:0:0:
246,200,19155,2,0,L|256:276,1,70,2|2,1:2|1:2,2:0:0:0:
274,366,19455,1,10,2:0:0:0:
466,331,19755,6,0,P|470:281|450:237,1,70,2|2,1:2|1:2,2:0:0:0:
376,217,20055,1,10,2:0:0:0:
427,27,20355,2,0,L|504:16,2,70,2|2|10,1:2|1:2|2:0,2:0:0:0:
348,103,20805,6,0,B|299:92|299:92|262:102|262:102|193:91,1,140,2|10,1:2|2:0,2:0:0:0:
137,28,21255,2,0,P|115:65|111:103,1,70,10|10,2:0|2:0,2:0:0:0:
13,102,21555,2,0,P|23:143|47:173,1,70,10|10,2:0|2:0,2:0:0:0:
131,211,21855,1,10,2:0:0:0:
131,211,22005,1,10,2:0:0:0:
220,172,22155,6,0,B|300:171|274:133|367:136,1,126,6|0,1:2|1:2,2:0:0:0:
427,115,22605,1,2,2:0:0:0:
427,115,22755,2,0,B|406:259,1,126,2|0,1:2|1:2,2:0:0:0:
451,316,23205,1,2,2:0:0:0:
378,366,23355,6,0,P|328:328|260:337,1,126,2|2,1:2|1:2,2:0:0:0:
180,344,23805,2,0,L|193:274,1,63.0000000000001,2|0,2:0|1:2,2:0:0:0:
243,211,24105,1,2,2:0:0:0:
243,211,24255,2,0,L|230:141,1,63.0000000000001,2|2,1:2|2:0,2:0:0:0:
233,60,24555,6,0,P|177:25|100:43,1,126,6|0,1:2|1:2,2:0:0:0:
49,83,25005,1,2,2:0:0:0:
49,83,25155,2,0,L|64:221,1,126,2|0,1:2|1:2,2:0:0:0:
26,288,25605,1,2,2:0:0:0:
97,339,25755,6,0,L|161:326,1,63.0000000000001,2|2,1:2|2:0,2:0:0:0:
232,277,26055,2,0,L|296:290,1,63.0000000000001,6|2,1:2|2:0,2:0:0:0:
357,351,26355,2,0,L|406:337,3,31.5,2|0|2|0,1:2|1:2|1:2|1:2,2:0:0:0:
421,314,26655,2,0,L|413:250,1,63.0000000000001,14|0,2:0|2:0,2:0:0:0:
479,192,26955,6,0,L|336:191,1,126,4|8,1:2|2:0,2:0:0:0:
301,119,27405,1,0,1:2:0:0:
361,55,27555,2,0,L|438:72,1,63.0000000000001,0|0,1:2|1:2,2:0:0:0:
290,1,27855,1,8,2:0:0:0:
212,43,28005,6,0,L|227:174,1,126,0|2,1:2|1:2,2:0:0:0:
194,199,28380,1,0,1:2:0:0:
194,199,28455,2,0,L|126:188,1,63.0000000000001,10|2,2:0|2:0,2:0:0:0:
58,237,28755,2,0,P|52:287|65:311,1,63.0000000000001,2|2,1:2|1:2,2:0:0:0:
124,353,29055,2,0,L|206:340,1,63.0000000000001,14|0,2:0|2:0,2:0:0:0:
247,279,29355,6,0,L|388:310,1,126,4|8,1:2|2:0,2:0:0:0:
441,253,29805,1,0,1:2:0:0:
384,184,29955,2,0,L|392:111,1,63.0000000000001,0|0,1:2|1:2,2:0:0:0:
456,61,30255,1,10,2:0:0:0:
378,18,30405,6,0,B|304:45|304:45|250:19,1,126,2|0,1:2|1:2,2:0:0:0:
196,84,30855,2,0,L|123:68,1,63.0000000000001,12|0,2:0|1:2,2:0:0:0:
48,89,31155,2,0,L|58:132,3,31.5,8|8|8|8,2:0|2:0|2:0|2:0,2:0:0:0:
68,161,31455,2,0,L|58:204,3,31.5,8|8|6|4,2:3|2:3|2:3|2:3,2:0:0:0:
50,234,31755,6,0,P|78:270|159:268,1,126,6|0,1:2|1:2,2:0:0:0:
214,208,32205,1,2,2:0:0:0:
214,208,32355,2,0,L|194:74,1,126,2|0,1:2|1:2,2:0:0:0:
248,12,32805,1,2,2:0:0:0:
310,73,32955,6,0,B|381:73|360:38|452:42,1,126,2|2,1:2|1:2,2:0:0:0:
507,85,33405,2,0,L|495:149,1,63.0000000000001,2|2,2:0|1:2,2:0:0:0:
425,200,33705,1,10,2:0:0:0:
425,200,33855,2,0,L|437:264,1,63.0000000000001,2|2,1:2|1:2,2:0:0:0:
409,345,34155,5,6,1:2:0:0:
234,368,34449,2,0,L|183:353,3,31.5,8|8|10|8,2:0|2:0|2:0|2:0,2:0:0:0:
200,315,34743,2,0,L|149:300,3,31.5,10|8|8|8,2:0|2:0|2:0|2:0,2:0:0:0:
166,262,35037,2,0,L|115:247,3,31.5,8|8|10|8,2:0|2:0|2:0|2:0,2:0:0:0:
107,219,35331,6,0,L|41:224,1,63.0000000000001,10|10,2:0|2:0,2:0:0:0:
9,142,35637,2,0,P|1:105|14:77,1,63.0000000000001,10|10,2:0|2:0,2:0:0:0:
42,0,35943,2,0,L|105:19,1,63.0000000000001,14|8,2:0|2:3,2:0:0:0:
148,93,36243,2,0,L|208:74,1,63.0000000000001,6|0,2:3|1:2,2:0:0:0:
265,7,36543,6,0,L|251:153,1,126,6|8,1:2|2:0,2:0:0:0:
196,199,36997,1,0,1:2:0:0:
272,243,37149,2,0,L|341:228,1,63.0000000000001,0|0,1:2|1:2,2:0:0:0:
411,273,37452,1,12,2:0:0:0:
384,357,37603,6,0,L|249:334,1,125.596796154785,0|2,1:2|1:2,2:0:0:0:
220,313,37980,1,0,1:2:0:0:
220,313,38055,2,0,L|157:326,1,63.0000000000001,10|2,2:0|2:0,2:0:0:0:
72,306,38355,2,0,L|75:233,1,63.0000000000001,2|2,1:2|1:2,2:0:0:0:
82,155,38655,2,0,B|156:171,1,63.0000000000001,14|0,2:0|2:0,2:0:0:0:
207,107,38955,6,0,P|272:84|341:111,1,126,4|8,1:2|2:0,2:0:0:0:
378,169,39405,1,0,1:0:0:0:
316,232,39555,2,0,P|307:276|320:304,1,63.0000000000001,0|0,1:2|1:2,2:0:0:0:
381,347,39855,1,10,2:0:0:0:
449,290,40005,6,0,B|478:247|478:247|464:153,1,126,2|0,1:2|1:2,2:0:0:0:
450,87,40455,2,0,L|520:102,1,63.0000000000001,12|0,2:0|2:0,2:0:0:0:
358,51,40755,6,0,L|348:95,2,42,12|8|4,2:0|2:3|2:3,2:0:0:0:
299,43,41055,2,0,L|289:-1,2,42,10|4|4,2:3|2:3|2:3,2:0:0:0:
251,71,41355,6,0,L|117:51,1,119,6|2,1:2|2:0,2:0:0:0:
56,85,41805,1,0,1:2:0:0:
120,140,41955,2,0,B|148:194|148:194|127:257,1,119,10|2,2:0|2:0,2:0:0:0:
254,359,42555,6,0,L|333:348,1,59.5000000000002,2|0,1:2|1:2,2:0:0:0:
362,283,42855,2,0,L|283:272,1,59.5000000000002,2|0,2:0|1:2,2:0:0:0:
250,209,43155,2,0,P|229:148|271:88,1,119,10|2,2:0|2:0,2:0:0:0:
414,18,43755,6,0,L|403:84,1,59.5000000000002,6|0,1:2|1:2,2:0:0:0:
478,114,44055,2,0,L|467:180,1,59.5000000000002,2|0,2:0|1:2,2:0:0:0:
457,255,44355,2,0,L|332:236,1,119,10|2,2:0|2:0,2:0:0:0:
298,310,44805,1,0,2:0:0:0:
230,260,44955,6,0,L|165:280,1,59.5000000000002,2|2,1:2|1:2,2:0:0:0:
154,359,45255,2,0,L|89:339,1,59.5000000000002,2|0,2:0|1:2,2:0:0:0:
29,291,45555,2,0,B|5:234|5:234|37:164,1,119,14|0,2:0|1:2,2:0:0:0:
63,105,46005,1,0,2:0:0:0:
141,133,46155,6,0,L|157:15,2,119,6|2|2,1:2|1:2|1:2,2:0:0:0:
276,231,47041,2,0,P|328:217|387:202,1,89.2500000000003,2|0,1:2|2:0,2:0:0:0:
401,218,47337,6,0,L|388:343,1,119,2|2,1:2|1:2,2:0:0:0:
492,206,47946,2,0,L|479:81,1,119,2|0,1:2|1:2,2:0:0:0:
419,29,48402,1,2,1:2:0:0:
360,101,48555,6,0,P|295:105|235:58,1,133,12|0,1:2|1:2,2:0:0:0:
162,16,49005,2,0,P|97:12|37:59,1,133,12|0,2:0|1:2,2:0:0:0:
5,135,49455,1,12,2:0:0:0:
84,182,49605,5,12,2:0:0:0:
474,96,50955,6,0,B|425:92|425:92|391:60|391:60|316:59,1,154,6|8,1:2|2:0,2:0:0:0:
245,124,51405,1,0,2:0:0:0:
321,199,51555,2,0,P|333:242|317:282,1,77,0|0,1:2|1:2,2:0:0:0:
401,355,51855,5,8,2:0:0:0:
401,355,52005,2,0,L|239:316,1,154,0|0,1:2|1:2,2:0:0:0:
180,236,52455,2,0,P|151:276|144:312,1,77,10|0,2:0|2:0,2:0:0:0:
38,277,52755,2,0,P|17:231|-9:207,1,77,2|0,1:2|1:2,2:0:0:0:
71,134,53055,2,0,P|120:139|154:127,1,77,10|0,2:0|2:0,2:0:0:0:
209,43,53355,6,0,B|251:72|251:72|243:191,1,154,2|10,1:2|2:0,2:0:0:0:
173,256,53805,2,0,L|165:351,1,77,2|0,2:0|1:2,2:0:0:0:
266,374,54105,1,2,1:2:0:0:
266,374,54255,1,8,2:0:0:0:
344,300,54405,6,0,B|425:295|392:236|489:239,1,154,2|0,1:2|1:2,2:0:0:0:
484,132,54855,2,0,P|453:101|402:95,1,77,10|0,2:0|2:0,2:0:0:0:
328,38,55155,2,0,P|297:69|291:120,1,77,2|0,1:2|1:2,2:0:0:0:
304,151,55380,1,0,1:2:0:0:
304,151,55455,1,14,2:0:0:0:
347,362,55755,6,0,L|253:350,1,77,6|2,1:2|1:2,2:0:0:0:
163,335,56055,1,10,2:0:0:0:
7,185,56355,2,0,L|101:197,1,77,2|2,1:2|1:2,2:0:0:0:
191,212,56655,1,10,2:0:0:0:
191,212,56805,1,0,1:2:0:0:
261,130,56955,6,0,P|271:86|265:48,1,77,2|2,2:0|1:2,2:0:0:0:
166,13,57255,1,10,2:0:0:0:
45,192,57555,2,0,P|35:236|41:274,1,77,2|2,1:2|1:2,2:0:0:0:
140,309,57855,2,0,B|182:303|182:303|213:326|213:326|255:321,1,115.5,10|0,2:0|2:0,2:0:0:0:
301,323,58155,6,0,P|308:273|291:240,1,77,2|0,1:2|1:2,2:0:0:0:
213,181,58455,1,10,2:0:0:0:
287,102,58605,2,0,L|442:84,1,154,2|2,2:0|1:2,2:0:0:0:
473,191,59055,1,8,2:0:0:0:
473,191,59205,1,6,1:2:0:0:
268,83,59505,5,2,1:2:0:0:
186,12,59655,2,0,P|143:37|126:77,1,77,10|2,2:0|1:2,2:0:0:0:
48,130,59955,2,0,P|73:173|113:190,1,77,10|10,2:0|2:0,2:0:0:0:
150,188,60180,1,8,2:0:0:0:
150,188,60255,2,0,L|206:173,2,38.5,10|8|8,2:0|2:0|2:0,2:0:0:0:
279,154,60555,6,0,B|302:232|248:231|268:317,1,154,6|8,1:2|2:0,2:0:0:0:
358,359,61005,1,0,2:0:0:0:
439,288,61155,2,0,B|458:253|458:253|450:210,1,77,0|0,1:2|1:2,2:0:0:0:
481,115,61455,5,8,2:0:0:0:
481,115,61605,2,0,P|464:163|359:177,1,154,0|0,1:2|1:2,2:0:0:0:
284,119,62055,2,0,L|300:30,1,77,10|0,2:0|2:0,2:0:0:0:
194,75,62355,2,0,L|108:105,1,77,2|0,1:2|1:2,2:0:0:0:
200,174,62655,2,0,L|269:232,1,77,10|0,2:0|2:0,2:0:0:0:
292,326,62955,6,0,B|233:325|233:325|201:345|201:345|121:342,1,154,2|10,1:2|2:0,2:0:0:0:
35,337,63405,2,0,P|27:296|41:258,1,77,2|0,2:0|1:2,2:0:0:0:
133,213,63705,1,2,1:2:0:0:
133,213,63855,1,8,2:0:0:0:
240,205,64005,6,0,P|264:134|230:67,1,152.97333803304,2|0,1:2|1:2,2:0:0:0:
133,18,64452,2,0,L|48:27,1,77,10|0,2:0|2:0,2:0:0:0:
26,130,64750,2,0,L|111:121,1,77,2|0,1:2|1:2,2:0:0:0:
156,116,64973,1,0,1:2:0:0:
156,116,65048,1,14,2:0:0:0:
351,206,65346,6,0,B|367:243|367:243|357:290,1,77,6|0,1:2|1:2,2:0:0:0:
289,361,65646,1,10,2:0:0:0:
149,196,65946,2,0,B|133:159|133:159|143:112,1,77,2|2,1:2|1:2,2:0:0:0:
211,41,66246,1,10,2:0:0:0:
211,41,66396,1,0,1:2:0:0:
318,46,66546,6,0,L|421:48,1,77,2|2,2:0|1:2,2:0:0:0:
498,13,66848,2,0,P|505:49|488:116,1,77,10|2,2:0|2:0,2:0:0:0:
408,144,67150,1,2,1:2:0:0:
408,144,67301,1,2,1:2:0:0:
408,251,67452,2,0,L|495:247,1,77,10|0,2:0|2:0,2:0:0:0:
401,356,67755,6,0,B|323:359|345:308|246:315,1,154,2|10,1:2|2:0,2:0:0:0:
155,273,68205,2,0,B|143:313|143:313|155:355,1,77,2|0,2:0|1:2,2:0:0:0:
241,214,68505,2,0,B|253:174|253:174|241:132,1,77,2|8,1:2|2:0,2:0:0:0:
268,35,68805,6,0,P|229:32|148:120,1,154,6|0,1:2|1:2,2:0:0:0:
52,151,69255,2,0,L|61:213,3,38.5,10|8|0|0,2:0|2:0|1:2|1:2,2:0:0:0:
104,216,69555,2,0,L|95:278,3,38.5,10|8|4|4,2:3|2:3|2:3|2:3,2:0:0:0:
86,307,69855,2,0,B|55:296|55:296|40:298|40:298|6:289,1,77,14|0,2:0|2:0,2:0:0:0:
150,375,70155,6,0,B|209:366|209:366|238:340|238:340|307:331,1,154,6|8,1:2|2:0,2:0:0:0:
369,255,70606,1,0,1:2:0:0:
463,306,70756,2,0,L|456:399,1,77,10|0,2:0|1:2,2:0:0:0:
369,255,71057,2,0,L|374:178,1,77,8|0,2:0|1:2,2:0:0:0:
375,123,71282,5,0,1:2:0:0:
375,123,71358,2,0,P|331:109|246:169,1,154,10|8,2:0|2:0,2:0:0:0:
236,272,71809,1,0,1:2:0:0:
128,263,71959,2,0,P|90:246|71:199,1,77,10|0,2:0|1:2,2:0:0:0:
0,135,72260,2,0,P|17:97|64:78,1,77,8|0,2:0|1:2,2:0:0:0:
100,86,72485,5,0,1:2:0:0:
100,86,72561,2,0,L|256:101,1,154,14|8,2:0|2:0,2:0:0:0:
344,36,73013,1,0,1:2:0:0:
428,103,73164,2,0,B|444:142|444:142|434:186,1,77,10|0,2:0|1:2,2:0:0:0:
335,270,73465,2,0,B|319:231|319:231|329:187,1,77,8|0,2:0|1:2,2:0:0:0:
436,278,73767,6,0,L|516:267,1,77.0000023498536,10|0,2:0|1:2,2:0:0:0:
385,374,74058,2,0,L|305:385,1,77.0000023498536,8|0,2:0|1:2,2:0:0:0:
217,327,74349,1,10,2:3:0:0:
217,327,74422,1,4,2:3:0:0:
217,327,74495,2,0,L|168:336,2,38.5308011749268,4|4|12,2:3|2:3|2:0,2:0:0:0:
359,164,74955,6,0,P|357:113|272:65,1,154,6|2,1:2|2:0,2:0:0:0:
182,33,75405,1,0,1:2:0:0:
182,33,75480,1,0,1:2:0:0:
182,33,75555,2,0,B|166:55|166:55|175:104|175:104|143:143,2,102.666666666667,10|8|8,2:0|2:0|2:0,2:0:0:0:
275,85,76155,5,6,1:2:0:0:
275,85,76755,2,0,B|357:93|402:33|402:33|407:83|448:118,1,231,2|2,2:0|2:0,2:0:0:0:
506,180,77340,6,0,L|494:258,1,70,6|2,1:2|1:2,2:0:0:0:
480,346,77641,1,10,2:0:0:0:
284,364,77943,2,0,L|195:363,1,70,2|2,1:2|1:2,2:0:0:0:
115,361,78244,5,10,2:0:0:0:
115,361,78395,2,0,P|87:282|119:222,1,140,2|2,1:2|1:2,2:0:0:0:
186,175,78847,2,0,L|261:185,1,70,10|2,2:0|2:0,2:0:0:0:
338,236,79149,2,0,L|413:226,1,70,2|2,1:2|1:2,2:0:0:0:
490,174,79450,1,10,2:0:0:0:
364,23,79752,6,0,L|293:43,1,70,2|2,1:2|1:2,2:0:0:0:
203,10,80053,1,10,2:0:0:0:
22,85,80355,2,0,P|10:128|17:156,1,70,2|2,1:2|1:2,2:0:0:0:
112,186,80656,5,10,2:0:0:0:
112,186,80807,2,0,P|139:240|113:328,1,140,6|2,1:2|1:2,2:0:0:0:
203,372,81259,2,0,L|259:362,3,35,10|8|10|8,2:0|2:0|2:0|2:0,2:0:0:0:
278,339,81557,2,0,L|334:349,3,35,10|4|6|8,2:3|2:3|2:3|2:3,2:0:0:0:
359,362,81856,2,0,L|415:352,3,35,10|4|6|4,2:3|2:3|2:3|2:3,2:0:0:0:
439,337,82141,6,0,L|432:265,1,70,6|2,1:2|1:2,2:0:0:0:
488,187,82444,1,10,2:0:0:0:
319,87,82747,2,0,L|334:168,1,70,2|2,1:2|1:2,2:0:0:0:
277,237,83050,5,10,2:0:0:0:
277,237,83201,2,0,B|199:236|224:189|128:192,1,140,2|2,1:2|1:2,2:0:0:0:
79,263,83656,2,0,L|100:350,1,70,10|2,2:0|2:0,2:0:0:0:
4,212,83959,2,0,L|25:125,1,70,2|2,1:2|1:2,2:0:0:0:
10,45,84255,1,14,2:0:0:0:
205,25,84551,6,0,L|263:37,5,35,12|0|2|0|2|0,2:0|1:2|1:2|1:2|1:2|1:2,2:0:0:0:
278,61,84987,2,0,L|336:49,5,35.0021,10|0|2|0|2|0,2:0|1:2|1:2|1:2|1:2|1:2,2:0:0:0:
358,71,85440,2,0,B|374:108|374:108|355:155,1,70,14|2,2:0|2:0,2:0:0:0:
286,196,85742,6,0,L|204:184,1,70,6|10,1:2|2:0,2:0:0:0:
130,138,86042,1,10,2:0:0:0:
72,217,86192,2,0,L|23:206,2,35,10|8|10,2:0|2:0|2:0,2:0:0:0:
93,312,86492,1,10,2:3:0:0:
189,293,86642,2,0,L|277:307,1,70,6|2,2:3|1:2,2:0:0:0:
355,321,86942,5,14,1:2:0:0:
355,321,87093,1,8,1:2:0:0:
355,321,89196,5,0,1:2:0:0:
422,249,89339,6,0,P|426:169|378:127,1,139.906666666667,14|0,2:0|1:2,2:0:0:0:
311,193,89805,2,0,P|257:133|193:137,1,140,14|0,2:0|1:2,2:0:0:0:
121,187,90260,1,12,2:0:0:0:
42,148,90411,5,2,1:2:0:0:
42,148,90487,1,0,1:2:0:0:
42,148,90563,2,0,L|31:225,1,70,10|0,2:0|2:0,2:0:0:0:
111,274,90861,2,0,L|100:351,1,70,6|0,2:3|2:0,2:0:0:0:
193,376,91159,1,14,2:0:0:0:
193,376,91755,5,4,1:2:0:0:
193,376,91905,2,0,P|238:350|319:366,1,112,0|0,1:0|1:2,2:0:0:0:
375,359,92355,2,0,L|365:297,1,56,12|0,2:0|2:0,2:0:0:0:
424,250,92655,5,0,1:2:0:0:
424,250,92805,2,0,B|443:181|443:181|412:131,1,112,0|10,1:2|2:0,2:0:0:0:
364,93,93255,2,0,L|304:116,1,56,2|2,1:2|1:2,2:0:0:0:
250,63,93555,1,14,1:2:0:0:
250,63,93705,2,0,L|137:95,1,112,2|8,1:2|2:0,2:0:0:0:
73,55,94155,5,4,1:2:0:0:
73,55,94305,2,0,B|105:97|105:97|86:172,1,112,0|0,1:2|1:2,2:0:0:0:
22,193,94755,2,0,L|31:251,1,56,12|0,2:0|2:0,2:0:0:0:
96,300,95055,5,2,1:2:0:0:
96,300,95205,2,0,B|163:290|137:262|219:255,1,112,2|8,1:2|1:2,2:0:0:0:
253,201,95655,2,0,L|238:137,1,56,0|0,1:0|1:2,2:0:0:0:
269,73,95955,2,0,P|302:69|336:87,1,56,12|0,2:0|1:2,2:0:0:0:
374,17,96255,2,0,P|400:37|411:74,1,56,8|2,2:0|1:2,2:0:0:0:
429,133,96555,6,0,L|518:115,2,74.6666666666666,2|0|2,1:2|1:2|1:2,2:0:0:0:
380,194,97149,1,14,2:0:0:0:
162,361,98367,2,0,L|89:350,1,62.9999980773926,10|2,2:0|1:2,2:0:0:0:
131,269,98661,2,0,L|58:258,1,63.0000000000001,10|2,2:0|1:2,2:0:0:0:
28,258,98881,1,0,1:2:0:0:
28,258,98955,1,14,2:0:0:0:
18,81,99254,6,0,L|68:73,3,31.5,8|8|10|8,1:2|1:2|1:2|1:2,2:0:0:0:
85,50,99553,2,0,L|116:54,3,31.5,10|8|8|8,1:2|1:2|1:2|1:2,2:0:0:0:
157,70,99852,2,0,L|188:65,3,31.5,8|8|10|8,1:2|1:2|1:2|1:2,2:0:0:0:
232,60,100152,2,0,P|246:95|239:137,1,63.0000000000001,10|10,1:2|2:3,2:0:0:0:
179,179,100441,2,0,L|194:253,1,63.0000000000001,10|6,2:3|2:3,2:0:0:0:
206,282,100658,5,4,2:3:0:0:
206,282,100730,2,0,B|271:264|271:264|327:297|327:297|392:278,1,189,14|0,1:2|2:0,2:0:0:0:
469,288,101339,6,0,P|459:242|435:219,1,63.0000000000001,4|0,1:2|2:0,2:0:0:0:
368,196,101645,2,0,P|351:169|348:138,1,63.0000000000001,8|0,2:0|2:0,2:0:0:0:
403,68,101951,2,0,L|475:49,2,63.0000000000001,0|0|8,1:2|1:2|2:0,2:0:0:0:
326,24,102410,6,0,L|189:57,1,124.378796154785,0|2,1:2|1:2,2:0:0:0:
162,68,102786,1,0,1:2:0:0:
162,68,102861,1,10,2:0:0:0:
41,196,103159,2,0,L|36:243,3,31.5,2|0|2|0,1:2|1:2|1:2|1:2,2:0:0:0:
32,271,103457,2,0,P|76:285|114:277,1,63.0000000000001,10|0,2:0|2:0,2:0:0:0:
167,237,103755,6,0,L|163:160,1,63.0000000000001,4|0,1:2|1:2,2:0:0:0:
248,146,104055,2,0,L|251:208,1,63.0000000000001,8|0,2:0|2:0,2:0:0:0:
258,297,104355,2,0,P|224:313|191:310,2,63.0000000000001,0|0|10,1:2|1:2|2:0,2:0:0:0:
332,248,104805,2,0,L|416:257,1,63.0000000000001,2|0,1:2|2:0,2:0:0:0:
481,268,105105,1,0,1:2:0:0:
499,181,105255,2,0,B|506:150|506:150|492:118,1,63.0000000000001,8|0,2:0|1:2,2:0:0:0:
424,66,105555,6,0,L|435:6,2,42,8|8|8,2:0|2:0|2:3,2:0:0:0:
377,101,105855,2,0,L|384:142,2,42,10|4|4,2:3|2:3|2:3,2:0:0:0:
332,62,106155,6,0,L|189:47,1,119,6|2,1:2|2:0,2:0:0:0:
66,129,106755,2,0,L|57:194,1,59.5000000000002,10|0,2:0|1:2,2:0:0:0:
134,222,107055,2,0,L|125:281,1,59.5000000000002,2|0,2:0|2:0,2:0:0:0:
81,357,107355,6,0,P|112:328|195:353,1,119,2|2,1:2|1:3,2:0:0:0:
349,363,107955,2,0,L|426:353,1,59.5000000000002,10|0,2:0|1:2,2:0:0:0:
450,266,108255,2,0,L|391:273,1,59.5000000000002,2|0,2:0|2:0,2:0:0:0:
482,176,108555,6,0,B|497:122|497:122|471:62,1,119,14|2,2:0|2:0,2:0:0:0:
313,73,109155,2,0,B|308:107|308:107|320:138,1,59.5000000000002,10|0,2:0|1:2,2:0:0:0:
363,199,109455,2,0,B|373:225|373:225|368:259,1,59.5000000000002,2|0,2:0|2:0,2:0:0:0:
310,315,109755,6,0,L|244:314,1,59.5000000000002,2|2,1:2|1:2,2:0:0:0:
166,307,110055,2,0,L|183:235,1,59.5000000000002,2|0,2:0|1:2,2:0:0:0:
137,175,110355,2,0,L|74:170,1,59.5000000000002,10|0,2:0|1:2,2:0:0:0:
39,169,110580,1,0,1:2:0:0:
39,169,110655,1,8,2:0:0:0:
153,40,110955,6,0,P|181:68|187:120,1,70.0000000000001,6|0,1:2|2:0,2:0:0:0:
265,157,111255,2,0,P|237:185|185:191,1,70.0000000000001,2|0,1:2|2:0,2:0:0:0:
116,156,111555,2,0,P|88:184|82:236,1,70.0000000000001,2|0,1:2|2:0,2:0:0:0:
7,273,111855,2,0,P|35:301|87:307,1,70.0000000000001,2|0,1:2|2:0,2:0:0:0:
149,358,112155,6,0,B|221:354|196:308|285:305,1,140,2|2,1:2|1:2,2:0:0:0:
353,363,112605,1,0,2:0:0:0:
440,319,112755,2,0,B|469:281|469:281|444:171,1,140,2|0,1:2|1:2,2:0:0:0:
420,96,113205,1,2,2:0:0:0:
343,34,113355,5,12,2:0:0:0:
343,34,113505,2,0,P|304:47|284:86,1,70.0000000000001,0|0,1:2|1:2,2:0:0:0:
195,104,113805,1,12,2:0:0:0:
195,104,113955,2,0,P|208:143|247:163,1,70.0000000000001,0|0,1:2|1:2,2:0:0:0:
327,169,114255,1,12,2:0:0:0:
327,169,114405,1,12,2:0:0:0:
292,362,114705,5,10,2:0:0:0:
221,293,114855,2,0,L|138:304,1,70.0000000000001,10|10,2:0|2:3,2:0:0:0:
54,311,115155,1,10,2:0:0:0:
54,311,115230,1,8,2:0:0:0:
54,311,115305,1,8,2:0:0:0:
16,220,115455,2,0,L|26:175,3,35,10|8|8|8,2:0|2:0|2:0|2:0,2:0:0:0:
33,132,115755,6,0,P|83:80|171:88,1,154,6|8,1:2|2:0,2:0:0:0:
242,152,116205,1,0,2:0:0:0:
193,248,116355,2,0,L|199:327,1,77,0|0,1:2|1:2,2:0:0:0:
303,369,116655,5,8,2:0:0:0:
303,369,116805,2,0,B|364:348|364:348|380:324|380:324|454:298,1,154,0|0,1:2|1:2,2:0:0:0:
404,197,117255,2,0,L|328:161,1,77,10|0,2:0|2:0,2:0:0:0:
363,55,117555,2,0,L|433:8,1,77,2|0,1:2|1:2,2:0:0:0:
506,88,117855,2,0,L|513:171,1,77,10|0,2:0|2:0,2:0:0:0:
504,272,118155,6,0,L|341:265,1,154,2|10,1:2|2:0,2:0:0:0:
248,226,118600,2,0,L|168:251,1,77,2|0,2:0|1:2,2:0:0:0:
99,326,118897,1,2,1:2:0:0:
99,326,119046,1,8,2:0:0:0:
36,238,119194,6,0,B|5:187|5:187|32:95,1,154,2|0,1:2|1:2,2:0:0:0:
124,41,119640,2,0,P|155:72|206:78,1,77,10|0,2:0|2:0,2:0:0:0:
280,135,119937,2,0,P|311:104|317:53,1,77,2|0,1:2|1:2,2:0:0:0:
304,22,120159,1,0,1:0:0:0:
304,22,120234,1,10,2:0:0:0:
497,116,120531,6,0,L|485:209,1,77,6|2,1:2|1:2,2:0:0:0:
470,299,120834,1,10,2:0:0:0:
470,299,120985,1,2,2:0:0:0:
379,357,121137,2,0,L|364:273,1,77,2|2,1:2|1:2,2:0:0:0:
342,176,121440,1,10,2:0:0:0:
171,70,121743,6,0,L|75:87,1,77,2|2,2:0|1:2,2:0:0:0:
10,16,122046,1,10,2:0:0:0:
8,239,122349,2,0,P|1:294|12:317,1,77,2|0,1:2|1:2,2:0:0:0:
99,372,122652,2,0,B|152:343|152:343|221:362,1,115.5,10|0,2:0|2:0,2:0:0:0:
256,372,122955,6,0,L|350:373,1,77,2|0,1:2|1:2,2:0:0:0:
437,345,123255,1,10,2:0:0:0:
388,248,123405,2,0,P|363:171|398:109,1,154,2|2,2:0|1:2,2:0:0:0:
503,145,123855,1,8,2:0:0:0:
503,145,124005,1,6,1:2:0:0:
330,16,124305,5,2,1:2:0:0:
240,76,124455,2,0,L|255:166,1,77,10|2,2:0|1:2,2:0:0:0:
341,214,124755,2,0,L|326:304,1,77,10|10,2:0|2:3,2:0:0:0:
336,343,124980,1,8,2:3:0:0:
336,343,125055,2,0,L|392:333,2,38.5,10|8|8,2:0|2:0|2:0,2:0:0:0:
229,364,125355,6,0,B|136:353|175:315|79:309,1,154,6|8,1:2|2:0,2:0:0:0:
6,239,125805,1,0,2:0:0:0:
48,139,125955,2,0,L|126:165,1,77,0|0,1:2|1:2,2:0:0:0:
194,83,126255,5,8,2:0:0:0:
194,83,126405,2,0,L|352:120,1,154,0|0,1:2|1:2,2:0:0:0:
451,106,126855,2,0,P|451:149|418:199,1,77,10|0,2:0|2:0,2:0:0:0:
506,260,127155,2,0,P|475:290|416:302,1,77,2|0,1:2|1:2,2:0:0:0:
360,370,127455,2,0,L|282:347,1,77,10|0,2:0|2:0,2:0:0:0:
208,272,127755,6,0,B|190:183|190:183|226:126,1,154,2|10,1:2|2:0,2:0:0:0:
277,35,128205,2,0,L|176:19,1,77,2|0,2:0|1:2,2:0:0:0:
117,91,128505,1,2,1:2:0:0:
117,91,128655,1,8,2:0:0:0:
38,16,128805,6,0,P|8:82|41:166,1,154,2|0,1:2|1:2,2:0:0:0:
90,246,129255,2,0,L|75:341,1,77,10|0,2:0|2:0,2:0:0:0:
185,338,129555,2,0,L|200:243,1,77,2|0,1:2|1:2,2:0:0:0:
213,209,129780,1,0,1:2:0:0:
213,209,129855,1,14,2:0:0:0:
388,333,130155,6,0,P|419:349|463:350,1,77,6|2,1:2|1:2,2:0:0:0:
508,252,130455,1,10,2:0:0:0:
416,56,130755,2,0,L|337:57,1,77,2|0,1:2|1:2,2:0:0:0:
230,60,131055,1,10,2:0:0:0:
230,60,131205,1,0,1:2:0:0:
301,140,131355,6,0,B|319:177|319:177|306:216,1,77,2|2,2:0|1:2,2:0:0:0:
254,304,131655,2,0,L|173:303,1,77,10|2,2:0|2:0,2:0:0:0:
80,351,131955,1,2,1:2:0:0:
80,351,132105,1,0,1:2:0:0:
7,270,132255,2,0,L|7:184,1,77,10|0,2:0|2:0,2:0:0:0:
44,90,132555,6,0,P|99:49|186:61,1,154,2|10,1:2|2:0,2:0:0:0:
240,148,133005,2,0,L|228:235,1,77,2|0,2:0|1:2,2:0:0:0:
148,295,133305,2,0,L|136:208,1,77,2|8,1:2|2:0,2:0:0:0:
254,328,133605,6,0,B|321:322|321:322|339:305|339:305|416:299,1,154,6|0,1:2|1:2,2:0:0:0:
476,223,134055,2,0,L|468:181,3,38.5,10|8|0|0,2:0|2:0|1:2|1:2,2:0:0:0:
422,156,134355,2,0,L|414:114,3,38.5,10|8|4|4,2:3|2:3|2:3|2:3,2:0:0:0:
444,73,134655,2,0,L|523:86,1,77,14|0,2:0|2:0,2:0:0:0:
373,14,134955,6,0,L|214:42,1,154,6|8,1:2|2:0,2:0:0:0:
115,15,135405,1,0,1:2:0:0:
47,99,135555,2,0,P|35:164|46:188,1,77,10|0,2:0|1:2,2:0:0:0:
84,270,135855,2,0,L|175:250,1,77,8|0,2:0|1:2,2:0:0:0:
175,201,136080,5,0,1:2:0:0:
175,201,136155,2,0,L|336:222,1,154,10|8,2:0|2:0,2:0:0:0:
418,162,136605,1,0,1:2:0:0:
502,228,136755,2,0,P|516:271|500:318,1,77,10|0,2:0|1:2,2:0:0:0:
427,370,137055,2,0,L|340:360,1,77,8|0,2:0|1:2,2:0:0:0:
306,329,137280,5,0,1:2:0:0:
306,329,137355,2,0,L|141:346,1,154,14|8,2:0|2:0,2:0:0:0:
49,312,137805,1,0,1:2:0:0:
125,236,137955,2,0,P|135:190|117:153,1,77,10|0,2:0|1:2,2:0:0:0:
25,120,138255,2,0,P|15:74|33:37,1,77,8|0,2:0|1:2,2:0:0:0:
127,10,138555,6,0,L|227:30,1,77,10|0,2:0|1:2,2:0:0:0:
269,110,138855,2,0,L|369:90,1,77,8|0,2:0|1:2,2:0:0:0:
437,38,139155,2,0,P|452:89|443:129,1,77,10|4,2:0|2:3,2:0:0:0:
426,217,139455,1,12,2:0:0:0:
256,349,139755,6,0,L|272:186,1,154,6|10,1:2|2:0,2:0:0:0:
322,101,140205,1,0,1:2:0:0:
216,80,140355,2,0,L|133:92,1,77,2|0,1:2|1:2,2:0:0:0:
67,172,140655,2,0,B|49:209|49:209|75:260,1,77,14|0,2:0|1:2,2:0:0:0:
140,319,140955,6,0,B|226:317|199:272|308:275,1,154,14|14,1:2|2:0,2:0:0:0:
380,327,141405,1,0,1:2:0:0:
447,242,141555,2,0,L|515:258,2,51.3333333333333,10|8|8,2:0|2:0|2:0,2:0:0:0:
410,194,141861,2,0,L|342:210,2,51.3333333333333,8|8|10,2:0|2:0|2:0,2:0:0:0:
441,148,142176,5,4,1:2:0:0:
441,148,142320,2,0,B|470:91|470:91|429:9,1,126,0|0,1:2|1:2,2:0:0:0:
360,86,142755,1,8,2:0:0:0:
245,220,143055,1,0,1:2:0:0:
245,220,143205,2,0,B|216:277|216:277|257:359,1,126.419996154785,0|0,1:2|1:2,2:0:0:0:
326,282,143655,1,0,1:2:0:0:
263,116,143955,2,0,L|187:114,1,63.0000000000001,14|2,2:0|1:2,2:0:0:0:
157,37,144255,2,0,L|81:35,1,63.0000000000001,2|2,2:0|1:2,2:0:0:0:
23,88,144555,5,14,2:0:0:0:
23,88,144705,2,0,P|18:140|77:182,1,126,0|2,1:2|1:2,2:0:0:0:
160,183,145155,1,8,2:0:0:0:
315,276,145455,1,2,1:2:0:0:
315,276,145605,2,0,P|320:224|261:182,1,126,0|0,1:2|1:2,2:0:0:0:
178,181,146055,1,2,1:2:0:0:
216,357,146355,1,10,2:0:0:0:
216,357,146505,2,0,B|262:351|262:351|298:368|298:368|349:362,1,126,0|0,1:2|1:2,2:0:0:0:
425,357,146955,5,6,1:2:0:0:
425,357,147103,2,0,L|410:224,1,126,0|0,1:2|1:2,2:0:0:0:
394,145,147550,1,8,2:0:0:0:
252,248,147848,1,2,1:2:0:0:
252,248,147997,2,0,L|237:115,1,126,0|2,1:2|1:2,2:0:0:0:
221,36,148443,1,2,1:2:0:0:
70,128,148741,6,0,B|61:161|61:161|73:193,1,63.0000000000001,12|0,2:0|1:2,2:0:0:0:
147,233,149039,2,0,B|157:259|157:259|148:292,1,63.0000000000001,2|2,2:0|2:0,2:0:0:0:
84,355,149337,5,0,1:2:0:0:
84,355,149489,2,0,P|115:326|214:340,1,126,2|0,1:2|1:2,2:0:0:0:
271,369,149946,1,14,2:0:0:0:
351,214,150246,1,0,1:2:0:0:
351,214,150396,2,0,P|320:185|221:199,1,126.419996154785,0|0,1:0|1:2,2:0:0:0:
164,228,150846,1,0,1:2:0:0:
100,63,151146,6,0,B|46:45|46:45|6:63,2,84.0000000000001,14|12|12,2:0|2:0|2:0,2:0:0:0:
180,101,151755,5,6,1:2:0:0:
180,101,151903,2,0,B|246:103|229:59|305:62,1,126,2|2,1:2|1:2,2:0:0:0:
344,68,152274,1,0,1:2:0:0:
344,68,152349,1,14,2:0:0:0:
472,196,152646,1,2,1:2:0:0:
472,196,152794,2,0,B|406:198|423:154|347:157,1,126,2|2,1:2|1:2,2:0:0:0:
315,165,153165,1,0,1:2:0:0:
315,165,153240,1,0,1:2:0:0:
214,309,153537,5,14,2:0:0:0:
285,361,153688,2,0,B|309:304|309:304|276:245,1,126,0|0,1:2|2:0,2:0:0:0:
213,187,154143,5,6,1:2:0:0:
213,187,154294,2,0,L|86:199,1,126,2|0,1:2|1:2,2:0:0:0:
43,205,154673,1,0,1:2:0:0:
43,205,154749,1,14,2:0:0:0:
34,32,155052,1,0,1:2:0:0:
34,32,155203,2,0,L|161:20,1,124.336796154785,0|0,1:2|1:2,2:0:0:0:
204,14,155576,1,0,1:2:0:0:
204,14,155650,1,0,1:2:0:0:
358,99,155945,6,0,L|434:88,1,63.0000000000001,14|2,2:0|1:2,2:0:0:0:
493,139,156240,1,10,2:3:0:0:
493,139,156388,1,4,2:3:0:0:
430,201,156535,5,6,1:2:0:0:
430,201,156687,2,0,B|419:246|419:246|438:278|438:278|428:324,1,126,2|2,1:2|1:2,2:0:0:0:
422,363,157069,1,0,1:2:0:0:
422,363,157145,1,14,2:0:0:0:
250,348,157450,1,2,1:2:0:0:
250,348,157603,2,0,B|261:303|261:303|242:271|242:271|252:225,1,123.522521154785,2|2,1:2|1:2,2:0:0:0:
258,186,157976,1,0,1:2:0:0:
258,186,158050,1,2,1:2:0:0:
280,11,158346,6,0,L|201:0,1,70.0000000000001,14|2,2:0|1:2,2:0:0:0:
142,71,158641,2,0,L|63:60,1,70.0000000000001,14|2,2:0|1:2,2:0:0:0:
8,135,158937,5,14,2:0:0:0:
8,135,159090,2,0,L|19:217,1,70.0000000000001,10|0,2:0|1:2,2:0:0:0:
25,252,159319,1,0,1:2:0:0:
25,252,159396,1,10,2:0:0:0:
113,209,159549,2,0,L|129:360,1,140,10|14,1:2|2:0,2:0:0:0:
227,349,160008,6,0,P|268:316|259:231,1,139.122666666667,10|10,2:0|2:0,2:0:0:0:
207,152,160464,1,14,2:0:0:0:
275,82,160615,1,8,2:0:0:0:
275,82,160691,1,8,2:0:0:0:
275,82,160767,2,0,L|356:85,1,70,10|10,2:0|2:3,2:0:0:0:
378,177,161062,2,0,L|459:180,1,70,6|6,2:3|2:3,2:0:0:0:
508,114,161358,6,0,L|499:263,1,126,6|0,1:2|2:0,2:0:0:0:
495,327,161808,1,0,1:2:0:0:
415,364,161958,2,0,P|363:329|283:335,1,126,10|2,2:0|2:0,2:0:0:0:
125,347,162558,6,0,L|57:345,1,63.0000000000001,2|0,2:0|1:2,2:0:0:0:
62,256,162858,2,0,L|130:254,1,63.0000000000001,2|0,1:2|2:0,2:0:0:0:
183,188,163158,2,0,B|161:108|161:108|195:58,1,126,10|2,2:0|2:0,2:0:0:0:
261,24,163608,5,8,2:0:0:0:
261,24,163683,1,8,2:0:0:0:
261,24,163758,2,0,L|403:24,1,126,2|2,1:2|1:2,2:0:0:0:
454,186,164358,2,0,P|415:175|392:145,1,63.0000000000001,10|0,2:0|2:0,2:0:0:0:
333,217,164658,2,0,P|313:181|318:144,1,63.0000000000001,2|0,1:2|1:2,2:0:0:0:
242,107,164958,6,0,L|89:107,1,126,2|0,2:0|2:0,2:0:0:0:
27,107,165408,1,0,1:2:0:0:
79,178,165558,2,0,P|92:223|86:248,1,63.0000000000001,8|0,2:0|1:2,2:0:0:0:
34,306,165858,1,10,2:3:0:0:
206,340,166158,6,0,L|290:329,1,63.0000000000001,6|0,1:2|2:0,2:0:0:0:
350,363,166458,2,0,L|434:374,1,63.0000000000001,2|0,2:0|1:2,2:0:0:0:
479,313,166758,2,0,P|502:257|467:180,1,126,10|2,2:0|1:2,2:0:0:0:
312,149,167358,6,0,L|235:164,1,63.0000000000001,2|0,2:0|1:2,2:0:0:0:
250,249,167658,2,0,L|173:234,1,63.0000000000001,2|0,1:2|2:0,2:0:0:0:
101,218,167958,2,0,P|62:160|79:81,1,126,10|2,2:0|2:0,2:0:0:0:
116,37,168408,5,8,2:0:0:0:
116,37,168483,1,8,2:0:0:0:
116,37,168558,2,0,L|243:35,1,126,2|2,1:2|2:0,2:0:0:0:
415,68,169158,2,0,L|478:50,1,63.0000000000001,10|0,2:0|2:0,2:0:0:0:
500,135,169458,2,0,L|437:153,1,63.0000000000001,2|0,1:2|1:2,2:0:0:0:
353,172,169758,6,0,B|383:251|383:251|357:307,1,126,2|8,1:2|2:0,2:0:0:0:
288,333,170197,1,0,1:2:0:0:
220,275,170343,2,0,L|162:291,3,31.5,8|8|4|4,2:3|2:3|2:3|2:3,2:0:0:0:
166,321,170636,2,0,L|77:315,1,63.0000000000001,14|0,2:0|2:0,2:0:0:0:
65,248,170950,6,0,L|57:375,2,112,6|2|2,1:2|1:2|1:2,2:0:0:0:
65,90,171853,1,2,1:2:0:0:
216,48,172154,6,0,B|281:40|255:8|343:9,2,112,2|2|2,1:2|1:2|1:2,2:0:0:0:
221,204,173057,1,2,1:2:0:0:
298,248,173208,5,8,2:0:0:0:
298,248,173283,1,8,2:0:0:0:
298,248,173359,2,0,L|281:363,2,112,6|2|2,1:2|1:2|1:2,2:0:0:0:
421,151,174259,1,2,1:2:0:0:
322,28,174559,6,0,L|257:41,1,56,2|8,1:2|2:0,2:0:0:0:
225,106,174859,1,0,1:2:0:0:
225,106,175009,1,0,1:0:0:0:
168,51,175159,2,0,L|103:38,1,56,8|0,2:0|1:2,2:0:0:0:
49,86,175459,2,0,L|59:147,1,56,2|8,1:2|2:0,2:0:0:0:
125,198,175762,6,0,L|114:275,1,63.0000000000001,6|0,1:2|1:2,2:0:0:0:
145,343,176061,2,0,P|175:326|225:328,1,63.0000000000001,10|0,1:2|1:2,2:0:0:0:
223,236,176360,2,0,P|256:245|290:281,1,63.0000000000001,14|0,2:0|1:2,2:0:0:0:
296,349,176659,1,10,1:2:0:0:
470,320,176958,6,0,L|455:248,1,63.0000000000001,14|0,1:2|1:2,2:0:0:0:
388,203,177258,2,0,L|403:131,1,63.0000000000001,14|0,2:0|1:2,2:0:0:0:
436,60,177557,2,0,L|404:56,3,31.5,14|8|4|0,2:0|2:3|2:3|1:2,2:0:0:0:
374,23,177856,2,0,L|304:32,1,63.0000000000001,0|2,1:2|1:2,2:0:0:0:
223,74,178155,6,0,P|257:149|241:212,1,140,12|0,1:2|1:2,2:0:0:0:
185,280,178605,2,0,P|151:205|167:142,1,140,12|0,2:0|1:2,2:0:0:0:
138,55,179055,2,0,L|62:55,1,70.0000000000001,14|8,2:0|2:0,2:0:0:0:
19,140,179355,6,0,P|10:185|19:211,1,70,10|8,2:0|2:3,2:0:0:0:
108,243,179652,2,0,P|117:288|108:314,1,70,10|4,2:3|2:3,2:0:0:0:
179,367,179949,6,0,B|319:360|243:291|388:291,1,224.393493333333,6|6,2:3|1:2,2:0:0:0:
45,38,187613,5,0,1:2:0:0:
45,38,187764,1,0,1:2:0:0:
419,322,188657,1,2,2:0:0:0:
252,379,188955,6,0,L|257:325,3,31.5,6|8|8|8,1:2|2:3|2:3|2:3,2:0:0:0:
281,311,189255,2,0,L|276:257,3,31.5,10|8|8|8,2:3|2:3|2:3|2:3,2:0:0:0:
263,238,189555,2,0,L|273:160,1,63.0000000000001,6|4,2:3|2:3,2:0:0:0:
351,138,189855,2,0,L|341:60,1,63.0000000000001,12|2,2:0|1:2,2:0:0:0:
275,18,190155,6,0,B|200:-1|211:57|122:34,1,140,14|0,2:0|1:2,2:0:0:0:
56,0,190609,2,0,L|51:69,1,70.0000000000001,12|0,2:0|1:2,2:0:0:0:
48,166,190912,1,0,1:2:0:0:
18,260,191064,6,0,P|51:212|126:223,1,140.014,14|0,2:0|1:2,2:0:0:0:
172,308,191516,2,0,P|204:318|239:314,1,70,14|0,2:0|1:2,2:0:0:0:
334,307,191814,1,0,1:2:0:0:
276,218,191964,2,0,L|259:133,1,70,14|0,2:0|1:2,2:0:0:0:
359,132,192262,2,0,L|342:47,1,70,14|0,2:0|1:2,2:0:0:0:
338,14,192486,5,0,1:2:0:0:
338,14,192561,2,0,P|397:-1|469:49,1,140,14|0,2:0|1:2,2:0:0:0:
512,120,193011,2,0,L|501:189,1,70,14|0,2:0|1:2,2:0:0:0:
414,224,193311,1,0,1:2:0:0:
334,167,193461,2,0,P|316:197|317:231,1,70,12|0,2:0|1:2,2:0:0:0:
386,329,193761,5,0,1:2:0:0:
278,353,193911,1,14,2:0:0:0:
278,353,194061,2,0,B|227:343|227:343|192:354|192:354|133:348,1,140,0|14,1:2|2:0,2:0:0:0:
54,379,194511,1,0,1:2:0:0:
16,292,194661,2,0,B|30:206,1,70,14|0,2:0|1:2,2:0:0:0:
68,133,194961,6,0,L|-4:148,2,70,14|8|8,2:0|1:3|1:3,2:0:0:0:
143,67,195411,1,14,2:0:0:0:
143,67,195561,1,8,1:3:0:0:
213,134,195711,1,8,1:3:0:0:
213,134,195786,1,8,1:3:0:0:
213,134,195861,2,0,P|253:150|324:122,1,105,14|0,2:0|2:0,2:0:0:0:
338,92,196161,5,6,1:2:0:0:
430,58,196311,1,8,2:0:0:0:
430,58,196386,1,8,2:0:0:0:
430,58,196461,2,0,L|450:142,1,70,8|8,2:0|1:2,2:0:0:0:
491,212,196761,2,0,L|480:262,3,35,8|8|0|0,2:0|2:3|1:2|1:2,2:0:0:0:
439,268,197061,2,0,L|450:318,3,35,8|8|4|4,1:3|1:3|1:3|1:3,2:0:0:0:
457,350,197361,5,14,2:0:0:0:
364,382,197508,2,0,L|276:369,1,70.0000000000001,10|0,2:0|1:2,2:0:0:0:
235,293,197804,1,10,2:0:0:0:
314,233,197952,2,0,B|324:195|324:195|313:152,1,70.0000000000001,10|0,2:0|1:2,2:0:0:0:
262,82,198247,1,10,2:0:0:0:
344,29,198395,5,10,2:0:0:0:
78,27,199749,6,0,B|114:106|56:97|92:206,1,154,6|8,1:2|2:0,2:0:0:0:
23,266,200199,1,0,2:0:0:0:
113,324,200349,2,0,L|195:311,1,77,0|0,1:2|1:2,2:0:0:0:
286,371,200649,5,8,2:0:0:0:
286,371,200799,2,0,P|248:315|287:218,1,154,0|0,1:2|1:2,2:0:0:0:
352,169,201249,2,0,L|445:214,1,77,10|0,2:0|2:0,2:0:0:0:
481,112,201549,2,0,L|388:67,1,77,2|0,1:2|1:2,2:0:0:0:
325,12,201849,2,0,L|249:24,1,77,10|0,2:0|2:0,2:0:0:0:
144,52,202149,6,0,B|179:98|179:98|164:195,1,154,2|10,1:2|2:0,2:0:0:0:
79,259,202599,2,0,L|91:347,1,77,2|0,2:0|1:2,2:0:0:0:
197,370,202899,1,2,1:2:0:0:
197,370,203049,1,8,2:0:0:0:
271,291,203199,6,0,B|239:202|239:202|264:128,1,154,2|0,1:2|1:2,2:0:0:0:
293,43,203649,2,0,P|336:63|359:107,1,77,10|0,2:0|2:0,2:0:0:0:
381,190,203949,2,0,P|424:170|447:126,1,77,2|0,1:2|1:2,2:0:0:0:
463,97,204174,1,0,1:2:0:0:
463,97,204249,1,14,2:0:0:0:
448,312,204555,6,0,P|403:282|368:280,1,77,6|2,1:2|1:2,2:0:0:0:
308,359,204855,1,10,2:0:0:0:
169,193,205155,2,0,L|183:109,1,77,2|2,1:2|1:2,2:0:0:0:
262,44,205455,1,10,2:0:0:0:
262,44,205605,1,0,1:2:0:0:
158,12,205755,6,0,L|65:13,1,77,2|2,2:0|1:2,2:0:0:0:
6,91,206055,1,10,2:0:0:0:
61,299,206355,2,0,L|146:291,1,77,2|2,1:2|1:2,2:0:0:0:
220,361,206655,2,0,P|277:344|342:368,1,115.5,10|0,2:0|2:0,2:0:0:0:
383,368,206955,6,0,L|463:368,1,77,2|0,1:2|1:2,2:0:0:0:
502,268,207255,1,10,2:0:0:0:
439,180,207405,2,0,L|286:191,1,154,2|2,2:0|1:2,2:0:0:0:
187,232,207855,1,8,2:0:0:0:
187,232,208005,1,6,1:2:0:0:
18,57,208305,5,2,1:2:0:0:
117,14,208455,2,0,P|160:39|177:79,1,77,10|2,2:0|1:2,2:0:0:0:
278,86,208755,2,0,P|253:129|213:146,1,77,10|10,2:0|2:0,2:0:0:0:
211,194,208980,1,8,2:0:0:0:
211,194,209055,2,0,L|155:179,2,38.5,10|8|8,2:0|2:0|2:0,2:0:0:0:
308,241,209355,6,0,B|402:225|355:185|472:172,1,154,6|8,1:2|2:0,2:0:0:0:
503,265,209805,1,0,2:0:0:0:
433,347,209955,2,0,L|348:333,1,77,0|0,1:2|1:2,2:0:0:0:
254,300,210255,5,8,2:0:0:0:
254,300,210405,2,0,B|194:299|194:299|165:316|165:316|97:313,1,154,0|0,1:2|1:2,2:0:0:0:
16,249,210855,2,0,P|6:206|23:157,1,77,10|0,2:0|2:0,2:0:0:0:
119,154,211155,2,0,P|129:111|112:62,1,77,2|0,1:2|1:2,2:0:0:0:
198,4,211455,2,0,L|291:9,1,77,10|0,2:0|2:0,2:0:0:0:
339,94,211755,6,0,P|402:55|477:71,1,154,2|10,1:2|2:0,2:0:0:0:
510,173,212205,2,0,L|495:255,1,77,2|0,2:0|1:2,2:0:0:0:
407,307,212505,1,2,1:2:0:0:
407,307,212655,1,8,2:0:0:0:
317,246,212805,6,0,L|341:77,1,154,2|0,1:2|1:2,2:0:0:0:
241,45,213255,2,0,L|152:33,1,77,10|0,2:0|2:0,2:0:0:0:
56,37,213555,2,0,P|43:96|51:119,1,77,2|0,1:2|1:2,2:0:0:0:
84,150,213780,1,0,1:2:0:0:
84,150,213855,1,14,2:0:0:0:
35,359,214155,6,0,L|122:345,1,77,6|0,1:2|1:2,2:0:0:0:
180,263,214455,1,10,2:0:0:0:
375,353,214755,2,0,L|470:352,1,77,2|2,1:2|1:2,2:0:0:0:
503,256,215055,1,10,2:0:0:0:
503,256,215205,1,0,1:2:0:0:
403,213,215355,6,0,L|406:128,1,77,2|2,2:0|1:2,2:0:0:0:
306,93,215655,2,0,L|303:178,1,77,10|2,2:0|2:0,2:0:0:0:
299,278,215955,1,2,1:2:0:0:
299,278,216105,1,2,1:2:0:0:
199,320,216255,2,0,P|165:300|122:295,1,77,10|0,2:0|2:0,2:0:0:0:
42,359,216555,6,0,B|17:303|17:303|43:200,1,154,2|10,1:2|2:0,2:0:0:0:
58,106,217005,2,0,P|99:138|139:147,1,77,2|8,1:2|2:0,2:0:0:0:
201,219,217305,2,0,P|242:187|282:178,1,77,2|8,1:2|2:0,2:0:0:0:
348,248,217605,6,0,P|401:270|490:205,1,154,10|8,2:0|1:2,2:0:0:0:
439,126,218055,2,0,L|452:84,3,38.5,10|8|0|0,2:0|2:0|1:2|1:2,2:0:0:0:
503,76,218355,2,0,L|490:34,3,38.5,10|8|4|4,2:3|2:3|2:3|2:3,2:0:0:0:
441,12,218655,2,0,L|348:18,1,77,2|0,1:2|1:2,2:0:0:0:
320,116,218955,6,0,B|261:107|261:107|232:81|232:81|163:72,1,154,6|8,1:2|2:0,2:0:0:0:
87,12,219405,1,0,1:2:0:0:
26,101,219555,2,0,L|39:186,1,77,10|0,2:0|1:2,2:0:0:0:
141,207,219855,2,0,L|128:292,1,77,8|0,2:0|1:2,2:0:0:0:
64,370,220155,6,0,P|125:336|213:367,1,154,10|8,2:0|2:0,2:0:0:0:
309,377,220605,1,0,1:2:0:0:
357,280,220755,2,0,L|457:286,1,77,10|0,2:0|1:2,2:0:0:0:
492,193,221055,2,0,B|503:151|503:151|486:110,1,77,8|0,2:0|1:2,2:0:0:0:
446,96,221280,5,0,1:2:0:0:
446,96,221355,2,0,B|384:47|384:47|305:54,1,154,14|8,2:0|2:0,2:0:0:0:
234,130,221805,1,0,1:2:0:0:
325,187,221955,2,0,P|336:222|325:271,1,77,10|0,2:0|1:2,2:0:0:0:
271,352,222255,2,0,L|172:344,1,77,8|0,2:0|1:2,2:0:0:0:
166,240,222555,6,0,L|67:248,1,77,10|0,2:0|1:2,2:0:0:0:
23,159,222855,2,0,P|17:104|34:73,1,77,8|0,2:0|1:2,2:0:0:0:
108,16,223155,2,0,L|189:33,1,77,10|0,2:0|1:2,2:0:0:0:
289,55,223455,1,8,2:0:0:0:
504,55,223755,6,0,B|463:144|463:144|490:215,1,154,6|10,1:2|2:0,2:0:0:0:
462,302,224202,1,0,1:2:0:0:
359,268,224352,2,0,L|377:189,1,77,2|0,2:0|1:2,2:0:0:0:
274,154,224650,2,0,L|292:75,1,77,10|0,2:0|1:2,2:0:0:0:
197,23,224949,6,0,P|119:17|76:91,1,154,14|14,2:0|2:0,2:0:0:0:
13,159,225396,1,0,1:2:0:0:
112,201,225546,2,0,L|183:182,2,51.3333333333333,14|8|8,2:0|2:0|2:0,2:0:0:0:
89,252,225844,2,0,L|18:233,2,51.3333333333333,8|8|4,2:3|2:3|2:3,2:0:0:0:
129,281,226143,5,4,1:2:0:0:
129,281,226296,2,0,L|259:268,1,126,0|0,1:2|1:2,2:0:0:0:
342,264,226755,1,14,2:0:0:0:
490,101,227355,5,6,1:2:0:0:
490,101,227505,2,0,P|459:54|370:43,1,126,0|0,1:2|1:2,2:0:0:0:
319,84,227955,1,14,2:0:0:0:
59,32,228555,5,6,1:2:0:0:
59,32,228705,2,0,L|72:174,1,126,0|0,1:2|1:2,2:0:0:0:
77,245,229155,1,14,2:0:0:0:
295,370,229755,6,0,L|310:320,3,31.5,14|8|0|0,2:0|2:0|1:2|1:2,2:0:0:0:
334,307,230055,2,0,L|319:257,3,31.5,8|8|0|0,2:3|2:3|1:2|1:2,2:0:0:0:
290,248,230355,2,0,L|305:198,3,31.5,6|4|0|0,2:3|2:3|1:2|1:2,2:0:0:0:
339,198,230655,2,0,L|324:148,3,31.5,0|0|0|0,1:2|1:2|1:2|1:2,2:0:0:0:
347,126,230955,6,0,P|289:92|231:100,1,126,6|2,1:2|2:0,2:0:0:0:
176,166,231406,1,0,1:2:0:0:
176,166,231481,1,0,1:2:0:0:
176,166,231557,2,0,L|186:280,2,84.0000000000001,10|8|8,2:0|2:0|2:0,2:0:0:0:
148,82,232159,5,6,1:2:0:0:
148,82,232761,2,0,B|219:60|219:60|265:96|265:96|336:96,1,189,2|2,2:0|2:0,2:0:0:0:
401,167,233364,6,0,L|491:150,2,77,14|2|2,2:0|1:2|1:2,2:0:0:0:
363,268,233811,2,0,L|332:354,2,77,14|2|2,2:0|1:2|1:2,2:0:0:0:
294,184,234259,2,0,L|234:114,2,77,14|2|2,2:0|1:2|1:2,2:0:0:0:
242,279,234707,6,0,B|157:262|179:320|70:293,1,154,14|2,2:0|1:2,2:0:0:0:
27,211,235155,2,0,L|37:131,1,77,14|2,2:0|1:2,2:0:0:0:
142,157,235453,2,0,L|152:77,1,77,14|2,2:0|1:2,2:0:0:0:
248,32,235752,6,0,P|291:43|339:25,2,77,14|2|2,2:0|1:2|1:2,2:0:0:0:
267,137,236205,2,0,P|235:168|227:219,2,77,14|2|2,2:0|1:2|1:2,2:0:0:0:
165,100,236658,2,0,P|153:57|113:24,2,77.2605190165203,14|2|2,2:0|1:2|1:2,2:0:0:0:
86,173,237111,1,14,2:0:0:0:
86,173,237261,2,0,L|100:276,1,77,2|2,1:2|1:2,2:0:0:0:
110,356,237561,6,0,B|153:366|153:366|200:340,1,77,14|2,2:0|1:2,2:0:0:0:
267,285,237861,2,0,B|310:275|310:275|338:290,1,77,14|2,2:0|1:2,2:0:0:0:
423,358,238161,5,14,2:0:0:0:
423,358,238312,2,0,L|445:249,1,77,2|2,1:2|1:2,2:0:0:0:
374,201,238616,1,14,2:0:0:0:
374,201,238767,2,0,L|396:92,1,77,2|2,1:2|1:2,2:0:0:0:
417,20,239071,6,0,P|368:14|294:103,1,154.229537389381,14|2,2:0|1:2,2:0:0:0:
195,110,239523,1,14,2:0:0:0:
195,110,239672,2,0,P|190:156|212:192,1,77,2|2,1:2|1:2,2:0:0:0:
282,255,239971,2,0,L|362:244,1,77,14|2,2:0|1:2,2:0:0:0:
232,348,240269,2,0,L|152:359,1,77,14|2,2:0|1:2,2:0:0:0:
66,297,240568,5,2,1:2:0:0:
137,216,240716,2,0,L|144:160,3,38.5,8|8|0|0,2:0|2:0|1:2|1:2,2:0:0:0:
115,129,241012,2,0,L|108:73,4,38.5,10|8|10|8|0,2:3|2:3|2:3|2:3|1:2,2:0:0:0:
200,61,241456,5,10,2:0:0:0:
200,61,241605,2,0,B|255:49|255:49|299:63|299:63|360:51,1,155.565671366374,10|10,2:0|2:3,2:0:0:0:
451,15,242055,2,0,P|469:71|463:102,1,77,6|4,2:3|2:3,2:0:0:0:
398,171,242357,2,0,P|398:209|414:244,1,77,10|6,2:3|2:3,2:0:0:0:
502,305,242659,1,2,1:2:0:0:
415,369,242810,5,2,1:2:0:0:
415,369,242886,1,0,1:2:0:0:
415,369,242962,2,0,B|338:333|338:403|244:359,1,154,14|8,2:0|2:0,2:0:0:0:
206,276,243414,1,2,1:2:0:0:
275,193,243565,2,0,L|286:101,1,77,8|0,2:0|1:2,2:0:0:0:
190,61,243866,2,0,L|180:137,1,77,10|0,2:0|1:2,2:0:0:0:
175,191,244092,5,0,1:2:0:0:
175,191,244168,2,0,P|126:198|85:180,1,75.8095238095238,8|2,2:0|1:2,2:0:0:0:
83,297,244464,2,0,P|132:290|173:308,1,77,8|0,2:0|1:2,2:0:0:0:
238,368,244761,2,0,B|276:375|276:375|320:362,1,77,10|0,2:0|1:2,2:0:0:0:
361,268,245058,2,0,B|399:261|399:261|443:274,1,77,10|0,2:0|1:2,2:0:0:0:
491,291,245281,5,0,1:2:0:0:
491,291,245355,2,0,L|489:209,1,77,14|0,2:0|1:2,2:0:0:0:
395,160,245656,2,0,L|393:78,1,77,8|2,2:0|1:2,2:0:0:0:
303,23,245957,2,0,P|256:58|248:94,1,77,8|0,2:0|1:2,2:0:0:0:
172,148,246258,2,0,P|207:195|243:203,1,77,10|0,2:0|1:2,2:0:0:0:
280,207,246484,5,0,1:2:0:0:
280,207,246559,2,0,L|271:288,1,77,8|2,2:0|1:2,2:0:0:0:
164,297,246860,2,0,L|155:378,1,77,8|0,2:0|1:2,2:0:0:0:
55,333,247161,2,0,L|13:329,2,38.5,14|0|0,2:0|1:0|1:2,2:0:0:0:
62,224,247453,1,14,2:0:0:0:
86,9,247746,5,14,2:0:0:0:
177,66,247896,1,0,1:2:0:0:
177,66,247971,1,0,1:2:0:0:
177,66,248046,2,0,L|221:60,3,38.5,8|0|2|0,2:0|1:2|1:2|1:2,2:0:0:0:
264,37,248346,2,0,L|302:42,3,38.5,8|0|0|0,2:0|1:2|1:2|1:2,2:0:0:0:
340,80,248646,6,0,L|421:74,1,77,10|0,2:0|1:2,2:0:0:0:
507,14,248946,1,8,2:0:0:0:
507,14,249096,2,0,P|467:79|516:143,1,154,2|0,1:2|1:2,2:0:0:0:
451,233,249549,2,0,B|413:220|413:220|372:234,1,77,10|0,2:0|1:2,2:0:0:0:
371,339,249850,2,0,B|409:352|409:352|443:340,1,77,10|0,2:0|1:2,2:0:0:0:
292,282,250152,6,0,L|241:286,5,38.5,14|0|0|0|0|0,2:0|1:2|1:2|1:2|1:2|1:2,2:0:0:0:
199,289,250596,2,0,L|195:250,5,38.5,14|0|0|0|0|0,2:0|1:2|1:2|1:2|1:2|1:2,2:0:0:0:
196,196,251040,2,0,L|247:192,5,38.5077011749268,14|0|0|0|0|0,2:0|1:2|1:2|1:2|1:2|1:2,2:0:0:0:
289,189,251496,2,0,L|292:227,5,38.5,14|0|0|0|0|0,2:0|1:2|1:2|1:2|1:2|1:2,2:0:0:0:
345,220,251953,6,0,B|391:218|391:218|419:235|419:235|481:232,2,115.5,14|14|14,1:2|1:2|1:2,2:0:0:0:
