osu file format v14

[General]
AudioFilename: audio.mp3
AudioLeadIn: 0
PreviewTime: 114630
Countdown: 0
SampleSet: Soft
StackLeniency: 0.7
Mode: 0
LetterboxInBreaks: 0
WidescreenStoryboard: 1

[Editor]
DistanceSpacing: 1.6
BeatDivisor: 4
GridSize: 4
TimelineZoom: 2.699998

[Metadata]
Title:Thrill, Risk, Heartless
TitleUnicode:Thrill, Risk, Heartless
Artist:LiSA
ArtistUnicode:LiSA
Creator:SkyFlame
Version:Akitoshi's Insane
Source:Sword Art Online: Fatal Bullet
Tags:grandfinals gf hr1 osu! world cup owc 2020 ソードアート・オンライン フェイタル・バレット opening sao ps4 playstation sony op full ver. ver version female vocal japanese video game anime rock jrock j-rock akitoshi -Laura- Corinn kalibe ohwow -_ex_- - Ex kowari tycani
BeatmapID:3197543
BeatmapSetID:1312103

[Difficulty]
HPDrainRate:5
CircleSize:3.8
OverallDifficulty:8
ApproachRate:9
SliderMultiplier:1.5
SliderTickRate:1

[Events]
//Background and Video events
0,0,"kirito kun and friends.jpg",0,0
//Break Periods
2,87293,88596
2,183155,188057
//Storyboard Layer 0 (Background)
//Storyboard Layer 1 (Fail)
//Storyboard Layer 2 (Pass)
//Storyboard Layer 3 (Foreground)
//Storyboard Layer 4 (Overlay)
//Storyboard Sound Samples

[TimingPoints]
418,272.727272727273,4,2,4,40,1,0
554,292.682926829268,4,2,4,40,1,0
1139,301.507537688442,4,2,0,40,1,0
1139,-166.666666666667,4,2,0,40,0,0
1610,-166.666666666667,4,2,0,10,0,0
1742,301.507537688442,4,2,0,40,1,0
2213,-100,4,2,0,10,0,0
2345,303.030303030303,4,2,0,40,1,0
2951,298.507462686567,4,2,0,40,1,0
2951,-166.666666666667,4,2,0,40,0,0
3398,-166.666666666667,4,2,0,10,0,0
3548,-166.666666666667,4,2,0,40,0,0
4145,300,4,2,0,40,1,0
4145,-166.666666666667,4,2,0,40,0,0
4745,-166.666666666667,4,2,1,60,0,0
5045,-83.3333333333334,4,2,1,62,0,0
5195,-83.3333333333334,4,2,1,70,0,0
5345,-100,4,2,1,65,0,0
6545,-100,4,2,1,62,0,0
6995,-100,4,2,1,60,0,0
7145,306.122448979592,4,2,1,64,1,0
7145,-133.333333333333,4,2,1,64,0,0
7604,-133.333333333333,4,2,1,70,0,0
7757,295.566502463054,4,2,1,60,1,0
7757,-133.333333333333,4,2,1,60,0,0
8348,303.030303030303,4,2,1,60,1,0
8348,-133.333333333333,4,2,1,60,0,0
8954,303.030303030303,4,2,1,60,1,0
8954,-133.333333333333,4,2,1,60,0,0
9560,285.714285714286,4,2,1,60,1,0
9560,-133.333333333333,4,2,1,60,0,0
9845,303.79746835443,4,2,1,60,1,0
10148,297.766749379653,4,2,1,65,1,0
10148,-133.333333333333,4,2,1,65,0,0
10296,-133.333333333333,4,2,1,70,0,0
10445,-133.333333333333,4,2,1,65,0,0
11934,307.692307692308,4,2,1,68,1,0
11934,-200,4,2,1,68,0,0
12472,-200,4,2,1,5,0,0
12549,303.030303030303,4,2,2,70,1,0
13761,300,4,2,2,70,1,0
16161,298.507462686567,4,2,2,70,1,0
17056,-100,4,2,1,70,0,0
17355,300,4,2,1,70,1,0
22155,-133.333333333333,4,2,1,64,0,0
26805,-133.333333333333,4,2,1,60,0,0
26955,-100,4,2,1,68,0,0
29205,-100,4,2,1,70,0,0
29355,-100,4,2,1,68,0,0
31755,-133.333333333333,4,2,1,64,0,0
34155,294.117647058824,4,2,1,68,1,0
34155,-133.333333333333,4,2,1,68,0,0
34302,-133.333333333333,4,2,1,60,0,0
34449,-133.333333333333,4,2,1,68,0,0
35331,306.122448979592,4,2,1,72,1,0
35943,300,4,2,1,72,1,0
35943,-133.333333333333,4,2,1,72,0,0
36543,303.030303030303,4,2,1,68,1,0
37755,300,4,2,1,68,1,0
38805,-100,4,2,1,70,0,0
38955,-100,4,2,1,68,0,0
40605,-100,4,2,1,70,0,0
40755,-100,4,2,1,68,0,0
41355,-100,4,2,1,70,0,0
41505,-111.111111111111,4,2,1,70,0,0
42405,-111.111111111111,4,2,1,60,0,0
42555,-111.111111111111,4,2,1,70,0,0
43605,-111.111111111111,4,2,1,60,0,0
43755,-111.111111111111,4,2,1,70,0,0
44805,-111.111111111111,4,2,1,60,0,0
44955,-111.111111111111,4,2,1,70,0,0
45705,-111.111111111111,4,2,1,60,0,0
45855,-111.111111111111,4,2,1,70,0,0
46005,-111.111111111111,4,2,1,60,0,0
46155,295.566502463054,4,2,1,70,1,0
46155,-111.111111111111,4,2,1,70,0,0
47337,304.568527918782,4,2,1,70,1,0
47337,-111.111111111111,4,2,1,70,0,0
48555,300,4,2,1,74,1,0
50955,-90.9090909090909,4,2,2,80,0,1
55455,-90.9090909090909,4,2,1,80,0,1
60480,-90.9090909090909,4,2,1,80,0,0
60555,-90.9090909090909,4,2,2,82,0,1
61005,-90.9090909090909,4,2,2,80,0,1
61305,-90.9090909090909,4,2,2,82,0,1
61755,-90.9090909090909,4,2,2,80,0,1
61905,-90.9090909090909,4,2,2,82,0,1
62205,-90.9090909090909,4,2,2,80,0,1
62355,-90.9090909090909,4,2,2,82,0,1
62805,-90.9090909090909,4,2,2,80,0,1
62955,-90.9090909090909,4,2,2,82,0,1
64155,297.766749379653,4,2,1,82,1,1
64452,-90.9090909090909,4,2,1,82,0,1
64600,-90.9090909090909,4,2,1,80,0,1
64750,-90.9090909090909,4,2,1,82,0,1
65196,-90.9090909090909,4,2,1,80,0,1
65346,300,4,2,1,82,1,1
65346,-90.9090909090909,4,2,1,82,0,1
65571,-90.9090909090909,4,2,1,80,0,1
65646,-90.9090909090909,4,2,1,82,0,1
65796,-90.9090909090909,4,2,1,80,0,1
65946,-90.9090909090909,4,2,1,82,0,1
66546,302.267002518892,4,2,1,82,1,1
66848,-90.9090909090909,4,2,1,82,0,1
67603,-90.9090909090909,4,2,1,80,0,1
67755,300,4,2,1,82,1,1
67755,-90.9090909090909,4,2,1,82,0,1
70005,-90.9090909090909,4,2,1,80,0,1
70080,-90.9090909090909,4,2,1,80,0,0
70155,300.751879699248,4,2,1,85,1,1
70155,-90.9090909090909,4,2,1,85,0,1
72561,301.507537688442,4,2,1,85,1,1
72561,-90.9090909090909,4,2,1,85,0,1
73767,291.26213592233,4,2,1,85,1,1
73767,-90.9090909090909,4,2,1,85,0,1
74640,315.789473684211,4,2,1,85,1,1
74640,-90.9090909090909,4,2,1,85,0,1
74797,-90.9090909090909,4,2,1,80,0,1
74955,300,4,2,1,80,1,1
74955,-111.111111111111,4,2,1,80,0,1
75555,-83.3333333333333,4,2,1,84,0,1
76155,-83.3333333333333,4,2,1,65,0,1
76755,292.682926829268,4,2,1,70,1,1
76755,-166.666666666667,4,2,1,70,0,1
77340,301.507537688442,4,2,2,75,1,0
80807,-100,4,2,1,75,0,0
81259,298.507462686567,4,2,1,75,1,0
81856,285.714285714286,4,2,1,75,1,0
82141,303.030303030303,4,2,1,75,1,0
83959,296.296296296296,4,2,1,75,1,0
84551,291.26213592233,4,2,1,75,1,0
84987,302.267002518892,4,2,1,75,1,0
85138,302.267002518892,4,2,1,75,1,0
85742,300,4,2,1,75,1,0
86942,303.030303030303,4,2,1,60,1,0
88154,300,4,2,1,60,1,0
89054,285.714285714286,4,2,1,60,1,0
89339,315.789473684211,4,2,1,62,1,0
89496,-100,4,2,1,70,0,0
89654,303.030303030303,4,2,1,62,1,0
90108,-100,4,2,1,64,0,0
90563,298.136645962733,4,2,1,64,1,0
90637,-100,4,2,1,70,0,0
90861,-100,4,2,1,64,0,0
90935,-100,4,2,1,70,0,0
91159,-200,4,2,1,66,0,0
91680,-200,4,2,1,5,0,0
91755,300,4,2,1,68,1,0
91905,-100,4,2,1,70,0,0
92205,-100,4,2,1,68,0,0
92505,-100,4,2,1,70,0,0
92655,-100,4,2,1,68,0,0
92955,-100,4,2,1,70,0,0
93105,-100,4,2,1,68,0,0
94905,-100,4,2,1,70,0,0
95055,-100,4,2,1,68,0,0
95355,-100,4,2,1,70,0,0
95505,-100,4,2,1,68,0,0
95655,-100,4,2,1,70,0,0
95805,-100,4,2,1,68,0,0
96555,297.029702970297,4,2,1,62,1,0
96555,-125,4,2,1,62,0,0
97149,304.568527918782,4,2,1,68,1,0
97149,-125,4,2,1,68,0,0
97605,-125,4,2,1,60,0,0
97758,304.568527918782,4,2,1,65,1,0
97758,-125,4,2,1,65,0,0
98367,294.117647058824,4,2,1,70,1,0
98955,299.25187032419,4,2,1,70,1,0
98955,-111.111111111111,4,2,1,70,0,0
99104,-111.111111111111,4,2,1,60,0,0
99254,-111.111111111111,4,2,1,70,0,0
100152,289.156626506024,4,2,1,70,1,0
100730,304.568527918782,4,2,1,62,1,0
100730,-200,4,2,1,62,0,0
101262,-200,4,2,1,5,0,0
101339,306.122448979592,4,2,1,68,1,0
101492,-100,4,2,1,70,0,0
101645,-100,4,2,1,68,0,0
101798,-100,4,2,1,70,0,0
101951,-100,4,2,1,68,0,0
102563,298.136645962733,4,2,1,68,1,0
103010,-100,4,2,1,70,0,0
103159,-100,4,2,1,68,0,0
103606,-100,4,2,1,70,0,0
103755,300,4,2,1,68,1,0
104205,-100,4,2,1,70,0,0
104355,-100,4,2,1,68,0,0
106155,-100,4,2,1,70,0,0
106305,-111.111111111111,4,2,1,70,0,0
107205,-111.111111111111,4,2,1,60,0,0
107355,-111.111111111111,4,2,1,70,0,0
108405,-111.111111111111,4,2,1,60,0,0
108555,-111.111111111111,4,2,1,70,0,0
109605,-111.111111111111,4,2,1,60,0,0
109755,-111.111111111111,4,2,1,70,0,0
110955,-111.111111111111,4,2,1,72,0,0
113355,-111.111111111111,4,2,1,76,0,0
114405,-100,4,2,1,76,0,0
114555,-100,4,2,1,80,0,0
114705,-100,4,2,1,78,0,0
115755,-90.9090909090909,4,2,2,80,0,1
118155,297.029702970297,4,2,2,80,1,1
118155,-90.9090909090909,4,2,2,80,0,1
120531,303.030303030303,4,2,1,80,1,1
120834,-90.9090909090909,4,2,1,80,0,1
122955,300,4,2,1,80,1,1
122955,-90.9090909090909,4,2,1,80,0,1
125280,-90.9090909090909,4,2,1,80,0,0
125355,-90.9090909090909,4,2,2,82,0,1
125805,-90.9090909090909,4,2,2,80,0,1
126105,-90.9090909090909,4,2,2,82,0,1
126555,-90.9090909090909,4,2,2,80,0,1
126705,-90.9090909090909,4,2,2,82,0,1
127005,-90.9090909090909,4,2,2,80,0,1
127155,-90.9090909090909,4,2,2,82,0,1
127605,-90.9090909090909,4,2,2,80,0,1
127755,-90.9090909090909,4,2,2,82,0,1
129405,-90.9090909090909,4,2,2,80,0,1
129555,-90.9090909090909,4,2,2,82,0,1
129855,-90.9090909090909,4,2,1,82,0,1
130005,-90.9090909090909,4,2,1,80,0,1
130155,-90.9090909090909,4,2,1,82,0,1
132405,-90.9090909090909,4,2,1,80,0,1
132555,-90.9090909090909,4,2,1,82,0,1
134805,-90.9090909090909,4,2,1,80,0,1
134880,-90.9090909090909,4,2,1,80,0,0
134955,-90.9090909090909,4,2,1,85,0,1
139605,-90.9090909090909,4,2,1,80,0,1
140955,-90.9090909090909,4,2,1,84,0,1
141555,306.122448979592,4,2,1,84,1,1
141555,-90.9090909090909,4,2,1,84,0,1
141861,315.789473684211,4,2,1,84,1,1
141861,-90.9090909090909,4,2,1,84,0,1
142176,289.855072463768,4,2,2,72,1,0
142755,300,4,2,2,50,1,0
143355,300,4,2,2,50,1,0
144405,-100,4,2,2,72,0,0
144555,-100,4,2,1,72,0,0
145305,-100,4,2,1,50,0,0
145455,-100,4,2,1,72,0,0
146205,-100,4,2,1,50,0,0
146355,-100,4,2,1,72,0,0
146955,297.766749379653,4,2,1,72,1,0
147251,-100,4,2,1,50,0,0
147401,-100,4,2,1,72,0,0
147698,-100,4,2,1,50,0,0
147848,-100,4,2,1,72,0,0
148145,-100,4,2,1,50,0,0
148294,-100,4,2,1,72,0,0
148591,-100,4,2,1,50,0,0
148741,-100,4,2,1,72,0,0
149337,304.568527918782,4,2,1,72,1,0
149946,300,4,2,1,72,1,0
150096,-100,4,2,1,50,0,0
150246,-100,4,2,1,72,0,0
150396,-100,4,2,1,50,0,0
150546,300,4,2,1,72,1,0
150996,-100,4,2,1,50,0,0
151146,304.568527918782,4,2,1,80,1,0
151349,-100,4,2,1,50,0,0
151755,297.029702970297,4,2,1,74,1,0
152051,-100,4,2,1,50,0,0
152200,-100,4,2,1,74,0,0
152497,-100,4,2,1,50,0,0
152646,-100,4,2,1,74,0,0
153388,-100,4,2,1,50,0,0
153537,303.030303030303,4,2,1,74,1,0
153991,-100,4,2,1,50,0,0
154143,303.030303030303,4,2,1,74,1,0
154445,-100,4,2,1,50,0,0
154597,-100,4,2,1,74,0,0
154900,-100,4,2,1,50,0,0
155052,-100,4,2,1,74,0,0
155355,295.20295202952,4,2,1,74,1,0
155797,-100,4,2,1,50,0,0
155945,-100,4,2,1,74,0,0
156387,-100,4,2,1,50,0,0
156535,305.149396058487,4,2,1,74,1,0
157297,-100,4,2,1,50,0,0
157450,-100,4,2,1,74,0,0
157755,295.566502463054,4,2,1,74,1,0
158197,-100,4,2,1,50,0,0
158346,-100,4,2,1,74,0,0
158937,306.122448979592,4,2,1,80,1,0
160161,303.030303030303,4,2,1,80,1,0
160767,295.566502463054,4,2,1,80,1,0
161358,300,4,2,1,68,1,0
161358,-111.111111111111,4,2,1,68,0,0
161658,-111.111111111111,4,2,1,50,0,0
161808,-111.111111111111,4,2,1,68,0,0
163008,-111.111111111111,4,2,1,50,0,0
163158,-111.111111111111,4,2,1,68,0,0
164508,-111.111111111111,4,2,1,50,0,0
164658,-111.111111111111,4,2,1,68,0,0
166008,-111.111111111111,4,2,1,50,0,0
166158,-111.111111111111,4,2,1,68,0,0
166308,-111.111111111111,4,2,1,50,0,0
166608,-111.111111111111,4,2,1,68,0,0
166908,-111.111111111111,4,2,1,50,0,0
167058,-111.111111111111,4,2,1,68,0,0
167808,-111.111111111111,4,2,1,50,0,0
167958,-111.111111111111,4,2,1,68,0,0
169308,-111.111111111111,4,2,1,50,0,0
169458,-111.111111111111,4,2,1,68,0,0
169758,292.682926829268,4,2,1,68,1,0
170050,-111.111111111111,4,2,1,68,0,0
170636,314.13612565445,4,2,1,68,1,0
170636,-111.111111111111,4,2,1,68,0,0
170793,-111.111111111111,4,2,1,50,0,0
170950,301.129234629862,4,2,1,70,1,0
173359,300,4,2,1,70,1,0
175009,-100,4,2,1,60,0,0
175159,-100,4,2,1,70,0,0
175459,303.030303030303,4,2,1,70,1,0
175762,299.21456177534,4,2,1,75,1,0
176958,-100,4,2,1,80,0,0
178155,300,4,2,1,85,1,0
179355,297.324083250743,4,2,1,85,1,0
179949,-125,4,2,1,85,0,0
180544,311.688311688312,4,2,1,85,1,0
181790,291.26213592233,4,2,1,50,1,0
182955,300,4,2,1,50,1,0
184755,294.117647058824,4,2,1,50,1,0
185343,303.79746835443,4,2,1,50,1,0
186558,301.507537688442,4,2,1,50,1,0
187764,297.766749379653,4,2,1,50,1,0
188657,-100,4,2,1,70,0,0
188880,-100,4,2,1,50,0,0
188955,300,4,2,1,80,1,0
189255,-111.111111111111,4,2,1,80,0,0
190155,303.030303030303,4,2,1,90,1,0
191367,298.507462686567,4,2,1,90,1,0
192561,300,4,2,1,90,1,0
197361,295.566502463054,4,2,1,95,1,0
199134,307.692307692308,4,2,1,95,1,0
199749,300,4,2,2,82,1,1
199749,-90.9090909090909,4,2,2,82,0,1
199899,-90.9090909090909,4,2,2,80,0,1
200049,-90.9090909090909,4,2,2,82,0,1
200199,-90.9090909090909,4,2,2,80,0,1
200499,-90.9090909090909,4,2,2,82,0,1
200949,-90.9090909090909,4,2,2,80,0,1
201099,-90.9090909090909,4,2,2,82,0,1
201399,-90.9090909090909,4,2,2,80,0,1
201549,-90.9090909090909,4,2,2,82,0,1
201999,-90.9090909090909,4,2,2,80,0,1
202149,-90.9090909090909,4,2,2,82,0,1
203799,-90.9090909090909,4,2,2,80,0,1
203949,-90.9090909090909,4,2,2,82,0,1
204249,306.122448979592,4,2,1,82,1,1
204249,-90.9090909090909,4,2,1,82,0,1
204402,-90.9090909090909,4,2,1,80,0,1
204555,300,4,2,1,82,1,1
204855,-90.9090909090909,4,2,1,82,0,1
205005,-90.9090909090909,4,2,1,80,0,1
205155,-90.9090909090909,4,2,1,82,0,1
206205,-90.9090909090909,4,2,1,80,0,1
206355,-90.9090909090909,4,2,1,82,0,1
206805,-90.9090909090909,4,2,1,80,0,1
206955,-90.9090909090909,4,2,1,82,0,1
209280,-90.9090909090909,4,2,1,82,0,0
209355,-90.9090909090909,4,2,2,84,0,1
209805,-90.9090909090909,4,2,2,80,0,1
210105,-90.9090909090909,4,2,2,84,0,1
210555,-90.9090909090909,4,2,2,80,0,1
210705,-90.9090909090909,4,2,2,84,0,1
211005,-90.9090909090909,4,2,2,80,0,1
211155,-90.9090909090909,4,2,2,84,0,1
211605,-90.9090909090909,4,2,2,80,0,1
211755,-90.9090909090909,4,2,2,84,0,1
213405,-90.9090909090909,4,2,2,80,0,1
213555,-90.9090909090909,4,2,2,84,0,1
213855,-90.9090909090909,4,2,1,84,0,1
214005,-90.9090909090909,4,2,1,80,0,1
214155,-90.9090909090909,4,2,1,84,0,1
214380,-90.9090909090909,4,2,1,80,0,1
214455,-90.9090909090909,4,2,1,84,0,1
214605,-90.9090909090909,4,2,1,80,0,1
214755,-90.9090909090909,4,2,1,84,0,1
216405,-90.9090909090909,4,2,1,80,0,1
216555,-90.9090909090909,4,2,1,84,0,1
218880,-90.9090909090909,4,2,1,84,0,0
218955,-90.9090909090909,4,2,1,90,0,1
223755,298.507462686567,4,2,1,82,1,1
223755,-90.9090909090909,4,2,1,82,0,1
224949,-90.9090909090909,4,2,1,85,0,1
226068,-90.9090909090909,4,2,1,85,0,0
226143,306.122448979592,4,2,1,82,1,1
226755,300,4,2,1,82,1,1
227355,300,4,2,1,82,1,1
229755,-100,4,2,1,85,0,1
230955,301.129234629862,4,2,1,82,1,1
231557,-83.3333333333333,4,2,1,85,0,1
232159,-83.3333333333333,4,2,1,70,0,1
232761,-166.666666666667,4,2,1,75,0,1
233364,298.507462686567,4,2,2,80,1,0
233811,-100,4,2,1,80,0,0
235752,302.267002518892,4,2,1,80,1,0
236961,300,4,2,1,80,1,0
238161,303.413400758534,4,2,1,80,1,0
239374,298.507462686567,4,2,1,80,1,0
240568,296.296296296296,4,2,1,84,1,0
241753,302.267002518892,4,2,1,84,1,0
242962,301.507537688442,4,2,1,80,1,0
244168,296.846011131725,4,2,1,80,1,0
245355,301.129234629862,4,2,1,80,1,0
247161,292.682926829268,4,2,1,80,1,0
247234,-100,4,2,1,70,0,0
247307,-100,4,2,1,80,0,0
247380,-100,4,2,1,70,0,0
247453,-100,4,2,1,80,0,0
247746,300,4,2,1,82,1,0
248946,301.507537688442,4,2,1,82,1,0
250152,296.296296296296,4,2,1,84,1,0
251040,304.568527918782,4,2,1,84,1,0
251344,304.568527918782,4,2,1,84,1,0
251953,300,4,2,1,82,1,0
251953,-83.3333333333333,4,2,1,82,0,0
252103,-83.3333333333333,4,2,1,70,0,0
252178,-83.3333333333333,4,2,1,82,0,0
252328,-83.3333333333333,4,2,1,70,0,0
252403,-83.3333333333333,4,2,1,82,0,0

[Colours]
Combo1 : 230,0,0
Combo2 : 180,255,255
Combo3 : 255,75,75
Combo4 : 0,230,230

[HitObjects]
88,196,1139,6,0,P|124:148|248:143,2,180.005244506836,2|2|2,2:0|2:0|2:0,2:0:0:0:
214,324,2951,6,0,B|320:306|283:364|395:347,1,180,2|2,2:0|2:0,2:0:0:0:
478,192,4145,2,0,L|466:93,1,89.9999999999998,2|0,2:0|2:0,2:0:0:0:
387,59,4745,2,0,L|354:62,3,22.5,2|0|0|0,1:2|1:2|1:2|1:2,2:0:0:0:
343,85,5045,2,0,B|297:98|297:98|249:80,1,89.9999999999999,12|0,2:0|2:0,2:0:0:0:
150,49,5345,6,0,P|154:89|160:147,1,75,14|0,2:0|1:2,2:0:0:0:
259,172,5645,2,0,P|255:212|249:270,1,75,10|8,2:0|2:0,2:0:0:0:
347,383,5945,1,10,2:0:0:0:
347,216,6095,1,8,2:0:0:0:
250,346,6245,1,10,2:0:0:0:
405,299,6395,1,8,2:0:0:0:
251,246,6545,1,2,1:2:0:0:
450,145,6995,5,0,1:2:0:0:
450,145,7070,1,0,1:2:0:0:
450,145,7145,2,0,B|450:26|450:26|397:55,1,168.75,14|0,2:0|2:0,2:0:0:0:
329,85,7757,6,0,L|213:79,1,112.5,6|0,1:2|1:2,2:0:0:0:
79,178,8348,2,0,L|195:172,1,112.5,0|0,1:2|1:2,2:0:0:0:
329,269,8954,2,0,L|213:263,1,112.5,0|0,1:2|1:2,2:0:0:0:
79,362,9560,2,0,L|195:356,1,112.443754291535,0|0,1:2|1:2,2:0:0:0:
329,269,10148,6,0,P|336:237|333:196,1,56.2500000000001,6|0,1:2|2:0,2:0:0:0:
275,132,10445,2,0,L|277:89,3,28.1250000000001,8|8|8|8,2:0|2:0|2:0|2:0,2:0:0:0:
293,81,10743,2,0,L|291:38,3,28.1250000000001,8|8|8|8,2:0|2:0|2:0|2:0,2:0:0:0:
273,29,11041,5,8,2:0:0:0:
248,40,11115,1,8,2:0:0:0:
220,44,11190,1,8,2:0:0:0:
192,40,11264,1,8,2:0:0:0:
167,28,11339,2,0,L|119:33,3,28.1250000000001,8|8|8|8,2:0|2:0|2:0|2:0,2:0:0:0:
120,52,11636,1,8,2:0:0:0:
106,76,11711,1,8,2:0:0:0:
99,103,11785,1,0,1:2:0:0:
99,131,11860,1,0,1:2:0:0:
105,159,11934,6,0,B|132:168|151:184|151:184|187:158|243:163,1,131.25,14|0,2:0|2:0,2:0:0:0:
258,170,12549,6,0,L|264:255,1,75,6|2,1:2|1:2,2:0:0:0:
367,330,12852,2,0,L|372:255,1,75,10|2,2:0|2:0,2:0:0:0:
477,170,13155,2,0,L|483:255,1,75,2|2,1:2|1:2,2:0:0:0:
367,106,13458,1,10,2:0:0:0:
258,170,13609,5,2,1:2:0:0:
258,170,13761,2,0,P|220:174|172:164,1,75,2|2,2:0|1:2,2:0:0:0:
58,116,14061,1,10,2:0:0:0:
58,116,14211,2,0,L|53:214,1,75,2|2,2:0|1:2,2:0:0:0:
45,303,14511,1,2,1:2:0:0:
175,241,14661,2,0,P|185:205|184:168,1,75,10|2,2:0|2:0,2:0:0:0:
154,58,14961,5,2,1:2:0:0:
154,58,15111,1,2,1:2:0:0:
282,97,15261,2,0,L|368:91,1,75,10|2,2:0|2:0,2:0:0:0:
477,85,15561,1,2,1:2:0:0:
477,85,15711,2,0,P|491:128|488:164,1,75,2|10,1:2|2:0,2:0:0:0:
347,252,16011,5,2,1:2:0:0:
347,252,16161,2,0,L|341:160,1,75,2|2,2:0|1:2,2:0:0:0:
217,125,16459,1,10,2:0:0:0:
244,274,16608,2,0,P|279:278|338:261,1,75,2|2,2:0|1:2,2:0:0:0:
149,207,16907,1,2,1:2:0:0:
149,207,16981,1,0,1:2:0:0:
149,207,17056,2,0,P|114:203|55:220,1,75,14|2,2:0|2:0,2:0:0:0:
118,338,17355,5,6,1:2:0:0:
118,338,17505,1,2,1:2:0:0:
244,274,17655,2,0,P|245:238|247:188,1,75,10|2,2:0|2:0,2:0:0:0:
352,140,17955,1,2,1:2:0:0:
352,140,18105,2,0,P|353:176|355:226,1,75,2|10,1:2|2:0,2:0:0:0:
389,44,18405,5,2,1:2:0:0:
389,44,18555,2,0,P|345:39|290:58,1,75,2|2,2:0|1:2,2:0:0:0:
205,109,18855,1,10,2:0:0:0:
205,109,19005,2,0,P|161:114|106:95,1,75,2|2,2:0|1:2,2:0:0:0:
44,35,19305,1,2,1:2:0:0:
0,154,19455,2,0,L|5:239,1,75,10|2,2:0|2:0,2:0:0:0:
73,323,19755,5,2,1:2:0:0:
73,323,19905,1,2,1:2:0:0:
187,250,20055,2,0,P|225:252|277:254,1,75,10|2,2:0|2:0,2:0:0:0:
361,333,20355,1,2,1:2:0:0:
361,333,20505,2,0,P|399:331|451:329,1,75,2|10,1:2|2:0,2:0:0:0:
491,190,20805,5,2,1:2:0:0:
491,190,20955,2,0,P|453:188|401:186,1,75,2|10,2:0|2:0,2:0:0:0:
222,176,21255,1,10,2:0:0:0:
372,99,21405,1,10,2:0:0:0:
266,262,21555,1,10,2:0:0:0:
416,186,21705,1,10,2:0:0:0:
275,94,21855,1,10,2:0:0:0:
363,268,22005,1,10,2:0:0:0:
484,105,22155,6,0,L|360:98,2,112.5,6|0|2,1:2|1:2|1:2,2:0:0:0:
419,264,23055,2,0,L|362:267,1,56.2500000000001,0|2,1:2|2:0,2:0:0:0:
284,300,23355,6,0,P|246:259|168:253,1,112.5,2|2,1:2|1:2,2:0:0:0:
109,263,23805,1,2,2:0:0:0:
109,263,23955,2,0,P|101:217|102:198,1,56.2500000000001,0|2,1:2|2:0,2:0:0:0:
155,142,24255,2,0,P|163:96|162:77,1,56.2500000000001,2|2,1:2|2:0,2:0:0:0:
124,11,24555,6,0,P|170:37|246:29,2,112.5,6|0|2,1:2|1:2|1:2,2:0:0:0:
4,130,25455,2,0,L|8:200,1,56.2500000000001,0|2,1:2|2:0,2:0:0:0:
58,254,25755,6,0,L|54:324,2,56.2500000000001,2|2|6,1:2|2:0|1:2,2:0:0:0:
122,198,26205,1,2,2:0:0:0:
191,246,26355,1,2,1:2:0:0:
216,257,26430,1,0,1:2:0:0:
244,260,26505,1,2,1:2:0:0:
272,255,26580,1,0,1:2:0:0:
297,243,26655,2,0,L|292:178,1,56.2500000000001,14|0,2:0|2:0,2:0:0:0:
285,52,26955,6,0,B|334:46|334:46|382:58|382:58|437:51,2,150,4|8|0,1:2|2:0|1:2,2:0:0:0:
198,124,27705,1,0,1:2:0:0:
292,187,27855,1,8,2:0:0:0:
204,257,28005,6,0,P|132:246|42:235,1,150,0|2,1:2|1:2,2:0:0:0:
22,238,28380,1,0,1:2:0:0:
22,238,28455,2,0,P|15:190|21:157,1,75,10|2,2:0|2:0,2:0:0:0:
91,78,28755,1,2,1:2:0:0:
112,92,28830,1,0,1:2:0:0:
137,99,28905,1,2,1:2:0:0:
164,98,28980,1,0,1:2:0:0:
188,90,29055,2,0,P|226:101|272:95,1,75,14|0,2:0|2:0,2:0:0:0:
406,60,29355,6,0,B|422:160|422:160|394:202,2,150,4|8|0,1:2|2:0|1:2,2:0:0:0:
305,171,30105,1,0,1:2:0:0:
407,232,30255,1,10,2:0:0:0:
298,282,30405,6,0,B|219:269|235:319|144:303,1,150,2|0,1:2|1:2,2:0:0:0:
31,246,30855,2,0,P|21:287|22:329,1,75,12|0,2:0|1:2,2:0:0:0:
131,185,31155,1,8,2:0:0:0:
129,155,31230,1,8,2:0:0:0:
127,125,31305,1,8,2:0:0:0:
125,95,31380,1,8,2:0:0:0:
123,65,31455,2,0,P|156:57|211:60,1,75,8|6,2:3|2:3,2:0:0:0:
300,101,31755,6,0,P|355:97|436:91,2,112.5,6|0|2,1:2|1:2|1:2,2:0:0:0:
211,244,32655,2,0,P|238:246|279:249,1,56.2500000000001,0|2,1:2|2:0,2:0:0:0:
351,244,32955,6,0,P|399:220|463:228,1,112.5,2|2,1:2|1:2,2:0:0:0:
508,299,33405,1,2,2:0:0:0:
508,299,33555,2,0,L|504:370,1,56.2500000000001,2|10,1:2|2:0,2:0:0:0:
424,379,33855,1,2,1:2:0:0:
351,335,34005,1,2,1:2:0:0:
351,335,34080,1,0,1:2:0:0:
351,335,34155,6,0,B|282:338,1,56.2500000000001,6|0,1:2|2:0,2:0:0:0:
224,377,34449,2,0,B|189:375,3,28.1250000000001,8|8|10|8,2:0|2:0|2:0|2:0,2:0:0:0:
171,355,34743,2,0,B|136:356,3,28.1250000000001,10|8|8|8,2:0|2:0|2:0|2:0,2:0:0:0:
101,373,35037,2,0,P|52:366|32:359,1,56.2500021457673,8|10,2:0|2:0,0:0:0:0:
17,289,35331,5,10,2:3:0:0:
6,261,35407,1,8,2:3:0:0:
1,234,35484,1,10,2:3:0:0:
0,207,35560,1,8,2:3:0:0:
5,179,35637,1,10,2:3:0:0:
11,152,35713,1,8,2:3:0:0:
23,126,35790,1,10,2:3:0:0:
40,103,35866,1,8,2:3:0:0:
59,82,35943,2,0,L|134:99,1,56.2500000000001,14|8,2:3|2:3,2:3:0:0:
137,123,36168,1,8,2:3:0:0:
137,123,36243,2,0,L|212:132,1,56.2500000000001,6|0,2:3|1:3,2:3:0:0:
355,150,36543,6,0,P|374:86|334:3,2,150,6|8|0,1:2|2:0|1:2,2:0:0:0:
286,239,37300,1,0,1:2:0:0:
205,161,37452,1,12,2:0:0:0:
114,228,37603,6,0,P|92:155|128:78,1,149.515,0|2,1:2|1:2,2:0:0:0:
149,67,37980,1,0,1:2:0:0:
149,67,38055,2,0,L|238:70,1,75,10|2,2:0|2:0,2:0:0:0:
326,115,38355,1,2,1:2:0:0:
352,112,38430,1,0,1:2:0:0:
377,108,38505,1,2,1:2:0:0:
404,105,38580,1,0,1:2:0:0:
430,103,38655,2,0,P|443:145|443:181,1,75,14|0,2:0|2:0,2:0:0:0:
318,259,38955,6,0,B|276:238|276:238|163:251,2,150,4|8|0,1:2|2:0|1:2,2:0:0:0:
220,352,39705,1,0,1:2:0:0:
158,223,39855,1,10,2:0:0:0:
53,308,40005,6,0,P|37:230|28:154,1,150,2|0,1:2|1:2,2:0:0:0:
94,42,40455,2,0,P|128:31|176:35,1,75,12|0,2:0|2:0,2:0:0:0:
304,93,40755,2,0,L|397:86,2,50,12|8|4,2:0|2:3|2:3,2:0:0:0:
242,152,41055,2,0,L|149:145,2,50,10|4|4,2:3|2:3|2:3,2:0:0:0:
300,214,41355,5,6,1:2:0:0:
212,265,41505,2,0,P|175:244|71:243,1,135,0|0,1:2|1:2,2:0:0:0:
182,369,41955,1,10,2:0:0:0:
280,343,42105,2,0,P|317:322|421:321,1,135,0|0,1:2|2:0,2:0:0:0:
471,237,42555,5,2,1:2:0:0:
387,180,42705,2,0,B|344:197|344:197|234:183,1,135,0|0,1:2|1:2,2:0:0:0:
290,6,43155,1,10,2:0:0:0:
381,49,43305,2,0,B|398:92|398:92|384:202,1,135,0|0,1:2|2:0,2:0:0:0:
277,299,43755,5,6,1:2:0:0:
191,258,43905,2,0,P|122:243|43:259,1,135,0|0,1:2|1:2,2:0:0:0:
199,350,44355,1,10,2:0:0:0:
277,299,44505,2,0,P|346:284|425:300,1,135,0|0,1:2|2:0,2:0:0:0:
482,224,44955,5,2,1:2:0:0:
408,153,45105,2,0,L|417:0,1,135,2|0,1:2|1:2,2:0:0:0:
301,173,45555,2,0,L|306:257,1,67.5000000000001,14|0,2:0|2:0,2:0:0:0:
391,293,45855,2,0,L|386:377,1,67.5000000000001,0|0,1:2|2:0,2:0:0:0:
286,347,46155,6,0,P|223:324|146:336,2,135,6|2|2,1:2|1:2|1:2,2:0:0:0:
416,192,47041,1,2,1:2:0:0:
286,37,47337,2,0,P|223:60|146:48,1,135,2|2,1:2|1:2,2:0:0:0:
17,200,47946,2,0,P|80:177|157:189,1,135,2|0,1:2|1:2,2:0:0:0:
237,227,48402,1,2,1:2:0:0:
319,89,48555,5,12,1:2:0:0:
396,229,48705,1,0,1:2:0:0:
237,227,48855,1,0,1:2:0:0:
398,137,49005,5,12,2:0:0:0:
238,134,49155,1,0,1:2:0:0:
316,275,49305,1,0,1:2:0:0:
319,89,49455,5,12,2:0:0:0:
313,298,49605,1,12,2:0:0:0:
313,298,50955,6,0,L|318:380,1,82.5,6|0,1:2|2:0,2:0:0:0:
407,230,51255,1,8,2:0:0:0:
291,186,51405,2,0,B|240:204|240:204|128:189,1,165,0|0,2:0|1:2,2:0:0:0:
74,78,51855,6,0,P|105:68|162:70,1,82.5,8|0,2:0|1:2,2:0:0:0:
130,189,52155,1,0,2:0:0:0:
49,94,52305,1,0,1:2:0:0:
5,209,52455,2,0,L|15:304,1,82.5,10|0,2:0|2:0,2:0:0:0:
138,295,52755,2,0,L|128:390,1,82.5,2|0,1:2|1:2,2:0:0:0:
251,209,53055,2,0,L|261:304,1,82.5,10|0,2:0|2:0,2:0:0:0:
380,378,53355,6,0,L|390:283,1,82.5,2|0,1:2|1:2,2:0:0:0:
368,147,53655,1,10,2:0:0:0:
250,187,53805,2,0,P|205:185|158:183,1,82.5,2|0,2:0|1:2,2:0:0:0:
358,123,54105,2,0,P|403:121|450:119,1,82.5,2|8,1:2|2:0,2:0:0:0:
269,16,54405,6,0,B|177:8|204:65|102:57,1,165,2|0,1:2|1:2,2:0:0:0:
17,160,54855,2,0,P|8:202|20:255,1,82.5,10|0,2:0|2:0,2:0:0:0:
96,355,55155,1,2,1:2:0:0:
156,206,55305,1,0,1:2:0:0:
156,206,55380,1,0,1:2:0:0:
156,206,55455,2,0,B|194:218|194:218|254:202,1,82.5,14|0,2:0|2:0,2:0:0:0:
379,124,55755,5,6,1:2:0:0:
358,246,55905,1,2,1:2:0:0:
273,97,56055,2,0,P|265:51|269:14,1,82.5,10|0,2:0|2:0,2:0:0:0:
379,124,56355,5,2,1:2:0:0:
255,122,56505,1,2,1:2:0:0:
358,246,56655,2,0,L|457:235,1,82.5,10|0,2:0|1:2,2:0:0:0:
240,144,56955,5,2,2:0:0:0:
204,262,57105,1,2,1:2:0:0:
81,151,57255,2,0,P|74:110|83:64,1,82.5,10|0,2:0|2:0,2:0:0:0:
224,168,57555,5,2,1:2:0:0:
100,175,57705,1,2,1:2:0:0:
226,281,57855,2,0,L|219:370,1,82.5,10|0,2:0|2:0,2:0:0:0:
358,246,58155,6,0,P|348:163|335:68,1,165,2|10,1:2|2:0,2:0:0:0:
224,31,58605,2,0,P|212:84|222:122,1,82.5,2|0,2:0|1:2,2:0:0:0:
98,170,58905,2,0,P|103:129|91:90,1,82.5,2|8,1:2|2:0,2:0:0:0:
24,276,59205,6,0,B|59:259|92:265|92:265|111:280|111:280|147:262|196:279,1,165,6|2,1:2|1:2,2:0:0:0:
340,311,59655,1,10,2:0:0:0:
238,381,59805,1,2,1:2:0:0:
270,219,59955,5,10,2:0:0:0:
302,201,60030,1,8,2:0:0:0:
339,195,60105,1,10,2:0:0:0:
375,202,60180,1,8,2:0:0:0:
408,219,60255,2,0,L|411:162,3,41.25,10|8|8|8,2:0|2:0|2:0|2:0,2:0:0:0:
474,123,60555,6,0,L|462:21,1,82.5,6|0,1:2|1:2,2:0:0:0:
345,5,60855,1,8,2:0:0:0:
258,93,61005,2,0,P|172:66|87:95,1,165,0|0,1:0|1:2,2:0:0:0:
131,205,61455,6,0,P|169:214|225:204,1,82.5,8|0,2:0|1:2,2:0:0:0:
284,108,61755,1,0,2:0:0:0:
336,220,61905,1,0,1:2:0:0:
408,119,62055,2,0,L|490:125,1,82.5,10|0,2:0|2:0,2:0:0:0:
322,18,62355,2,0,L|404:12,1,82.5,2|0,1:2|1:2,2:0:0:0:
202,102,62655,2,0,L|284:108,1,82.5,10|0,2:0|2:0,2:0:0:0:
176,223,62955,6,0,L|94:229,1,82.5,2|0,1:2|1:2,2:0:0:0:
216,375,63255,1,10,2:0:0:0:
326,288,63405,2,0,P|335:249|331:202,1,82.5,2|0,2:0|1:2,2:0:0:0:
448,127,63705,2,0,P|445:168|454:208,1,82.5,2|8,1:2|2:0,2:0:0:0:
505,15,64005,6,0,P|419:21|321:29,1,163.900005035401,2|0,1:2|1:2,2:0:0:0:
203,121,64452,2,0,P|244:124|285:127,1,82.5,10|0,2:0|2:0,2:0:0:0:
130,187,64750,1,2,1:2:0:0:
74,31,64899,1,0,1:2:0:0:
74,31,64973,1,0,1:2:0:0:
74,31,65048,2,0,P|115:27|156:24,1,82.5,14|0,2:0|2:0,2:0:0:0:
285,127,65346,6,0,B|305:164|305:164|289:253,1,123.75,6|0,1:2|2:0,2:0:0:0:
281,280,65646,2,0,P|235:290|186:276,1,82.5,10|0,2:0|2:0,2:0:0:0:
106,201,65946,5,2,1:2:0:0:
41,306,66096,1,2,1:2:0:0:
38,133,66246,2,0,P|70:112|132:108,1,82.5,10|0,2:0|1:2,2:0:0:0:
224,159,66546,5,2,2:0:0:0:
106,201,66697,1,2,1:2:0:0:
212,64,66848,2,0,P|251:67|296:97,1,82.5,10|2,2:0|2:0,2:0:0:0:
343,199,67150,5,2,1:2:0:0:
224,159,67301,1,2,1:2:0:0:
392,118,67452,2,0,P|423:149|436:187,1,82.5,10|0,2:0|2:0,2:0:0:0:
355,324,67755,6,0,B|263:302|281:364|170:340,1,165,2|10,1:2|2:0,2:0:0:0:
201,158,68205,2,0,P|215:196|217:238,1,82.5,2|0,2:0|1:2,2:0:0:0:
68,134,68505,2,0,P|69:92|83:54,1,82.5,2|8,1:2|2:0,2:0:0:0:
262,18,68805,6,0,B|297:48|297:48|445:24,1,165,6|0,1:2|1:2,2:0:0:0:
500,150,69255,1,10,2:0:0:0:
497,187,69330,1,8,2:0:0:0:
494,224,69405,1,0,1:2:0:0:
492,261,69480,1,0,1:2:0:0:
489,298,69555,2,0,L|435:292,3,41.25,10|8|4|4,2:3|2:3|2:3|2:3,2:0:0:0:
368,276,69855,2,0,L|266:285,1,82.5,14|0,2:0|2:0,2:0:0:0:
121,297,70155,6,0,P|109:247|115:200,1,82.5,6|0,1:2|1:2,2:0:0:0:
276,202,70455,2,0,P|288:252|282:299,1,82.5,8|0,2:0|1:2,2:0:0:0:
111,216,70756,2,0,P|99:166|105:119,1,82.5,10|0,2:0|1:2,2:0:0:0:
266,121,71057,2,0,P|278:171|272:218,1,82.5,8|0,2:0|1:2,2:0:0:0:
19,143,71358,6,0,L|101:135,1,82.5,10|0,2:0|1:2,2:0:0:0:
275,201,71658,2,0,L|192:193,1,82.5,8|0,2:0|1:2,2:0:0:0:
19,255,71959,2,0,L|101:247,1,82.5,10|0,2:0|1:2,2:0:0:0:
275,313,72260,2,0,L|192:305,1,82.5,8|0,2:0|1:2,2:0:0:0:
182,348,72485,1,0,1:2:0:0:
182,348,72561,6,0,L|264:355,1,82.5,14|0,2:0|1:2,2:0:0:0:
357,193,72862,2,0,L|274:200,1,82.5,8|0,2:0|1:2,2:0:0:0:
422,291,73164,2,0,L|504:298,1,82.5,10|0,2:0|1:2,2:0:0:0:
379,178,73465,1,8,2:0:0:0:
345,353,73616,1,0,1:2:0:0:
345,353,73691,1,0,1:2:0:0:
345,353,73767,6,0,P|302:361|257:353,1,82.5000025177003,10|0,2:0|1:2,2:0:0:0:
193,203,74058,2,0,P|236:195|281:203,1,82.5000025177003,8|0,2:0|1:2,2:0:0:0:
434,268,74349,1,10,2:3:0:0:
449,234,74422,1,4,2:3:0:0:
456,198,74495,1,4,2:3:0:0:
455,161,74567,1,4,2:3:0:0:
444,125,74640,2,0,L|348:119,1,82.5,12|0,2:0|2:0,2:0:0:0:
228,70,74955,6,0,P|163:98|77:84,1,135,6|2,1:2|2:0,2:0:0:0:
17,209,75405,1,0,1:2:0:0:
17,209,75480,1,0,1:2:0:0:
17,209,75555,2,0,B|43:246|43:246|18:340,2,120,10|8|8,2:0|2:0|2:0,2:0:0:0:
100,93,76155,5,6,1:2:0:0:
100,93,76755,2,0,B|140:84|140:84|163:95|163:95|193:78|240:82,1,135,2|2,2:0|2:0,2:0:0:0:
365,79,77340,6,0,P|373:122|368:164,1,75,6|2,1:2|1:2,2:0:0:0:
234,155,77641,2,0,P|226:118|228:81,1,75,10|2,2:0|2:0,2:0:0:0:
309,234,77943,1,2,1:2:0:0:
309,234,78093,2,0,L|304:324,1,75,2|10,1:2|2:0,2:0:0:0:
196,342,78395,5,2,1:2:0:0:
196,342,78546,2,0,L|191:267,1,75,2|2,2:0|1:2,2:0:0:0:
83,234,78847,1,10,2:0:0:0:
83,234,78998,2,0,L|78:308,1,75,2|2,2:0|1:2,2:0:0:0:
3,145,79299,1,2,1:2:0:0:
116,86,79450,2,0,P|155:80|201:87,1,75,10|2,2:0|1:2,2:0:0:0:
290,134,79752,5,2,1:2:0:0:
290,134,79902,1,2,1:2:0:0:
384,73,80053,2,0,P|386:29|377:-8,1,75,10|2,2:0|2:0,2:0:0:0:
290,134,80355,1,2,1:2:0:0:
398,102,80505,1,2,1:2:0:0:
279,39,80656,1,10,2:0:0:0:
190,195,80807,5,6,1:2:0:0:
190,195,80958,2,0,L|198:282,1,75,2|2,2:0|1:2,2:0:0:0:
318,358,81259,1,10,2:0:0:0:
348,362,81333,1,8,2:0:0:0:
377,359,81408,1,10,2:0:0:0:
406,349,81482,1,8,2:0:0:0:
431,332,81557,2,0,L|434:286,3,37.5,10|4|6|8,2:3|2:3|2:3|2:3,2:0:0:0:
458,266,81856,2,0,L|455:220,3,37.5,10|4|6|4,2:3|2:3|2:3|2:3,2:0:0:0:
444,192,82141,6,0,P|408:184|355:193,1,75,6|2,1:2|1:2,2:0:0:0:
265,79,82444,2,0,P|301:87|354:78,1,75,10|2,2:0|2:0,2:0:0:0:
160,26,82747,1,2,1:2:0:0:
160,26,82898,2,0,L|154:120,1,75,2|10,1:2|2:0,2:0:0:0:
66,169,83201,5,2,1:2:0:0:
66,169,83353,2,0,L|72:263,1,75,2|2,2:0|1:2,2:0:0:0:
175,302,83656,1,10,2:0:0:0:
175,302,83807,2,0,L|181:208,1,75.505,2|2,2:0|1:2,2:0:0:0:
264,152,84107,1,2,1:2:0:0:
344,250,84255,2,0,P|382:258|437:244,1,75,14|2,2:0|2:0,2:0:0:0:
491,139,84551,6,0,L|486:91,5,37.5,12|0|2|0|2|0,2:0|1:2|1:2|1:2|1:2|1:2,2:0:0:0:
409,70,84987,2,0,L|404:118,5,37.50225,10|0|2|0|2|0,2:0|1:2|1:2|1:2|1:2|1:2,2:0:0:0:
339,158,85440,2,0,L|247:151,1,75,14|2,2:0|2:0,2:0:0:0:
149,55,85742,6,0,L|241:48,1,75,6|10,1:2|2:0,2:0:0:0:
48,10,86042,1,10,2:0:0:0:
96,183,86192,1,10,2:0:0:0:
96,183,86267,1,8,2:0:0:0:
96,183,86342,1,10,2:0:0:0:
146,78,86492,1,10,2:3:0:0:
17,137,86642,2,0,P|7:171|19:227,1,75,6|2,2:3|1:2,2:0:0:0:
115,339,86942,5,14,1:2:0:0:
209,203,87093,1,8,1:2:0:0:
209,203,89196,5,0,1:2:0:0:
316,235,89339,6,0,P|320:190|308:148,1,75,14|0,2:0|2:0,2:0:0:0:
235,79,89654,1,0,1:2:0:0:
191,182,89805,2,0,P|198:254|209:355,1,150,14|0,2:0|1:2,2:0:0:0:
316,235,90260,1,12,2:0:0:0:
174,166,90411,1,2,1:2:0:0:
174,166,90487,1,0,1:2:0:0:
174,166,90563,6,0,L|107:175,2,50,10|8|8,2:0|2:0|2:3,2:0:0:0:
49,147,90861,2,0,L|-18:156,2,50,6|4|0,2:3|2:3|1:2,2:0:0:0:
77,70,91159,6,0,B|98:72|114:84|114:84|152:57|207:68,1,131.25,14|0,2:0|2:0,2:0:0:0:
230,89,91755,5,4,1:2:0:0:
330,37,91905,2,0,P|323:118|318:191,1,150,0|0,1:0|1:2,2:0:0:0:
219,279,92355,2,0,P|216:241|213:204,1,75,12|0,2:0|2:0,2:0:0:0:
125,316,92655,5,0,1:2:0:0:
236,303,92805,2,0,P|275:304|319:306,1,75,0|0,1:2|2:0,2:0:0:0:
402,371,93105,2,0,P|441:370|485:368,2,75,10|2|2,2:0|1:2|1:2,2:0:0:0:
310,305,93555,1,14,1:2:0:0:
395,232,93705,2,0,P|381:166|371:80,1,150,2|8,1:2|2:0,2:0:0:0:
277,21,94155,5,4,1:2:0:0:
188,90,94305,2,0,P|152:61|52:67,1,150,0|0,1:2|1:2,2:0:0:0:
8,170,94755,2,0,P|12:217|15:263,1,75,12|0,2:0|2:0,2:0:0:0:
67,343,95055,5,2,1:2:0:0:
160,280,95205,2,0,P|163:242|149:195,1,75,2|0,1:2|2:0,2:0:0:0:
265,189,95505,2,0,P|256:225|259:262,1,75,8|0,1:2|2:0,2:0:0:0:
367,232,95805,1,0,1:2:0:0:
276,164,95955,1,12,2:0:0:0:
379,121,96105,1,0,1:2:0:0:
289,52,96255,2,0,L|204:56,1,75,8|2,2:0|1:2,2:0:0:0:
137,103,96555,6,0,B|99:78|99:78|48:92,2,80,2|0|2,1:2|1:2|1:2,2:0:0:0:
203,165,97149,6,0,B|258:155|258:155|310:184|310:184|400:166,1,180,14|0,2:0|2:0,2:0:0:0:
440,110,97758,6,0,P|402:136|423:262,1,180,2|2,2:0|2:0,2:0:0:0:
481,323,98367,1,10,2:0:0:0:
481,323,98514,1,2,1:2:0:0:
407,375,98661,1,10,2:0:0:0:
407,375,98808,1,2,1:2:0:0:
314,333,98955,6,0,B|235:339,1,67.5000000000001,14|0,2:0|2:0,2:0:0:0:
144,372,99254,2,0,B|141:338,3,33.75,8|8|10|8,1:2|1:2|1:2|1:2,2:0:0:0:
125,308,99553,2,0,B|127:274,3,33.75,10|8|8|8,1:2|1:2|1:2|1:2,2:0:0:0:
144,244,99852,2,0,B|130:168,1,67.5000000000001,8|10,1:2|1:2,2:0:0:0:
124,82,100152,5,10,1:2:0:0:
144,93,100224,1,8,2:0:0:0:
166,101,100296,1,10,2:3:0:0:
190,105,100368,1,8,2:3:0:0:
213,106,100441,1,10,2:3:0:0:
237,104,100513,1,8,2:3:0:0:
259,98,100585,1,6,2:3:0:0:
281,88,100658,1,4,2:3:0:0:
301,75,100730,6,0,B|330:144|284:142|308:210,1,131.25,14|0,1:2|2:0,2:0:0:0:
325,236,101339,6,0,L|408:231,1,75,4|0,1:2|2:0,2:0:0:0:
268,355,101645,2,0,L|185:350,1,75,8|0,2:0|2:0,2:0:0:0:
84,346,101951,1,0,1:2:0:0:
84,346,102104,1,0,1:2:0:0:
142,250,102257,1,8,2:0:0:0:
29,249,102410,6,0,P|25:186|19:89,1,148.06,0|2,1:2|1:2,2:0:0:0:
18,65,102786,1,0,1:2:0:0:
18,65,102861,2,0,P|61:50|112:56,1,75,10|0,2:0|2:0,2:0:0:0:
196,88,103159,1,2,1:2:0:0:
219,100,103233,1,0,1:2:0:0:
245,105,103308,1,2,1:2:0:0:
271,102,103382,1,0,1:2:0:0:
294,91,103457,2,0,L|290:177,1,75,10|0,2:0|2:0,2:0:0:0:
268,299,103755,6,0,P|224:288|183:293,1,75,4|0,1:2|1:2,2:0:0:0:
345,376,104055,2,0,P|382:377|418:367,1,75,8|0,2:0|2:0,2:0:0:0:
492,282,104355,1,0,1:2:0:0:
492,282,104505,1,0,1:2:0:0:
381,260,104655,1,10,2:0:0:0:
455,175,104805,6,0,P|446:104|434:10,1,150,2|0,1:2|1:2,2:0:0:0:
301,5,105255,2,0,P|294:44|288:94,1,75,8|0,2:0|1:2,2:0:0:0:
266,212,105555,2,0,P|231:206|210:209,2,50,8|8|8,2:0|2:0|2:3,2:0:0:0:
332,266,105855,2,0,P|367:260|388:263,2,50,10|4|4,2:3|2:3|2:3,2:0:0:0:
275,331,106155,5,6,1:2:0:0:
178,301,106305,2,0,P|126:271|38:270,1,135,0|0,1:2|1:2,2:0:0:0:
217,207,106755,1,10,2:0:0:0:
312,241,106905,2,0,P|364:211|452:210,1,135,0|0,1:2|2:0,2:0:0:0:
491,119,107355,5,2,1:2:0:0:
409,58,107505,2,0,P|343:62|261:67,1,135,8|4,2:0|2:3,2:0:0:0:
154,127,107955,1,10,2:0:0:0:
217,207,108105,2,0,P|283:211|365:216,1,135,0|0,1:2|2:0,2:0:0:0:
218,309,108555,5,14,2:0:0:0:
128,261,108705,2,0,P|64:251|0:291,1,135,0|0,1:2|1:2,2:0:0:0:
132,363,109155,1,10,2:0:0:0:
218,309,109305,2,0,P|278:333|347:324,1,135,0|0,1:2|2:0,2:0:0:0:
434,273,109755,5,2,1:2:0:0:
374,191,109905,2,0,B|334:169|334:169|234:184,1,135,2|0,1:2|1:2,2:0:0:0:
120,208,110355,2,0,P|114:171|109:136,1,67.5000000000001,10|0,2:0|1:2,2:0:0:0:
28,81,110655,2,0,P|34:44|39:9,1,67.5000000000001,8|0,2:0|2:0,2:0:0:0:
138,28,110955,6,0,P|175:42|274:18,2,135,6|2|2,1:2|1:2|1:2,2:0:0:0:
13,187,111855,1,2,1:2:0:0:
140,344,112155,2,0,P|205:338|302:330,1,135,2|2,1:2|1:2,2:0:0:0:
435,208,112755,2,0,P|370:202|273:194,1,135,2|0,1:2|1:2,2:0:0:0:
199,187,113205,1,2,2:0:0:0:
202,351,113355,5,12,2:0:0:0:
63,272,113505,1,0,1:2:0:0:
199,187,113655,1,0,1:2:0:0:
108,351,113805,5,12,2:0:0:0:
247,268,113955,1,0,1:2:0:0:
106,189,114105,1,0,1:2:0:0:
202,351,114255,5,12,2:0:0:0:
96,168,114405,2,0,L|101:80,1,75,12|0,2:0|2:0,2:0:0:0:
185,19,114705,5,10,2:0:0:0:
269,92,114855,2,0,L|332:88,3,37.5,10|8|10|8,2:0|2:0|2:3|2:3,2:0:0:0:
335,65,115155,2,0,L|398:69,3,37.5,10|8|8|8,2:0|2:0|2:0|2:0,2:0:0:0:
407,81,115455,1,10,2:0:0:0:
422,111,115530,1,8,2:0:0:0:
428,144,115605,1,8,2:0:0:0:
426,177,115680,1,8,2:0:0:0:
414,209,115755,6,0,P|455:211|508:213,1,82.5,6|0,1:2|2:0,2:0:0:0:
367,316,116055,1,8,2:0:0:0:
277,230,116205,2,0,B|190:212|201:271|106:251,1,165,0|0,2:0|1:2,2:0:0:0:
34,128,116655,6,0,L|122:118,1,82.5,8|0,2:0|1:2,2:0:0:0:
223,55,116955,1,0,2:0:0:0:
106,12,117105,1,0,1:2:0:0:
207,157,117255,2,0,L|199:246,1,82.5,10|0,2:0|2:0,2:0:0:0:
312,117,117555,2,0,L|320:206,1,82.5,2|0,1:2|1:2,2:0:0:0:
432,77,117855,2,0,L|424:166,1,82.5,10|0,2:0|2:0,2:0:0:0:
327,281,118155,6,0,L|319:198,1,82.5,2|0,1:2|1:2,2:0:0:0:
230,77,118452,1,10,2:0:0:0:
176,188,118600,2,0,P|138:195|79:183,1,82.5,2|0,2:0|1:2,2:0:0:0:
50,72,118897,2,0,P|88:65|147:77,1,82.5,2|8,1:2|2:0,2:0:0:0:
205,199,119194,6,0,B|216:256|216:256|200:302|200:302|215:371,1,165,2|0,1:2|1:2,2:0:0:0:
360,372,119640,2,0,P|370:335|360:279,1,82.5,10|0,2:0|2:0,2:0:0:0:
315,178,119937,1,2,1:2:0:0:
437,193,120085,1,0,1:2:0:0:
349,83,120234,2,0,P|301:78|255:97,1,82.5,10|0,2:0|2:0,2:0:0:0:
168,161,120531,5,6,1:2:0:0:
185,283,120682,1,2,1:2:0:0:
55,180,120834,2,0,P|46:133|64:78,1,82.5,10|2,2:0|2:0,2:0:0:0:
168,161,121137,5,2,1:2:0:0:
185,283,121288,1,2,1:2:0:0:
299,163,121440,2,0,L|396:171,1,82.5,10|0,2:0|1:2,2:0:0:0:
302,266,121743,5,2,2:0:0:0:
276,144,121894,1,2,1:2:0:0:
185,283,122046,2,0,L|88:291,1,82.5,10|2,2:0|2:0,2:0:0:0:
54,157,122349,6,0,L|151:165,1,82.5,2|0,1:2|1:2,2:0:0:0:
254,125,122652,1,10,2:0:0:0:
150,57,122803,1,0,2:0:0:0:
276,144,122955,6,0,P|282:193|289:241,1,82.5,2|0,1:2|1:2,2:0:0:0:
409,142,123255,1,10,2:0:0:0:
333,43,123405,2,0,P|286:28|240:35,1,82.5,2|0,2:0|1:2,2:0:0:0:
409,142,123705,2,0,P|456:157|502:150,1,82.5,2|8,1:2|2:0,2:0:0:0:
286,225,124005,6,0,B|256:218|236:216|236:216|215:227|196:232|196:232|161:209|118:215,1,165,6|2,1:2|1:2,2:0:0:0:
12,306,124455,1,10,2:0:0:0:
134,323,124605,1,2,1:2:0:0:
28,196,124755,5,10,2:0:0:0:
29,158,124830,1,8,2:0:0:0:
31,121,124905,1,10,2:3:0:0:
33,84,124980,1,8,2:3:0:0:
35,47,125055,2,0,L|30:-2,3,41.25,10|8|8|8,2:0|2:0|2:0|2:0,2:0:0:0:
131,30,125355,6,0,L|118:144,1,82.5,6|0,1:2|1:2,2:0:0:0:
177,222,125655,1,8,2:0:0:0:
281,156,125805,2,0,B|372:141|354:201|446:184,1,165,0|0,1:0|1:2,2:0:0:0:
477,302,126255,6,0,P|435:306|369:313,1,82.5,8|0,2:0|1:2,2:0:0:0:
280,263,126555,1,0,2:0:0:0:
361,169,126705,1,0,1:2:0:0:
267,284,126855,2,0,P|271:325|276:375,1,82.5,10|0,2:0|2:0,2:0:0:0:
145,263,127155,2,0,P|141:304|136:354,1,82.5,2|0,1:2|1:2,2:0:0:0:
6,244,127455,2,0,P|10:285|15:335,1,82.5,10|0,2:0|2:0,2:0:0:0:
92,153,127755,6,0,P|96:112|101:62,1,82.5,2|0,1:2|1:2,2:0:0:0:
207,8,128055,1,10,2:0:0:0:
328,29,128205,2,0,P|369:35|419:23,1,82.5,2|0,2:0|1:2,2:0:0:0:
470,134,128505,2,0,P|428:136|391:153,1,82.5,2|8,1:2|2:0,2:0:0:0:
288,261,128805,6,0,P|275:180|263:90,1,165,2|0,1:2|1:2,2:0:0:0:
142,10,129255,2,0,P|135:50|129:95,1,82.5,10|0,2:0|2:0,2:0:0:0:
115,214,129555,1,2,1:2:0:0:
283,188,129705,1,0,1:2:0:0:
283,188,129780,1,0,1:2:0:0:
283,188,129855,2,0,P|323:179|391:175,1,82.5,14|0,2:0|2:0,2:0:0:0:
487,187,130155,5,6,1:2:0:0:
494,63,130305,1,2,1:2:0:0:
364,175,130455,1,10,2:0:0:0:
370,51,130605,1,2,2:0:0:0:
487,187,130755,6,0,P|480:230|487:298,1,82.5,2|0,1:2|1:2,2:0:0:0:
364,362,131055,2,0,P|365:320|358:280,1,82.5,10|0,2:0|1:2,2:0:0:0:
264,198,131355,5,2,2:0:0:0:
172,281,131505,1,2,1:2:0:0:
358,280,131655,1,10,2:0:0:0:
265,362,131805,1,2,2:0:0:0:
264,198,131955,6,0,P|214:191|172:187,1,82.5,2|0,1:2|1:2,2:0:0:0:
71,88,132255,2,0,P|121:81|163:77,1,82.5,10|0,2:0|2:0,2:0:0:0:
311,123,132555,6,0,P|281:193|321:282,1,165,2|10,1:2|2:0,2:0:0:0:
470,203,133005,2,0,L|388:198,1,82.5,2|0,2:0|1:2,2:0:0:0:
313,97,133305,2,0,L|395:91,1,82.5,2|8,1:2|2:0,2:0:0:0:
206,28,133605,6,0,B|180:64|180:64|200:201,1,165,6|0,1:2|1:2,2:0:0:0:
223,347,134055,1,10,2:0:0:0:
188,361,134130,1,8,2:0:0:0:
152,365,134205,1,0,1:2:0:0:
115,359,134280,1,0,1:2:0:0:
82,343,134355,2,0,L|75:282,3,41.25,10|8|4|4,2:3|2:3|2:3|2:3,2:0:0:0:
21,242,134655,2,0,L|29:144,1,82.5,14|0,2:0|2:0,2:0:0:0:
159,58,134955,6,0,P|201:49|254:64,1,82.5,6|0,1:2|1:2,2:0:0:0:
280,216,135255,2,0,P|238:225|185:210,1,82.5,8|0,2:0|1:2,2:0:0:0:
239,56,135555,2,0,P|281:47|334:62,1,82.5,10|0,2:0|1:2,2:0:0:0:
360,214,135855,2,0,P|318:223|265:208,1,82.5,8|0,2:0|1:2,2:0:0:0:
115,192,136155,6,0,L|119:294,1,82.5,10|0,2:0|1:2,2:0:0:0:
283,298,136455,2,0,L|279:196,1,82.5,8|0,2:0|1:2,2:0:0:0:
118,274,136755,2,0,L|122:376,1,82.5,10|0,2:0|1:2,2:0:0:0:
286,380,137055,2,0,L|282:278,1,82.5,8|0,2:0|1:2,2:0:0:0:
328,296,137280,1,0,1:2:0:0:
328,296,137355,6,0,L|332:398,1,82.5,14|0,2:0|1:2,2:0:0:0:
463,252,137655,2,0,L|467:150,1,82.5,8|0,2:0|1:2,2:0:0:0:
325,213,137955,2,0,L|329:315,1,82.5,10|0,2:0|1:2,2:0:0:0:
466,169,138255,2,0,L|470:67,1,82.5,8|0,2:0|1:2,2:0:0:0:
317,20,138555,6,0,P|272:15|224:24,1,82.5,10|0,2:0|1:2,2:0:0:0:
176,174,138855,2,0,P|221:179|269:170,1,82.5,8|0,2:0|1:2,2:0:0:0:
374,131,139155,1,10,2:0:0:0:
317,20,139305,1,4,2:3:0:0:
257,173,139455,2,0,L|266:268,1,82.5,12|0,2:0|2:0,2:0:0:0:
101,129,139755,6,0,L|110:34,1,82.5,6|0,1:2|1:2,2:0:0:0:
0,170,140055,2,0,L|9:265,1,82.5,10|0,2:0|1:2,2:0:0:0:
73,357,140355,1,2,1:2:0:0:
131,247,140505,1,0,1:2:0:0:
223,362,140655,2,0,P|266:367|319:353,1,82.5,14|0,2:0|1:2,2:0:0:0:
431,282,140955,5,14,1:2:0:0:
315,237,141105,1,0,1:2:0:0:
461,262,141255,2,0,P|466:219|452:166,1,82.5,14|0,2:0|1:2,2:0:0:0:
375,57,141555,2,0,L|378:2,2,55,10|8|8,2:0|2:0|2:0,2:0:0:0:
288,94,141861,2,0,L|291:148,2,55,8|8|10,2:0|2:0|2:0,2:0:0:0:
217,28,142176,5,4,1:2:0:0:
256,192,142248,12,2,144405,1:2:0:0:
256,192,144555,5,14,2:0:0:0:
175,270,144705,2,0,L|84:264,1,75,0|2,1:2|2:0,2:0:0:0:
44,167,145005,1,2,1:2:0:0:
44,167,145080,1,0,1:2:0:0:
44,167,145155,2,0,L|135:161,1,75,8|0,2:0|2:0,2:0:0:0:
213,101,145455,5,2,1:2:0:0:
318,139,145605,2,0,P|326:175|317:231,1,75,0|2,1:2|2:0,2:0:0:0:
286,325,145905,1,0,1:2:0:0:
286,325,145980,1,0,1:2:0:0:
286,325,146055,2,0,L|372:330,1,75,2|0,1:2|2:0,2:0:0:0:
227,231,146355,1,10,2:0:0:0:
178,332,146505,2,0,P|124:340|34:288,1,150,0|0,1:2|1:2,2:0:0:0:
15,188,146955,5,6,1:2:0:0:
114,136,147103,2,0,P|120:97|124:58,1,75,0|0,1:2|2:0,2:0:0:0:
235,18,147401,1,0,1:2:0:0:
235,18,147476,1,0,1:2:0:0:
235,18,147550,2,0,P|238:55|244:92,1,75,8|0,2:0|2:0,2:0:0:0:
306,185,147848,5,2,1:2:0:0:
399,121,147997,2,0,P|441:116|488:124,1,75,0|0,1:2|2:0,2:0:0:0:
479,239,148294,1,2,1:2:0:0:
479,239,148369,1,0,1:2:0:0:
479,239,148443,2,0,P|437:244|390:236,1,75,2|0,1:2|2:0,2:0:0:0:
306,185,148741,2,0,L|207:192,1,75,12|0,2:0|1:2,2:0:0:0:
166,291,149039,2,0,L|265:298,1,75,2|2,2:0|2:0,2:0:0:0:
108,197,149337,5,0,1:2:0:0:
217,170,149489,2,0,P|214:132|208:92,1,75,2|2,1:2|2:0,2:0:0:0:
327,30,149793,1,0,1:2:0:0:
327,30,149869,1,0,1:2:0:0:
327,30,149946,2,0,P|321:67|318:104,1,75,14|0,2:0|2:0,2:0:0:0:
376,200,150246,5,0,1:2:0:0:
484,171,150396,2,0,P|493:132|493:88,1,75,0|6,1:2|2:0,2:0:0:0:
401,35,150696,1,0,1:2:0:0:
401,35,150771,1,0,1:2:0:0:
401,35,150846,2,0,L|319:29,1,75,0|0,1:2|2:0,2:0:0:0:
235,108,151146,6,0,L|223:2,2,100,14|12|12,2:0|2:0|2:0,2:0:0:0:
154,246,151755,5,6,1:2:0:0:
211,351,151903,2,0,L|311:345,1,75,2|0,1:2|2:0,2:0:0:0:
356,264,152200,1,2,1:2:0:0:
356,264,152274,1,0,1:2:0:0:
356,264,152349,2,0,L|256:258,1,75,14|0,2:0|2:0,2:0:0:0:
218,165,152646,5,2,1:2:0:0:
306,95,152794,2,0,P|326:132|329:174,1,75,2|4,1:2|2:0,2:0:0:0:
437,223,153091,1,2,1:2:0:0:
437,223,153165,1,0,1:2:0:0:
437,223,153240,2,0,P|442:186|460:153,1,75,0|0,1:2|2:0,2:0:0:0:
499,48,153537,1,14,2:0:0:0:
386,57,153688,2,0,P|312:50|226:42,1,150,0|0,1:2|2:0,2:0:0:0:
133,86,154143,5,6,1:2:0:0:
203,173,154294,2,0,P|211:218|205:253,1,75,2|0,1:2|2:0,2:0:0:0:
103,292,154597,1,0,1:2:0:0:
103,292,154673,1,0,1:2:0:0:
103,292,154749,2,0,P|95:247|101:212,1,75,14|0,2:0|2:0,2:0:0:0:
203,173,155052,1,0,1:2:0:0:
133,86,155203,1,0,1:2:0:0:
244,68,155355,5,6,2:0:0:0:
322,163,155502,1,0,1:2:0:0:
322,163,155576,1,0,1:2:0:0:
322,163,155650,2,0,L|318:250,1,75,0|0,1:2|2:0,2:0:0:0:
400,315,155945,1,14,2:0:0:0:
425,205,156093,1,2,1:2:0:0:
318,237,156240,2,0,P|277:228|219:235,1,75,10|0,2:3|2:0,2:0:0:0:
145,323,156535,5,6,1:2:0:0:
60,249,156687,2,0,B|53:226|46:209|46:209|66:182|79:151|79:151|74:129|71:107,1,150,2|2,1:2|1:2,2:0:0:0:
67,78,157069,1,0,1:2:0:0:
67,78,157145,2,0,P|101:64|153:66,1,75,14|0,2:0|2:0,2:0:0:0:
239,115,157450,5,2,1:2:0:0:
309,202,157603,2,0,P|374:220|463:186,1,147.0421875,2|2,1:2|1:2,2:0:0:0:
476,168,157976,1,0,1:2:0:0:
476,168,158050,2,0,L|468:80,1,75,2|0,1:2|2:0,2:0:0:0:
341,15,158346,5,14,2:0:0:0:
324,126,158493,1,2,1:2:0:0:
230,2,158641,1,14,2:0:0:0:
212,113,158789,1,2,1:2:0:0:
341,15,158937,5,14,2:0:0:0:
469,93,159090,2,0,L|475:187,1,75,10|0,2:0|1:2,2:0:0:0:
473,167,159319,1,0,1:2:0:0:
473,167,159396,1,10,2:0:0:0:
373,279,159549,2,0,L|377:204,1,75,10|0,1:2|1:2,2:0:0:0:
377,204,159778,1,0,1:2:0:0:
377,204,159855,5,14,2:0:0:0:
236,154,160008,2,0,P|185:166|134:157,1,75.03,10|0,2:0|1:2,2:0:0:0:
49,66,160312,1,10,2:0:0:0:
16,212,160464,2,0,L|25:293,1,75,14|8,2:0|2:0,2:0:0:0:
24,286,160691,1,8,2:0:0:0:
24,286,160767,1,10,2:0:0:0:
118,347,160914,1,10,2:3:0:0:
214,288,161062,2,0,P|251:287|287:298,1,75,6|6,2:3|2:3,2:0:0:0:
410,353,161358,6,0,B|431:290|385:286|408:207,1,135,6|0,1:2|2:0,2:0:0:0:
461,136,161808,1,0,1:2:0:0:
373,84,161958,2,0,B|331:106|331:106|230:88,1,135,10|2,2:0|2:0,2:0:0:0:
148,57,162408,1,0,1:2:0:0:
68,119,162558,6,0,L|77:201,1,67.5000000000001,2|0,2:0|1:2,2:0:0:0:
166,229,162858,2,0,L|175:147,1,67.5000000000001,2|0,1:2|2:0,2:0:0:0:
245,90,163158,1,10,2:0:0:0:
319,158,163308,2,0,P|370:177|457:153,1,135,0|8,1:2|2:0,2:0:0:0:
475,141,163683,1,8,2:0:0:0:
475,141,163758,5,2,1:2:0:0:
509,236,163908,2,0,P|503:311|499:371,1,135,0|0,1:2|1:2,2:0:0:0:
397,380,164358,2,0,P|394:346|392:312,1,67.5000000000001,10|0,2:0|2:0,2:0:0:0:
341,224,164658,1,2,1:2:0:0:
291,312,164808,1,0,1:2:0:0:
239,224,164958,5,2,2:0:0:0:
189,312,165108,2,0,P|118:291|34:285,1,135,8|0,2:0|1:2,2:0:0:0:
5,197,165558,2,0,P|40:186|82:183,1,67.5000000000001,8|0,2:0|1:2,2:0:0:0:
125,97,165858,2,0,P|89:86|47:83,1,67.5000000000001,10|0,2:3|2:0,2:0:0:0:
199,16,166158,5,6,1:2:0:0:
277,80,166308,2,0,P|272:151|267:237,1,135,0|0,1:0|1:2,2:0:0:0:
342,283,166758,2,0,P|375:291|423:284,1,67.5000000000001,10|0,2:0|2:0,2:0:0:0:
432,189,167058,2,0,P|399:181|351:188,1,67.5000000000001,2|0,1:2|1:2,2:0:0:0:
268,214,167358,5,2,2:0:0:0:
181,160,167508,1,0,1:2:0:0:
270,112,167658,2,0,P|265:62|262:41,1,67.5000000000001,2|0,1:2|2:0,2:0:0:0:
165,16,167958,2,0,P|118:40|34:19,1,135,10|2,2:0|2:0,2:0:0:0:
8,125,168408,1,8,2:0:0:0:
8,125,168483,1,8,2:0:0:0:
8,125,168558,5,2,1:2:0:0:
91,181,168708,2,0,B|130:162|130:162|234:173,1,135,8|0,2:0|1:2,2:0:0:0:
322,162,169158,2,0,P|337:119|341:89,1,67.5000000000001,10|0,2:0|2:0,2:0:0:0:
438,70,169458,2,0,P|444:103|456:134,1,67.5000000000001,2|0,1:2|1:2,2:0:0:0:
509,221,169758,5,2,1:2:0:0:
435,290,169904,1,0,1:2:0:0:
337,262,170050,2,0,L|254:267,1,67.5000000000001,8|0,2:0|1:2,2:0:0:0:
190,328,170343,1,8,2:3:0:0:
159,326,170416,1,8,2:3:0:0:
129,324,170489,1,4,2:3:0:0:
99,322,170562,1,4,2:3:0:0:
68,320,170636,2,0,P|61:285|68:248,1,67.5000000000001,14|0,2:0|2:0,2:0:0:0:
177,154,170950,6,0,L|164:0,2,150,6|2|2,1:2|1:2|1:2,2:0:0:0:
285,350,171853,1,2,1:2:0:0:
453,201,172154,2,0,P|462:149|434:51,2,150,2|2|2,1:2|1:2|1:2,2:0:0:0:
285,350,173057,1,2,1:2:0:0:
186,296,173208,1,8,2:0:0:0:
186,296,173283,1,8,2:0:0:0:
186,296,173359,6,0,L|32:306,1,150,6|2,1:2|1:2,2:0:0:0:
176,129,173959,2,0,L|330:139,1,150,2|2,1:2|1:2,2:0:0:0:
478,304,174559,1,2,1:2:0:0:
392,376,174709,1,8,2:0:0:0:
296,316,174859,2,0,P|254:313|210:325,1,75,0|0,1:2|2:0,2:0:0:0:
120,368,175159,2,0,P|78:371|34:359,1,75,8|0,2:0|1:2,2:0:0:0:
19,254,175459,2,0,L|24:165,1,75,2|8,1:2|2:0,2:0:0:0:
133,77,175762,6,0,P|174:68|212:75,1,75,6|0,1:2|1:2,2:0:0:0:
289,179,176061,2,0,P|248:188|210:181,1,75,10|0,1:2|1:2,2:0:0:0:
398,141,176360,2,0,L|392:233,1,75,14|0,2:0|1:2,2:0:0:0:
509,132,176659,2,0,L|504:57,1,75,10|0,1:2|1:2,2:0:0:0:
340,29,176958,6,0,P|294:35|255:29,1,75,14|0,1:2|1:2,2:0:0:0:
177,152,177258,2,0,P|223:146|262:152,1,75,14|0,2:0|1:2,2:0:0:0:
380,225,177557,1,14,2:0:0:0:
377,258,177632,1,8,2:3:0:0:
374,292,177706,1,4,2:3:0:0:
372,325,177781,1,0,1:2:0:0:
369,359,177856,2,0,P|323:365|284:359,1,75,0|2,1:2|1:2,2:0:0:0:
159,296,178155,5,12,1:2:0:0:
263,254,178305,1,0,1:2:0:0:
295,362,178455,1,0,1:2:0:0:
151,318,178605,2,0,P|139:239|129:157,1,150,12|0,2:0|1:2,2:0:0:0:
168,39,179055,1,14,2:0:0:0:
261,136,179205,1,8,2:0:0:0:
321,40,179355,5,10,2:0:0:0:
279,144,179503,1,8,2:3:0:0:
390,128,179652,2,0,L|480:135,1,75,10|4,2:3|2:3,2:0:0:0:
493,256,179949,2,0,B|395:240|415:300|302:266|302:266|324:269|357:259,1,240.4216,6|6,2:3|1:2,2:0:0:0:
256,192,180621,12,0,182955,2:0:0:0:
169,215,188657,6,0,L|291:198,1,112.5,2|0,2:0|2:0,2:0:0:0:
313,193,188955,5,6,1:2:0:0:
329,167,189030,1,8,2:3:0:0:
335,138,189105,1,8,2:3:0:0:
331,108,189180,1,8,2:3:0:0:
316,82,189255,2,0,L|277:78,3,33.75,10|8|8|8,2:3|2:3|2:3|2:3,2:0:0:0:
261,52,189555,6,0,L|175:58,1,67.5000000000001,6|4,2:3|2:3,2:0:0:0:
108,152,189855,2,0,L|194:158,1,67.5000000000001,12|2,2:0|1:2,2:0:0:0:
303,220,190155,6,0,P|362:193|450:207,1,150,14|0,2:0|1:2,2:0:0:0:
330,343,190609,2,0,P|271:316|183:330,1,150,14|0,2:0|1:2,2:0:0:0:
41,356,191064,6,0,B|35:310|35:310|52:269|52:269|40:188,1,150.015,14|0,2:0|1:2,2:0:0:0:
186,181,191516,2,0,B|180:227|180:227|197:268|197:268|185:349,1,150,14|0,2:0|1:2,2:0:0:0:
315,246,191964,6,0,L|304:149,1,75,14|0,2:0|1:2,2:0:0:0:
249,32,192262,1,14,2:0:0:0:
119,107,192411,1,0,1:2:0:0:
119,107,192486,1,0,1:2:0:0:
119,107,192561,6,0,L|33:100,1,75,14|0,2:0|1:2,2:0:0:0:
186,181,192861,1,0,1:2:0:0:
263,52,193011,2,0,P|318:40|410:75,1,150,14|0,2:0|1:2,2:0:0:0:
465,207,193461,6,0,B|459:320|459:320|406:290,1,150,14|0,2:0|1:2,2:0:0:0:
289,240,193911,2,0,P|239:234|159:291,1,150,14|0,2:0|1:2,2:0:0:0:
20,344,194361,6,0,L|14:247,1,75,14|0,2:0|1:2,2:0:0:0:
77,175,194661,1,14,2:0:0:0:
77,175,194811,1,0,1:2:0:0:
215,240,194961,6,0,B|251:252|251:252|362:238,1,150,14|8,2:0|1:3,2:0:0:0:
465,127,195411,2,0,P|413:94|306:100,1,150,14|8,2:0|1:3,2:0:0:0:
182,132,195861,2,0,P|143:128|101:124,1,75,14|8,2:0|1:3,2:0:0:0:
227,32,196161,5,6,1:2:0:0:
273,174,196311,1,8,2:0:0:0:
270,203,196386,1,8,2:0:0:0:
267,233,196461,1,8,2:0:0:0:
265,263,196536,1,8,2:0:0:0:
262,293,196611,1,8,1:2:0:0:
259,323,196686,1,8,1:2:0:0:
257,353,196761,2,0,L|199:356,3,37.5,8|8|0|0,2:0|2:3|1:2|1:2,2:0:0:0:
188,376,197061,2,0,L|129:373,3,37.5,8|8|4|4,1:3|1:3|1:3|1:3,2:0:0:0:
117,356,197361,5,14,2:0:0:0:
194,226,197508,2,0,P|229:224|277:238,1,75,10|0,2:0|1:2,2:0:0:0:
388,323,197804,1,10,2:0:0:0:
493,216,197952,2,0,L|488:129,1,75,10|0,2:0|1:2,2:0:0:0:
395,296,198247,1,10,2:0:0:0:
315,134,198395,1,10,2:0:0:0:
315,134,199749,6,0,L|202:129,1,82.5,6|0,1:2|2:0,2:0:0:0:
387,32,200049,1,8,2:0:0:0:
479,114,200199,2,0,P|499:197|468:269,1,165,0|0,2:0|1:2,2:0:0:0:
311,216,200649,6,0,L|316:103,1,82.5,8|0,2:0|1:2,2:0:0:0:
387,32,200949,1,0,2:0:0:0:
263,21,201099,1,0,1:2:0:0:
191,122,201249,2,0,P|151:119|103:117,1,82.5,10|0,2:0|2:0,2:0:0:0:
221,238,201549,2,0,P|181:240|133:243,1,82.5,2|0,1:2|1:2,2:0:0:0:
251,364,201849,2,0,P|211:361|163:359,1,82.5,10|0,2:0|2:0,2:0:0:0:
351,278,202149,6,0,P|390:275|439:273,1,82.5,2|0,1:2|1:2,2:0:0:0:
345,133,202449,1,10,2:0:0:0:
224,157,202599,2,0,P|216:214|227:255,1,82.5,2|0,2:0|1:2,2:0:0:0:
345,133,202899,2,0,P|353:76|342:35,1,82.5,2|8,1:2|2:0,2:0:0:0:
190,4,203199,6,0,B|151:29|151:29|23:18,1,165,2|0,1:2|1:2,2:0:0:0:
2,182,203649,2,0,L|92:174,1,82.5,10|0,2:0|2:0,2:0:0:0:
208,178,203949,1,2,1:2:0:0:
265,314,204099,1,0,1:2:0:0:
265,314,204174,1,0,1:2:0:0:
265,314,204249,2,0,L|180:306,1,82.5,14|0,2:0|2:0,2:0:0:0:
348,176,204555,5,6,1:2:0:0:
208,178,204705,1,2,1:2:0:0:
372,163,204855,2,0,P|380:123|370:70,1,82.5,10|0,2:0|2:0,2:0:0:0:
206,38,205155,5,2,1:2:0:0:
208,178,205305,1,2,1:2:0:0:
193,14,205455,2,0,P|153:6|100:16,1,82.5,10|0,2:0|1:2,2:0:0:0:
68,180,205755,5,2,2:0:0:0:
208,178,205905,1,2,1:2:0:0:
44,193,206055,2,0,P|36:233|46:286,1,82.5,10|0,2:0|2:0,2:0:0:0:
210,318,206355,5,2,1:2:0:0:
208,178,206505,1,2,1:2:0:0:
223,342,206655,2,0,P|263:350|316:340,1,82.5,10|0,2:0|2:0,2:0:0:0:
416,249,206955,6,0,P|376:241|323:251,1,82.5,2|0,1:2|1:2,2:0:0:0:
210,318,207255,1,10,2:0:0:0:
208,178,207405,2,0,P|206:136|202:86,1,82.5,2|0,2:0|1:2,2:0:0:0:
79,92,207705,2,0,P|77:134|73:184,1,82.5,2|8,1:2|2:0,2:0:0:0:
62,337,208005,6,0,B|104:347|104:347|139:331|177:348|177:348|222:341,1,165,6|2,1:2|1:2,2:0:0:0:
288,200,208455,1,10,2:0:0:0:
169,234,208605,1,2,1:2:0:0:
321,296,208755,1,10,2:0:0:0:
351,316,208830,1,8,2:0:0:0:
387,324,208905,1,10,2:0:0:0:
423,319,208980,1,8,2:0:0:0:
455,300,209055,2,0,L|450:249,3,41.25,10|8|8|8,2:0|2:0|2:0|2:0,2:0:0:0:
391,201,209355,6,0,P|395:160|401:112,1,82.5,6|0,1:2|1:2,2:0:0:0:
316,26,209655,1,8,2:0:0:0:
221,105,209805,2,0,P|142:105|76:33,1,165,0|0,1:0|1:2,2:0:0:0:
11,151,210255,6,0,L|19:242,1,82.5,8|0,2:0|1:2,2:0:0:0:
92,332,210555,1,0,2:0:0:0:
144,219,210705,1,0,1:2:0:0:
273,291,210855,2,0,L|267:379,1,82.5,10|0,2:0|2:0,2:0:0:0:
368,241,211155,2,0,L|374:329,1,82.5,2|0,1:2|1:2,2:0:0:0:
475,192,211455,2,0,L|469:280,1,82.5,10|0,2:0|2:0,2:0:0:0:
273,291,211755,6,0,L|267:203,1,82.5,2|0,1:2|1:2,2:0:0:0:
254,59,212055,1,10,2:0:0:0:
153,130,212205,2,0,P|111:135|67:126,1,82.5,2|0,2:0|1:2,2:0:0:0:
28,244,212505,2,0,P|70:239|114:248,1,82.5,2|8,1:2|2:0,2:0:0:0:
255,302,212805,6,0,P|342:293|441:286,1,165,2|0,1:2|1:2,2:0:0:0:
492,147,213255,2,0,P|448:142|399:139,1,82.5,10|0,2:0|2:0,2:0:0:0:
286,129,213555,1,2,1:2:0:0:
155,230,213705,1,0,1:2:0:0:
155,230,213780,1,0,1:2:0:0:
155,230,213855,2,0,B|146:272|146:272|161:323,1,82.5,14|0,2:0|2:0,2:0:0:0:
290,158,214155,6,0,P|303:97|270:28,1,123.75,6|0,1:2|2:0,2:0:0:0:
250,19,214455,2,0,L|159:26,1,82.5,10|0,2:0|2:0,2:0:0:0:
63,94,214755,5,2,1:2:0:0:
179,137,214905,1,2,1:2:0:0:
21,186,215055,2,0,L|30:299,1,82.5,10|0,2:0|1:2,2:0:0:0:
126,369,215355,5,2,2:0:0:0:
175,255,215505,1,2,1:2:0:0:
285,377,215655,2,0,L|291:294,1,82.5,10|2,2:0|2:0,2:0:0:0:
304,154,215955,5,2,1:2:0:0:
402,228,216105,1,2,1:2:0:0:
493,90,216255,2,0,L|486:7,1,82.5,10|0,2:0|2:0,2:0:0:0:
328,59,216555,5,2,1:2:0:0:
479,124,216705,1,8,2:0:0:0:
479,124,216780,1,8,2:0:0:0:
479,124,216855,1,10,2:0:0:0:
320,171,217005,2,0,L|207:163,1,82.5,2|8,1:2|2:0,2:0:0:0:
116,216,217305,1,2,1:2:0:0:
116,216,217380,1,0,1:2:0:0:
116,216,217455,1,8,2:0:0:0:
212,339,217605,5,10,2:0:0:0:
245,354,217680,1,8,2:0:0:0:
281,362,217755,1,0,1:2:0:0:
318,360,217830,1,0,1:2:0:0:
354,348,217905,1,8,1:2:0:0:
385,329,217980,1,8,2:0:0:0:
411,302,218055,2,0,L|407:239,3,41.25,10|8|0|0,2:0|2:0|1:2|1:2,2:0:0:0:
354,199,218355,2,0,L|358:135,3,41.25,10|8|4|4,2:3|2:3|2:3|2:3,2:0:0:0:
415,100,218655,2,0,L|410:36,3,41.25,2|0|0|0,1:2|1:2|1:2|1:2,2:0:0:0:
354,1,218955,6,0,L|247:8,1,82.5,6|0,1:2|1:2,2:0:0:0:
135,101,219255,2,0,L|242:108,1,82.5,8|0,2:0|1:2,2:0:0:0:
354,199,219555,2,0,L|247:206,1,82.5,10|0,2:0|1:2,2:0:0:0:
114,254,219855,1,8,2:0:0:0:
257,335,220005,1,0,1:2:0:0:
257,335,220080,1,0,1:2:0:0:
257,335,220155,6,0,P|297:342|355:325,1,82.5,10|0,2:0|1:2,2:0:0:0:
434,197,220455,2,0,P|394:190|336:207,1,82.5,8|0,2:0|1:2,2:0:0:0:
257,63,220755,2,0,P|297:70|355:53,1,82.5,10|0,2:0|1:2,2:0:0:0:
137,5,221055,1,8,2:0:0:0:
40,138,221205,1,0,1:2:0:0:
40,138,221280,1,0,1:2:0:0:
40,138,221355,6,0,L|43:246,1,82.5,14|0,2:0|1:2,2:0:0:0:
163,332,221655,2,0,L|166:224,1,82.5,8|0,2:0|1:2,2:0:0:0:
287,138,221955,2,0,L|290:246,1,82.5,10|0,2:0|1:2,2:0:0:0:
444,164,222255,1,8,2:0:0:0:
335,40,222405,1,0,1:2:0:0:
335,40,222480,1,0,1:2:0:0:
335,40,222555,6,0,P|283:29|241:40,1,82.5,10|0,2:0|1:2,2:0:0:0:
121,133,222855,2,0,P|173:144|215:133,1,82.5,8|0,2:0|1:2,2:0:0:0:
21,37,223155,1,10,2:0:0:0:
31,176,223305,1,0,1:2:0:0:
172,30,223455,2,0,L|268:35,1,82.5,8|0,2:0|1:2,2:0:0:0:
447,107,223755,6,0,P|456:144|451:194,1,82.5,6|0,1:2|1:2,2:0:0:0:
293,230,224053,2,0,P|284:193|289:143,1,82.5,10|0,2:0|1:2,2:0:0:0:
437,217,224352,1,2,2:0:0:0:
311,257,224501,1,0,1:2:0:0:
429,372,224650,2,0,L|511:368,1,82.5,10|0,2:0|1:2,2:0:0:0:
293,230,224949,6,0,L|210:226,1,82.5,14|0,2:0|1:2,2:0:0:0:
112,92,225247,2,0,L|194:88,1,82.5,14|0,2:0|1:2,2:0:0:0:
343,80,225546,2,0,P|351:108|359:136,2,55,14|8|8,2:0|2:0|2:0,2:0:0:0:
432,54,225844,2,0,P|440:28|448:2,2,55,8|8|4,2:3|2:3|2:3,2:0:0:0:
485,133,226143,5,4,1:2:0:0:
413,219,226296,2,0,B|354:241|301:211|301:211|245:226,1,150,0|0,1:2|1:2,2:0:0:0:
184,296,226755,2,0,P|231:249|127:142,1,225,14|0,2:0|1:2,2:0:0:0:
77,264,227355,5,6,1:2:0:0:
184,296,227505,2,0,P|258:291|336:287,1,150,0|0,1:2|1:2,2:0:0:0:
436,242,227955,2,0,B|475:112|374:142|406:-3,1,225,14|0,2:0|1:2,2:0:0:0:
253,9,228555,5,6,1:2:0:0:
158,70,228705,2,0,P|219:116|293:115,1,150,0|0,1:2|1:2,2:0:0:0:
325,223,229155,2,0,P|255:236|172:375,1,225,14|0,2:0|1:2,2:0:0:0:
46,271,229755,5,14,2:0:0:0:
46,271,229830,1,8,2:0:0:0:
46,271,229905,1,0,1:2:0:0:
46,271,229980,1,0,1:2:0:0:
46,271,230055,2,0,L|54:175,1,75,8|0,2:3|1:2,2:0:0:0:
93,91,230355,2,0,L|135:86,3,37.5,6|4|0|0,2:3|2:3|1:2|1:2,2:0:0:0:
160,64,230655,2,0,L|202:69,3,37.5,0|0|0|0,1:2|1:2|1:2|1:2,2:0:0:0:
229,87,230955,6,0,P|280:60|381:66,1,150,6|2,1:2|2:0,2:0:0:0:
498,155,231406,1,0,1:2:0:0:
498,155,231481,1,0,1:2:0:0:
498,155,231557,2,0,B|474:201|474:201|495:291,2,120,10|8|8,2:0|2:0|2:0,2:0:0:0:
370,61,232159,5,6,1:2:0:0:
370,61,232761,2,0,B|303:47|312:100|230:77,1,135,2|2,2:0|2:0,2:0:0:0:
138,28,233364,6,0,L|41:35,1,75,14|2,2:0|1:2,2:0:0:0:
6,130,233662,1,2,1:2:0:0:
131,211,233811,2,0,P|147:177|152:128,1,75,14|2,2:0|1:2,2:0:0:0:
138,28,234110,1,2,1:2:0:0:
277,83,234259,6,0,L|286:170,1,75,14|2,2:0|1:2,2:0:0:0:
297,269,234558,1,2,1:2:0:0:
425,190,234707,2,0,P|428:144|421:116,1,75,14|2,2:0|1:2,2:0:0:0:
369,16,235005,1,2,1:2:0:0:
277,83,235155,6,0,L|189:79,1,75,14|2,2:0|1:2,2:0:0:0:
171,187,235453,2,0,L|259:183,1,75,14|2,2:0|1:2,2:0:0:0:
142,292,235752,6,0,P|103:299|64:289,1,75,14|2,2:0|1:2,2:0:0:0:
151,170,236054,1,2,1:2:0:0:
251,281,236205,2,0,L|246:368,1,75,14|2,2:0|1:2,2:0:0:0:
357,330,236507,1,2,1:2:0:0:
373,180,236658,6,0,P|328:177|288:194,1,75,14|2,2:0|1:2,2:0:0:0:
228,273,236961,1,2,1:2:0:0:
134,155,237111,2,0,L|143:66,1,75,14|2,2:0|1:2,2:0:0:0:
231,12,237411,1,2,1:2:0:0:
356,94,237561,5,14,2:0:0:0:
356,94,237711,2,0,P|392:68|500:66,1,150,2|2,1:2|1:2,2:0:0:0:
502,214,238161,6,0,L|492:311,1,75,14|2,2:0|1:2,2:0:0:0:
401,352,238464,1,2,1:2:0:0:
271,276,238616,2,0,P|226:268|181:280,1,75,14|2,2:0|1:2,2:0:0:0:
231,380,238919,1,2,1:2:0:0:
376,343,239071,6,0,L|383:258,1,75,14|2,2:0|1:2,2:0:0:0:
353,158,239374,1,2,1:2:0:0:
209,200,239523,2,0,P|196:243|202:286,1,75,14|2,2:0|1:2,2:0:0:0:
125,359,239821,1,2,1:2:0:0:
28,301,239971,6,0,L|34:224,1,75,14|2,2:0|1:2,2:0:0:0:
114,147,240269,2,0,L|108:70,1,75,14|2,2:0|1:2,2:0:0:0:
229,13,240568,5,2,1:2:0:0:
322,75,240716,1,8,2:0:0:0:
337,100,240790,1,8,2:0:0:0:
345,129,240864,1,0,1:2:0:0:
344,159,240938,1,0,1:2:0:0:
334,187,241012,2,0,L|339:248,5,37.5,10|8|10|8|0|0,2:3|2:3|2:3|2:3|1:2|1:2,2:0:0:0:
346,307,241456,1,10,2:0:0:0:
323,326,241530,1,8,2:0:0:0:
294,336,241605,1,10,2:0:0:0:
264,339,241679,1,8,2:0:0:0:
235,329,241753,6,0,L|177:334,3,37.5,0|0|10|8,1:2|1:2|2:3|2:3,2:0:0:0:
122,367,242055,2,0,L|64:362,3,37.5,6|4|4|4,2:3|2:3|2:3|2:3,2:0:0:0:
17,313,242357,1,10,2:3:0:0:
120,226,242508,2,0,P|125:180|124:146,1,75,6|2,2:3|1:2,2:0:0:0:
195,63,242810,1,2,1:2:0:0:
305,164,242962,6,0,P|382:155|462:149,1,150,14|8,2:0|2:0,2:0:0:0:
506,249,243414,1,2,1:2:0:0:
395,327,243565,2,0,P|377:290|373:247,1,75,8|0,2:0|1:2,2:0:0:0:
377,120,243866,1,10,2:0:0:0:
237,221,244017,1,0,1:2:0:0:
237,221,244092,1,0,1:2:0:0:
237,221,244168,6,0,P|159:237|81:208,1,150,8|8,2:0|2:0,2:0:0:0:
21,129,244613,1,0,1:2:0:0:
134,55,244761,2,0,P|151:94|155:144,1,75,10|0,2:0|1:2,2:0:0:0:
164,268,245058,1,10,2:0:0:0:
294,155,245206,1,0,1:2:0:0:
294,155,245281,1,0,1:2:0:0:
294,155,245355,6,0,P|372:160|471:168,1,150,14|8,2:0|2:0,2:0:0:0:
506,71,245806,1,2,1:2:0:0:
390,0,245957,2,0,P|373:35|369:74,1,75,8|0,2:0|1:2,2:0:0:0:
369,205,246258,1,10,2:0:0:0:
251,68,246408,1,0,1:2:0:0:
251,68,246484,1,0,1:2:0:0:
251,68,246559,6,0,B|168:60|184:112|86:103,1,150,8|8,2:0|2:0,2:0:0:0:
28,184,247011,1,0,1:2:0:0:
112,289,247161,1,14,2:0:0:0:
138,302,247234,1,0,1:2:0:0:
168,307,247307,1,0,1:2:0:0:
197,305,247380,1,0,1:0:0:0:
226,295,247453,2,0,L|230:203,1,75,14|0,2:0|1:2,2:0:0:0:
251,68,247746,5,14,2:0:0:0:
279,58,247821,1,0,1:2:0:0:
309,54,247896,1,0,1:2:0:0:
339,56,247971,1,0,1:2:0:0:
368,64,248046,2,0,L|373:113,3,37.5,8|0|2|0,2:0|1:2|1:2|1:2,2:0:0:0:
443,142,248346,2,0,L|438:190,3,37.5,8|0|0|0,2:0|1:2|1:2|1:2,2:0:0:0:
422,260,248646,5,10,2:0:0:0:
394,270,248721,1,0,1:2:0:0:
364,274,248796,1,0,1:2:0:0:
334,267,248871,1,0,1:2:0:0:
307,253,248946,2,0,L|243:256,3,37.5,8|0|2|0,2:0|1:2|1:2|1:2,2:0:0:0:
208,311,249247,2,0,L|144:308,3,37.5,8|0|0|0,2:0|1:2|1:2|1:2,2:0:0:0:
61,332,249549,6,0,P|53:274|53:248,1,75,10|0,2:0|1:2,0:0:0:0:
136,221,249850,2,0,P|143:163|143:137,1,75,10|0,2:0|1:2,0:0:0:0:
116,50,250152,5,14,2:0:0:0:
140,32,250226,1,0,1:2:0:0:
167,20,250300,1,0,1:2:0:0:
196,13,250374,1,0,1:2:0:0:
226,12,250448,1,0,1:2:0:0:
256,16,250522,1,0,1:2:0:0:
284,27,250596,2,0,L|279:83,5,37.5,14|0|0|0|0|0,2:0|1:2|1:2|1:2|1:2|1:2,2:0:0:0:
270,146,251040,5,14,2:0:0:0:
293,166,251116,1,0,1:2:0:0:
318,181,251192,1,0,1:2:0:0:
347,191,251268,1,0,1:2:0:0:
377,194,251344,1,0,1:2:0:0:
406,191,251420,1,0,1:2:0:0:
435,181,251496,2,0,L|440:228,5,37.5,14|0|0|0|0|0,2:0|1:2|1:2|1:2|1:2|1:2,2:0:0:0:
443,299,251953,6,0,B|396:313|396:313|323:299,1,90,14|0,1:2|2:0,2:0:0:0:
305,241,252178,2,0,B|258:227|258:227|185:241,1,90,14|0,1:2|2:0,2:0:0:0:
140,258,252403,1,14,1:2:0:0:
