osu file format v14

[General]
AudioFilename: audio.mp3
AudioLeadIn: 0
PreviewTime: 198630
Countdown: 0
SampleSet: Soft
StackLeniency: 0.5
Mode: 0
LetterboxInBreaks: 0
WidescreenStoryboard: 1

[Editor]
Bookmarks: 555,7755,12555,22155,41355,46155,50955,60555,70155,77355,86955,106155,110955,115755,125355,134955,142155,161355,170955,180555,190155,199755,209355,218955,233355,242955
DistanceSpacing: 0.75
BeatDivisor: 4
GridSize: 32
TimelineZoom: 1.8

[Metadata]
Title:Thrill, Risk, Heartless
TitleUnicode:Thrill, Risk, Heartless
Artist:LiSA
ArtistUnicode:LiSA
Creator:Ohwow
Version:Fatal Bullet
Source:ソードアート・オンライン フェイタル・バレット
Tags:sword art online fatal bullet opening full size sinon asuna kirito
BeatmapID:1782080
BeatmapSetID:852612

[Difficulty]
HPDrainRate:6
CircleSize:4.2
OverallDifficulty:9
ApproachRate:9.7
SliderMultiplier:2
SliderTickRate:1

[Events]
//Background and Video events
0,0,"bg.jpg",0,0
//Break Periods
2,183155,184710
2,185555,187110
//Storyboard Layer 0 (Background)
//Storyboard Layer 1 (Fail)
//Storyboard Layer 2 (Pass)
//Storyboard Layer 3 (Foreground)
//Storyboard Layer 4 (Overlay)
//Storyboard Sound Samples

[TimingPoints]
555,300,4,2,1,40,1,0
1155,-166.666666666667,4,2,1,40,0,0
1605,-166.666666666667,4,2,1,10,0,0
1755,-166.666666666667,4,2,1,40,0,0
2205,-166.666666666667,4,2,1,10,0,0
2355,-166.666666666667,4,2,1,40,0,0
2805,-166.666666666667,4,2,1,10,0,0
2955,-166.666666666667,4,2,1,40,0,0
3405,-166.666666666667,4,2,1,10,0,0
3555,-166.666666666667,4,2,1,40,0,0
4005,-166.666666666667,4,2,1,10,0,0
4155,-166.666666666667,4,2,1,40,0,0
4605,-166.666666666667,4,2,1,10,0,0
4755,-166.666666666667,4,2,1,60,0,0
5055,-83.3333333333334,4,2,1,70,0,0
5355,-100,4,2,1,60,0,0
6105,-100,4,2,1,62,0,0
6255,-100,4,2,1,64,0,0
6405,-100,4,2,1,66,0,0
6555,-100,4,2,1,70,0,0
7155,-166.666666666667,4,2,1,70,0,0
7755,-133.333333333333,4,2,1,60,0,0
10455,-133.333333333333,4,2,1,40,0,0
10755,-133.333333333333,4,2,1,45,0,0
11055,-133.333333333333,4,2,1,50,0,0
11355,-133.333333333333,4,2,1,55,0,0
11655,-133.333333333333,4,2,1,60,0,0
11955,-200,4,2,1,70,0,0
12480,-200,4,2,1,5,0,0
12555,-100,4,2,1,70,0,0
22155,-133.333333333333,4,2,1,60,0,0
26880,-133.333333333333,4,2,1,5,0,0
26955,-100,4,2,1,70,0,0
31755,-133.333333333333,4,2,1,60,0,0
36555,-100,4,2,1,70,0,0
40755,-83.3333333333333,4,2,1,70,0,0
41355,-133.333333333333,4,2,1,60,0,0
45780,-133.333333333333,4,2,1,5,0,0
45855,-133.333333333333,4,2,1,60,0,0
46155,-166.666666666667,4,2,1,60,0,0
47355,-133.333333333333,4,2,1,60,0,0
48555,-100,4,2,1,80,0,0
50955,-90.9090909090909,4,2,1,80,0,1
55680,-90.9090909090909,4,2,1,5,0,1
55755,-90.9090909090909,4,2,1,80,0,1
60480,-90.9090909090909,4,2,1,80,0,0
60555,-90.9090909090909,4,2,1,80,0,1
65280,-90.9090909090909,4,2,1,5,0,1
65355,-90.9090909090909,4,2,1,80,0,1
70080,-90.9090909090909,4,2,1,5,0,0
70155,-90.9090909090909,4,2,1,80,0,1
74955,-100,4,2,1,60,0,0
75555,-66.6666666666667,4,2,1,60,0,0
76755,-133.333333333333,4,2,1,60,0,0
77355,-100,4,2,1,70,0,0
86955,-100,4,2,1,70,0,0
89355,-66.6666666666667,4,2,1,70,0,0
90555,-76.9230769230769,4,2,1,70,0,0
91155,-250,4,2,1,70,0,0
91605,-250,4,2,1,5,0,0
91755,-100,4,2,1,70,0,0
96555,-100,4,2,1,60,0,0
96655,-100,4,2,1,5,0,0
96755,-100,4,2,1,60,0,0
96855,-100,4,2,1,5,0,0
96955,-100,4,2,1,60,0,0
97055,-100,4,2,1,5,0,0
97155,-166.666666666667,4,2,1,80,0,0
97755,-100,4,2,1,5,0,0
98355,-133.333333333333,4,2,1,60,0,0
98955,-133.333333333333,4,2,1,70,0,0
100755,-200,4,2,1,70,0,0
101205,-200,4,2,1,5,0,0
101355,-100,4,2,1,70,0,0
106155,-133.333333333333,4,2,1,60,0,0
110955,-166.666666666667,4,2,1,60,0,0
112155,-133.333333333333,4,2,1,60,0,0
113355,-100,4,2,1,80,0,0
115755,-90.9090909090909,4,2,1,80,0,1
120480,-90.9090909090909,4,2,1,5,0,1
120555,-90.9090909090909,4,2,1,80,0,1
125280,-90.9090909090909,4,2,1,80,0,0
125355,-90.9090909090909,4,2,1,80,0,1
130080,-90.9090909090909,4,2,1,5,0,1
130155,-90.9090909090909,4,2,1,80,0,1
134880,-90.9090909090909,4,2,1,5,0,0
134955,-90.9090909090909,4,2,1,80,0,1
139680,-90.9090909090909,4,2,1,5,0,1
139755,-90.9090909090909,4,2,1,80,0,0
142155,-100,4,2,1,70,0,0
151255,-100,4,2,1,5,0,0
151355,-100,4,2,1,70,0,0
151455,-100,4,2,1,5,0,0
151555,-100,4,2,1,70,0,0
151655,-100,4,2,1,5,0,0
151755,-100,4,2,1,70,0,0
161355,-133.333333333333,4,2,1,50,0,0
166080,-133.333333333333,4,2,1,5,0,0
166155,-133.333333333333,4,2,1,50,0,0
170955,-100,4,2,1,60,0,0
175755,-100,4,2,1,70,0,0
175980,-100,4,2,1,5,0,0
176055,-83.3333333333333,4,2,1,73,0,0
176280,-83.3333333333333,4,2,1,5,0,0
176355,-71.4285714285714,4,2,1,75,0,0
176580,-71.4285714285714,4,2,1,5,0,0
176655,-62.5,4,2,1,78,0,0
176880,-62.5,4,2,1,5,0,0
176955,-55.5555555555556,4,2,1,80,0,0
177180,-55.5555555555556,4,2,1,5,0,0
177255,-50,4,2,1,83,0,0
177480,-50,4,2,1,5,0,0
177555,-50,4,2,1,85,0,0
177855,-50,4,2,1,88,0,0
178155,-100,4,2,1,90,0,0
179355,-100,4,2,1,70,0,0
180555,-100,4,2,1,50,0,0
185355,-71.4285714285714,4,2,1,60,0,0
188880,-71.4285714285714,4,2,1,5,0,0
188955,-100,4,2,1,80,0,0
190155,-100,4,2,1,80,0,0
198705,-100,4,2,1,40,0,0
199755,-90.9090909090909,4,2,1,80,0,1
204480,-90.9090909090909,4,2,1,5,0,1
204555,-90.9090909090909,4,2,1,80,0,1
209280,-90.9090909090909,4,2,1,80,0,0
209355,-90.9090909090909,4,2,1,80,0,1
214080,-90.9090909090909,4,2,1,5,0,1
214155,-90.9090909090909,4,2,1,80,0,1
218955,-90.9090909090909,4,2,1,80,0,1
223680,-90.9090909090909,4,2,1,5,0,1
223755,-90.9090909090909,4,2,1,80,0,0
226080,-90.9090909090909,4,2,1,80,0,0
226155,-100,4,2,1,80,0,0
230955,-100,4,2,1,60,0,0
231555,-66.6666666666667,4,2,1,60,0,0
232155,-100,4,2,1,60,0,0
232755,-133.333333333333,4,2,1,60,0,0
233355,-100,4,2,1,70,0,1
242955,-100,4,2,1,80,0,1
251955,-83.3333333333333,4,2,1,70,0,0
252105,-83.3333333333333,4,2,1,5,0,0
252180,-55.5555555555556,4,2,1,70,0,0
252330,-83.3333333333333,4,2,1,5,0,0
252405,-83.3333333333333,4,2,1,70,0,0
252705,-83.3333333333333,4,2,1,5,0,0

[Colours]
Combo1 : 66,89,170
Combo2 : 198,0,0
Combo3 : 124,203,233
Combo4 : 244,179,81
SliderBorder : 255,255,255
SliderTrackOverride : 0,0,0

[HitObjects]
474,75,1155,6,0,P|417:10|331:24,1,179.999994506836,2|0,0:0|0:0,0:0:0:0:
317,241,1755,2,0,B|372:211|372:211|388:94,1,179.999994506836,2|0,0:0|0:0,0:0:0:0:
38,75,2355,6,0,P|96:10|182:24,1,179.999994506836,2|0,0:0|0:0,0:0:0:0:
195,242,2955,2,0,B|141:212|141:212|125:95,1,179.999994506836,2|0,0:0|0:0,0:0:0:0:
338,159,3555,6,0,P|381:240|325:317,1,179.999994506836,2|0,0:0|0:0,0:0:0:0:
174,159,4155,2,0,P|131:240|187:317,1,179.999994506836,2|0,0:0|0:0,0:0:0:0:
457,176,4755,5,2,3:2:0:0:
427,171,4830,1,0,3:0:0:0:
397,167,4905,1,0,3:0:0:0:
367,163,4980,1,0,3:0:0:0:
338,159,5055,2,0,B|472:140,1,119.999996337891,8|0,0:0|0:0,0:0:0:0:
444,362,5355,6,0,P|437:312|413:269,1,100,4|0,3:2|0:0,0:0:0:0:
260,77,5655,2,0,P|236:120|229:169,1,100,0|0,3:2|0:0,0:0:0:0:
335,351,5955,5,8,0:0:0:0:
129,218,6105,1,8,0:0:0:0:
338,159,6255,1,8,0:0:0:0:
228,383,6405,1,8,0:0:0:0:
64,109,6555,5,8,0:0:0:0:
55,322,7005,1,0,3:0:0:0:
62,308,7080,1,0,3:0:0:0:
69,294,7155,6,0,B|129:297|129:297|181:275|181:275|243:278,1,179.999994506836,8|0,0:0|0:0,0:0:0:0:
253,188,7755,6,0,L|178:183,1,75.0000028610231,4|0,3:1|0:0,0:0:0:0:
207,369,8055,2,0,L|281:373,1,75.0000028610231,0|0,3:0|0:0,0:0:0:0:
414,199,8355,2,0,L|339:194,1,75.0000028610231,0|0,3:0|0:0,0:0:0:0:
368,380,8655,2,0,L|442:384,1,75.0000028610231,0|0,3:0|0:0,0:0:0:0:
509,173,8955,6,0,P|511:210|501:245,1,75.0000028610231,0|0,3:0|0:0,0:0:0:0:
301,120,9255,2,0,P|298:82|308:47,1,75.0000028610231,0|0,3:0|0:0,0:0:0:0:
414,199,9555,2,0,P|416:236|406:271,1,75.0000028610231,0|0,3:0|0:0,0:0:0:0:
206,146,9855,2,0,P|203:108|213:73,1,75.0000028610231,0|0,3:0|0:0,0:0:0:0:
326,331,10155,6,0,B|251:323,1,75.0000028610231,4|0,3:1|0:0,0:0:0:0:
58,270,10455,2,0,B|42:306,3,37.5000014305115,8|8|8|8,3:2|0:0|0:0|0:0,0:0:0:0:
144,301,10755,2,0,B|166:330,3,37.5000014305115,8|8|8|8,3:2|0:0|0:0|0:0,0:0:0:0:
214,242,11055,2,0,B|253:237,3,37.5000014305115,8|8|8|8,3:2|0:0|0:0|0:0,0:0:0:0:
123,209,11355,5,8,3:2:0:0:
79,183,11430,1,8,0:0:0:0:
58,136,11505,1,8,0:0:0:0:
68,87,11580,1,8,0:0:0:0:
105,52,11655,1,8,0:0:0:0:
155,45,11730,1,8,0:0:0:0:
200,69,11805,1,8,3:2:0:0:
223,114,11880,1,8,3:2:0:0:
216,164,11955,6,0,B|268:154|268:154|308:180|308:180|392:163,1,175,8|0,0:0|0:0,0:0:0:0:
461,146,12555,5,4,3:2:0:0:
251,237,12705,1,2,3:2:0:0:
313,0,12855,2,0,L|327:122,1,100,10|0,0:0|0:0,0:0:0:0:
437,230,13155,1,2,3:2:0:0:
251,237,13305,1,2,3:2:0:0:
380,165,13455,1,8,0:0:0:0:
239,336,13605,6,0,L|251:237,1,100,2|0,3:2|0:0,0:0:0:0:
382,358,13905,1,0,3:0:0:0:
297,159,14055,2,0,P|202:159|161:244,1,200,10|0,0:0|3:0,0:0:0:0:
320,299,14505,1,0,3:0:0:0:
158,373,14655,2,0,L|58:361,1,100,10|0,0:0|0:0,0:0:0:0:
107,180,14955,5,0,3:0:0:0:
239,336,15105,1,2,3:2:0:0:
297,159,15255,2,0,L|197:170,1,100,10|0,0:0|0:0,0:0:0:0:
158,373,15555,1,2,3:2:0:0:
320,299,15705,1,2,3:2:0:0:
162,244,15855,1,8,0:0:0:0:
402,332,16005,5,2,3:2:0:0:
420,339,16155,1,2,0:2:0:0:
239,336,16305,1,0,3:2:0:0:
479,248,16455,5,10,0:0:0:0:
497,241,16605,1,2,0:0:0:0:
320,299,16755,1,0,3:0:0:0:
358,134,16905,5,2,3:2:0:0:
362,119,16980,1,2,3:2:0:0:
366,104,17055,2,0,L|387:201,1,100,10|0,0:0|0:0,0:0:0:0:
286,23,17355,5,4,3:2:0:0:
457,139,17505,1,2,3:2:0:0:
245,200,17655,2,0,L|266:102,1,100,10|0,0:0|0:0,0:0:0:0:
387,201,17955,1,2,3:2:0:0:
223,276,18105,1,2,3:2:0:0:
420,358,18255,1,8,0:0:0:0:
449,143,18405,6,0,P|406:117|357:120,1,100,2|0,3:2|0:0,0:0:0:0:
403,283,18705,1,0,3:0:0:0:
187,186,18855,2,0,L|409:202,1,200,10|0,0:0|3:0,0:0:0:0:
266,102,19305,1,0,3:0:0:0:
124,243,19455,2,0,P|166:268|215:265,1,100,10|0,0:0|0:0,0:0:0:0:
66,42,19755,5,0,3:0:0:0:
187,186,19905,1,2,3:2:0:0:
311,19,20055,2,0,L|211:26,1,100,10|0,0:0|0:0,0:0:0:0:
53,195,20355,1,2,3:2:0:0:
152,87,20505,1,2,3:2:0:0:
215,264,20655,1,8,0:0:0:0:
377,78,20805,5,6,3:2:0:0:
389,62,20955,1,2,0:2:0:0:
271,196,21105,1,8,0:0:0:0:
85,34,21255,5,10,0:0:0:0:
69,22,21405,1,10,0:0:0:0:
203,140,21555,1,8,0:0:0:0:
55,128,21705,5,8,0:0:0:0:
233,46,21855,1,8,0:3:0:0:
173,234,22005,1,4,0:3:0:0:
372,154,22155,6,0,B|331:298,1,150.000005722046,6|0,3:2|3:0,0:0:0:0:
300,380,22605,1,2,0:0:0:0:
241,172,22755,2,0,B|271:216|271:216|244:310,1,150.000005722046,2|0,3:2|3:0,0:0:0:0:
173,234,23205,1,2,0:0:0:0:
88,336,23355,6,0,L|171:323,1,75.0000028610231,2|0,3:2|0:0,0:0:0:0:
29,200,23655,2,0,L|96:249,1,75.0000028610231,2|2,3:2|0:2,0:0:0:0:
83,62,23955,2,0,L|96:145,1,75.0000028610231,2|2,3:2|0:2,0:0:0:0:
219,3,24255,2,0,L|169:70,1,75.0000028610231,2|2,3:2|0:2,0:0:0:0:
327,171,24555,6,0,B|287:144|287:144|186:161,1,150.000005722046,6|0,3:1|3:0,0:0:0:0:
263,239,25005,1,2,0:0:0:0:
430,345,25155,2,0,L|281:320,1,150.000005722046,2|0,3:2|3:0,0:0:0:0:
200,311,25605,1,2,0:2:0:0:
327,171,25755,6,0,L|346:243,1,75.0000028610231,2|2,3:2|0:2,0:0:0:0:
275,47,26055,2,0,L|255:119,1,75.0000028610231,2|2,3:2|0:2,0:0:0:0:
408,139,26355,1,2,3:2:0:0:
170,107,26505,1,2,3:2:0:0:
170,107,26580,1,2,3:2:0:0:
170,107,26655,2,0,L|58:93,1,112.500004291535,10|0,0:2|0:0,0:0:0:0:
21,59,26955,6,0,L|37:157,1,100,4|0,3:2|0:0,0:0:0:0:
218,355,27255,2,0,L|234:256,1,100,8|0,0:0|0:0,0:0:0:0:
48,241,27555,1,0,3:0:0:0:
245,173,27705,1,0,3:0:0:0:
109,92,27855,1,8,0:2:0:0:
253,279,28005,6,0,L|457:255,1,200,0|2,3:0|3:2,0:0:0:0:
466,254,28380,1,2,3:2:0:0:
480,252,28455,1,10,0:2:0:0:
333,189,28605,1,2,0:2:0:0:
466,117,28755,2,0,L|459:166,1,50,2|0,3:2|3:0,3:0:0:0:
305,197,28905,2,0,L|298:147,1,50,2|0,3:2|3:0,3:0:0:0:
477,33,29055,2,0,L|377:20,1,100,10|0,0:2|0:0,0:0:0:0:
147,70,29355,6,0,P|189:58|248:83,1,100,4|0,3:2|0:0,0:0:0:0:
357,271,29655,2,0,P|311:289|263:277,1,100,8|0,0:0|0:0,0:0:0:0:
188,150,29955,1,0,3:0:0:0:
124,318,30105,1,0,3:0:0:0:
305,197,30255,1,10,0:2:0:0:
126,77,30405,6,0,P|91:166|152:238,1,200,2|0,3:2|3:0,0:0:0:0:
366,132,30855,1,8,0:0:0:0:
188,150,31005,1,0,3:0:0:0:
284,295,31155,5,8,0:0:0:0:
302,270,31230,1,8,0:0:0:0:
310,240,31305,1,8,0:0:0:0:
307,209,31380,1,8,0:0:0:0:
295,181,31455,1,8,0:3:0:0:
282,153,31530,1,8,0:3:0:0:
280,122,31605,1,4,0:3:0:0:
288,92,31680,1,4,0:3:0:0:
306,66,31755,6,0,B|350:41|350:41|447:60,1,150.000005722046,6|0,3:2|3:0,0:0:0:0:
366,132,32205,1,2,0:0:0:0:
209,8,32355,2,0,P|205:80|143:117,1,150.000005722046,2|0,3:2|3:0,0:0:0:0:
45,63,32805,1,2,0:0:0:0:
61,241,32955,6,0,L|54:166,1,75.0000028610231,2|0,3:2|0:0,0:0:0:0:
207,255,33255,2,0,L|149:206,1,75.0000028610231,2|2,3:2|0:2,0:0:0:0:
320,161,33555,2,0,L|245:167,1,75.0000028610231,2|10,3:2|0:2,0:0:0:0:
377,244,33855,1,2,3:2:0:0:
440,60,34005,1,2,3:2:0:0:
440,60,34080,1,2,3:2:0:0:
440,60,34155,6,0,L|311:68,1,112.500004291535,6|0,3:2|0:0,0:0:0:0:
290,70,34455,2,0,L|273:8,3,37.5000014305115,8|8|8|8,3:2|0:0|0:0|0:0,0:0:0:0:
197,131,34755,2,0,L|214:69,3,37.5000014305115,8|8|8|8,3:2|0:0|0:0|0:0,0:0:0:0:
111,191,35055,2,0,L|94:129,3,37.5000014305115,8|8|8|8,3:2|0:0|0:0|0:0,0:0:0:0:
47,263,35355,5,8,3:2:0:0:
78,282,35430,1,8,0:0:0:0:
115,288,35505,1,8,0:0:0:0:
151,278,35580,1,8,0:0:0:0:
181,256,35655,1,8,3:2:0:0:
211,234,35730,1,8,0:0:0:0:
246,224,35805,2,0,P|264:223|282:229,1,37.5000014305115,0|0,0:0|0:0,0:0:0:0:
409,349,35955,5,4,3:1:0:0:
372,316,36030,1,0,3:0:0:0:
367,267,36105,1,0,3:0:0:0:
395,227,36180,1,0,3:0:0:0:
443,216,36255,1,8,0:3:0:0:
486,238,36330,1,8,0:3:0:0:
503,284,36405,2,0,P|501:302|495:320,1,37.5000014305115,4|4,0:3|0:3,0:3:0:0:
276,328,36555,6,0,L|282:228,1,100,4|0,3:2|0:0,0:0:0:0:
463,38,36855,2,0,L|469:137,1,100,8|0,0:0|0:0,0:0:0:0:
242,154,37155,1,0,3:0:0:0:
386,0,37305,1,0,3:0:0:0:
371,235,37455,1,8,0:0:0:0:
166,106,37605,6,0,B|210:67|210:67|371:82,1,200,0|2,3:0|3:2,0:0:0:0:
365,83,37980,1,2,3:2:0:0:
379,85,38055,1,10,0:2:0:0:
370,250,38205,1,2,0:2:0:0:
241,153,38355,2,0,B|291:158,1,50,2|0,3:2|3:0,3:0:0:0:
369,266,38505,2,0,B|320:271,1,50,2|0,3:2|3:0,3:0:0:0:
155,208,38655,2,0,B|146:109,1,100,10|0,0:2|0:0,0:0:0:0:
21,305,38955,6,0,P|69:314|116:297,1,100,4|0,3:2|0:0,0:0:0:0:
198,28,39255,2,0,P|151:11|102:20,1,100,8|0,0:0|0:0,0:0:0:0:
63,218,39555,1,0,3:0:0:0:
241,153,39705,1,0,3:0:0:0:
50,103,39855,1,10,0:2:0:0:
262,273,40005,6,0,B|280:73,1,200,2|0,3:2|3:0,0:0:0:0:
370,309,40455,5,12,0:0:0:0:
370,309,40755,6,8,P|410:305|449:318,2,79.9999975585938
290,362,41055,2,0,P|250:366|210:352,2,79.9999975585938,8|8|8,0:3|0:3|0:3,0:3:0:0:
273,123,41355,5,6,3:1:0:0:
262,273,41505,2,0,B|274:123,1,150.000005722046,2|0,3:2|0:2,0:0:0:0:
177,283,41955,2,0,B|183:208,1,75.0000028610231,10|0,0:2|3:0,0:0:0:0:
92,293,42255,2,0,B|98:218,1,75.0000028610231,2|0,0:2|0:0,0:2:0:0:
35,81,42555,5,2,3:2:0:0:
40,156,42705,2,0,B|34:81,1,75.0000028610231,2|0,3:2|0:0,0:0:0:0:
121,64,43005,1,2,3:2:0:0:
127,139,43155,2,0,B|121:64,1,75.0000028610231,10|0,0:2|3:0,0:0:0:0:
214,122,43455,2,0,B|208:47,1,75.0000028610231,2|0,0:2|0:0,0:0:0:0:
443,205,43755,5,6,3:1:0:0:
294,195,43905,2,0,B|448:205,1,150.000005722046,2|0,3:2|0:0,0:0:0:0:
311,116,44355,2,0,B|387:122,1,75.0000028610231,10|0,0:2|3:0,0:0:0:0:
328,37,44655,2,0,B|404:43,1,75.0000028610231,2|0,0:2|0:0,0:0:0:0:
110,42,44955,5,2,3:2:0:0:
184,37,45105,1,2,3:2:0:0:
126,122,45255,2,0,B|201:116,1,75.0000028610231,2|0,0:2|3:0,0:0:0:0:
87,206,45555,2,0,B|200:197,1,112.500004291535,10|0,0:2|0:0,0:0:0:0:
217,195,45855,1,4,0:3:0:0:
217,195,46155,6,0,B|158:200,1,59.9999981689454,6|0,3:1|0:0,0:0:0:0:
295,189,46455,2,0,B|355:185,1,59.9999981689454,2|0,3:2|0:0,0:0:0:0:
212,275,46755,2,0,B|163:310,1,59.9999981689454,2|0,3:2|0:0,0:0:0:0:
299,108,47055,2,0,B|349:74,1,59.9999981689454,2|0,3:2|0:0,0:0:0:0:
264,357,47355,6,0,P|292:333|306:298,1,75.0000028610231,2|0,3:2|0:0,0:0:0:0:
248,27,47655,2,0,P|219:51|205:86,1,75.0000028610231,2|0,3:2|0:0,0:0:0:0:
386,238,47955,2,0,P|333:202|247:220,1,150.000005722046,2|0,3:2|3:0,0:0:0:0:
306,298,48405,1,2,3:2:0:0:
407,29,48555,5,12,0:2:0:0:
184,156,48705,1,0,3:0:0:0:
386,238,48855,1,0,3:0:0:0:
105,29,49005,5,12,0:2:0:0:
327,156,49155,1,0,3:0:0:0:
126,238,49305,1,0,3:0:0:0:
256,25,49455,5,8,0:0:0:0:
256,359,49605,1,8,0:0:0:0:
22,206,50955,6,0,P|69:232|125:229,1,110.000003356934,6|0,3:2|3:0,0:0:0:0:
347,47,51255,2,0,P|292:44|245:70,1,110.000003356934,8|0,0:0|0:0,0:0:0:0:
153,323,51555,1,0,3:0:0:0:
315,141,51705,1,0,3:0:0:0:
93,135,51855,1,8,0:0:0:0:
273,346,52005,6,0,P|381:322|491:324,1,220.000006713867,0|0,3:0|3:0,0:0:0:0:
471,0,52455,2,0,P|456:53|449:107,1,110.000003356934,10|0,0:0|0:0,0:0:0:0:
274,324,52755,2,0,P|265:269|251:216,1,110.000003356934,2|0,3:2|3:0,0:0:0:0:
55,0,53055,2,0,P|40:53|33:107,1,110.000003356934,10|0,0:0|0:0,0:0:0:0:
200,354,53355,6,0,B|166:337|166:337|71:349|71:349|43:334,1,165.000005035401,2|0,3:2|0:0,0:0:0:0:
19,321,53655,1,10,0:0:0:0:
111,142,53805,2,0,B|130:118|130:118|209:107,1,110.000003356934,2|0,0:0|3:0,0:0:0:0:
340,238,54105,2,0,B|320:262|320:262|242:272,1,110.000003356934,2|8,3:0|0:0,0:0:0:0:
234,16,54405,6,0,P|293:60|247:194,1,220.000006713867,2|0,3:2|3:0,0:0:0:0:
163,315,54855,2,0,P|153:246|197:195,1,110.000003356934,10|0,0:0|0:0,0:0:0:0:
451,164,55155,1,2,3:2:0:0:
432,0,55305,1,0,3:0:0:0:
432,0,55380,1,0,3:0:0:0:
432,0,55455,2,0,L|454:191,1,165.000005035401,14|12,0:1|0:1,0:1:0:0:
410,245,55755,6,0,P|463:254|513:231,1,110.000003356934,6|0,3:2|3:0,0:0:0:0:
491,82,56055,2,0,P|438:73|389:97,1,110.000003356934,10|0,0:0|0:0,0:0:0:0:
410,245,56355,5,2,3:2:0:0:
287,110,56505,1,2,3:2:0:0:
204,273,56655,2,0,P|257:281|306:258,1,110.000003356934,10|0,0:0|3:0,0:0:0:0:
82,137,56955,5,2,0:0:0:0:
204,273,57105,1,2,3:2:0:0:
287,110,57255,2,0,P|233:101|184:124,1,110.000003356934,10|0,0:0|0:0,0:0:0:0:
204,273,57555,5,2,3:2:0:0:
82,137,57705,1,2,3:2:0:0:
0,302,57855,2,0,P|52:310|102:288,1,110.000003356934,10|0,0:0|0:0,0:0:0:0:
254,22,58155,6,0,L|360:49,1,110.000003356934,2|0,0:2|3:0,0:0:0:0:
493,83,58455,1,10,0:0:0:0:
321,177,58605,2,0,P|268:187|228:152,1,110.000003356934,2|0,0:2|3:0,0:0:0:0:
382,307,58905,2,0,P|435:307|466:264,1,110.000003356934,2|0,0:2|3:0,0:0:0:0:
71,316,59205,6,0,B|26:291|26:291|148:268,1,165.000005035401,6|0,3:2|0:0,0:0:0:0:
165,266,59505,1,2,3:2:0:0:
55,173,59655,1,10,0:0:0:0:
166,352,59805,1,2,3:2:0:0:
256,186,59955,6,0,L|310:195,1,55.0000016784668,10|8,0:0|0:0,0:0:0:0:
413,302,60105,2,0,L|358:311,1,55.0000016784668,10|8,0:0|0:0,0:0:0:0:
165,266,60255,1,10,0:0:0:0:
142,231,60330,1,8,0:0:0:0:
132,191,60405,1,8,0:0:0:0:
135,150,60480,1,8,0:0:0:0:
150,112,60555,6,0,L|261:95,1,110.000003356934,6|0,3:2|3:0,0:0:0:0:
512,209,60855,2,0,L|403:193,1,110.000003356934,8|0,0:0|0:0,0:0:0:0:
211,1,61155,1,0,3:0:0:0:
261,214,61305,1,0,3:0:0:0:
358,57,61455,1,8,0:0:0:0:
512,314,61605,6,0,P|402:313|294:336,1,220.000006713867,0|0,3:0|3:0,0:0:0:0:
0,364,62055,2,0,P|54:365|108:353,1,110.000003356934,10|0,0:0|0:0,0:0:0:0:
429,208,62355,2,0,P|374:206|321:192,1,110.000003356934,2|0,3:2|3:0,0:0:0:0:
6,16,62655,2,0,P|53:44|105:61,1,110.000003356934,10|0,0:0|0:0,0:0:0:0:
377,121,62955,6,0,P|317:99|234:162,1,165.000005035401,2|0,3:2|0:0,0:0:0:0:
230,177,63255,1,10,0:0:0:0:
438,184,63405,2,0,P|466:137|456:82,1,110.000003356934,2|0,0:0|3:0,0:0:0:0:
169,115,63705,2,0,P|141:162|151:217,1,110.000003356934,2|8,3:2|0:0,0:0:0:0:
377,121,64005,6,0,B|310:153|310:153|162:113,1,220.000006713867,2|0,3:2|3:0,0:0:0:0:
457,84,64455,2,0,P|465:137|438:184,1,110.000003356934,10|0,0:0|0:0,0:0:0:0:
300,58,64755,1,2,3:2:0:0:
237,262,64905,1,0,3:0:0:0:
227,236,64980,1,0,3:0:0:0:
217,210,65055,2,0,B|377:254,1,165.000005035401,14|0,0:1|0:0,0:0:0:0:
362,357,65355,6,0,P|354:304|376:254,1,110.000003356934,6|0,3:2|3:0,0:0:0:0:
464,96,65655,2,0,P|473:150|451:200,1,110.000003356934,10|0,0:0|0:0,0:0:0:0:
229,99,65955,5,2,3:2:0:0:
382,137,66105,1,2,3:2:0:0:
147,139,66255,2,0,P|138:86|160:36,1,110.000003356934,10|0,0:0|3:0,0:0:0:0:
382,137,66555,5,2,0:0:0:0:
229,99,66705,1,2,3:2:0:0:
286,194,66855,1,10,0:0:0:0:
324,41,67005,1,2,0:0:0:0:
382,137,67155,5,2,3:2:0:0:
229,99,67305,1,2,3:2:0:0:
451,199,67455,2,0,P|473:149|464:95,1,110.000003356934,10|0,0:0|3:0,0:0:0:0:
295,276,67755,6,0,L|317:399,1,110.000003356934,2|0,3:2|3:0,0:0:0:0:
136,306,68055,1,10,0:2:0:0:
285,194,68205,2,0,P|338:198|368:242,1,110.000003356934,2|0,0:2|3:0,0:0:0:0:
220,353,68505,2,0,P|166:348|135:305,1,110.000003356934,2|8,3:2|0:0,0:0:0:0:
51,51,68805,6,0,B|103:83|103:83|260:63,1,220.000006713867,6|0,3:2|3:0,0:0:0:0:
410,13,69255,1,8,0:0:0:0:
403,39,69330,1,8,0:0:0:0:
397,66,69405,2,0,B|342:72,1,55.0000016784668,0|0,3:0|3:0,3:0:0:0:
224,199,69555,1,4,0:3:0:0:
230,172,69630,1,4,0:3:0:0:
237,146,69705,2,0,B|291:139,1,55.0000016784668,0|0,3:0|3:0,3:0:0:0:
470,244,69855,2,0,B|306:225,1,165.000005035401,12|0,0:1|0:0,0:0:0:0:
142,206,70155,5,14,0:0:0:0:
120,203,70455,1,8,0:0:0:0:
254,55,70605,1,0,3:0:0:0:
198,313,70755,5,10,0:0:0:0:
59,122,70905,1,0,3:0:0:0:
66,328,71055,1,8,0:0:0:0:
170,86,71205,1,0,3:0:0:0:
332,300,71355,5,10,0:0:0:0:
120,203,71505,1,0,3:0:0:0:
387,177,71655,1,8,0:0:0:0:
198,313,71805,1,0,3:0:0:0:
318,73,71955,5,10,0:0:0:0:
455,275,72105,1,0,3:0:0:0:
441,48,72255,1,8,0:0:0:0:
332,300,72405,1,0,3:0:0:0:
332,300,72480,1,0,3:0:0:0:
332,300,72555,6,0,L|186:275,1,110.000003356934,14|0,0:1|3:0,0:0:0:0:
127,112,72855,1,8,0:0:0:0:
172,349,73005,1,0,3:0:0:0:
364,126,73155,6,0,L|218:151,1,110.000003356934,10|0,0:0|3:0,0:0:0:0:
143,266,73455,1,8,0:0:0:0:
40,92,73605,1,0,3:0:0:0:
40,92,73680,1,0,3:0:0:0:
39,91,73755,6,0,P|53:145|59:199,1,110.000003356934,10|0,0:0|3:0,0:0:0:0:
258,349,74055,2,0,P|264:294|277:241,1,110.000003356934,8|0,0:0|3:0,0:0:0:0:
512,144,74355,5,10,0:2:0:0:
470,147,74430,1,8,0:3:0:0:
429,151,74505,1,0,3:0:0:0:
388,155,74580,1,0,3:0:0:0:
347,159,74655,1,14,0:1:0:0:
40,128,74955,6,0,B|50:29|50:29|97:222,1,300,4|0,3:2|3:0,0:0:0:0:
103,246,75480,1,0,3:0:0:0:
109,270,75555,6,0,B|182:254|182:254|195:275,1,100.000003814697,10|0,0:0|0:0,0:0:0:0:
331,345,75755,2,0,B|280:289|280:289|292:267,1,100.000003814697,10|0,0:0|0:0,0:0:0:0:
285,116,75955,2,0,B|262:187|262:187|237:187,1,100.000003814697,10|0,0:0|0:0,0:0:0:0:
153,347,76155,5,4,3:1:0:0:
153,347,76755,6,0,B|88:381|88:381|239:370,1,225.000008583069
307,155,77355,5,4,3:2:0:0:
211,296,77505,1,2,0:0:0:0:
390,313,77655,2,0,L|374:203,1,100,10|0,0:2|0:0,0:0:0:0:
240,99,77955,1,2,3:2:0:0:
225,197,78105,1,2,3:2:0:0:
390,116,78255,1,8,0:0:0:0:
225,0,78405,6,0,L|239:98,1,100,2|0,3:2|0:0,0:0:0:0:
299,245,78705,1,0,3:2:0:0:
490,175,78855,2,0,B|441:135|441:135|306:155,1,200,10|0,0:0|3:0,0:0:0:0:
292,333,79305,1,0,3:2:0:0:
460,310,79455,2,0,P|451:262|418:225,1,100,10|0,0:2|0:0,0:0:0:0:
201,354,79755,5,0,3:2:0:0:
159,167,79905,1,2,0:0:0:0:
331,239,80055,2,0,L|232:253,1,100,10|0,0:0|0:0,0:0:0:0:
250,146,80355,1,2,3:2:0:0:
403,292,80505,1,2,3:2:0:0:
232,253,80655,1,8,0:0:0:0:
456,148,80805,5,6,3:2:0:0:
474,141,80955,1,2,0:0:0:0:
250,146,81105,1,0,3:0:0:0:
225,144,81180,1,0,3:0:0:0:
200,142,81255,2,0,L|184:93,3,50,10|8|10|8,0:0|0:0|0:0|0:0,0:0:0:0:
269,59,81555,5,8,0:3:0:0:
292,68,81630,1,8,0:3:0:0:
312,83,81705,1,8,0:3:0:0:
326,103,81780,1,8,0:3:0:0:
335,126,81855,1,4,0:3:0:0:
337,151,81930,1,4,0:3:0:0:
333,175,82005,1,4,0:3:0:0:
321,197,82080,1,4,0:3:0:0:
304,216,82155,5,4,3:2:0:0:
82,116,82305,1,2,0:0:0:0:
148,275,82455,2,0,L|247:277,1,100,10|0,0:0|0:0,0:0:0:0:
109,199,82755,1,2,3:2:0:0:
101,346,82905,1,2,3:2:0:0:
247,277,83055,1,8,0:0:0:0:
23,186,83205,6,0,P|29:235|61:273,1,100,2|0,3:2|0:0,0:0:0:0:
188,151,83505,1,0,3:0:0:0:
127,13,83655,2,0,B|91:57|91:57|109:199,1,200,10|0,0:0|3:0,0:0:0:0:
200,350,84105,1,0,3:0:0:0:
275,165,84255,2,0,P|269:116|237:78,1,100,14|0,0:1|0:0,0:0:0:0:
212,238,84555,5,8,0:0:0:0:
244,256,84630,1,0,3:0:0:0:
280,262,84705,1,0,3:0:0:0:
316,252,84780,1,0,3:0:0:0:
346,229,84855,2,0,P|360:209|367:185,1,50,0|0,3:0|3:0,0:0:0:0:
307,4,85005,5,8,0:0:0:0:
274,22,85080,1,0,3:0:0:0:
251,51,85155,1,0,3:0:0:0:
242,87,85230,1,0,3:0:0:0:
247,124,85305,2,0,P|256:146|274:164,1,50,0|0,3:0|3:0,3:0:0:0:
387,90,85455,6,0,P|363:86|338:93,1,50,12|0,0:1|0:0,0:0:0:0:
162,240,85605,2,0,P|186:244|211:238,1,50,2|0,0:0|0:0,0:0:0:0:
169,22,85755,5,6,3:2:0:0:
367,184,85905,1,8,0:0:0:0:
307,4,86055,1,10,0:0:0:0:
181,144,86205,1,10,0:0:0:0:
156,138,86280,1,8,0:0:0:0:
131,132,86355,5,8,0:0:0:0:
274,164,86505,1,8,0:3:0:0:
286,310,86655,1,4,0:3:0:0:
152,368,86805,1,0,3:0:0:0:
56,258,86955,5,8,3:2:0:0:
386,334,87105,1,8,3:2:0:0:
42,182,89205,5,0,3:0:0:0:
31,177,89280,1,0,3:0:0:0:
20,172,89355,2,0,B|-23:230|-23:230|50:213|50:213|74:221|74:221|156:196|156:196|193:210,1,300.000011444092,8|0,0:0|3:0,0:0:0:0:
364,317,89805,1,12,0:1:0:0:
325,86,89955,6,0,P|299:153|344:208,1,150.000005722046,2|0,0:0|3:0,0:0:0:0:
457,365,90255,2,0,P|482:297|437:242,1,150.000005722046,12|0,0:1|3:0,0:0:0:0:
283,261,90555,5,8,0:0:0:0:
275,276,90655,2,8,L|190:295,1,86.6666626993817
201,196,90855,1,8,0:0:0:0:
193,211,90955,2,8,L|108:230,1,86.6666626993817,8|8,0:3|0:3,0:3:0:0:
111,146,91155,6,0,B|77:154|77:154|80:157|80:157|77:154|77:154|50:160|50:160|46:157|46:157|50:160|50:160|5:170,1,120,8|0,0:0|0:0,0:0:0:0:
133,57,91755,5,4,3:2:0:0:
193,211,91905,2,0,B|249:174|249:174|378:203,1,200,0|0,3:0|3:0,0:0:0:0:
491,91,92355,2,0,L|393:114,1,100.000003814697,8|0,0:0|0:0,0:0:0:0:
265,265,92655,1,0,3:0:0:0:
440,273,92805,2,0,P|465:230|468:181,1,100,0|0,3:0|0:0,0:0:0:0:
298,94,93105,5,10,0:2:0:0:
378,203,93255,1,2,0:2:0:0:
392,71,93405,1,2,3:2:0:0:
284,226,93555,1,10,0:2:0:0:
200,71,93705,1,2,3:2:0:0:
187,249,93855,2,0,L|285:226,1,100.000003814697,2|8,0:0|0:0,0:0:0:0:
467,180,94155,5,4,3:2:0:0:
405,292,94305,2,0,B|368:236|368:236|397:107,1,200,0|0,3:0|3:0,0:0:0:0:
313,317,94755,2,0,L|215:340,1,100.000003814697,8|0,0:0|0:0,0:0:0:0:
90,200,95055,1,0,3:0:0:0:
291,76,95205,6,0,L|268:174,1,100.000003814697,0|0,3:0|0:0,0:0:0:0:
155,284,95505,1,8,0:0:0:0:
39,128,95655,2,0,L|137:105,1,100.000003814697,0|0,0:0|3:0,0:0:0:0:
55,346,95955,2,0,L|66:297,1,50,8|0,0:0|0:0,0:0:0:0:
90,200,96105,1,0,3:0:0:0:
145,333,96255,2,0,L|156:284,1,50,8|0,0:0|0:0,0:0:0:0:
180,187,96405,1,0,3:0:0:0:
419,253,96555,6,0,P|387:245|357:230,1,66.6666666666667,2|0,3:2|0:0,0:0:0:0:
266,137,96755,2,0,P|275:168|277:201,1,66.6666666666667,2|0,3:2|0:0,0:0:0:0:
243,328,96955,2,0,P|264:302|292:284,1,66.6666666666667,2|0,3:2|0:0,0:0:0:0:
488,107,97155,6,0,B|525:152|525:152|412:125|412:125|350:153,1,239.999992675781,12|0,0:1|0:0,0:0:0:0:
79,92,98355,5,8,0:0:0:0:
99,9,98505,1,0,3:0:0:0:
160,68,98655,1,8,0:0:0:0:
17,32,98805,1,0,3:0:0:0:
17,32,98880,1,0,3:0:0:0:
17,32,98955,6,0,P|-5:82|9:134,1,112.500004291535,12|0,0:1|0:0,0:0:0:0:
31,167,99255,2,0,L|68:171,3,37.5000014305115,8|8|8|8,0:0|0:3|0:3|0:3,0:0:0:0:
154,74,99555,2,0,L|191:69,3,37.5000014305115,0|8|8|8,3:0|0:3|0:3|0:3,0:0:0:0:
264,148,99855,2,0,L|301:152,3,37.5000014305115,0|8|8|8,3:0|0:3|0:3|0:3,0:0:0:0:
366,82,100155,6,0,P|350:71|333:62,1,37.5000014305115
199,218,100305,2,0,P|214:228|231:237,1,37.5000014305115,0|0,3:2|3:2,3:2:0:0:
456,244,100455,1,4,0:3:0:0:
427,220,100530,1,4,0:3:0:0:
391,211,100605,1,0,3:0:0:0:
354,219,100680,1,0,3:0:0:0:
325,242,100755,6,0,B|308:273|321:298|321:298|325:298|325:298|321:298|321:298|315:335|315:335|255:358,1,150,8|0,0:0|0:0,0:0:0:0:
132,253,101355,6,0,L|230:236,1,100,4|0,3:2|3:0,0:0:0:0:
445,336,101655,2,0,L|346:319,1,100,8|0,0:0|0:0,0:0:0:0:
190,327,101955,1,0,3:0:0:0:
268,164,102105,1,0,3:0:0:0:
346,319,102255,1,8,0:0:0:0:
179,138,102405,6,0,P|248:73|338:103,1,200,0|2,3:0|3:2,0:0:0:0:
344,117,102780,1,2,3:2:0:0:
348,131,102855,1,10,0:2:0:0:
473,88,103005,1,2,0:0:0:0:
276,213,103155,2,0,L|267:163,1,50,2|0,3:2|3:0,3:0:0:0:
471,102,103305,2,0,L|462:151,1,50,2|0,3:2|3:0,3:0:0:0:
317,303,103455,2,0,L|218:286,1,100,10|0,0:0|0:0,0:0:0:0:
28,132,103755,6,0,P|20:181|44:230,1,100,4|0,3:2|0:0,0:0:0:0:
231,380,104055,2,0,P|238:330|214:281,1,100,8|0,0:0|0:0,0:0:0:0:
107,168,104355,1,0,3:0:0:0:
151,343,104505,1,0,3:0:0:0:
276,213,104655,1,10,0:0:0:0:
33,346,104805,6,0,L|231:380,1,200,2|0,3:2|3:0,0:0:0:0:
385,252,105255,1,12,0:0:0:0:
385,252,105555,2,8,P|380:218|390:186,2,66.6666666666667
465,318,105855,2,0,P|468:350|458:381,2,66.6666666666667,8|8|8,0:3|0:3|0:3,0:3:0:0:
225,348,106155,5,6,3:1:0:0:
375,337,106305,2,0,B|222:349,1,150.000005722046,2|0,3:0|3:0,0:0:0:0:
385,252,106755,2,0,B|310:258,1,75.0000028610231,10|0,0:0|3:0,0:0:0:0:
395,167,107055,2,0,B|320:173,1,75.0000028610231,2|0,0:0|0:0,0:0:0:0:
188,87,107355,5,2,3:0:0:0:
263,92,107505,2,0,B|188:86,1,75.0000028610231,10|0,0:0|0:0,0:0:0:0:
198,171,107805,1,2,3:0:0:0:
273,177,107955,2,0,B|198:171,1,75.0000028610231,10|0,0:0|3:0,0:0:0:0:
283,262,108255,2,0,B|208:256,1,75.0000028610231,2|0,0:0|0:0,0:0:0:0:
48,377,108555,5,6,3:1:0:0:
39,228,108705,2,0,B|49:378,1,150.000005722046,2|0,3:0|0:0,0:0:0:0:
121,204,109155,2,0,B|126:279,1,75.0000028610231,10|0,0:0|3:0,0:0:0:0:
203,181,109455,2,0,B|208:256,1,75.0000028610231,2|0,0:0|0:0,0:0:0:0:
308,336,109755,5,2,3:0:0:0:
313,255,109905,1,2,3:0:0:0:
390,360,110055,2,0,B|395:284,1,75.0000028610231,2|0,0:0|3:0,0:0:0:0:
472,384,110355,1,10,0:0:0:0:
476,309,110505,2,0,B|478:271,2,37.5000014305115,2|0|0,3:0|3:0|3:0,3:0:0:0:
478,271,110955,6,0,B|482:211,1,59.9999981689454,6|0,3:1|0:0,0:0:0:0:
408,76,111255,2,0,B|414:135,1,59.9999981689454,2|0,3:2|0:0,0:0:0:0:
381,284,111555,2,0,B|364:226,1,59.9999981689454,2|0,3:2|0:0,0:0:0:0:
248,112,111855,2,0,B|274:165,1,59.9999981689454,2|0,3:2|0:0,0:0:0:0:
287,350,112155,6,0,P|262:321|229:305,1,75.0000028610231,2|0,3:2|0:0,0:0:0:0:
29,384,112455,2,0,P|65:377|96:356,1,75.0000028610231,2|0,3:2|0:0,0:0:0:0:
183,94,112755,2,0,P|127:141|117:214,1,150.000005722046,2|0,3:2|3:0,0:0:0:0:
229,305,113205,1,2,3:2:0:0:
64,64,113355,5,12,0:0:0:0:
148,293,113505,1,0,3:0:0:0:
183,94,113655,1,0,3:0:0:0:
447,319,113805,5,12,0:0:0:0:
365,99,113955,1,0,3:0:0:0:
329,290,114105,1,0,3:0:0:0:
109,135,114255,5,8,0:0:0:0:
447,88,114405,2,0,L|428:186,1,100,8|0,0:0|3:0,0:0:0:0:
213,264,114705,1,8,0:0:0:0:
221,251,114780,1,8,0:0:0:0:
230,239,114855,2,0,L|328:257,1,100,8|0,0:0|3:0,0:0:0:0:
152,156,115155,5,8,0:0:0:0:
147,167,115230,1,8,0:0:0:0:
142,178,115305,1,8,0:0:0:0:
140,190,115380,1,8,0:0:0:0:
138,202,115455,5,8,0:0:0:0:
168,160,115530,1,8,0:0:0:0:
212,137,115605,1,8,0:0:0:0:
261,139,115680,1,8,0:0:0:0:
302,164,115755,6,0,P|354:177|405:161,1,110.000003356934,6|0,3:2|3:0,0:0:0:0:
134,72,116055,2,0,P|81:58|30:74,1,110.000003356934,8|0,0:0|0:0,0:0:0:0:
230,239,116355,1,0,3:0:0:0:
349,77,116505,1,0,3:0:0:0:
212,137,116655,1,8,0:0:0:0:
464,256,116805,6,0,P|440:148|442:38,1,220.000006713867,0|0,3:0|3:0,0:0:0:0:
506,345,117255,2,0,P|431:346|381:304,1,110.000003356934,10|0,0:0|0:0,0:0:0:0:
65,303,117555,2,0,P|140:304|190:262,1,110.000003356934,2|0,3:2|3:0,0:0:0:0:
443,168,117855,2,0,P|368:169|318:127,1,110.000003356934,10|0,0:0|0:0,0:0:0:0:
238,13,118155,6,0,B|272:61|272:61|253:165,1,165.000005035401,2|0,3:2|0:0,0:0:0:0:
246,193,118455,1,10,0:0:0:0:
91,124,118605,2,0,P|130:87|183:85,1,110.000003356934,2|0,0:0|3:0,0:0:0:0:
320,243,118905,2,0,P|280:279|227:281,1,110.000003356934,2|8,3:2|0:0,0:0:0:0:
38,198,119205,6,0,B|99:232|155:201|135:187|192:156|246:193,1,220.000006713867,2|0,3:2|3:0,0:0:0:0:
399,339,119655,2,0,P|427:292|439:238,1,110.000003356934,10|0,0:0|0:0,0:0:0:0:
279,119,119955,1,2,3:2:0:0:
423,18,120105,1,0,3:0:0:0:
423,18,120180,1,0,3:0:0:0:
423,18,120255,2,0,B|470:59|470:59|452:185,1,165.000005035401,14|12,0:1|0:1,0:0:0:0:
440,239,120555,5,6,3:2:0:0:
279,217,120705,1,2,3:2:0:0:
440,239,120855,1,10,0:0:0:0:
279,217,121005,1,2,0:2:0:0:
348,308,121155,5,2,3:2:0:0:
370,147,121305,1,2,3:2:0:0:
348,308,121455,2,0,L|238:293,1,110.000003356934,10|0,0:0|3:0,0:0:0:0:
261,133,121755,6,0,L|370:147,1,110.000003356934,2|0,0:0|3:2,0:0:0:0:
457,322,122055,2,0,L|347:307,1,110.000003356934,10|0,0:0|0:0,0:0:0:0:
485,102,122355,6,0,L|470:211,1,110.000003356934,2|0,3:2|3:2,0:0:0:0:
233,352,122655,2,0,L|247:242,1,110.000003356934,10|0,0:0|0:0,0:0:0:0:
341,0,122955,6,0,P|369:50|355:109,1,110.000003356934,2|0,3:0|3:0,0:0:0:0:
325,218,123255,1,10,0:0:0:0:
275,65,123405,2,0,P|247:115|261:174,1,110.000003356934,2|0,0:0|3:0,0:0:0:0:
135,121,123705,2,0,P|163:171|149:230,1,110.000003356934,2|0,3:0|3:0,0:0:0:0:
56,2,124005,6,0,B|33:38|33:38|60:172,1,165.000005035401,6|0,3:2|0:0,0:0:0:0:
65,185,124305,1,2,3:2:0:0:
255,164,124455,1,10,0:0:0:0:
142,52,124605,1,2,3:2:0:0:
152,253,124755,6,0,L|239:242,1,55.0000016784668,10|8,0:0|0:0,0:0:0:0:
378,111,124905,2,0,L|323:104,1,55.0000016784668,10|8,0:0|0:0,0:0:0:0:
372,291,125055,1,10,0:0:0:0:
404,316,125130,1,8,0:0:0:0:
445,322,125205,1,8,0:0:0:0:
483,309,125280,1,8,0:0:0:0:
512,279,125355,6,0,L|498:169,1,110.000003356934,6|0,3:2|3:0,0:0:0:0:
206,246,125655,2,0,L|192:355,1,110.000003356934,8|0,0:0|0:0,0:0:0:0:
312,215,125955,1,0,3:0:0:0:
110,180,126105,1,0,3:0:0:0:
288,313,126255,1,8,0:0:0:0:
86,91,126405,102,0,P|87:200|63:307,1,220.000006713867,0|0,3:0|3:0,0:0:0:0:
46,9,126855,2,0,P|121:8|171:50,1,110.000003356934,10|0,0:0|0:0,0:0:0:0:
459,69,127155,2,0,P|384:68|334:110,1,110.000003356934,2|0,3:2|3:0,0:0:0:0:
110,180,127455,2,0,P|185:179|235:221,1,110.000003356934,10|0,0:0|0:0,0:0:0:0:
379,279,127755,6,0,B|408:319|408:319|282:344,1,165.000005035401,2|0,3:2|0:0,0:0:0:0:
267,347,128055,1,10,0:0:0:0:
298,152,128205,2,0,P|308:205|288:255,1,110.000003356934,2|0,0:0|3:0,0:0:0:0:
110,180,128505,2,0,P|99:126|119:76,1,110.000003356934,2|8,3:2|0:0,0:0:0:0:
400,116,128805,6,0,B|339:158|339:158|194:135,1,220.000006713867,2|0,3:2|3:0,0:0:0:0:
72,269,129255,2,0,B|180:251,1,110.000003356934,10|0,0:0|0:0,0:0:0:0:
319,69,129555,1,2,3:2:0:0:
425,259,129705,1,0,3:0:0:0:
418,232,129780,1,0,3:0:0:0:
411,205,129855,2,0,P|352:186|259:267,1,165.000005035401,14|0,0:1|0:0,0:0:0:0:
198,358,130155,5,6,3:2:0:0:
44,316,130305,1,2,3:2:0:0:
180,250,130455,1,10,0:0:0:0:
26,208,130605,1,2,0:2:0:0:
198,358,130755,6,0,B|180:250,1,110.000003356934,2|0,3:2|3:2,0:0:0:0:
8,100,131055,2,0,B|26:208,1,110.000003356934,10|0,0:0|3:0,0:0:0:0:
146,40,131355,5,2,3:2:0:0:
300,82,131505,1,2,3:2:0:0:
164,148,131655,1,10,0:0:0:0:
318,190,131805,1,2,0:2:0:0:
146,40,131955,6,0,B|164:148,1,110.000003356934,2|0,3:2|3:2,0:0:0:0:
336,298,132255,2,0,B|318:190,1,110.000003356934,10|0,0:0|3:0,0:0:0:0:
80,119,132555,6,0,P|74:172|104:217,1,110.000003356934,2|0,3:2|3:0,0:0:0:0:
241,117,132855,1,10,0:2:0:0:
146,40,133005,2,0,L|38:17,1,110.000003356934,2|0,0:2|0:0,0:0:0:0:
231,204,133305,2,0,L|338:181,1,110.000003356934,2|8,3:2|0:0,0:0:0:0:
512,59,133605,6,0,P|521:136|398:98,1,220.000006713867,6|0,3:2|3:0,0:0:0:0:
241,117,134055,1,8,0:0:0:0:
212,114,134130,1,8,0:0:0:0:
184,111,134205,2,0,L|158:183,1,55.0000016784668,0|0,3:0|3:0,0:0:0:0:
66,293,134355,1,4,0:3:0:0:
93,295,134430,1,4,0:3:0:0:
122,298,134505,2,0,L|147:225,1,55.0000016784668,0|0,3:0|3:0,0:0:0:0:
117,55,134655,2,0,L|61:210,1,165.000005035401,12|0,0:1|0:0,0:0:0:0:
5,366,134955,5,14,0:0:0:0:
0,384,135255,1,8,0:0:0:0:
208,310,135405,1,0,3:0:0:0:
6,112,135555,5,10,0:0:0:0:
122,298,135705,1,0,3:0:0:0:
117,55,135855,1,8,0:0:0:0:
34,287,136005,1,0,3:0:0:0:
261,142,136155,5,10,0:0:0:0:
85,219,136305,1,0,3:0:0:0:
284,234,136455,1,8,0:0:0:0:
101,137,136605,1,0,3:0:0:0:
305,320,136755,5,10,0:0:0:0:
390,83,136905,1,0,3:0:0:0:
442,312,137055,1,8,0:0:0:0:
299,114,137205,1,0,3:0:0:0:
299,114,137280,1,0,3:0:0:0:
299,114,137355,6,0,L|161:93,1,110.000003356934,14|0,0:1|3:0,0:0:0:0:
87,217,137655,1,8,0:0:0:0:
141,30,137805,1,0,3:0:0:0:
300,200,137955,6,0,L|438:179,1,110.000003356934,10|0,0:0|3:0,0:0:0:0:
190,97,138255,1,8,0:0:0:0:
252,280,138405,1,0,3:0:0:0:
252,280,138480,1,0,3:0:0:0:
252,280,138555,6,0,P|219:371|193:410,1,110.000003356934,10|0,0:0|3:0,0:0:0:0:
60,203,138855,2,0,P|92:111|118:72,1,110.000003356934,8|0,0:0|3:0,0:0:0:0:
259,132,139155,1,10,0:2:0:0:
155,256,139305,1,0,3:0:0:0:
137,20,139455,2,0,B|180:59|180:59|314:42,1,165.000005035401,14|0,0:1|0:0,0:0:0:0:
381,0,139755,6,0,L|366:108,1,110.000003356934,6|0,3:2|3:0,0:0:0:0:
155,256,140055,2,0,L|169:147,1,110.000003356934,10|0,0:0|0:0,0:0:0:0:
451,181,140355,2,0,P|397:192|346:213,1,110.000003356934,2|0,3:2|3:0,0:0:0:0:
141,56,140655,2,0,P|194:67|245:88,1,110.000003356934,10|0,0:0|0:0,0:0:0:0:
197,333,140955,5,10,0:0:0:0:
169,147,141105,1,0,3:0:0:0:
97,384,141255,5,10,0:0:0:0:
69,198,141405,1,0,3:0:0:0:
302,342,141555,5,10,0:0:0:0:
339,347,141655,1,8,0:0:0:0:
373,332,141755,1,8,0:0:0:0:
403,311,141855,5,8,0:0:0:0:
440,306,141955,1,8,0:0:0:0:
475,320,142055,1,8,0:0:0:0:
498,345,142155,5,6,3:2:0:0:
330,255,142305,2,0,L|342:155,1,100,2|0,3:2|0:0,0:0:0:0:
381,60,142605,1,2,3:2:0:0:
381,60,142680,1,2,3:2:0:0:
381,60,142755,2,0,L|281:72,1,100,10|0,0:0|0:0,0:0:0:0:
177,215,143055,1,2,3:2:0:0:
182,0,143205,6,0,P|237:26|227:159,1,200,2|2,3:2|3:2,0:0:0:0:
177,215,143580,1,2,3:2:0:0:
158,232,143655,2,0,L|58:220,1,100,2|0,3:2|0:0,0:0:0:0:
174,90,143955,1,8,0:0:0:0:
249,248,144105,2,0,B|302:205|302:205|438:233,1,200,2|0,3:2|0:0,0:0:0:0:
317,120,144555,5,6,3:1:0:0:
158,232,144705,2,0,P|162:281|192:320,1,100,2|0,3:2|0:0,0:0:0:0:
348,259,145005,1,2,3:2:0:0:
348,259,145080,1,2,3:2:0:0:
348,259,145155,2,0,L|248:247,1,100,10|0,0:0|0:0,0:0:0:0:
98,306,145455,2,0,P|139:277|158:232,1,100,2|0,3:2|3:0,0:0:0:0:
47,152,145755,6,0,L|147:140,1,100,2|2,0:0|3:2,0:0:0:0:
197,72,145980,1,2,3:2:0:0:
212,52,146055,2,0,L|312:64,1,100,2|0,3:2|0:0,0:0:0:0:
410,74,146355,1,10,0:0:0:0:
335,240,146505,2,0,B|285:192|285:192|314:47,1,200,0|2,3:0|3:2,0:0:0:0:
316,39,146880,1,2,3:2:0:0:
321,14,146955,5,6,3:1:0:0:
479,151,147105,2,0,L|379:163,1,100,2|0,3:2|0:0,0:0:0:0:
226,48,147405,1,2,3:2:0:0:
226,48,147480,1,2,3:2:0:0:
226,48,147555,2,0,B|206:146,1,100,10|0,0:0|0:0,0:0:0:0:
134,18,147855,1,2,3:2:0:0:
294,167,148005,6,0,P|226:236|137:207,1,200,2|2,3:2|3:2,0:0:0:0:
109,125,148380,1,2,3:2:0:0:
101,101,148455,2,0,L|1:113,1,100,2|0,3:2|0:0,0:0:0:0:
71,262,148755,1,10,0:0:0:0:
206,146,148905,2,0,L|194:46,1,100,2|0,3:2|0:0,0:0:0:0:
137,207,149205,1,2,0:0:0:0:
375,207,149355,5,6,3:1:0:0:
318,46,149505,2,0,L|306:146,1,100,2|0,3:2|0:0,0:0:0:0:
237,315,149805,1,2,3:2:0:0:
237,315,149880,1,2,3:2:0:0:
237,315,149955,2,0,L|337:303,1,100,10|0,0:0|0:0,0:0:0:0:
391,118,150255,1,2,3:2:0:0:
228,95,150405,6,0,P|214:142|226:190,2,100,2|2|2,3:2|0:0|3:2,0:0:0:0:
284,30,150780,1,2,3:2:0:0:
304,16,150855,2,0,L|404:28,1,100,2|0,3:2|0:0,0:0:0:0:
466,249,151155,6,0,P|434:259|401:257,1,66.6666666666667,10|0,0:0|0:0,0:0:0:0:
306,145,151355,2,0,P|330:166|345:196,1,66.6666666666667,10|0,0:0|0:0,0:0:0:0:
297,335,151555,2,0,P|303:302|322:275,1,66.6666666666667,10|0,0:0|0:0,0:0:0:0:
506,170,151755,5,6,3:1:0:0:
294,45,151905,2,0,L|306:145,1,100,2|0,3:2|0:0,0:0:0:0:
484,88,152205,1,2,3:2:0:0:
484,88,152280,1,2,3:2:0:0:
484,88,152355,2,0,L|384:76,1,100,10|0,0:0|0:0,0:0:0:0:
317,232,152655,1,2,3:2:0:0:
183,102,152805,6,0,B|227:139|227:139|210:281,1,200,2|2,3:2|3:2,0:0:0:0:
197,361,153180,1,2,3:2:0:0:
178,377,153255,2,0,L|78:365,1,100,2|0,3:2|0:0,0:0:0:0:
140,177,153555,1,8,0:0:0:0:
278,329,153705,2,0,L|476:305,1,200,2|0,3:2|0:0,0:0:0:0:
323,243,154155,5,6,3:1:0:0:
398,133,154305,2,0,L|409:232,1,100,2|0,3:2|0:0,0:0:0:0:
344,56,154605,1,2,3:2:0:0:
344,56,154680,1,2,3:2:0:0:
343,56,154755,2,0,P|388:37|437:45,1,100,10|0,0:0|0:0,0:0:0:0:
409,232,155055,1,2,3:2:0:0:
210,280,155205,6,0,B|163:223|163:223|178:97,1,200,2|2,3:2|3:2,0:0:0:0:
259,75,155580,1,2,3:2:0:0:
270,97,155655,2,0,B|258:196,1,100,2|0,3:2|0:0,0:0:0:0:
95,119,155955,1,8,0:0:0:0:
213,0,156105,2,0,P|308:2|345:89,1,200,2|0,3:2|0:0,0:0:0:0:
120,39,156555,5,6,3:1:0:0:
26,175,156705,2,0,P|66:203|115:205,1,100,2|0,3:2|0:0,0:0:0:0:
214,157,157005,1,2,3:2:0:0:
214,157,157080,1,2,3:2:0:0:
214,157,157155,2,0,L|202:257,1,100,10|0,0:0|0:0,0:0:0:0:
95,119,157455,1,2,3:2:0:0:
125,297,157605,6,0,B|164:344|164:344|303:327,1,200,2|2,3:2|3:2,0:0:0:0:
350,263,157980,1,2,3:2:0:0:
361,241,158055,2,0,L|349:141,1,100,2|0,3:2|0:0,0:0:0:0:
237,52,158355,1,14,0:1:0:0:
448,129,158505,1,2,3:2:0:0:
249,153,158655,1,14,0:2:0:0:
436,29,158805,1,2,3:2:0:0:
155,112,158955,5,8,0:0:0:0:
363,253,159105,1,8,0:0:0:0:
377,248,159180,1,8,0:0:0:0:
391,243,159255,2,0,L|431:164,1,50,0|0,3:0|3:0,0:0:0:0:
237,52,159405,5,8,0:0:0:0:
284,298,159555,1,8,0:0:0:0:
297,305,159630,1,8,0:0:0:0:
311,311,159705,2,0,L|395:283,1,50,0|0,3:0|3:0,0:0:0:0:
337,67,159855,5,8,0:0:0:0:
196,274,160005,1,8,0:0:0:0:
200,288,160080,1,8,0:0:0:0:
206,302,160155,2,0,L|285:341,1,50,0|0,3:0|3:0,0:0:0:0:
397,148,160305,5,8,0:0:0:0:
155,112,160455,1,8,0:0:0:0:
436,40,160605,1,8,0:0:0:0:
451,36,160680,1,8,0:0:0:0:
466,33,160755,5,8,0:3:0:0:
318,6,160905,1,8,0:3:0:0:
244,139,161055,1,4,0:3:0:0:
350,249,161205,1,4,0:3:0:0:
486,182,161355,6,0,P|471:149|442:125,1,75.0000028610231,6|0,3:2|0:0,0:0:0:0:
350,249,161655,1,2,0:0:0:0:
445,275,161805,1,0,3:0:0:0:
353,153,161955,2,0,L|278:157,1,75.0000028610231,10|0,0:0|0:0,0:0:0:0:
205,314,162255,2,0,L|279:318,1,75.0000028610231,2|0,0:0|3:0,0:0:0:0:
136,245,162555,5,2,0:0:0:0:
124,367,162705,1,0,3:0:0:0:
204,176,162855,2,0,P|174:155|137:148,1,75.0000028610231,2|0,3:2|0:0,0:0:0:0:
273,244,163155,2,0,P|294:214|301:177,1,75.0000028610231,10|0,0:0|3:0,0:0:0:0:
67,79,163455,2,0,P|46:109|39:146,1,75.0000028610231,2|0,0:0|3:0,0:0:0:0:
54,233,163680,1,0,3:0:0:0:
61,250,163755,6,0,L|135:244,1,75.0000028610231,2|0,3:2|3:0,0:0:0:0:
227,106,164055,1,2,0:0:0:0:
136,147,164205,1,0,3:0:0:0:
296,37,164355,2,0,P|318:68|324:105,1,75.0000028610231,10|0,0:0|0:0,0:0:0:0:
241,261,164655,2,0,P|219:230|213:193,1,75.0000028610231,2|0,3:2|3:0,0:0:0:0:
227,106,164955,5,2,0:0:0:0:
383,186,165105,2,0,L|308:191,1,75.0000028610231,8|0,0:0|0:0,0:0:0:0:
244,19,165405,1,0,3:0:0:0:
399,99,165555,2,0,L|324:104,1,75.0000028610231,8|8,0:0|0:3,0:0:0:0:
123,113,165855,2,0,P|174:90|227:106,1,112.500004291535,4|0,0:3|0:0,0:0:0:0:
186,259,166155,6,0,L|181:184,1,75.0000028610231,6|0,3:2|0:0,0:0:0:0:
60,47,166455,1,2,0:0:0:0:
94,201,166605,1,0,3:0:0:0:
227,106,166755,2,0,P|220:69|199:38,1,75.0000028610231,10|0,0:0|0:0,0:0:0:0:
1,203,167055,2,0,P|7:239|28:270,1,75.0000028610231,2|0,3:2|3:0,0:0:0:0:
181,184,167355,5,2,0:0:0:0:
52,128,167505,1,0,3:0:0:0:
120,282,167655,2,0,L|195:277,1,75.0000028610231,2|0,3:2|0:0,0:0:0:0:
302,110,167955,2,0,L|227:105,1,75.0000028610231,10|0,0:0|0:0,0:0:0:0:
283,311,168255,2,0,L|358:316,1,75.0000028610231,2|0,0:0|3:0,0:0:0:0:
451,294,168480,1,0,3:0:0:0:
460,310,168555,6,0,P|456:347|437:379,1,75.0000028610231,2|8,3:2|0:0,0:0:0:0:
267,223,168855,2,0,P|270:185|289:153,1,75.0000028610231,2|0,0:0|3:0,0:0:0:0:
512,225,169155,2,0,L|437:220,1,75.0000028610231,10|0,0:0|0:0,0:0:0:0:
263,69,169455,2,0,L|338:74,1,75.0000028610231,2|0,3:2|0:0,0:0:0:0:
354,212,169755,5,2,0:0:0:0:
201,131,169905,1,0,3:0:0:0:
409,11,170055,2,0,P|427:43|431:80,1,75.0000028610231,8|0,0:2|0:0,0:0:0:0:
184,216,170355,1,0,3:0:0:0:
142,194,170430,1,0,3:0:0:0:
118,155,170505,1,0,3:0:0:0:
116,109,170580,1,0,3:0:0:0:
139,69,170655,1,14,0:1:0:0:
139,69,170955,6,0,L|39:60,1,100,6|0,3:2|0:0,0:0:0:0:
4,153,171255,2,0,L|103:161,1,100,2|0,3:2|0:0,0:0:0:0:
319,300,171555,2,0,L|219:308,1,100,2|0,3:2|0:0,0:0:0:0:
184,216,171855,2,0,L|283:207,1,100,2|0,3:2|0:0,0:0:0:0:
127,368,172155,6,0,P|110:321|115:272,1,100,2|0,3:2|0:0,0:0:0:0:
271,111,172455,2,0,P|288:157|283:206,1,100,2|0,3:2|0:0,0:0:0:0:
57,191,172755,2,0,P|103:173|152:178,1,100,2|0,3:2|0:0,0:0:0:0:
341,287,173055,2,0,P|294:304|245:299,1,100,2|8,3:2|0:0,0:0:0:0:
115,272,173280,1,8,0:0:0:0:
103,294,173355,6,0,L|3:285,1,100,6|0,3:1|0:0,0:0:0:0:
81,87,173655,2,0,L|180:95,1,100,2|0,3:2|0:0,0:0:0:0:
261,378,173955,2,0,L|161:369,1,100,2|0,3:2|0:0,0:0:0:0:
239,171,174255,2,0,L|338:179,1,100,2|0,3:2|0:0,0:0:0:0:
489,289,174555,5,2,3:2:0:0:
291,268,174705,1,8,0:0:0:0:
421,120,174855,2,0,P|438:166|433:215,1,100,0|0,3:0|0:0,0:0:0:0:
167,115,175155,2,0,B|206:84|206:84|306:92,1,150,8|8,0:0|0:0,0:0:0:0:
331,95,175455,2,0,P|348:48|342:0,1,100,10|8,0:0|0:0,0:0:0:0:
106,183,175755,6,0,P|175:206|239:171,1,150,6|0,3:2|0:0,0:0:0:0:
146,0,176055,6,0,B|167:116|167:116|195:60,1,179.999994506836,6|0,3:2|0:0,0:0:0:0:
325,197,176355,6,0,B|344:53|344:53|304:103,1,209.999993591309,14|0,0:0|0:0,0:0:0:0:
205,316,176655,6,0,B|256:282|256:282|355:301|355:301|396:366,1,240,2|0,3:2|0:0,0:0:0:0:
127,381,176955,6,0,P|100:236|215:225,1,269.999991760254,6|0,3:2|0:0,0:0:0:0:
419,235,177255,6,0,B|506:172|506:172|280:129,1,300,14|0,0:0|0:0,0:0:0:0:
14,154,177555,5,8,0:0:0:0:
2,115,177630,1,0,3:0:0:0:
7,75,177705,1,0,3:0:0:0:
31,43,177780,1,0,3:0:0:0:
66,23,177855,1,0,3:0:0:0:
106,22,177930,1,0,3:0:0:0:
143,39,178005,1,0,3:0:0:0:
169,69,178080,1,0,3:0:0:0:
178,108,178155,5,12,0:0:0:0:
135,319,178305,1,0,3:0:0:0:
90,109,178455,1,0,3:0:0:0:
294,384,178605,5,12,0:0:0:0:
250,173,178755,1,0,3:0:0:0:
205,383,178905,1,0,3:0:0:0:
477,137,179055,5,12,0:0:0:0:
287,105,179205,1,8,0:0:0:0:
287,105,179280,1,8,0:0:0:0:
287,105,179355,5,8,0:3:0:0:
422,243,179505,1,8,0:3:0:0:
394,53,179655,1,8,0:3:0:0:
305,224,179805,1,8,0:3:0:0:
512,131,179955,5,4,0:3:0:0:
399,16,180105,1,4,0:3:0:0:
278,249,180255,1,4,0:3:0:0:
253,87,180405,1,4,0:3:0:0:
437,275,180555,5,4,3:2:0:0:
256,192,180630,12,0,182955,0:0:0:0:
338,156,185205,5,8,0:3:0:0:
342,167,185280,1,8,0:3:0:0:
347,179,185355,1,6,3:2:0:0:
347,179,187605,5,0,3:0:0:0:
199,223,187755,1,0,3:0:0:0:
199,223,188655,2,0,B|125:195|125:195|250:157,1,209.999993591309,2|0,0:0|0:0,0:0:0:0:
332,134,188955,6,0,L|342:73,7,50,14|8|8|8|8|8|8|8,0:3|0:3|0:3|0:3|0:3|0:3|0:3|0:3,0:0:0:0:
315,225,189555,5,4,0:3:0:0:
312,244,189705,1,4,0:3:0:0:
461,258,189855,5,12,0:1:0:0:
464,277,190005,1,0,3:0:0:0:
250,156,190155,5,12,0:0:0:0:
440,115,190305,1,0,3:0:0:0:
191,103,190455,1,0,3:0:0:0:
314,328,190605,5,12,0:1:0:0:
332,134,190755,1,0,3:0:0:0:
374,268,190905,1,0,3:0:0:0:
191,103,191055,6,0,L|60:117,1,100,12|0,0:0|3:0,0:0:0:0:
239,28,191355,1,0,3:0:0:0:
139,188,191505,6,0,L|270:202,1,100,12|0,0:1|3:0,0:0:0:0:
91,113,191805,1,0,3:0:0:0:
191,273,191955,5,12,0:1:0:0:
0,250,192105,1,0,3:0:0:0:
260,334,192255,5,12,0:1:0:0:
74,335,192405,1,0,3:0:0:0:
77,321,192480,1,0,3:0:0:0:
80,307,192555,5,12,0:0:0:0:
278,244,192705,1,0,3:0:0:0:
97,228,192855,1,0,3:0:0:0:
374,282,193005,5,12,0:1:0:0:
191,273,193155,1,0,3:0:0:0:
384,182,193305,1,0,3:0:0:0:
201,372,193455,6,0,L|187:241,1,100,12|0,0:0|3:0,0:0:0:0:
174,112,193755,1,0,3:0:0:0:
374,282,193905,6,0,L|388:151,1,100,12|0,0:1|3:0,0:0:0:0:
401,22,194205,1,0,3:0:0:0:
293,219,194355,5,12,0:1:0:0:
93,137,194505,1,0,3:0:0:0:
246,58,194655,1,8,0:3:0:0:
198,268,194805,1,4,0:3:0:0:
157,72,194955,5,12,0:0:0:0:
113,48,195030,1,0,3:0:0:0:
64,51,195105,1,0,3:0:0:0:
23,79,195180,1,0,3:0:0:0:
4,125,195255,2,0,P|3:149|11:173,1,50,0|0,3:0|3:0,0:0:0:0:
117,292,195405,5,8,0:0:0:0:
155,288,195480,1,0,3:0:0:0:
192,284,195555,1,0,3:0:0:0:
229,280,195630,1,0,3:0:0:0:
267,276,195705,2,0,L|283:228,1,50,0|0,3:0|3:0,0:0:0:0:
319,104,195855,1,8,0:0:0:0:
281,108,195930,1,0,3:0:0:0:
244,114,196005,2,0,L|228:162,1,50,0|0,3:0|3:0,0:0:0:0:
359,314,196155,5,4,3:2:0:0:
446,138,196305,2,0,L|397:149,1,50
295,22,196455,1,8,0:0:0:0:
295,22,196530,1,8,0:0:0:0:
295,22,196605,2,0,L|246:33,1,50,0|0,3:0|3:0,0:0:0:0:
66,64,196755,5,8,0:0:0:0:
36,94,196830,1,0,3:0:0:0:
26,136,196905,1,0,3:0:0:0:
39,177,196980,1,0,3:0:0:0:
72,205,197055,1,0,3:0:0:0:
115,211,197130,1,0,3:0:0:0:
155,194,197205,1,0,3:0:0:0:
180,159,197280,1,0,3:0:0:0:
183,116,197355,5,12,0:1:0:0:
8,292,197505,2,0,P|57:291|105:306,1,100,12|0,0:0|3:0,0:0:0:0:
172,349,197730,1,0,3:0:0:0:
192,364,197805,5,12,0:1:0:0:
255,72,197955,2,0,P|304:72|352:57,1,100,12|0,0:0|3:0,0:0:0:0:
419,15,198180,1,0,3:0:0:0:
439,0,198255,5,12,0:1:0:0:
507,354,198405,1,12,0:0:0:0:
507,354,199755,6,0,P|523:302|508:240,1,110.000003356934,6|0,3:2|3:0,0:0:0:0:
274,26,200055,2,0,P|262:79|279:130,1,110.000003356934,8|0,0:0|0:0,0:0:0:0:
429,299,200355,1,0,3:0:0:0:
362,74,200505,1,0,3:0:0:0:
238,234,200655,1,8,0:0:0:0:
58,49,200805,6,0,P|167:50|274:26,1,220.000006713867,0|0,3:0|3:0,0:0:0:0:
512,172,201255,2,0,P|461:151|406:146,1,110.000003356934,10|0,0:0|0:0,0:0:0:0:
248,369,201555,2,0,P|291:335|323:290,1,110.000003356934,2|0,3:2|3:0,0:0:0:0:
209,41,201855,2,0,P|216:95|239:145,1,110.000003356934,10|0,0:0|0:0,0:0:0:0:
487,88,202155,6,0,B|444:49|444:49|337:64,1,165.000005035401,2|0,3:2|0:0,0:0:0:0:
311,68,202455,1,10,0:0:0:0:
400,252,202605,2,0,B|415:144,1,110.000003356934,2|0,0:0|3:0,0:0:0:0:
193,244,202905,2,0,B|208:352,1,110.000003356934,2|8,3:2|0:0,0:0:0:0:
180,35,203205,6,0,P|94:38|54:176,1,220.000006713867,2|0,3:2|3:0,0:0:0:0:
98,358,203655,2,0,L|207:352,1,110.000003356934,10|0,0:1|0:0,0:0:0:0:
348,171,203955,1,2,3:2:0:0:
184,163,204105,1,0,3:0:0:0:
184,163,204180,1,0,3:0:0:0:
184,163,204255,2,0,L|381:173,1,165.000005035401,14|0,0:1|0:0,0:0:0:0:
426,126,204555,6,0,B|445:178|445:178|420:226,1,110.000003356934,6|0,3:2|3:0,0:0:0:0:
271,216,204855,2,0,B|251:163|251:163|276:115,1,110.000003356934,10|0,0:0|0:0,0:0:0:0:
496,263,205155,5,2,3:2:0:0:
348,171,205305,1,2,3:2:0:0:
501,80,205455,2,0,B|520:132|520:132|495:180,1,110.000003356934,10|0,0:0|3:0,0:0:0:0:
275,115,205755,5,2,0:0:0:0:
426,126,205905,1,2,3:2:0:0:
204,165,206055,2,0,B|184:112|184:112|209:64,1,110.000003356934,10|0,0:0|0:0,0:0:0:0:
340,270,206355,5,2,3:2:0:0:
204,165,206505,1,2,3:2:0:0:
354,70,206655,2,0,B|373:122|373:122|348:170,1,110.000003356934,10|0,0:0|0:0,0:0:0:0:
81,289,206955,6,0,L|59:165,1,110.000003356934,2|0,3:2|3:0,0:0:0:0:
247,241,207255,1,10,0:0:0:0:
143,348,207405,2,0,B|120:372|120:372|43:366,1,110.000003356934,2|0,0:0|3:0,0:0:0:0:
204,165,207705,2,0,B|280:159|280:159|303:183,1,110.000003356934,2|8,3:2|0:0,0:0:0:0:
482,306,208005,6,0,B|451:351|451:351|322:332,1,165.000005035401,6|0,3:2|0:0,0:0:0:0:
314,328,208305,1,2,3:2:0:0:
204,165,208455,1,10,0:0:0:0:
153,327,208605,1,2,3:2:0:0:
11,193,208755,6,0,L|66:184,1,55.0000016784668,10|8,0:0|0:0,0:0:0:0:
81,316,208905,2,0,L|135:325,1,55.0000016784668,10|8,0:0|0:0,0:0:0:0:
344,153,209055,1,10,0:0:0:0:
312,128,209130,1,8,0:0:0:0:
271,122,209205,1,8,0:0:0:0:
233,135,209280,1,8,0:0:0:0:
204,165,209355,6,0,L|218:275,1,110.000003356934,6|0,3:2|3:0,0:0:0:0:
424,109,209655,2,0,L|438:-1,1,110.000003356934,8|0,0:0|0:0,0:0:0:0:
260,44,209955,1,0,3:0:0:0:
365,265,210105,1,0,3:0:0:0:
511,138,210255,1,8,0:0:0:0:
512,384,210405,6,0,P|404:359|295:360,1,220.000006713867,0|0,3:0|3:0,0:0:0:0:
40,313,210855,2,0,P|61:262|96:219,1,110.000003356934,10|0,0:0|0:0,0:0:0:0:
365,265,211155,2,0,P|310:271|256:262,1,110.000003356934,2|0,3:2|3:0,0:0:0:0:
161,6,211455,2,0,P|194:49|213:100,1,110.000003356934,10|0,0:0|0:0,0:0:0:0:
5,194,211755,6,0,P|73:149|154:151,1,165.000005035401,2|0,3:2|0:0,0:0:0:0:
183,175,212055,1,10,0:0:0:0:
355,110,212205,2,0,L|346:0,1,110.000003356934,2|0,0:0|3:0,0:0:0:0:
183,175,212505,2,0,L|191:284,1,110.000003356934,2|8,3:2|0:0,0:0:0:0:
497,206,212805,6,0,L|268:191,1,220.000006713867,2|0,3:2|3:0,0:0:0:0:
140,29,213255,2,0,L|249:21,1,110.000003356934,10|0,0:0|0:0,0:0:0:0:
355,150,213555,1,2,3:2:0:0:
502,0,213705,1,0,3:0:0:0:
507,28,213780,1,0,3:0:0:0:
511,56,213855,2,0,P|454:108|388:67,1,165.000005035401,14|0,0:1|0:0,0:0:0:0:
289,96,214155,6,0,B|332:64|332:64|389:68,1,110.000003356934,6|0,3:2|3:0,0:0:0:0:
426,203,214455,2,0,B|382:236|382:236|327:232,1,110.000003356934,10|0,0:0|0:0,0:0:0:0:
189,124,214755,5,2,3:2:0:0:
228,261,214905,1,2,3:2:0:0:
120,71,215055,2,0,B|164:38|164:38|219:42,1,110.000003356934,10|0,0:0|3:0,0:0:0:0:
394,287,215355,5,2,0:0:0:0:
355,150,215505,1,2,3:2:0:0:
228,261,215655,1,10,0:0:0:0:
189,124,215805,1,2,0:0:0:0:
394,287,215955,5,2,3:2:0:0:
355,150,216105,1,2,3:2:0:0:
363,367,216255,2,0,B|418:371|418:371|462:338,1,110.000003356934,10|0,0:0|3:0,0:0:0:0:
355,150,216555,5,2,3:2:0:0:
216,207,216705,1,8,0:0:0:0:
216,207,216780,1,8,0:0:0:0:
216,207,216855,2,0,L|228:260,1,55.0000016784668,10|8,0:2|0:0,0:0:0:0:
241,348,217005,2,0,P|213:347|188:336,3,55.0000016784668,2|0|8|0,3:2|3:0|0:0|3:0,0:0:0:0:
360,276,217305,2,0,P|332:276|307:287,3,55.0000016784668,2|0|8|0,3:2|3:0|0:0|3:0,0:0:0:0:
498,229,217605,5,10,0:2:0:0:
499,192,217680,1,8,0:0:0:0:
485,159,217755,1,0,3:0:0:0:
458,134,217830,1,0,3:0:0:0:
423,124,217905,2,0,P|395:123|369:131,1,55.0000016784668
301,180,218055,1,10,0:2:0:0:
296,189,218130,1,8,0:0:0:0:
291,199,218205,2,0,P|264:199|237:192,1,55.0000016784668,0|0,3:0|3:0,0:0:0:0:
150,21,218355,5,10,0:2:0:0:
167,42,218430,1,0,3:0:0:0:
184,63,218505,2,0,L|174:120,1,55.0000016784668,0|0,3:0|3:0,0:0:0:0:
78,156,218655,1,10,0:2:0:0:
61,177,218730,1,0,3:0:0:0:
44,198,218805,2,0,L|54:255,1,55.0000016784668,0|0,3:0|3:0,0:0:0:0:
231,351,218955,5,12,0:0:0:0:
251,359,219255,1,8,0:0:0:0:
129,222,219405,1,0,3:0:0:0:
338,384,219555,5,10,0:0:0:0:
139,323,219705,1,0,3:0:0:0:
394,240,219855,1,8,0:0:0:0:
251,359,220005,1,0,3:0:0:0:
283,125,220155,5,10,0:0:0:0:
454,304,220305,1,0,3:0:0:0:
217,282,220455,1,8,0:0:0:0:
416,164,220605,1,0,3:0:0:0:
208,30,220755,5,10,0:0:0:0:
251,202,220905,1,0,3:0:0:0:
390,47,221055,1,8,0:0:0:0:
434,271,221205,1,0,3:0:0:0:
434,271,221280,1,0,3:0:0:0:
434,271,221355,6,0,P|372:236|302:212,1,110.000003356934,14|0,0:1|3:0,0:0:0:0:
71,213,221655,1,8,0:0:0:0:
266,303,221805,1,0,3:0:0:0:
59,335,221955,6,0,P|106:307|157:285,1,110.000003356934,10|0,0:0|3:0,0:0:0:0:
338,380,222255,1,8,0:0:0:0:
261,212,222405,1,0,3:0:0:0:
261,212,222480,1,0,3:0:0:0:
261,212,222555,6,0,L|250:95,1,110.000003356934,10|0,0:0|3:0,0:0:0:0:
452,259,222855,2,0,L|441:368,1,110.000003356934,8|0,0:0|3:0,0:0:0:0:
266,303,223155,1,10,0:2:0:0:
460,173,223305,1,0,3:0:0:0:
343,355,223455,2,0,P|265:333|186:352,1,165.000005035401,12|0,0:1|0:0,0:0:0:0:
84,384,223755,6,0,P|102:332|112:278,1,110.000003356934,6|0,3:2|3:0,0:0:0:0:
339,156,224055,2,0,P|348:210|367:261,1,110.000003356934,10|0,0:0|3:0,0:0:0:0:
184,208,224355,2,0,L|76:185,1,110.000003356934,2|0,3:2|3:0,0:0:0:0:
343,355,224655,2,0,L|450:332,1,110.000003356934,10|0,0:0|3:0,0:0:0:0:
409,97,224955,5,10,0:0:0:0:
367,261,225105,1,0,3:0:0:0:
302,15,225255,5,10,0:0:0:0:
260,179,225405,1,0,3:0:0:0:
30,56,225555,5,8,0:0:0:0:
63,42,225655,1,8,0:0:0:0:
100,44,225755,1,8,0:3:0:0:
132,61,225855,5,8,0:3:0:0:
153,91,225955,1,4,0:3:0:0:
160,126,226055,1,4,0:3:0:0:
151,162,226155,5,4,3:2:0:0:
46,247,226305,2,0,B|89:195|89:195|237:217,1,200,0|0,3:0|0:0,0:0:0:0:
454,269,226755,2,0,P|322:251|319:384,1,300,10|0,0:0|0:0,0:0:0:0:
415,360,227355,5,2,3:2:0:0:
492,177,227505,2,0,P|401:137|302:151,1,200,0|0,3:0|0:0,0:0:0:0:
116,101,227955,2,0,B|173:19|173:19|224:232,1,300,10|0,0:0|0:0,0:0:0:0:
284,51,228555,5,2,3:2:0:0:
126,194,228705,2,0,B|58:194|1:167|1:167|33:194|47:220,1,200,0|0,3:0|0:0,0:0:0:0:
35,338,229155,2,0,P|135:292|328:365,1,300,10|0,0:0|0:0,0:0:0:0:
415,313,229755,5,10,0:0:0:0:
449,286,229830,1,8,0:0:0:0:
465,246,229905,1,0,3:0:0:0:
458,203,229980,1,0,3:0:0:0:
430,170,230055,1,8,0:3:0:0:
390,155,230130,1,8,0:3:0:0:
347,163,230205,1,0,3:0:0:0:
315,191,230280,1,0,3:0:0:0:
301,232,230355,5,6,0:3:0:0:
285,221,230430,1,4,0:3:0:0:
269,212,230505,1,0,3:0:0:0:
251,204,230580,1,0,3:0:0:0:
234,198,230655,1,0,3:0:0:0:
215,194,230730,1,0,3:0:0:0:
197,192,230805,1,0,3:0:0:0:
178,191,230880,1,0,3:0:0:0:
159,192,230955,6,0,B|109:215|109:215|60:79|60:79|158:95,1,300,4|0,3:2|3:0,0:0:0:0:
182,102,231480,1,0,3:0:0:0:
206,107,231555,6,0,B|272:96|272:96|282:64,1,100.000003814697,10|0,0:0|0:0,0:0:0:0:
395,0,231755,2,0,B|371:62|371:62|393:87,1,100.000003814697,10|0,0:0|0:0,0:0:0:0:
393,217,231955,2,0,B|350:165|350:165|317:171,1,100.000003814697,10|0,0:0|0:0,0:0:0:0:
209,19,232155,5,4,3:1:0:0:
209,19,232755,2,0,B|258:78|258:78|93:37,1,225.000008583069,0|0,0:0|0:0,0:0:0:0:
0,199,233355,5,12,0:0:0:0:
337,103,233505,1,2,3:2:0:0:
31,22,233655,1,2,3:2:0:0:
261,294,233805,5,12,0:1:0:0:
188,99,233955,1,0,3:2:0:0:
31,273,234105,1,0,3:2:0:0:
291,218,234255,5,12,0:0:0:0:
87,201,234405,1,0,3:2:0:0:
230,368,234555,1,0,3:2:0:0:
214,175,234705,5,12,0:1:0:0:
178,308,234855,1,0,3:2:0:0:
364,257,235005,1,0,3:2:0:0:
230,91,235155,5,8,0:0:0:0:
240,257,235305,1,0,3:2:0:0:
386,88,235455,5,8,0:2:0:0:
368,229,235605,1,0,3:0:0:0:
366,243,235680,1,0,3:2:0:0:
364,257,235755,5,12,0:0:0:0:
181,30,235905,1,0,3:2:0:0:
460,0,236055,1,0,3:2:0:0:
256,233,236205,5,12,0:1:0:0:
342,13,236355,1,0,3:2:0:0:
480,196,236505,1,0,3:2:0:0:
265,69,236655,5,12,0:0:0:0:
497,294,236805,1,0,3:2:0:0:
163,211,236955,1,0,3:2:0:0:
469,114,237105,5,12,0:1:0:0:
190,294,237255,1,0,3:2:0:0:
211,0,237405,1,0,3:2:0:0:
256,233,237555,5,8,0:0:0:0:
35,169,237705,1,0,3:2:0:0:
177,90,237855,1,8,0:3:0:0:
113,311,238005,1,4,0:3:0:0:
409,284,238155,5,12,0:0:0:0:
265,69,238305,1,0,3:2:0:0:
210,379,238455,1,0,3:2:0:0:
489,240,238605,5,12,0:1:0:0:
314,145,238755,1,0,3:2:0:0:
388,374,238905,1,0,3:2:0:0:
398,104,239055,5,12,0:0:0:0:
240,181,239205,1,0,3:2:0:0:
489,240,239355,1,0,3:2:0:0:
353,24,239505,5,12,0:1:0:0:
396,185,239655,1,0,3:2:0:0:
508,45,239805,1,0,3:2:0:0:
266,7,239955,5,8,0:0:0:0:
454,115,240105,1,0,3:2:0:0:
222,113,240255,1,8,0:0:0:0:
415,37,240405,5,0,3:0:0:0:
429,32,240480,1,0,3:0:0:0:
443,28,240555,2,0,L|491:40,5,50,8|8|8|8|0|0,0:0|0:0|0:0|0:0|3:0|3:0,0:0:0:0:
372,164,241005,1,8,0:3:0:0:
358,159,241080,1,8,0:3:0:0:
344,155,241155,2,0,L|295:167,5,50,4|4|0|0|8|8,0:3|0:3|3:0|3:0|0:0|0:0,0:0:0:0:
398,299,241605,5,8,0:0:0:0:
411,277,241680,1,8,0:0:0:0:
426,257,241755,1,0,3:0:0:0:
444,240,241830,1,0,3:0:0:0:
464,225,241905,1,8,0:3:0:0:
487,215,241980,1,8,0:3:0:0:
512,207,242055,5,0,3:0:0:0:
470,232,242130,1,0,3:0:0:0:
421,238,242205,1,0,3:0:0:0:
374,223,242280,1,0,3:0:0:0:
337,189,242355,1,0,3:0:0:0:
298,135,242430,1,0,3:0:0:0:
236,111,242505,1,0,3:0:0:0:
170,123,242580,1,0,3:0:0:0:
121,167,242655,1,0,3:0:0:0:
101,231,242730,1,0,3:0:0:0:
118,295,242805,1,0,3:0:0:0:
167,341,242880,1,0,3:0:0:0:
231,354,242955,6,0,B|248:337|248:337|302:332|302:332|323:343|323:343|370:338,1,150,6|0,3:2|0:0,0:0:0:0:
446,333,243255,5,8,0:0:0:0:
402,82,243405,1,0,3:2:0:0:
229,232,243555,5,8,0:0:0:0:
329,13,243705,1,0,3:0:0:0:
395,264,243855,5,8,0:0:0:0:
252,55,244005,1,0,3:0:0:0:
242,43,244080,1,0,3:0:0:0:
233,29,244155,5,8,0:0:0:0:
81,280,244305,1,0,3:0:0:0:
139,26,244455,5,8,0:0:0:0:
238,249,244605,1,0,3:0:0:0:
47,22,244755,5,8,0:0:0:0:
0,304,244905,1,0,3:0:0:0:
189,103,245055,5,8,0:0:0:0:
346,350,245205,1,0,3:0:0:0:
354,362,245280,1,0,3:0:0:0:
362,374,245355,5,12,0:1:0:0:
83,280,245505,1,0,3:0:0:0:
396,213,245655,5,8,0:0:0:0:
138,122,245805,1,0,3:0:0:0:
455,68,245955,5,8,0:0:0:0:
217,152,246105,1,0,3:0:0:0:
472,250,246255,5,8,0:0:0:0:
220,317,246405,1,0,3:0:0:0:
205,321,246480,1,0,3:0:0:0:
191,326,246555,5,8,0:0:0:0:
409,195,246705,1,0,3:0:0:0:
146,202,246855,5,8,0:0:0:0:
384,275,247005,1,0,3:0:0:0:
110,352,247155,5,12,0:1:0:0:
435,121,247305,1,0,3:0:0:0:
81,104,247455,5,12,0:1:0:0:
457,316,247605,1,0,3:0:0:0:
495,46,247755,5,8,3:2:0:0:
473,34,247830,1,0,3:0:0:0:
449,27,247905,1,0,3:0:0:0:
424,26,247980,1,0,3:0:0:0:
400,32,248055,1,8,3:2:0:0:
378,44,248130,1,0,3:0:0:0:
361,62,248205,1,0,3:0:0:0:
348,83,248280,1,0,3:0:0:0:
341,107,248355,1,8,3:2:0:0:
341,132,248430,1,0,3:0:0:0:
347,156,248505,1,0,3:0:0:0:
360,178,248580,1,0,3:0:0:0:
377,195,248655,5,8,3:2:0:0:
353,178,248730,1,0,3:0:0:0:
325,167,248805,1,0,3:0:0:0:
295,162,248880,1,0,3:0:0:0:
265,163,248955,1,8,3:2:0:0:
236,172,249030,1,0,3:0:0:0:
210,185,249105,1,0,3:0:0:0:
177,199,249180,1,0,3:0:0:0:
142,210,249255,1,8,3:2:0:0:
106,211,249330,1,0,3:0:0:0:
70,205,249405,1,0,3:0:0:0:
38,189,249480,1,0,3:0:0:0:
21,158,249555,5,8,3:2:0:0:
13,121,249630,1,0,3:0:0:0:
23,85,249705,1,0,3:0:0:0:
49,59,249780,1,0,3:0:0:0:
84,47,249855,1,8,3:2:0:0:
121,54,249930,1,0,3:0:0:0:
150,77,250005,2,0,P|160:105|163:145,1,50,0|0,3:0|3:0,0:0:0:0:
88,295,250155,5,12,3:2:0:0:
112,298,250230,1,0,3:0:0:0:
136,302,250305,1,0,3:0:0:0:
162,306,250380,1,0,3:0:0:0:
186,310,250455,2,0,L|213:268,1,50,0|0,3:2|3:0,0:0:0:0:
457,93,250605,5,12,3:1:0:0:
423,89,250680,1,0,3:0:0:0:
389,84,250755,1,0,3:2:0:0:
354,78,250830,1,0,3:0:0:0:
320,72,250905,2,0,L|281:131,1,50,0|0,3:0|3:0,0:0:0:0:
361,351,251055,5,12,3:2:0:0:
391,328,251130,1,0,3:0:0:0:
409,295,251205,1,0,3:0:0:0:
415,259,251280,1,0,3:0:0:0:
405,221,251355,2,0,P|391:201|371:187,1,50,0|0,3:0|3:0,0:0:0:0:
135,27,251505,5,12,3:1:0:0:
90,49,251580,1,0,3:0:0:0:
62,89,251655,1,0,3:2:0:0:
58,139,251730,1,0,3:0:0:0:
78,184,251805,2,0,P|96:201|119:209,1,50,0|0,3:0|3:0,0:0:0:0:
464,38,251955,6,2,B|458:30|458:30|450:68|450:68|443:69|443:69|430:120|430:120|426:110,1,119.999996337891,8|0,0:0|0:0,0:1:0:0:
307,79,252180,6,2,B|298:67|298:67|285:124|285:124|275:126|275:126|256:203|256:203|250:187,1,179.999994506836,8|0,0:0|0:0,0:1:0:0:
151,120,252405,6,2,B|139:104|139:104|122:180|122:180|109:182|109:182|83:285|83:285|75:264,1,239.999992675781,8|0,0:0|0:0,0:1:0:0:
