osu file format v14

[General]
AudioFilename: audio.ogg
AudioLeadIn: 0
PreviewTime: 54868
Countdown: 0
SampleSet: Soft
StackLeniency: 0.7
Mode: 3
LetterboxInBreaks: 0
SpecialStyle: 0
WidescreenStoryboard: 1

[Editor]
DistanceSpacing: 0.8
BeatDivisor: 4
GridSize: 4
TimelineZoom: 2.8

[Metadata]
Title:Shouted Serenade (TV Size)
TitleUnicode:Shouted Serenade (TV Size)
Artist:LiSA
ArtistUnicode:LiSA
Creator:Savageeeee
Version:Normal
Source:魔法科高校の劣等生
Tags:darkebluu mahouka koukou no rettousei gekijouhan the irregular at magic high school opening 3 3rd third 3期 season anime japanese jrock rock j-rock horie shota shouta 堀江晶太 Tomoya Tabuchi 田淵智也
BeatmapID:4568146
BeatmapSetID:2165501

[Difficulty]
HPDrainRate:7
CircleSize:4
OverallDifficulty:7
ApproachRate:5
SliderMultiplier:1.4
SliderTickRate:1

[Events]
//Background and Video events
0,0,"bg.jpg",0,0
Video,0,"video.avi"
//Break Periods
//Storyboard Layer 0 (Background)
//Storyboard Layer 1 (Fail)
//Storyboard Layer 2 (Pass)
//Storyboard Layer 3 (Foreground)
//Storyboard Layer 4 (Overlay)
//Storyboard Sound Samples

[TimingPoints]
561,312.5,4,2,1,50,1,0
55561,-100,4,2,1,50,0,1
78217,-100,4,2,1,50,0,0

[HitObjects]
448,192,92,5,0,0:0:0:0:
64,192,248,1,0,0:0:0:0:
320,192,404,1,0,0:0:0:0:
192,192,561,128,0,717:0:0:0:0:
448,192,717,128,0,873:0:0:0:0:
64,192,873,128,0,1029:0:0:0:0:
320,192,1029,128,0,1186:0:0:0:0:
192,192,1342,128,0,1498:0:0:0:0:
320,192,1498,128,0,1654:0:0:0:0:
448,192,1654,128,0,1811:0:0:0:0:
448,192,1967,128,0,2123:0:0:0:0:
64,192,2123,128,0,2279:0:0:0:0:
320,192,2279,128,0,2436:0:0:0:0:
192,192,2436,128,0,2592:0:0:0:0:
448,192,2592,128,0,2904:0:0:0:0:
320,192,2904,1,0,0:0:0:0:
192,192,3061,1,0,0:0:0:0:
64,192,3061,128,0,3373:0:0:0:0:
448,192,3373,1,0,0:0:0:0:
64,192,3529,1,0,0:0:0:0:
320,192,3529,1,0,0:0:0:0:
192,192,3686,1,0,0:0:0:0:
448,192,3842,1,0,0:0:0:0:
320,192,3842,1,0,0:0:0:0:
192,192,3998,1,0,0:0:0:0:
448,192,4154,1,0,0:0:0:0:
64,192,4154,1,0,0:0:0:0:
320,192,4311,1,0,0:0:0:0:
192,192,4389,1,0,0:0:0:0:
64,192,4467,1,0,0:0:0:0:
448,192,4467,1,0,0:0:0:0:
320,192,4779,1,0,0:0:0:0:
64,192,5092,1,0,0:0:0:0:
192,192,5248,1,0,0:0:0:0:
320,192,5404,1,0,0:0:0:0:
64,192,5561,1,0,0:0:0:0:
448,192,5561,1,0,0:0:0:0:
320,192,5873,1,0,0:0:0:0:
64,192,6029,1,0,0:0:0:0:
448,192,6186,1,0,0:0:0:0:
320,192,6264,1,0,0:0:0:0:
192,192,6342,1,0,0:0:0:0:
192,192,6654,1,0,0:0:0:0:
320,192,6967,1,0,0:0:0:0:
320,192,7279,1,0,0:0:0:0:
64,192,7592,1,0,0:0:0:0:
64,192,7748,1,0,0:0:0:0:
448,192,8061,1,0,0:0:0:0:
64,192,8217,1,0,0:0:0:0:
448,192,8217,1,0,0:0:0:0:
192,192,8451,1,0,0:0:0:0:
320,192,8529,1,0,0:0:0:0:
192,192,8686,1,0,0:0:0:0:
448,192,8842,1,0,0:0:0:0:
64,192,8920,1,0,0:0:0:0:
192,192,9154,1,0,0:0:0:0:
320,192,9154,1,0,0:0:0:0:
64,192,9467,1,0,0:0:0:0:
448,192,9467,1,0,0:0:0:0:
192,192,9701,1,0,0:0:0:0:
320,192,9701,1,0,0:0:0:0:
64,192,9936,1,0,0:0:0:0:
448,192,9936,1,0,0:0:0:0:
320,192,10092,1,0,0:0:0:0:
192,192,10248,1,0,0:0:0:0:
64,192,10404,1,0,0:0:0:0:
64,192,10717,1,0,0:0:0:0:
448,192,10717,1,0,0:0:0:0:
320,192,10873,1,0,0:0:0:0:
192,192,11029,1,0,0:0:0:0:
64,192,11029,1,0,0:0:0:0:
448,192,11186,1,0,0:0:0:0:
64,192,11342,1,0,0:0:0:0:
320,192,11498,1,0,0:0:0:0:
448,192,11654,1,0,0:0:0:0:
192,192,11654,1,0,0:0:0:0:
64,192,11811,1,0,0:0:0:0:
320,192,11967,1,0,0:0:0:0:
192,192,12123,1,0,0:0:0:0:
320,192,12279,1,0,0:0:0:0:
448,192,12279,1,0,0:0:0:0:
64,192,12436,1,0,0:0:0:0:
192,192,12592,1,0,0:0:0:0:
320,192,12748,1,0,0:0:0:0:
64,192,12904,1,0,0:0:0:0:
448,192,12904,1,0,0:0:0:0:
320,192,13217,1,0,0:0:0:0:
192,192,13373,1,0,0:0:0:0:
448,192,13529,1,0,0:0:0:0:
320,192,13529,1,0,0:0:0:0:
64,192,13686,1,0,0:0:0:0:
192,192,13842,1,0,0:0:0:0:
448,192,13998,1,0,0:0:0:0:
64,192,14154,1,0,0:0:0:0:
192,192,14154,1,0,0:0:0:0:
320,192,14311,1,0,0:0:0:0:
448,192,14467,1,0,0:0:0:0:
192,192,14623,1,0,0:0:0:0:
448,192,14779,1,0,0:0:0:0:
64,192,14779,1,0,0:0:0:0:
320,192,14936,1,0,0:0:0:0:
64,192,15092,1,0,0:0:0:0:
192,192,15170,1,0,0:0:0:0:
320,192,15248,1,0,0:0:0:0:
192,192,15404,1,0,0:0:0:0:
448,192,15561,1,0,0:0:0:0:
64,192,15561,1,0,0:0:0:0:
320,192,15717,1,0,0:0:0:0:
192,192,15873,1,0,0:0:0:0:
320,192,16029,1,0,0:0:0:0:
64,192,16342,1,0,0:0:0:0:
448,192,16498,1,0,0:0:0:0:
64,192,16654,1,0,0:0:0:0:
320,192,16811,1,0,0:0:0:0:
192,192,16967,1,0,0:0:0:0:
448,192,17123,1,0,0:0:0:0:
192,192,17279,1,0,0:0:0:0:
320,192,17436,1,0,0:0:0:0:
64,192,17592,1,0,0:0:0:0:
64,192,17748,1,0,0:0:0:0:
448,192,18061,1,0,0:0:0:0:
192,192,18217,1,0,0:0:0:0:
320,192,18373,1,0,0:0:0:0:
64,192,18529,1,0,0:0:0:0:
192,192,18686,1,0,0:0:0:0:
448,192,18842,1,0,0:0:0:0:
448,192,19154,1,0,0:0:0:0:
64,192,19311,1,0,0:0:0:0:
320,192,19467,1,0,0:0:0:0:
192,192,19623,1,0,0:0:0:0:
320,192,19779,1,0,0:0:0:0:
64,192,19936,1,0,0:0:0:0:
448,192,20092,1,0,0:0:0:0:
448,192,20248,1,0,0:0:0:0:
64,192,20404,1,0,0:0:0:0:
320,192,20561,1,0,0:0:0:0:
192,192,20873,1,0,0:0:0:0:
448,192,21029,1,0,0:0:0:0:
64,192,21342,1,0,0:0:0:0:
320,192,21498,1,0,0:0:0:0:
64,192,21654,1,0,0:0:0:0:
320,192,21967,1,0,0:0:0:0:
192,192,22123,1,0,0:0:0:0:
320,192,22279,1,0,0:0:0:0:
64,192,22436,1,0,0:0:0:0:
448,192,22592,1,0,0:0:0:0:
192,192,22592,1,0,0:0:0:0:
320,192,22748,1,0,0:0:0:0:
192,192,22826,1,0,0:0:0:0:
64,192,22904,1,0,0:0:0:0:
448,192,23061,1,0,0:0:0:0:
320,192,23061,1,0,0:0:0:0:
192,192,23373,1,0,0:0:0:0:
64,192,23529,1,0,0:0:0:0:
448,192,23529,1,0,0:0:0:0:
192,192,23842,1,0,0:0:0:0:
448,192,23998,1,0,0:0:0:0:
320,192,24154,1,0,0:0:0:0:
192,192,24311,1,0,0:0:0:0:
64,192,24311,1,0,0:0:0:0:
448,192,24623,1,0,0:0:0:0:
64,192,24779,1,0,0:0:0:0:
192,192,24936,1,0,0:0:0:0:
320,192,25092,1,0,0:0:0:0:
448,192,25248,1,0,0:0:0:0:
64,192,25561,1,0,0:0:0:0:
448,192,25561,1,0,0:0:0:0:
320,192,25873,1,0,0:0:0:0:
192,192,26029,1,0,0:0:0:0:
64,192,26029,1,0,0:0:0:0:
448,192,26342,1,0,0:0:0:0:
192,192,26498,1,0,0:0:0:0:
320,192,26654,1,0,0:0:0:0:
448,192,26654,1,0,0:0:0:0:
64,192,26811,1,0,0:0:0:0:
192,192,26967,1,0,0:0:0:0:
448,192,27123,1,0,0:0:0:0:
192,192,27279,1,0,0:0:0:0:
64,192,27279,1,0,0:0:0:0:
320,192,27436,1,0,0:0:0:0:
448,192,27592,1,0,0:0:0:0:
64,192,27748,1,0,0:0:0:0:
320,192,27904,1,0,0:0:0:0:
448,192,27904,1,0,0:0:0:0:
192,192,28061,1,0,0:0:0:0:
320,192,28217,1,0,0:0:0:0:
64,192,28373,1,0,0:0:0:0:
192,192,28529,1,0,0:0:0:0:
448,192,28529,1,0,0:0:0:0:
320,192,28686,1,0,0:0:0:0:
64,192,28842,1,0,0:0:0:0:
448,192,28998,1,0,0:0:0:0:
64,192,29154,1,0,0:0:0:0:
192,192,29154,1,0,0:0:0:0:
320,192,29311,1,0,0:0:0:0:
448,192,29467,1,0,0:0:0:0:
192,192,29623,1,0,0:0:0:0:
448,192,29779,1,0,0:0:0:0:
320,192,29779,1,0,0:0:0:0:
64,192,29936,1,0,0:0:0:0:
192,192,30092,1,0,0:0:0:0:
320,192,30092,1,0,0:0:0:0:
64,192,30248,1,0,0:0:0:0:
448,192,30248,1,0,0:0:0:0:
192,192,30561,1,0,0:0:0:0:
320,192,30561,1,0,0:0:0:0:
64,192,30717,1,0,0:0:0:0:
448,192,30873,1,0,0:0:0:0:
192,192,31029,1,0,0:0:0:0:
64,192,31029,1,0,0:0:0:0:
320,192,31342,1,0,0:0:0:0:
192,192,31498,1,0,0:0:0:0:
320,192,31654,1,0,0:0:0:0:
448,192,31654,1,0,0:0:0:0:
64,192,31967,1,0,0:0:0:0:
448,192,32123,1,0,0:0:0:0:
192,192,32279,1,0,0:0:0:0:
64,192,32279,1,0,0:0:0:0:
320,192,32436,1,0,0:0:0:0:
192,192,32592,1,0,0:0:0:0:
448,192,32748,1,0,0:0:0:0:
320,192,32904,1,0,0:0:0:0:
64,192,32904,1,0,0:0:0:0:
192,192,33061,1,0,0:0:0:0:
448,192,33061,1,0,0:0:0:0:
320,192,33373,1,0,0:0:0:0:
192,192,33529,1,0,0:0:0:0:
64,192,33529,1,0,0:0:0:0:
448,192,33686,1,0,0:0:0:0:
64,192,33842,1,0,0:0:0:0:
320,192,33842,1,0,0:0:0:0:
192,192,33998,1,0,0:0:0:0:
320,192,34154,1,0,0:0:0:0:
448,192,34154,1,0,0:0:0:0:
64,192,34311,1,0,0:0:0:0:
192,192,34311,1,0,0:0:0:0:
320,192,34623,1,0,0:0:0:0:
64,192,34779,1,0,0:0:0:0:
448,192,34779,1,0,0:0:0:0:
192,192,34936,1,0,0:0:0:0:
320,192,35014,1,0,0:0:0:0:
448,192,35092,1,0,0:0:0:0:
320,192,35248,1,0,0:0:0:0:
192,192,35404,1,0,0:0:0:0:
448,192,35561,1,0,0:0:0:0:
64,192,35561,128,0,35873:0:0:0:0:
320,192,35873,1,0,0:0:0:0:
192,192,36029,1,0,0:0:0:0:
192,192,36186,1,0,0:0:0:0:
448,192,36342,1,0,0:0:0:0:
320,192,36498,1,0,0:0:0:0:
192,192,36654,1,0,0:0:0:0:
64,192,36654,1,0,0:0:0:0:
448,192,36811,128,0,37123:0:0:0:0:
192,192,37123,1,0,0:0:0:0:
320,192,37279,1,0,0:0:0:0:
320,192,37436,1,0,0:0:0:0:
64,192,37592,1,0,0:0:0:0:
192,192,37748,1,0,0:0:0:0:
320,192,37904,1,0,0:0:0:0:
448,192,37904,1,0,0:0:0:0:
64,192,38061,128,0,38373:0:0:0:0:
448,192,38373,1,0,0:0:0:0:
192,192,38529,1,0,0:0:0:0:
192,192,38686,1,0,0:0:0:0:
320,192,38842,1,0,0:0:0:0:
64,192,38998,1,0,0:0:0:0:
320,192,39154,1,0,0:0:0:0:
448,192,39154,1,0,0:0:0:0:
192,192,39311,128,0,39623:0:0:0:0:
64,192,39623,1,0,0:0:0:0:
320,192,39779,1,0,0:0:0:0:
320,192,39936,1,0,0:0:0:0:
192,192,40092,1,0,0:0:0:0:
448,192,40248,1,0,0:0:0:0:
192,192,40404,1,0,0:0:0:0:
64,192,40404,1,0,0:0:0:0:
320,192,40561,128,0,40873:0:0:0:0:
64,192,40873,1,0,0:0:0:0:
448,192,41029,1,0,0:0:0:0:
448,192,41186,1,0,0:0:0:0:
192,192,41342,1,0,0:0:0:0:
320,192,41498,1,0,0:0:0:0:
64,192,41654,1,0,0:0:0:0:
192,192,41654,1,0,0:0:0:0:
448,192,41811,128,0,42123:0:0:0:0:
320,192,42123,1,0,0:0:0:0:
64,192,42279,1,0,0:0:0:0:
64,192,42436,1,0,0:0:0:0:
448,192,42592,1,0,0:0:0:0:
192,192,42748,1,0,0:0:0:0:
320,192,42904,1,0,0:0:0:0:
448,192,42904,1,0,0:0:0:0:
64,192,43061,128,0,43373:0:0:0:0:
320,192,43373,1,0,0:0:0:0:
192,192,43529,1,0,0:0:0:0:
192,192,43686,1,0,0:0:0:0:
448,192,43842,1,0,0:0:0:0:
320,192,43998,1,0,0:0:0:0:
192,192,44154,1,0,0:0:0:0:
64,192,44154,1,0,0:0:0:0:
320,192,44311,1,0,0:0:0:0:
448,192,44311,128,0,44623:0:0:0:0:
192,192,44623,128,0,44779:0:0:0:0:
64,192,44779,128,0,44936:0:0:0:0:
320,192,44936,128,0,45092:0:0:0:0:
448,192,45092,128,0,45248:0:0:0:0:
192,192,45248,1,0,0:0:0:0:
320,192,45404,1,0,0:0:0:0:
64,192,45561,1,0,0:0:0:0:
448,192,45561,1,0,0:0:0:0:
192,192,45873,1,0,0:0:0:0:
320,192,46029,1,0,0:0:0:0:
448,192,46029,1,0,0:0:0:0:
192,192,46186,1,0,0:0:0:0:
64,192,46186,1,0,0:0:0:0:
320,192,46342,1,0,0:0:0:0:
64,192,46498,1,0,0:0:0:0:
448,192,46654,1,0,0:0:0:0:
192,192,46654,1,0,0:0:0:0:
320,192,46811,1,0,0:0:0:0:
320,192,47123,1,0,0:0:0:0:
192,192,47279,1,0,0:0:0:0:
64,192,47279,1,0,0:0:0:0:
320,192,47436,1,0,0:0:0:0:
448,192,47436,1,0,0:0:0:0:
192,192,47592,1,0,0:0:0:0:
448,192,47748,1,0,0:0:0:0:
320,192,47904,1,0,0:0:0:0:
64,192,47904,1,0,0:0:0:0:
192,192,48061,1,0,0:0:0:0:
320,192,48373,1,0,0:0:0:0:
64,192,48529,1,0,0:0:0:0:
448,192,48529,1,0,0:0:0:0:
192,192,48686,1,0,0:0:0:0:
320,192,48686,1,0,0:0:0:0:
64,192,48842,1,0,0:0:0:0:
192,192,48998,1,0,0:0:0:0:
320,192,49154,1,0,0:0:0:0:
448,192,49154,1,0,0:0:0:0:
64,192,49311,1,0,0:0:0:0:
192,192,49623,1,0,0:0:0:0:
64,192,49779,1,0,0:0:0:0:
448,192,49779,1,0,0:0:0:0:
320,192,49936,1,0,0:0:0:0:
192,192,49936,1,0,0:0:0:0:
448,192,50092,1,0,0:0:0:0:
320,192,50248,1,0,0:0:0:0:
192,192,50404,1,0,0:0:0:0:
64,192,50404,1,0,0:0:0:0:
320,192,50561,1,0,0:0:0:0:
448,192,50561,1,0,0:0:0:0:
64,192,50873,1,0,0:0:0:0:
448,192,51029,1,0,0:0:0:0:
320,192,51029,1,0,0:0:0:0:
64,192,51186,1,0,0:0:0:0:
192,192,51186,1,0,0:0:0:0:
448,192,51342,1,0,0:0:0:0:
64,192,51498,1,0,0:0:0:0:
192,192,51654,1,0,0:0:0:0:
320,192,51654,1,0,0:0:0:0:
448,192,51811,1,0,0:0:0:0:
320,192,52123,1,0,0:0:0:0:
64,192,52279,1,0,0:0:0:0:
192,192,52279,1,0,0:0:0:0:
320,192,52436,1,0,0:0:0:0:
448,192,52436,1,0,0:0:0:0:
64,192,52592,1,0,0:0:0:0:
448,192,52748,1,0,0:0:0:0:
320,192,52904,1,0,0:0:0:0:
192,192,52904,1,0,0:0:0:0:
64,192,53061,128,0,53373:0:0:0:0:
448,192,53373,128,0,53686:0:0:0:0:
320,192,53373,1,0,0:0:0:0:
192,192,53686,1,0,0:0:0:0:
320,192,53842,1,0,0:0:0:0:
64,192,53998,128,0,54154:0:0:0:0:
192,192,54154,1,0,0:0:0:0:
448,192,54311,1,0,0:0:0:0:
64,192,54467,1,0,0:0:0:0:
320,192,54623,128,0,54779:0:0:0:0:
192,192,54779,1,0,0:0:0:0:
448,192,54936,1,0,0:0:0:0:
64,192,55092,1,0,0:0:0:0:
192,192,55248,1,0,0:0:0:0:
320,192,55404,1,0,0:0:0:0:
64,192,55561,1,0,0:0:0:0:
448,192,55561,128,0,55717:0:0:0:0:
192,192,55873,128,0,56029:0:0:0:0:
448,192,56029,128,0,56186:0:0:0:0:
320,192,56029,1,0,0:0:0:0:
64,192,56186,128,0,56342:0:0:0:0:
320,192,56342,128,0,56498:0:0:0:0:
448,192,56654,128,0,56811:0:0:0:0:
192,192,56654,1,0,0:0:0:0:
64,192,56811,128,0,56967:0:0:0:0:
448,192,56967,1,0,0:0:0:0:
320,192,57123,128,0,57279:0:0:0:0:
64,192,57279,128,0,57436:0:0:0:0:
192,192,57279,1,0,0:0:0:0:
448,192,57436,128,0,57592:0:0:0:0:
192,192,57592,128,0,57748:0:0:0:0:
320,192,57904,1,0,0:0:0:0:
64,192,57904,128,0,58061:0:0:0:0:
448,192,58061,128,0,58217:0:0:0:0:
320,192,58217,1,0,0:0:0:0:
192,192,58373,128,0,58529:0:0:0:0:
64,192,58529,128,0,58686:0:0:0:0:
448,192,58529,1,0,0:0:0:0:
320,192,58686,1,0,0:0:0:0:
320,192,58842,128,0,58998:0:0:0:0:
192,192,58998,128,0,59154:0:0:0:0:
448,192,59154,128,0,59311:0:0:0:0:
64,192,59154,1,0,0:0:0:0:
320,192,59311,128,0,59467:0:0:0:0:
192,192,59467,1,0,0:0:0:0:
64,192,59623,128,0,59779:0:0:0:0:
320,192,59779,1,0,0:0:0:0:
448,192,59779,1,0,0:0:0:0:
192,192,60092,128,0,60248:0:0:0:0:
320,192,60248,128,0,60404:0:0:0:0:
448,192,60404,128,0,60561:0:0:0:0:
192,192,60561,1,0,0:0:0:0:
64,192,60561,128,0,60717:0:0:0:0:
320,192,60873,128,0,61029:0:0:0:0:
192,192,61029,1,0,0:0:0:0:
64,192,61029,1,0,0:0:0:0:
192,192,61186,128,0,61342:0:0:0:0:
448,192,61342,1,0,0:0:0:0:
64,192,61498,128,0,61654:0:0:0:0:
320,192,61654,1,0,0:0:0:0:
448,192,61654,1,0,0:0:0:0:
320,192,61811,128,0,61967:0:0:0:0:
64,192,61967,1,0,0:0:0:0:
192,192,62123,128,0,62279:0:0:0:0:
320,192,62279,1,0,0:0:0:0:
448,192,62279,1,0,0:0:0:0:
64,192,62436,128,0,62592:0:0:0:0:
192,192,62592,1,0,0:0:0:0:
320,192,62748,128,0,62904:0:0:0:0:
64,192,62904,1,0,0:0:0:0:
192,192,62904,1,0,0:0:0:0:
448,192,63061,128,0,63217:0:0:0:0:
64,192,63217,1,0,0:0:0:0:
320,192,63373,128,0,63529:0:0:0:0:
192,192,63529,128,0,63686:0:0:0:0:
448,192,63529,1,0,0:0:0:0:
64,192,63686,128,0,63842:0:0:0:0:
320,192,63842,128,0,63998:0:0:0:0:
448,192,63998,128,0,64154:0:0:0:0:
192,192,64154,128,0,64311:0:0:0:0:
64,192,64154,1,0,0:0:0:0:
448,192,64311,1,0,0:0:0:0:
320,192,64311,1,0,0:0:0:0:
64,192,64623,1,0,0:0:0:0:
192,192,64701,1,0,0:0:0:0:
320,192,64779,1,0,0:0:0:0:
64,192,64936,1,0,0:0:0:0:
320,192,65092,1,0,0:0:0:0:
448,192,65092,1,0,0:0:0:0:
192,192,65248,1,0,0:0:0:0:
64,192,65248,1,0,0:0:0:0:
320,192,65404,1,0,0:0:0:0:
448,192,65561,1,0,0:0:0:0:
64,192,65561,128,0,65717:0:0:0:0:
320,192,65873,128,0,66029:0:0:0:0:
64,192,66029,128,0,66186:0:0:0:0:
192,192,66029,1,0,0:0:0:0:
448,192,66186,128,0,66342:0:0:0:0:
192,192,66342,128,0,66498:0:0:0:0:
64,192,66654,128,0,66811:0:0:0:0:
320,192,66654,1,0,0:0:0:0:
448,192,66811,128,0,66967:0:0:0:0:
64,192,66967,1,0,0:0:0:0:
192,192,67123,128,0,67279:0:0:0:0:
448,192,67279,128,0,67436:0:0:0:0:
320,192,67279,1,0,0:0:0:0:
64,192,67436,128,0,67592:0:0:0:0:
320,192,67592,128,0,67748:0:0:0:0:
192,192,67904,1,0,0:0:0:0:
448,192,67904,1,0,0:0:0:0:
64,192,68061,128,0,68217:0:0:0:0:
192,192,68217,1,0,0:0:0:0:
320,192,68373,128,0,68529:0:0:0:0:
448,192,68529,128,0,68686:0:0:0:0:
64,192,68529,1,0,0:0:0:0:
192,192,68686,128,0,68842:0:0:0:0:
320,192,68842,128,0,68998:0:0:0:0:
64,192,68998,128,0,69154:0:0:0:0:
448,192,69154,128,0,69311:0:0:0:0:
320,192,69154,1,0,0:0:0:0:
192,192,69311,128,0,69467:0:0:0:0:
64,192,69467,1,0,0:0:0:0:
320,192,69623,128,0,69779:0:0:0:0:
192,192,69779,128,0,69936:0:0:0:0:
448,192,69779,1,0,0:0:0:0:
64,192,69936,128,0,70092:0:0:0:0:
320,192,70092,128,0,70248:0:0:0:0:
448,192,70248,1,0,0:0:0:0:
192,192,70404,1,0,0:0:0:0:
64,192,70404,128,0,70561:0:0:0:0:
320,192,70561,1,0,0:0:0:0:
448,192,70561,128,0,70717:0:0:0:0:
192,192,70717,1,0,0:0:0:0:
64,192,71029,128,0,71186:0:0:0:0:
448,192,71029,1,0,0:0:0:0:
192,192,71186,1,0,0:0:0:0:
320,192,71342,128,0,71498:0:0:0:0:
64,192,71498,1,0,0:0:0:0:
192,192,71654,128,0,71811:0:0:0:0:
448,192,71654,1,0,0:0:0:0:
320,192,71811,1,0,0:0:0:0:
64,192,71967,128,0,72123:0:0:0:0:
448,192,72123,1,0,0:0:0:0:
320,192,72201,1,0,0:0:0:0:
192,192,72279,1,0,0:0:0:0:
448,192,72436,1,0,0:0:0:0:
64,192,72592,1,0,0:0:0:0:
192,192,72748,1,0,0:0:0:0:
320,192,72904,1,0,0:0:0:0:
64,192,73061,1,0,0:0:0:0:
448,192,73061,128,0,73373:0:0:0:0:
192,192,73373,1,0,0:0:0:0:
320,192,73529,128,0,73842:0:0:0:0:
64,192,73842,128,0,74154:0:0:0:0:
192,192,73842,128,0,74154:0:0:0:0:
448,192,74154,1,0,0:0:0:0:
448,192,74311,128,0,74623:0:0:0:0:
64,192,74623,1,0,0:0:0:0:
64,192,74779,128,0,75092:0:0:0:0:
448,192,75092,128,0,75404:0:0:0:0:
320,192,75092,128,0,75404:0:0:0:0:
192,192,75404,1,0,0:0:0:0:
192,192,75561,128,0,75873:0:0:0:0:
320,192,75873,1,0,0:0:0:0:
320,192,76029,128,0,76342:0:0:0:0:
64,192,76342,128,0,76498:0:0:0:0:
192,192,76498,128,0,76654:0:0:0:0:
320,192,76654,128,0,76811:0:0:0:0:
448,192,76811,128,0,77123:0:0:0:0:
64,192,76811,1,0,0:0:0:0:
64,192,77123,128,0,77436:0:0:0:0:
448,192,77592,128,0,77748:0:0:0:0:
320,192,77748,128,0,77904:0:0:0:0:
192,192,77904,128,0,78217:0:0:0:0:
448,192,78217,128,0,78529:0:0:0:0:
64,192,78529,128,0,78842:0:0:0:0:
192,192,78842,128,0,79154:0:0:0:0:
320,192,79154,128,0,79311:0:0:0:0:
64,192,79311,1,0,0:0:0:0:
448,192,79467,128,0,79779:0:0:0:0:
320,192,79779,1,0,0:0:0:0:
192,192,79936,128,0,80248:0:0:0:0:
448,192,80404,128,0,80561:0:0:0:0:
320,192,80561,128,0,80717:0:0:0:0:
192,192,80717,1,0,0:0:0:0:
64,192,80717,1,0,0:0:0:0:
64,192,81029,1,0,0:0:0:0:
448,192,81029,1,0,0:0:0:0:
320,192,81342,1,0,0:0:0:0:
448,192,81342,1,0,0:0:0:0:
192,192,81654,1,0,0:0:0:0:
320,192,81654,1,0,0:0:0:0:
64,192,81967,1,0,0:0:0:0:
448,192,81967,1,0,0:0:0:0:
320,192,82436,128,0,82592:0:0:0:0:
192,192,82592,128,0,82748:0:0:0:0:
448,192,82748,128,0,82904:0:0:0:0:
320,192,82904,128,0,83061:0:0:0:0:
192,192,83061,128,0,83217:0:0:0:0:
448,192,83217,1,0,0:0:0:0:
64,192,83217,1,0,0:0:0:0:
192,192,83373,1,0,0:0:0:0:
320,192,83529,1,0,0:0:0:0:
448,192,83529,1,0,0:0:0:0:
64,192,83686,1,0,0:0:0:0:
448,192,83842,1,0,0:0:0:0:
192,192,83998,1,0,0:0:0:0:
64,192,84154,1,0,0:0:0:0:
320,192,84154,1,0,0:0:0:0:
448,192,84311,1,0,0:0:0:0:
192,192,84467,1,0,0:0:0:0:
320,192,84623,1,0,0:0:0:0:
192,192,84779,1,0,0:0:0:0:
64,192,84779,1,0,0:0:0:0:
448,192,84936,1,0,0:0:0:0:
320,192,85092,1,0,0:0:0:0:
192,192,85248,1,0,0:0:0:0:
448,192,85404,1,0,0:0:0:0:
64,192,85404,1,0,0:0:0:0:
192,192,85717,1,0,0:0:0:0:
320,192,85873,1,0,0:0:0:0:
64,192,86029,1,0,0:0:0:0:
192,192,86029,1,0,0:0:0:0:
448,192,86186,1,0,0:0:0:0:
320,192,86342,1,0,0:0:0:0:
64,192,86498,128,0,86654:0:0:0:0:
448,192,86654,1,0,0:0:0:0:
192,192,86654,128,0,86811:0:0:0:0:
320,192,86811,128,0,86967:0:0:0:0:
448,192,87123,128,0,87279:0:0:0:0:
64,192,87279,128,0,87436:0:0:0:0:
192,192,87279,1,0,0:0:0:0:
320,192,87436,128,0,87592:0:0:0:0:
192,192,87592,128,0,87748:0:0:0:0:
64,192,87748,128,0,87904:0:0:0:0:
320,192,87904,1,0,0:0:0:0:
64,192,88061,1,0,0:0:0:0:
448,192,88061,128,0,88686:0:0:0:0:
