osu file format v14

[General]
AudioFilename: audio.ogg
AudioLeadIn: 0
PreviewTime: 54868
Countdown: 0
SampleSet: Soft
StackLeniency: 0.7
Mode: 3
LetterboxInBreaks: 0
SpecialStyle: 0
WidescreenStoryboard: 1

[Editor]
DistanceSpacing: 0.8
BeatDivisor: 4
GridSize: 4
TimelineZoom: 2.8

[Metadata]
Title:Shouted Serenade (TV Size)
TitleUnicode:Shouted Serenade (TV Size)
Artist:LiSA
ArtistUnicode:LiSA
Creator:Savageeeee
Version:Insane
Source:魔法科高校の劣等生
Tags:darkebluu mahouka koukou no rettousei gekijouhan the irregular at magic high school opening 3 3rd third 3期 season anime japanese jrock rock j-rock horie shota shouta 堀江晶太 Tomoya Tabuchi 田淵智也
BeatmapID:4568145
BeatmapSetID:2165501

[Difficulty]
HPDrainRate:8
CircleSize:4
OverallDifficulty:8
ApproachRate:5
SliderMultiplier:1.4
SliderTickRate:1

[Events]
//Background and Video events
0,0,"bg.jpg",0,0
Video,0,"video.avi"
//Break Periods
//Storyboard Layer 0 (Background)
//Storyboard Layer 1 (Fail)
//Storyboard Layer 2 (Pass)
//Storyboard Layer 3 (Foreground)
//Storyboard Layer 4 (Overlay)
//Storyboard Sound Samples

[TimingPoints]
561,312.5,4,2,1,50,1,0
55561,-100,4,2,1,50,0,1
78217,-100,4,2,1,50,0,0

[HitObjects]
448,192,92,128,0,248:0:0:0:0:
64,192,248,128,0,404:0:0:0:0:
448,192,404,128,0,561:0:0:0:0:
64,192,561,128,0,717:0:0:0:0:
320,192,717,128,0,795:0:0:0:0:
320,192,873,128,0,1107:0:0:0:0:
192,192,1029,128,0,1107:0:0:0:0:
192,192,1186,128,0,1420:0:0:0:0:
448,192,1342,128,0,1420:0:0:0:0:
448,192,1498,128,0,1732:0:0:0:0:
64,192,1654,128,0,1732:0:0:0:0:
64,192,1811,128,0,2045:0:0:0:0:
448,192,1967,128,0,2045:0:0:0:0:
448,192,2123,128,0,2357:0:0:0:0:
320,192,2279,128,0,2357:0:0:0:0:
320,192,2436,128,0,2670:0:0:0:0:
192,192,2592,128,0,2670:0:0:0:0:
192,192,2748,128,0,2904:0:0:0:0:
320,192,2904,1,0,0:0:0:0:
64,192,3061,1,0,0:0:0:0:
448,192,3061,1,0,0:0:0:0:
192,192,3061,1,0,0:0:0:0:
320,192,3373,1,0,0:0:0:0:
448,192,3373,1,0,0:0:0:0:
64,192,3529,1,0,0:0:0:0:
192,192,3529,1,0,0:0:0:0:
448,192,3529,1,0,0:0:0:0:
64,192,3686,1,0,0:0:0:0:
320,192,3686,1,0,0:0:0:0:
192,192,3842,1,0,0:0:0:0:
320,192,3842,1,0,0:0:0:0:
448,192,3842,1,0,0:0:0:0:
448,192,3998,1,0,0:0:0:0:
64,192,3998,1,0,0:0:0:0:
64,192,4154,1,0,0:0:0:0:
192,192,4154,1,0,0:0:0:0:
320,192,4154,1,0,0:0:0:0:
192,192,4311,1,0,0:0:0:0:
448,192,4311,1,0,0:0:0:0:
320,192,4389,1,0,0:0:0:0:
64,192,4467,1,0,0:0:0:0:
192,192,4467,1,0,0:0:0:0:
448,192,4467,128,0,4779:0:0:0:0:
64,192,4779,128,0,5092:0:0:0:0:
448,192,5092,128,0,5248:0:0:0:0:
320,192,5248,128,0,5404:0:0:0:0:
192,192,5404,128,0,5561:0:0:0:0:
320,192,5561,1,0,0:0:0:0:
448,192,5561,1,0,0:0:0:0:
64,192,5561,128,0,5795:0:0:0:0:
448,192,5873,1,0,0:0:0:0:
448,192,6029,1,0,0:0:0:0:
64,192,6029,1,0,0:0:0:0:
192,192,6107,1,0,0:0:0:0:
320,192,6186,1,0,0:0:0:0:
192,192,6264,1,0,0:0:0:0:
64,192,6342,128,0,6498:0:0:0:0:
448,192,6342,1,0,0:0:0:0:
320,192,6498,1,0,0:0:0:0:
64,192,6654,128,0,6811:0:0:0:0:
192,192,6654,1,0,0:0:0:0:
320,192,6811,1,0,0:0:0:0:
448,192,6967,128,0,7123:0:0:0:0:
64,192,6967,1,0,0:0:0:0:
192,192,7123,1,0,0:0:0:0:
448,192,7279,128,0,7436:0:0:0:0:
320,192,7279,1,0,0:0:0:0:
192,192,7436,1,0,0:0:0:0:
64,192,7592,128,0,7670:0:0:0:0:
448,192,7592,1,0,0:0:0:0:
64,192,7748,128,0,7904:0:0:0:0:
192,192,7904,1,0,0:0:0:0:
320,192,7904,1,0,0:0:0:0:
320,192,8061,1,0,0:0:0:0:
64,192,8061,1,0,0:0:0:0:
448,192,8061,128,0,8139:0:0:0:0:
448,192,8217,128,0,8373:0:0:0:0:
192,192,8373,1,0,0:0:0:0:
320,192,8451,1,0,0:0:0:0:
448,192,8451,1,0,0:0:0:0:
64,192,8529,1,0,0:0:0:0:
192,192,8529,1,0,0:0:0:0:
320,192,8686,1,0,0:0:0:0:
192,192,8686,1,0,0:0:0:0:
64,192,8842,1,0,0:0:0:0:
448,192,8842,1,0,0:0:0:0:
320,192,8920,1,0,0:0:0:0:
192,192,8920,1,0,0:0:0:0:
64,192,9154,1,0,0:0:0:0:
192,192,9154,1,0,0:0:0:0:
448,192,9154,1,0,0:0:0:0:
320,192,9311,1,0,0:0:0:0:
192,192,9389,1,0,0:0:0:0:
448,192,9467,1,0,0:0:0:0:
64,192,9467,1,0,0:0:0:0:
320,192,9467,1,0,0:0:0:0:
64,192,9701,1,0,0:0:0:0:
448,192,9701,1,0,0:0:0:0:
192,192,9701,1,0,0:0:0:0:
320,192,9779,1,0,0:0:0:0:
448,192,9936,1,0,0:0:0:0:
192,192,9936,1,0,0:0:0:0:
320,192,9936,1,0,0:0:0:0:
192,192,10092,1,0,0:0:0:0:
320,192,10092,1,0,0:0:0:0:
64,192,10092,128,0,10248:0:0:0:0:
448,192,10248,128,0,10404:0:0:0:0:
192,192,10404,128,0,10561:0:0:0:0:
64,192,10717,1,0,0:0:0:0:
320,192,10717,1,0,0:0:0:0:
448,192,10717,128,0,10873:0:0:0:0:
192,192,10873,128,0,11029:0:0:0:0:
320,192,11029,128,0,11186:0:0:0:0:
64,192,11029,1,0,0:0:0:0:
448,192,11029,1,0,0:0:0:0:
64,192,11186,128,0,11342:0:0:0:0:
192,192,11264,128,0,11342:0:0:0:0:
320,192,11342,1,0,0:0:0:0:
448,192,11342,128,0,11498:0:0:0:0:
64,192,11498,128,0,11576:0:0:0:0:
320,192,11498,1,0,0:0:0:0:
192,192,11654,128,0,11732:0:0:0:0:
64,192,11654,1,0,0:0:0:0:
448,192,11654,1,0,0:0:0:0:
320,192,11811,128,0,11889:0:0:0:0:
192,192,11811,1,0,0:0:0:0:
320,192,11967,1,0,0:0:0:0:
64,192,11967,128,0,12201:0:0:0:0:
448,192,11967,128,0,12201:0:0:0:0:
192,192,12123,128,0,12201:0:0:0:0:
64,192,12279,1,0,0:0:0:0:
320,192,12279,1,0,0:0:0:0:
192,192,12279,1,0,0:0:0:0:
448,192,12436,128,0,12592:0:0:0:0:
320,192,12514,128,0,12592:0:0:0:0:
64,192,12592,128,0,12748:0:0:0:0:
192,192,12592,1,0,0:0:0:0:
192,192,12748,128,0,12904:0:0:0:0:
320,192,12748,1,0,0:0:0:0:
448,192,12904,1,0,0:0:0:0:
64,192,12904,1,0,0:0:0:0:
320,192,12904,128,0,13061:0:0:0:0:
192,192,13061,1,0,0:0:0:0:
64,192,13217,128,0,13373:0:0:0:0:
192,192,13217,1,0,0:0:0:0:
448,192,13217,1,0,0:0:0:0:
320,192,13373,128,0,13529:0:0:0:0:
64,192,13529,1,0,0:0:0:0:
448,192,13529,1,0,0:0:0:0:
192,192,13529,128,0,13686:0:0:0:0:
448,192,13686,128,0,13842:0:0:0:0:
320,192,13764,128,0,13842:0:0:0:0:
64,192,13842,128,0,13998:0:0:0:0:
192,192,13842,1,0,0:0:0:0:
192,192,13998,1,0,0:0:0:0:
448,192,13998,128,0,14076:0:0:0:0:
64,192,14154,1,0,0:0:0:0:
448,192,14154,1,0,0:0:0:0:
320,192,14154,128,0,14232:0:0:0:0:
320,192,14311,1,0,0:0:0:0:
192,192,14311,128,0,14389:0:0:0:0:
64,192,14467,128,0,14623:0:0:0:0:
448,192,14467,1,0,0:0:0:0:
320,192,14623,128,0,14779:0:0:0:0:
192,192,14779,1,0,0:0:0:0:
448,192,14779,1,0,0:0:0:0:
64,192,14779,1,0,0:0:0:0:
192,192,14936,128,0,15092:0:0:0:0:
320,192,15014,128,0,15092:0:0:0:0:
448,192,15092,1,0,0:0:0:0:
64,192,15092,1,0,0:0:0:0:
192,192,15170,1,0,0:0:0:0:
320,192,15248,1,0,0:0:0:0:
448,192,15248,1,0,0:0:0:0:
192,192,15326,1,0,0:0:0:0:
320,192,15404,1,0,0:0:0:0:
64,192,15404,1,0,0:0:0:0:
448,192,15561,1,0,0:0:0:0:
64,192,15561,1,0,0:0:0:0:
192,192,15561,1,0,0:0:0:0:
192,192,15717,1,0,0:0:0:0:
320,192,15717,1,0,0:0:0:0:
320,192,15873,1,0,0:0:0:0:
64,192,16029,1,0,0:0:0:0:
448,192,16029,1,0,0:0:0:0:
320,192,16186,1,0,0:0:0:0:
192,192,16264,1,0,0:0:0:0:
320,192,16342,1,0,0:0:0:0:
448,192,16342,128,0,16498:0:0:0:0:
64,192,16498,1,0,0:0:0:0:
448,192,16654,128,0,16811:0:0:0:0:
64,192,16654,1,0,0:0:0:0:
320,192,16654,1,0,0:0:0:0:
192,192,16811,1,0,0:0:0:0:
64,192,16967,128,0,17123:0:0:0:0:
192,192,16967,1,0,0:0:0:0:
320,192,17123,1,0,0:0:0:0:
320,192,17279,1,0,0:0:0:0:
448,192,17279,1,0,0:0:0:0:
64,192,17279,128,0,17436:0:0:0:0:
192,192,17436,1,0,0:0:0:0:
448,192,17592,128,0,17670:0:0:0:0:
192,192,17592,1,0,0:0:0:0:
448,192,17748,128,0,17904:0:0:0:0:
192,192,17904,1,0,0:0:0:0:
64,192,17904,1,0,0:0:0:0:
320,192,17904,1,0,0:0:0:0:
448,192,18061,1,0,0:0:0:0:
64,192,18061,1,0,0:0:0:0:
192,192,18217,1,0,0:0:0:0:
320,192,18217,1,0,0:0:0:0:
448,192,18373,1,0,0:0:0:0:
64,192,18529,1,0,0:0:0:0:
192,192,18529,1,0,0:0:0:0:
448,192,18529,1,0,0:0:0:0:
320,192,18686,1,0,0:0:0:0:
192,192,18764,1,0,0:0:0:0:
448,192,18842,1,0,0:0:0:0:
320,192,18842,128,0,18998:0:0:0:0:
64,192,18998,1,0,0:0:0:0:
192,192,19076,1,0,0:0:0:0:
448,192,19154,1,0,0:0:0:0:
64,192,19154,1,0,0:0:0:0:
320,192,19154,128,0,19311:0:0:0:0:
192,192,19311,1,0,0:0:0:0:
192,192,19467,128,0,19623:0:0:0:0:
64,192,19467,1,0,0:0:0:0:
448,192,19623,1,0,0:0:0:0:
192,192,19779,128,0,19936:0:0:0:0:
448,192,19779,1,0,0:0:0:0:
320,192,19779,1,0,0:0:0:0:
64,192,19936,1,0,0:0:0:0:
320,192,20092,128,0,20170:0:0:0:0:
64,192,20092,1,0,0:0:0:0:
320,192,20248,128,0,20404:0:0:0:0:
64,192,20404,1,0,0:0:0:0:
192,192,20404,1,0,0:0:0:0:
448,192,20404,1,0,0:0:0:0:
320,192,20561,1,0,0:0:0:0:
448,192,20561,1,0,0:0:0:0:
320,192,20717,1,0,0:0:0:0:
192,192,20873,1,0,0:0:0:0:
64,192,20873,1,0,0:0:0:0:
448,192,21029,1,0,0:0:0:0:
64,192,21029,1,0,0:0:0:0:
320,192,21029,1,0,0:0:0:0:
192,192,21186,1,0,0:0:0:0:
320,192,21264,1,0,0:0:0:0:
192,192,21342,1,0,0:0:0:0:
64,192,21342,128,0,21498:0:0:0:0:
448,192,21498,1,0,0:0:0:0:
64,192,21654,128,0,21811:0:0:0:0:
448,192,21654,1,0,0:0:0:0:
192,192,21654,1,0,0:0:0:0:
320,192,21811,1,0,0:0:0:0:
192,192,21889,1,0,0:0:0:0:
448,192,21967,128,0,22123:0:0:0:0:
320,192,21967,1,0,0:0:0:0:
64,192,22123,1,0,0:0:0:0:
192,192,22279,1,0,0:0:0:0:
64,192,22279,1,0,0:0:0:0:
448,192,22279,128,0,22436:0:0:0:0:
320,192,22436,1,0,0:0:0:0:
192,192,22514,1,0,0:0:0:0:
448,192,22592,1,0,0:0:0:0:
64,192,22592,1,0,0:0:0:0:
320,192,22592,1,0,0:0:0:0:
64,192,22748,1,0,0:0:0:0:
192,192,22748,1,0,0:0:0:0:
320,192,22826,1,0,0:0:0:0:
448,192,22904,1,0,0:0:0:0:
64,192,22904,1,0,0:0:0:0:
192,192,22982,1,0,0:0:0:0:
448,192,23061,1,0,0:0:0:0:
64,192,23061,128,0,23373:0:0:0:0:
320,192,23061,1,0,0:0:0:0:
448,192,23373,1,0,0:0:0:0:
192,192,23373,1,0,0:0:0:0:
320,192,23451,1,0,0:0:0:0:
448,192,23529,1,0,0:0:0:0:
192,192,23529,1,0,0:0:0:0:
64,192,23529,1,0,0:0:0:0:
320,192,23686,1,0,0:0:0:0:
64,192,23686,1,0,0:0:0:0:
192,192,23842,1,0,0:0:0:0:
320,192,23842,1,0,0:0:0:0:
448,192,23998,1,0,0:0:0:0:
192,192,23998,1,0,0:0:0:0:
320,192,24154,1,0,0:0:0:0:
448,192,24154,1,0,0:0:0:0:
64,192,24154,1,0,0:0:0:0:
448,192,24311,128,0,24623:0:0:0:0:
192,192,24311,1,0,0:0:0:0:
64,192,24311,1,0,0:0:0:0:
320,192,24467,128,0,24623:0:0:0:0:
64,192,24623,128,0,24701:0:0:0:0:
64,192,24779,128,0,24936:0:0:0:0:
192,192,24779,128,0,25248:0:0:0:0:
448,192,24936,128,0,25014:0:0:0:0:
320,192,24936,128,0,25248:0:0:0:0:
448,192,25092,128,0,25248:0:0:0:0:
64,192,25248,128,0,25482:0:0:0:0:
192,192,25404,128,0,25482:0:0:0:0:
64,192,25561,1,0,0:0:0:0:
448,192,25561,128,0,25873:0:0:0:0:
320,192,25561,128,0,25873:0:0:0:0:
192,192,25873,1,0,0:0:0:0:
64,192,25873,128,0,25951:0:0:0:0:
448,192,26029,1,0,0:0:0:0:
320,192,26029,1,0,0:0:0:0:
64,192,26029,128,0,26186:0:0:0:0:
192,192,26186,1,0,0:0:0:0:
320,192,26264,1,0,0:0:0:0:
64,192,26342,1,0,0:0:0:0:
448,192,26342,128,0,26498:0:0:0:0:
192,192,26342,1,0,0:0:0:0:
64,192,26498,1,0,0:0:0:0:
448,192,26654,128,0,26811:0:0:0:0:
192,192,26654,1,0,0:0:0:0:
320,192,26654,1,0,0:0:0:0:
192,192,26811,1,0,0:0:0:0:
64,192,26967,128,0,27123:0:0:0:0:
320,192,26967,1,0,0:0:0:0:
448,192,26967,1,0,0:0:0:0:
192,192,27123,1,0,0:0:0:0:
64,192,27279,128,0,27436:0:0:0:0:
192,192,27279,1,0,0:0:0:0:
448,192,27279,1,0,0:0:0:0:
320,192,27436,1,0,0:0:0:0:
448,192,27592,128,0,27670:0:0:0:0:
64,192,27592,1,0,0:0:0:0:
320,192,27592,1,0,0:0:0:0:
448,192,27748,128,0,27904:0:0:0:0:
192,192,27748,1,0,0:0:0:0:
64,192,27904,1,0,0:0:0:0:
192,192,27904,1,0,0:0:0:0:
320,192,27904,1,0,0:0:0:0:
320,192,28061,1,0,0:0:0:0:
64,192,28061,128,0,28373:0:0:0:0:
448,192,28061,128,0,28373:0:0:0:0:
192,192,28217,1,0,0:0:0:0:
320,192,28217,1,0,0:0:0:0:
192,192,28373,128,0,28451:0:0:0:0:
192,192,28529,128,0,28686:0:0:0:0:
64,192,28529,1,0,0:0:0:0:
448,192,28529,1,0,0:0:0:0:
320,192,28686,1,0,0:0:0:0:
64,192,28764,1,0,0:0:0:0:
320,192,28842,128,0,28998:0:0:0:0:
448,192,28842,1,0,0:0:0:0:
192,192,28998,1,0,0:0:0:0:
448,192,29076,1,0,0:0:0:0:
320,192,29154,128,0,29311:0:0:0:0:
64,192,29154,1,0,0:0:0:0:
192,192,29311,1,0,0:0:0:0:
192,192,29467,128,0,29623:0:0:0:0:
448,192,29467,1,0,0:0:0:0:
320,192,29623,1,0,0:0:0:0:
192,192,29779,128,0,29936:0:0:0:0:
320,192,29779,1,0,0:0:0:0:
64,192,29779,1,0,0:0:0:0:
448,192,29936,1,0,0:0:0:0:
320,192,30092,128,0,30170:0:0:0:0:
448,192,30092,1,0,0:0:0:0:
320,192,30248,128,0,30404:0:0:0:0:
192,192,30248,1,0,0:0:0:0:
64,192,30248,1,0,0:0:0:0:
448,192,30404,1,0,0:0:0:0:
64,192,30561,128,0,30873:0:0:0:0:
192,192,30561,128,0,30873:0:0:0:0:
320,192,30561,1,0,0:0:0:0:
320,192,30717,1,0,0:0:0:0:
448,192,30717,1,0,0:0:0:0:
448,192,30873,128,0,30951:0:0:0:0:
64,192,31029,1,0,0:0:0:0:
320,192,31029,1,0,0:0:0:0:
448,192,31029,128,0,31186:0:0:0:0:
192,192,31186,1,0,0:0:0:0:
320,192,31264,1,0,0:0:0:0:
448,192,31342,1,0,0:0:0:0:
64,192,31342,128,0,31498:0:0:0:0:
192,192,31342,1,0,0:0:0:0:
320,192,31498,1,0,0:0:0:0:
64,192,31654,128,0,31811:0:0:0:0:
448,192,31654,1,0,0:0:0:0:
192,192,31654,1,0,0:0:0:0:
320,192,31811,1,0,0:0:0:0:
448,192,31967,128,0,32123:0:0:0:0:
192,192,31967,1,0,0:0:0:0:
64,192,31967,1,0,0:0:0:0:
64,192,32123,1,0,0:0:0:0:
448,192,32279,128,0,32436:0:0:0:0:
320,192,32279,1,0,0:0:0:0:
192,192,32279,1,0,0:0:0:0:
192,192,32436,1,0,0:0:0:0:
64,192,32592,128,0,32670:0:0:0:0:
448,192,32592,1,0,0:0:0:0:
320,192,32592,1,0,0:0:0:0:
64,192,32748,128,0,32904:0:0:0:0:
448,192,32904,1,0,0:0:0:0:
320,192,32904,1,0,0:0:0:0:
192,192,32904,1,0,0:0:0:0:
192,192,33061,1,0,0:0:0:0:
64,192,33061,128,0,33373:0:0:0:0:
448,192,33061,128,0,33373:0:0:0:0:
192,192,33373,1,0,0:0:0:0:
320,192,33373,1,0,0:0:0:0:
64,192,33529,1,0,0:0:0:0:
448,192,33529,1,0,0:0:0:0:
320,192,33529,1,0,0:0:0:0:
192,192,33686,1,0,0:0:0:0:
448,192,33686,1,0,0:0:0:0:
64,192,33842,1,0,0:0:0:0:
192,192,33842,1,0,0:0:0:0:
320,192,33842,1,0,0:0:0:0:
64,192,33998,1,0,0:0:0:0:
448,192,33998,1,0,0:0:0:0:
192,192,34154,1,0,0:0:0:0:
320,192,34154,1,0,0:0:0:0:
448,192,34154,1,0,0:0:0:0:
320,192,34311,1,0,0:0:0:0:
64,192,34311,128,0,34623:0:0:0:0:
192,192,34311,128,0,34623:0:0:0:0:
320,192,34623,1,0,0:0:0:0:
448,192,34623,1,0,0:0:0:0:
64,192,34779,1,0,0:0:0:0:
192,192,34779,1,0,0:0:0:0:
448,192,34779,1,0,0:0:0:0:
320,192,34936,1,0,0:0:0:0:
64,192,34936,1,0,0:0:0:0:
192,192,35014,1,0,0:0:0:0:
320,192,35092,1,0,0:0:0:0:
448,192,35092,1,0,0:0:0:0:
192,192,35248,1,0,0:0:0:0:
448,192,35248,1,0,0:0:0:0:
192,192,35404,1,0,0:0:0:0:
320,192,35404,1,0,0:0:0:0:
320,192,35561,1,0,0:0:0:0:
64,192,35561,128,0,35795:0:0:0:0:
448,192,35561,128,0,35795:0:0:0:0:
64,192,35873,128,0,35951:0:0:0:0:
192,192,35873,1,0,0:0:0:0:
64,192,36029,128,0,36107:0:0:0:0:
320,192,36029,1,0,0:0:0:0:
448,192,36029,1,0,0:0:0:0:
64,192,36186,128,0,36264:0:0:0:0:
320,192,36186,1,0,0:0:0:0:
448,192,36186,1,0,0:0:0:0:
64,192,36342,128,0,36420:0:0:0:0:
192,192,36342,1,0,0:0:0:0:
64,192,36498,128,0,36576:0:0:0:0:
320,192,36498,1,0,0:0:0:0:
64,192,36654,128,0,36732:0:0:0:0:
448,192,36654,1,0,0:0:0:0:
192,192,36654,1,0,0:0:0:0:
64,192,36811,128,0,36889:0:0:0:0:
320,192,36811,1,0,0:0:0:0:
64,192,36967,128,0,37045:0:0:0:0:
64,192,37123,128,0,37201:0:0:0:0:
192,192,37123,1,0,0:0:0:0:
64,192,37279,128,0,37357:0:0:0:0:
320,192,37279,1,0,0:0:0:0:
448,192,37279,1,0,0:0:0:0:
64,192,37436,128,0,37514:0:0:0:0:
320,192,37436,1,0,0:0:0:0:
448,192,37436,1,0,0:0:0:0:
64,192,37592,128,0,37670:0:0:0:0:
192,192,37592,1,0,0:0:0:0:
64,192,37748,128,0,37826:0:0:0:0:
320,192,37748,1,0,0:0:0:0:
64,192,37904,128,0,37982:0:0:0:0:
192,192,37904,1,0,0:0:0:0:
448,192,37904,1,0,0:0:0:0:
320,192,38061,1,0,0:0:0:0:
448,192,38061,128,0,38139:0:0:0:0:
448,192,38217,128,0,38295:0:0:0:0:
448,192,38373,128,0,38451:0:0:0:0:
192,192,38373,1,0,0:0:0:0:
448,192,38529,128,0,38607:0:0:0:0:
64,192,38529,1,0,0:0:0:0:
320,192,38529,1,0,0:0:0:0:
448,192,38686,128,0,38764:0:0:0:0:
64,192,38686,1,0,0:0:0:0:
320,192,38686,1,0,0:0:0:0:
448,192,38842,128,0,38920:0:0:0:0:
192,192,38842,1,0,0:0:0:0:
448,192,38998,128,0,39076:0:0:0:0:
320,192,38998,1,0,0:0:0:0:
448,192,39154,128,0,39232:0:0:0:0:
192,192,39154,1,0,0:0:0:0:
64,192,39154,1,0,0:0:0:0:
448,192,39311,128,0,39389:0:0:0:0:
320,192,39311,1,0,0:0:0:0:
448,192,39467,128,0,39545:0:0:0:0:
448,192,39623,128,0,39701:0:0:0:0:
192,192,39623,1,0,0:0:0:0:
448,192,39779,128,0,39857:0:0:0:0:
64,192,39779,1,0,0:0:0:0:
320,192,39779,1,0,0:0:0:0:
448,192,39936,128,0,40014:0:0:0:0:
64,192,39936,1,0,0:0:0:0:
320,192,39936,1,0,0:0:0:0:
448,192,40092,128,0,40170:0:0:0:0:
192,192,40092,1,0,0:0:0:0:
448,192,40248,128,0,40326:0:0:0:0:
320,192,40248,1,0,0:0:0:0:
448,192,40404,128,0,40482:0:0:0:0:
192,192,40404,1,0,0:0:0:0:
64,192,40404,1,0,0:0:0:0:
64,192,40561,128,0,40639:0:0:0:0:
320,192,40561,128,0,40795:0:0:0:0:
64,192,40717,128,0,40795:0:0:0:0:
448,192,40873,128,0,40951:0:0:0:0:
192,192,40873,1,0,0:0:0:0:
448,192,41029,128,0,41107:0:0:0:0:
64,192,41029,1,0,0:0:0:0:
320,192,41029,1,0,0:0:0:0:
192,192,41186,128,0,41264:0:0:0:0:
64,192,41186,1,0,0:0:0:0:
320,192,41186,1,0,0:0:0:0:
192,192,41342,128,0,41420:0:0:0:0:
448,192,41342,1,0,0:0:0:0:
320,192,41498,128,0,41576:0:0:0:0:
448,192,41498,1,0,0:0:0:0:
320,192,41654,128,0,41732:0:0:0:0:
64,192,41654,1,0,0:0:0:0:
192,192,41654,1,0,0:0:0:0:
64,192,41811,128,0,41889:0:0:0:0:
448,192,41811,1,0,0:0:0:0:
64,192,41967,128,0,42045:0:0:0:0:
192,192,42123,128,0,42201:0:0:0:0:
448,192,42123,1,0,0:0:0:0:
192,192,42279,128,0,42357:0:0:0:0:
64,192,42279,1,0,0:0:0:0:
320,192,42279,1,0,0:0:0:0:
448,192,42436,128,0,42514:0:0:0:0:
320,192,42436,1,0,0:0:0:0:
64,192,42436,1,0,0:0:0:0:
448,192,42592,128,0,42670:0:0:0:0:
192,192,42592,1,0,0:0:0:0:
320,192,42748,128,0,42826:0:0:0:0:
64,192,42748,1,0,0:0:0:0:
320,192,42904,128,0,42982:0:0:0:0:
448,192,42904,1,0,0:0:0:0:
192,192,42904,1,0,0:0:0:0:
64,192,43061,128,0,43139:0:0:0:0:
448,192,43061,128,0,43295:0:0:0:0:
192,192,43061,1,0,0:0:0:0:
64,192,43217,128,0,43295:0:0:0:0:
320,192,43373,128,0,43451:0:0:0:0:
192,192,43373,1,0,0:0:0:0:
320,192,43529,128,0,43607:0:0:0:0:
64,192,43529,1,0,0:0:0:0:
448,192,43529,1,0,0:0:0:0:
192,192,43686,128,0,43764:0:0:0:0:
64,192,43686,1,0,0:0:0:0:
448,192,43686,1,0,0:0:0:0:
192,192,43842,128,0,43920:0:0:0:0:
320,192,43842,1,0,0:0:0:0:
448,192,43998,128,0,44076:0:0:0:0:
64,192,43998,1,0,0:0:0:0:
448,192,44154,128,0,44232:0:0:0:0:
192,192,44154,1,0,0:0:0:0:
320,192,44154,1,0,0:0:0:0:
64,192,44311,128,0,44623:0:0:0:0:
320,192,44311,1,0,0:0:0:0:
192,192,44311,128,0,44623:0:0:0:0:
448,192,44623,1,0,0:0:0:0:
320,192,44623,1,0,0:0:0:0:
192,192,44701,1,0,0:0:0:0:
448,192,44779,1,0,0:0:0:0:
64,192,44779,1,0,0:0:0:0:
320,192,44857,1,0,0:0:0:0:
192,192,44936,1,0,0:0:0:0:
64,192,44936,1,0,0:0:0:0:
320,192,45014,1,0,0:0:0:0:
64,192,45092,1,0,0:0:0:0:
448,192,45092,1,0,0:0:0:0:
192,192,45170,1,0,0:0:0:0:
320,192,45248,1,0,0:0:0:0:
448,192,45248,1,0,0:0:0:0:
192,192,45404,1,0,0:0:0:0:
64,192,45561,1,0,0:0:0:0:
320,192,45561,1,0,0:0:0:0:
448,192,45561,128,0,45873:0:0:0:0:
192,192,45873,1,0,0:0:0:0:
320,192,45873,1,0,0:0:0:0:
64,192,46029,1,0,0:0:0:0:
320,192,46029,1,0,0:0:0:0:
448,192,46029,1,0,0:0:0:0:
192,192,46186,1,0,0:0:0:0:
448,192,46186,1,0,0:0:0:0:
64,192,46186,1,0,0:0:0:0:
320,192,46342,1,0,0:0:0:0:
192,192,46342,1,0,0:0:0:0:
320,192,46498,1,0,0:0:0:0:
64,192,46498,1,0,0:0:0:0:
64,192,46654,1,0,0:0:0:0:
192,192,46654,1,0,0:0:0:0:
448,192,46654,1,0,0:0:0:0:
320,192,46811,1,0,0:0:0:0:
448,192,46811,1,0,0:0:0:0:
320,192,46967,1,0,0:0:0:0:
64,192,47123,1,0,0:0:0:0:
192,192,47123,1,0,0:0:0:0:
64,192,47279,1,0,0:0:0:0:
320,192,47279,1,0,0:0:0:0:
448,192,47279,1,0,0:0:0:0:
64,192,47436,1,0,0:0:0:0:
448,192,47436,1,0,0:0:0:0:
192,192,47436,1,0,0:0:0:0:
192,192,47592,1,0,0:0:0:0:
320,192,47592,1,0,0:0:0:0:
320,192,47748,1,0,0:0:0:0:
448,192,47748,1,0,0:0:0:0:
448,192,47904,1,0,0:0:0:0:
64,192,47904,1,0,0:0:0:0:
192,192,47904,1,0,0:0:0:0:
320,192,48061,1,0,0:0:0:0:
64,192,48061,128,0,48373:0:0:0:0:
192,192,48373,1,0,0:0:0:0:
320,192,48373,1,0,0:0:0:0:
320,192,48529,1,0,0:0:0:0:
64,192,48529,1,0,0:0:0:0:
448,192,48529,1,0,0:0:0:0:
64,192,48686,1,0,0:0:0:0:
192,192,48686,1,0,0:0:0:0:
448,192,48686,1,0,0:0:0:0:
192,192,48842,1,0,0:0:0:0:
320,192,48842,1,0,0:0:0:0:
320,192,48998,1,0,0:0:0:0:
448,192,48998,1,0,0:0:0:0:
64,192,49154,1,0,0:0:0:0:
192,192,49154,1,0,0:0:0:0:
448,192,49154,1,0,0:0:0:0:
320,192,49311,1,0,0:0:0:0:
192,192,49311,1,0,0:0:0:0:
320,192,49467,1,0,0:0:0:0:
448,192,49623,1,0,0:0:0:0:
64,192,49623,1,0,0:0:0:0:
64,192,49779,1,0,0:0:0:0:
320,192,49779,1,0,0:0:0:0:
192,192,49779,1,0,0:0:0:0:
320,192,49936,1,0,0:0:0:0:
448,192,49936,1,0,0:0:0:0:
192,192,49936,1,0,0:0:0:0:
64,192,50014,1,0,0:0:0:0:
320,192,50092,1,0,0:0:0:0:
448,192,50092,1,0,0:0:0:0:
192,192,50248,1,0,0:0:0:0:
320,192,50248,1,0,0:0:0:0:
64,192,50404,1,0,0:0:0:0:
192,192,50404,1,0,0:0:0:0:
448,192,50404,1,0,0:0:0:0:
64,192,50561,1,0,0:0:0:0:
320,192,50561,1,0,0:0:0:0:
448,192,50561,128,0,50873:0:0:0:0:
192,192,50873,1,0,0:0:0:0:
320,192,50873,1,0,0:0:0:0:
64,192,51029,1,0,0:0:0:0:
320,192,51029,1,0,0:0:0:0:
448,192,51029,1,0,0:0:0:0:
192,192,51186,1,0,0:0:0:0:
64,192,51186,1,0,0:0:0:0:
448,192,51186,1,0,0:0:0:0:
192,192,51342,1,0,0:0:0:0:
320,192,51342,1,0,0:0:0:0:
320,192,51498,1,0,0:0:0:0:
448,192,51498,1,0,0:0:0:0:
64,192,51654,1,0,0:0:0:0:
192,192,51654,1,0,0:0:0:0:
448,192,51654,1,0,0:0:0:0:
64,192,51811,1,0,0:0:0:0:
320,192,51811,1,0,0:0:0:0:
320,192,51967,1,0,0:0:0:0:
192,192,52123,1,0,0:0:0:0:
448,192,52123,1,0,0:0:0:0:
192,192,52279,1,0,0:0:0:0:
320,192,52279,1,0,0:0:0:0:
64,192,52279,1,0,0:0:0:0:
64,192,52436,1,0,0:0:0:0:
320,192,52436,1,0,0:0:0:0:
448,192,52436,1,0,0:0:0:0:
192,192,52592,1,0,0:0:0:0:
448,192,52592,1,0,0:0:0:0:
320,192,52748,1,0,0:0:0:0:
192,192,52748,1,0,0:0:0:0:
64,192,52904,1,0,0:0:0:0:
320,192,52904,1,0,0:0:0:0:
448,192,52904,1,0,0:0:0:0:
192,192,53061,1,0,0:0:0:0:
448,192,53061,1,0,0:0:0:0:
64,192,53061,128,0,53373:0:0:0:0:
192,192,53373,1,0,0:0:0:0:
320,192,53373,1,0,0:0:0:0:
448,192,53373,128,0,53686:0:0:0:0:
64,192,53686,128,0,53764:0:0:0:0:
64,192,53842,128,0,53920:0:0:0:0:
320,192,53998,128,0,54076:0:0:0:0:
192,192,54076,128,0,54154:0:0:0:0:
320,192,54154,128,0,54232:0:0:0:0:
64,192,54311,128,0,54389:0:0:0:0:
448,192,54311,1,0,0:0:0:0:
192,192,54389,128,0,54467:0:0:0:0:
320,192,54467,128,0,54545:0:0:0:0:
64,192,54545,128,0,54623:0:0:0:0:
192,192,54623,128,0,54701:0:0:0:0:
448,192,54701,128,0,54779:0:0:0:0:
320,192,54779,128,0,54857:0:0:0:0:
192,192,54857,128,0,54936:0:0:0:0:
448,192,54936,128,0,55092:0:0:0:0:
64,192,55092,128,0,55248:0:0:0:0:
320,192,55248,128,0,55404:0:0:0:0:
192,192,55404,128,0,55561:0:0:0:0:
64,192,55561,1,0,0:0:0:0:
320,192,55561,1,0,0:0:0:0:
448,192,55561,128,0,55873:0:0:0:0:
192,192,55873,128,0,56029:0:0:0:0:
320,192,56029,128,0,56186:0:0:0:0:
64,192,56029,1,0,0:0:0:0:
448,192,56029,1,0,0:0:0:0:
64,192,56186,128,0,56342:0:0:0:0:
448,192,56342,128,0,56498:0:0:0:0:
320,192,56342,1,0,0:0:0:0:
192,192,56498,1,0,0:0:0:0:
64,192,56654,128,0,57123:0:0:0:0:
448,192,56654,1,0,0:0:0:0:
320,192,56654,1,0,0:0:0:0:
192,192,56811,128,0,57123:0:0:0:0:
320,192,56967,1,0,0:0:0:0:
448,192,56967,1,0,0:0:0:0:
448,192,57123,128,0,57279:0:0:0:0:
192,192,57279,128,0,57436:0:0:0:0:
64,192,57279,1,0,0:0:0:0:
320,192,57279,1,0,0:0:0:0:
320,192,57436,128,0,57592:0:0:0:0:
64,192,57592,128,0,57748:0:0:0:0:
192,192,57748,1,0,0:0:0:0:
448,192,57748,1,0,0:0:0:0:
448,192,57904,1,0,0:0:0:0:
64,192,57904,1,0,0:0:0:0:
320,192,57904,128,0,58373:0:0:0:0:
192,192,58061,128,0,58373:0:0:0:0:
64,192,58217,1,0,0:0:0:0:
448,192,58217,1,0,0:0:0:0:
64,192,58373,128,0,58451:0:0:0:0:
192,192,58529,1,0,0:0:0:0:
320,192,58529,1,0,0:0:0:0:
64,192,58529,128,0,58686:0:0:0:0:
448,192,58686,128,0,58764:0:0:0:0:
448,192,58842,128,0,58998:0:0:0:0:
192,192,58842,1,0,0:0:0:0:
64,192,58998,128,0,59154:0:0:0:0:
320,192,59154,128,0,59311:0:0:0:0:
192,192,59154,1,0,0:0:0:0:
448,192,59154,1,0,0:0:0:0:
192,192,59311,128,0,59467:0:0:0:0:
64,192,59467,1,0,0:0:0:0:
448,192,59467,1,0,0:0:0:0:
320,192,59623,128,0,59779:0:0:0:0:
192,192,59779,1,0,0:0:0:0:
64,192,59779,1,0,0:0:0:0:
448,192,59779,1,0,0:0:0:0:
320,192,59936,1,0,0:0:0:0:
448,192,60092,128,0,60248:0:0:0:0:
64,192,60092,128,0,60404:0:0:0:0:
192,192,60248,128,0,60404:0:0:0:0:
448,192,60404,128,0,60561:0:0:0:0:
320,192,60404,1,0,0:0:0:0:
192,192,60561,1,0,0:0:0:0:
320,192,60561,1,0,0:0:0:0:
64,192,60561,128,0,60873:0:0:0:0:
192,192,60717,1,0,0:0:0:0:
448,192,60873,128,0,61029:0:0:0:0:
192,192,61029,128,0,61107:0:0:0:0:
320,192,61029,1,0,0:0:0:0:
64,192,61029,1,0,0:0:0:0:
192,192,61186,128,0,61342:0:0:0:0:
448,192,61342,128,0,61498:0:0:0:0:
320,192,61342,1,0,0:0:0:0:
64,192,61498,128,0,61654:0:0:0:0:
320,192,61654,128,0,61732:0:0:0:0:
192,192,61654,1,0,0:0:0:0:
448,192,61654,1,0,0:0:0:0:
320,192,61811,128,0,61967:0:0:0:0:
64,192,61967,1,0,0:0:0:0:
448,192,61967,1,0,0:0:0:0:
192,192,62123,128,0,62279:0:0:0:0:
64,192,62279,1,0,0:0:0:0:
320,192,62279,1,0,0:0:0:0:
448,192,62279,1,0,0:0:0:0:
64,192,62436,128,0,62592:0:0:0:0:
192,192,62592,1,0,0:0:0:0:
320,192,62592,1,0,0:0:0:0:
448,192,62748,128,0,62904:0:0:0:0:
64,192,62904,1,0,0:0:0:0:
192,192,62904,1,0,0:0:0:0:
320,192,62904,1,0,0:0:0:0:
192,192,63061,128,0,63217:0:0:0:0:
64,192,63217,1,0,0:0:0:0:
448,192,63217,1,0,0:0:0:0:
320,192,63373,128,0,63529:0:0:0:0:
64,192,63529,128,0,63686:0:0:0:0:
192,192,63529,1,0,0:0:0:0:
448,192,63529,1,0,0:0:0:0:
448,192,63686,128,0,63842:0:0:0:0:
192,192,63842,128,0,63998:0:0:0:0:
64,192,63842,1,0,0:0:0:0:
320,192,63998,128,0,64154:0:0:0:0:
448,192,64154,128,0,64311:0:0:0:0:
192,192,64154,1,0,0:0:0:0:
64,192,64154,1,0,0:0:0:0:
64,192,64311,128,0,64623:0:0:0:0:
192,192,64311,1,0,0:0:0:0:
320,192,64311,1,0,0:0:0:0:
320,192,64623,1,0,0:0:0:0:
448,192,64623,1,0,0:0:0:0:
192,192,64701,1,0,0:0:0:0:
64,192,64779,1,0,0:0:0:0:
448,192,64779,1,0,0:0:0:0:
320,192,64857,1,0,0:0:0:0:
192,192,64936,1,0,0:0:0:0:
64,192,64936,1,0,0:0:0:0:
320,192,65014,1,0,0:0:0:0:
64,192,65092,1,0,0:0:0:0:
448,192,65092,1,0,0:0:0:0:
192,192,65248,1,0,0:0:0:0:
448,192,65248,1,0,0:0:0:0:
320,192,65404,1,0,0:0:0:0:
192,192,65404,1,0,0:0:0:0:
64,192,65561,128,0,65873:0:0:0:0:
448,192,65561,1,0,0:0:0:0:
320,192,65561,1,0,0:0:0:0:
320,192,65873,128,0,66029:0:0:0:0:
192,192,66029,128,0,66186:0:0:0:0:
448,192,66029,1,0,0:0:0:0:
64,192,66029,1,0,0:0:0:0:
448,192,66186,128,0,66342:0:0:0:0:
64,192,66342,128,0,66498:0:0:0:0:
192,192,66342,1,0,0:0:0:0:
320,192,66498,1,0,0:0:0:0:
448,192,66654,128,0,67123:0:0:0:0:
64,192,66654,1,0,0:0:0:0:
192,192,66654,1,0,0:0:0:0:
320,192,66811,128,0,67123:0:0:0:0:
192,192,66967,1,0,0:0:0:0:
64,192,66967,1,0,0:0:0:0:
64,192,67123,128,0,67279:0:0:0:0:
320,192,67279,128,0,67436:0:0:0:0:
448,192,67279,1,0,0:0:0:0:
192,192,67279,1,0,0:0:0:0:
192,192,67436,128,0,67592:0:0:0:0:
448,192,67592,128,0,67748:0:0:0:0:
320,192,67748,1,0,0:0:0:0:
64,192,67748,1,0,0:0:0:0:
64,192,67904,1,0,0:0:0:0:
448,192,67904,1,0,0:0:0:0:
192,192,67904,128,0,68373:0:0:0:0:
320,192,68061,128,0,68373:0:0:0:0:
448,192,68217,1,0,0:0:0:0:
64,192,68217,1,0,0:0:0:0:
448,192,68373,128,0,68529:0:0:0:0:
64,192,68529,128,0,68686:0:0:0:0:
192,192,68529,1,0,0:0:0:0:
320,192,68529,1,0,0:0:0:0:
320,192,68686,128,0,68842:0:0:0:0:
192,192,68842,128,0,68998:0:0:0:0:
64,192,68842,1,0,0:0:0:0:
448,192,68998,128,0,69154:0:0:0:0:
192,192,69154,128,0,69311:0:0:0:0:
64,192,69154,1,0,0:0:0:0:
320,192,69154,1,0,0:0:0:0:
320,192,69311,128,0,69467:0:0:0:0:
448,192,69467,1,0,0:0:0:0:
64,192,69467,1,0,0:0:0:0:
320,192,69623,128,0,69779:0:0:0:0:
448,192,69779,1,0,0:0:0:0:
192,192,69779,128,0,69936:0:0:0:0:
64,192,69779,1,0,0:0:0:0:
64,192,69936,128,0,70092:0:0:0:0:
320,192,70092,1,0,0:0:0:0:
448,192,70092,1,0,0:0:0:0:
192,192,70248,1,0,0:0:0:0:
448,192,70404,1,0,0:0:0:0:
64,192,70404,128,0,70482:0:0:0:0:
64,192,70561,128,0,70873:0:0:0:0:
320,192,70561,1,0,0:0:0:0:
192,192,70561,1,0,0:0:0:0:
320,192,70717,1,0,0:0:0:0:
448,192,70873,1,0,0:0:0:0:
192,192,71029,128,0,71186:0:0:0:0:
320,192,71029,1,0,0:0:0:0:
64,192,71029,1,0,0:0:0:0:
448,192,71186,1,0,0:0:0:0:
320,192,71342,128,0,71498:0:0:0:0:
64,192,71342,1,0,0:0:0:0:
192,192,71498,1,0,0:0:0:0:
448,192,71654,128,0,71811:0:0:0:0:
64,192,71654,1,0,0:0:0:0:
320,192,71654,1,0,0:0:0:0:
192,192,71811,1,0,0:0:0:0:
64,192,71967,128,0,72123:0:0:0:0:
320,192,72123,1,0,0:0:0:0:
448,192,72123,1,0,0:0:0:0:
192,192,72201,1,0,0:0:0:0:
64,192,72279,1,0,0:0:0:0:
448,192,72279,1,0,0:0:0:0:
320,192,72357,1,0,0:0:0:0:
192,192,72436,1,0,0:0:0:0:
64,192,72436,1,0,0:0:0:0:
320,192,72514,1,0,0:0:0:0:
64,192,72592,1,0,0:0:0:0:
192,192,72592,1,0,0:0:0:0:
448,192,72592,1,0,0:0:0:0:
320,192,72748,1,0,0:0:0:0:
448,192,72748,1,0,0:0:0:0:
192,192,72904,1,0,0:0:0:0:
320,192,72904,1,0,0:0:0:0:
64,192,73061,1,0,0:0:0:0:
192,192,73061,1,0,0:0:0:0:
448,192,73061,128,0,73295:0:0:0:0:
320,192,73295,1,0,0:0:0:0:
192,192,73373,128,0,73451:0:0:0:0:
64,192,73529,128,0,73842:0:0:0:0:
448,192,73529,1,0,0:0:0:0:
192,192,73686,1,0,0:0:0:0:
448,192,73842,128,0,74154:0:0:0:0:
320,192,73842,128,0,74154:0:0:0:0:
64,192,74154,128,0,74232:0:0:0:0:
64,192,74311,128,0,74623:0:0:0:0:
192,192,74311,1,0,0:0:0:0:
448,192,74311,1,0,0:0:0:0:
448,192,74623,128,0,74701:0:0:0:0:
448,192,74779,128,0,75092:0:0:0:0:
64,192,74779,1,0,0:0:0:0:
320,192,74936,1,0,0:0:0:0:
192,192,75092,128,0,75404:0:0:0:0:
64,192,75092,128,0,75404:0:0:0:0:
448,192,75404,128,0,75482:0:0:0:0:
448,192,75561,128,0,75873:0:0:0:0:
320,192,75561,1,0,0:0:0:0:
64,192,75561,1,0,0:0:0:0:
64,192,75873,128,0,75951:0:0:0:0:
64,192,76029,128,0,76342:0:0:0:0:
448,192,76029,1,0,0:0:0:0:
192,192,76186,1,0,0:0:0:0:
320,192,76342,128,0,76498:0:0:0:0:
192,192,76498,128,0,76654:0:0:0:0:
64,192,76654,128,0,76811:0:0:0:0:
448,192,76811,128,0,77123:0:0:0:0:
320,192,76811,1,0,0:0:0:0:
192,192,76811,1,0,0:0:0:0:
64,192,77123,128,0,77436:0:0:0:0:
192,192,77279,1,0,0:0:0:0:
448,192,77436,1,0,0:0:0:0:
192,192,77592,1,0,0:0:0:0:
64,192,77592,1,0,0:0:0:0:
320,192,77670,1,0,0:0:0:0:
64,192,77748,1,0,0:0:0:0:
448,192,77748,1,0,0:0:0:0:
192,192,77826,1,0,0:0:0:0:
448,192,77904,128,0,78217:0:0:0:0:
320,192,77904,1,0,0:0:0:0:
192,192,78217,128,0,78373:0:0:0:0:
448,192,78529,128,0,78842:0:0:0:0:
64,192,78842,128,0,79154:0:0:0:0:
320,192,79154,128,0,79467:0:0:0:0:
192,192,79311,128,0,79467:0:0:0:0:
448,192,79467,128,0,79779:0:0:0:0:
64,192,79779,128,0,79936:0:0:0:0:
320,192,79936,128,0,80248:0:0:0:0:
192,192,80404,128,0,80482:0:0:0:0:
192,192,80561,128,0,80717:0:0:0:0:
64,192,80717,1,0,0:0:0:0:
320,192,80717,1,0,0:0:0:0:
448,192,80717,1,0,0:0:0:0:
320,192,80873,1,0,0:0:0:0:
64,192,81029,1,0,0:0:0:0:
192,192,81029,1,0,0:0:0:0:
448,192,81029,1,0,0:0:0:0:
64,192,81186,1,0,0:0:0:0:
192,192,81342,1,0,0:0:0:0:
448,192,81342,1,0,0:0:0:0:
320,192,81342,1,0,0:0:0:0:
448,192,81498,1,0,0:0:0:0:
320,192,81654,1,0,0:0:0:0:
192,192,81654,1,0,0:0:0:0:
64,192,81654,1,0,0:0:0:0:
192,192,81811,1,0,0:0:0:0:
320,192,81967,128,0,82279:0:0:0:0:
64,192,81967,128,0,82201:0:0:0:0:
448,192,81967,128,0,82357:0:0:0:0:
192,192,82436,128,0,82592:0:0:0:0:
448,192,82592,128,0,82748:0:0:0:0:
64,192,82748,128,0,82904:0:0:0:0:
320,192,82904,128,0,83061:0:0:0:0:
192,192,83061,128,0,83217:0:0:0:0:
448,192,83217,1,0,0:0:0:0:
64,192,83217,128,0,83373:0:0:0:0:
320,192,83217,1,0,0:0:0:0:
320,192,83373,128,0,83529:0:0:0:0:
192,192,83529,128,0,83686:0:0:0:0:
448,192,83529,1,0,0:0:0:0:
64,192,83529,1,0,0:0:0:0:
448,192,83686,128,0,83842:0:0:0:0:
320,192,83764,128,0,83842:0:0:0:0:
192,192,83842,1,0,0:0:0:0:
64,192,83842,128,0,83998:0:0:0:0:
448,192,83998,128,0,84076:0:0:0:0:
192,192,83998,1,0,0:0:0:0:
320,192,84154,128,0,84232:0:0:0:0:
448,192,84154,1,0,0:0:0:0:
64,192,84154,1,0,0:0:0:0:
192,192,84311,128,0,84389:0:0:0:0:
320,192,84311,1,0,0:0:0:0:
192,192,84467,1,0,0:0:0:0:
448,192,84467,128,0,84701:0:0:0:0:
64,192,84467,128,0,84701:0:0:0:0:
320,192,84623,128,0,84701:0:0:0:0:
64,192,84779,1,0,0:0:0:0:
192,192,84779,1,0,0:0:0:0:
320,192,84779,1,0,0:0:0:0:
448,192,84936,128,0,85092:0:0:0:0:
320,192,85014,128,0,85092:0:0:0:0:
64,192,85092,128,0,85248:0:0:0:0:
192,192,85092,1,0,0:0:0:0:
192,192,85248,128,0,85404:0:0:0:0:
320,192,85248,1,0,0:0:0:0:
448,192,85404,1,0,0:0:0:0:
64,192,85404,1,0,0:0:0:0:
320,192,85404,128,0,85561:0:0:0:0:
192,192,85561,1,0,0:0:0:0:
448,192,85717,128,0,85873:0:0:0:0:
320,192,85717,1,0,0:0:0:0:
64,192,85717,1,0,0:0:0:0:
192,192,85873,128,0,86029:0:0:0:0:
448,192,86029,1,0,0:0:0:0:
64,192,86029,1,0,0:0:0:0:
320,192,86029,128,0,86186:0:0:0:0:
64,192,86186,128,0,86342:0:0:0:0:
192,192,86264,128,0,86342:0:0:0:0:
448,192,86342,128,0,86498:0:0:0:0:
320,192,86342,1,0,0:0:0:0:
64,192,86498,128,0,86654:0:0:0:0:
192,192,86498,128,0,86576:0:0:0:0:
448,192,86654,1,0,0:0:0:0:
192,192,86654,128,0,86811:0:0:0:0:
320,192,86654,128,0,86732:0:0:0:0:
64,192,86811,1,0,0:0:0:0:
320,192,86811,128,0,87123:0:0:0:0:
192,192,86967,128,0,87123:0:0:0:0:
448,192,86967,1,0,0:0:0:0:
448,192,87123,128,0,87279:0:0:0:0:
64,192,87123,128,0,87201:0:0:0:0:
320,192,87279,1,0,0:0:0:0:
64,192,87279,128,0,87436:0:0:0:0:
192,192,87279,128,0,87357:0:0:0:0:
448,192,87436,128,0,87592:0:0:0:0:
320,192,87436,128,0,87514:0:0:0:0:
192,192,87592,1,0,0:0:0:0:
64,192,87592,1,0,0:0:0:0:
320,192,87670,1,0,0:0:0:0:
64,192,87748,1,0,0:0:0:0:
448,192,87748,1,0,0:0:0:0:
192,192,87826,1,0,0:0:0:0:
320,192,87904,1,0,0:0:0:0:
448,192,87904,1,0,0:0:0:0:
448,192,88061,128,0,88529:0:0:0:0:
192,192,88061,128,0,88607:0:0:0:0:
64,192,88061,128,0,88686:0:0:0:0:
