osu file format v14

[General]
AudioFilename: audio.ogg
AudioLeadIn: 0
PreviewTime: 54868
Countdown: 0
SampleSet: Soft
StackLeniency: 0.7
Mode: 3
LetterboxInBreaks: 0
SpecialStyle: 0
WidescreenStoryboard: 1

[Editor]
DistanceSpacing: 0.8
BeatDivisor: 4
GridSize: 4
TimelineZoom: 2.8

[Metadata]
Title:Shouted Serenade (TV Size)
TitleUnicode:Shouted Serenade (TV Size)
Artist:LiSA
ArtistUnicode:LiSA
Creator:Savageeeee
Version:Easy
Source:魔法科高校の劣等生
Tags:darkebluu mahouka koukou no rettousei gekijouhan the irregular at magic high school opening 3 3rd third 3期 season anime japanese jrock rock j-rock horie shota shouta 堀江晶太 Tomoya Tabuchi 田淵智也
BeatmapID:4568143
BeatmapSetID:2165501

[Difficulty]
HPDrainRate:6.5
CircleSize:4
OverallDifficulty:6.5
ApproachRate:5
SliderMultiplier:1.4
SliderTickRate:1

[Events]
//Background and Video events
0,0,"bg.jpg",0,0
Video,0,"video.avi"
//Break Periods
//Storyboard Layer 0 (Background)
//Storyboard Layer 1 (Fail)
//Storyboard Layer 2 (Pass)
//Storyboard Layer 3 (Foreground)
//Storyboard Layer 4 (Overlay)
//Storyboard Sound Samples

[TimingPoints]
561,312.5,4,2,1,50,1,0
55561,-100,4,2,1,50,0,1
78217,-100,4,2,1,50,0,0

[HitObjects]
320,192,92,5,0,0:0:0:0:
192,192,248,128,0,561:0:0:0:0:
320,192,561,128,0,873:0:0:0:0:
64,192,873,1,0,0:0:0:0:
448,192,1029,1,0,0:0:0:0:
192,192,1342,1,0,0:0:0:0:
320,192,1498,1,0,0:0:0:0:
448,192,1654,1,0,0:0:0:0:
192,192,1967,1,0,0:0:0:0:
448,192,2123,1,0,0:0:0:0:
64,192,2279,1,0,0:0:0:0:
320,192,2436,1,0,0:0:0:0:
192,192,2592,128,0,2904:0:0:0:0:
64,192,2904,1,0,0:0:0:0:
448,192,3061,128,0,3373:0:0:0:0:
320,192,3061,1,0,0:0:0:0:
64,192,3373,1,0,0:0:0:0:
320,192,3529,1,0,0:0:0:0:
320,192,3842,1,0,0:0:0:0:
192,192,4154,1,0,0:0:0:0:
448,192,4311,1,0,0:0:0:0:
64,192,4467,1,0,0:0:0:0:
320,192,4779,1,0,0:0:0:0:
64,192,5561,1,0,0:0:0:0:
448,192,5561,1,0,0:0:0:0:
448,192,5873,1,0,0:0:0:0:
192,192,6029,1,0,0:0:0:0:
320,192,6186,1,0,0:0:0:0:
64,192,6342,1,0,0:0:0:0:
64,192,6654,1,0,0:0:0:0:
448,192,6967,1,0,0:0:0:0:
448,192,7279,1,0,0:0:0:0:
320,192,7592,1,0,0:0:0:0:
192,192,7748,1,0,0:0:0:0:
64,192,8061,1,0,0:0:0:0:
448,192,8217,1,0,0:0:0:0:
192,192,8451,1,0,0:0:0:0:
320,192,8686,1,0,0:0:0:0:
448,192,8920,1,0,0:0:0:0:
64,192,9154,1,0,0:0:0:0:
320,192,9467,1,0,0:0:0:0:
448,192,9467,1,0,0:0:0:0:
192,192,9701,1,0,0:0:0:0:
64,192,9701,1,0,0:0:0:0:
320,192,9936,1,0,0:0:0:0:
448,192,9936,1,0,0:0:0:0:
192,192,10092,1,0,0:0:0:0:
448,192,10717,1,0,0:0:0:0:
64,192,10717,128,0,11029:0:0:0:0:
320,192,11029,128,0,11342:0:0:0:0:
192,192,11342,128,0,11654:0:0:0:0:
448,192,11654,1,0,0:0:0:0:
64,192,11811,1,0,0:0:0:0:
320,192,11967,1,0,0:0:0:0:
192,192,12123,1,0,0:0:0:0:
320,192,12436,1,0,0:0:0:0:
64,192,12592,1,0,0:0:0:0:
192,192,12748,1,0,0:0:0:0:
448,192,12904,128,0,13217:0:0:0:0:
64,192,13217,128,0,13529:0:0:0:0:
448,192,13529,128,0,13842:0:0:0:0:
192,192,13842,128,0,14154:0:0:0:0:
320,192,14154,1,0,0:0:0:0:
64,192,14311,1,0,0:0:0:0:
192,192,14623,1,0,0:0:0:0:
448,192,14779,1,0,0:0:0:0:
64,192,14936,1,0,0:0:0:0:
320,192,15092,1,0,0:0:0:0:
192,192,15248,128,0,15561:0:0:0:0:
320,192,15561,1,0,0:0:0:0:
448,192,15561,1,0,0:0:0:0:
64,192,15717,1,0,0:0:0:0:
192,192,16029,1,0,0:0:0:0:
448,192,16342,1,0,0:0:0:0:
448,192,16654,1,0,0:0:0:0:
64,192,16967,1,0,0:0:0:0:
64,192,17279,1,0,0:0:0:0:
320,192,17592,1,0,0:0:0:0:
192,192,17748,1,0,0:0:0:0:
64,192,18061,1,0,0:0:0:0:
448,192,18217,1,0,0:0:0:0:
192,192,18373,1,0,0:0:0:0:
320,192,18529,1,0,0:0:0:0:
64,192,18842,1,0,0:0:0:0:
64,192,19154,1,0,0:0:0:0:
448,192,19467,1,0,0:0:0:0:
448,192,19779,1,0,0:0:0:0:
192,192,20092,1,0,0:0:0:0:
320,192,20248,1,0,0:0:0:0:
64,192,20561,1,0,0:0:0:0:
448,192,20873,1,0,0:0:0:0:
192,192,21029,1,0,0:0:0:0:
320,192,21342,1,0,0:0:0:0:
320,192,21654,1,0,0:0:0:0:
192,192,21967,1,0,0:0:0:0:
192,192,22279,1,0,0:0:0:0:
448,192,22592,1,0,0:0:0:0:
64,192,22748,1,0,0:0:0:0:
320,192,22904,1,0,0:0:0:0:
64,192,23061,1,0,0:0:0:0:
192,192,23061,1,0,0:0:0:0:
320,192,23529,1,0,0:0:0:0:
64,192,23842,1,0,0:0:0:0:
448,192,23998,1,0,0:0:0:0:
192,192,24154,1,0,0:0:0:0:
320,192,24311,1,0,0:0:0:0:
448,192,24311,1,0,0:0:0:0:
192,192,24779,128,0,25248:0:0:0:0:
320,192,25248,1,0,0:0:0:0:
64,192,25561,1,0,0:0:0:0:
448,192,25561,1,0,0:0:0:0:
192,192,25873,1,0,0:0:0:0:
320,192,26029,1,0,0:0:0:0:
64,192,26342,1,0,0:0:0:0:
64,192,26654,1,0,0:0:0:0:
320,192,26654,1,0,0:0:0:0:
448,192,26967,1,0,0:0:0:0:
448,192,27279,1,0,0:0:0:0:
192,192,27279,1,0,0:0:0:0:
64,192,27592,1,0,0:0:0:0:
320,192,27748,1,0,0:0:0:0:
192,192,28061,1,0,0:0:0:0:
448,192,28373,1,0,0:0:0:0:
64,192,28529,1,0,0:0:0:0:
320,192,28842,1,0,0:0:0:0:
320,192,29154,1,0,0:0:0:0:
448,192,29154,1,0,0:0:0:0:
192,192,29467,1,0,0:0:0:0:
192,192,29779,1,0,0:0:0:0:
64,192,29779,1,0,0:0:0:0:
320,192,30092,1,0,0:0:0:0:
192,192,30248,1,0,0:0:0:0:
64,192,30561,1,0,0:0:0:0:
448,192,30561,1,0,0:0:0:0:
320,192,30717,1,0,0:0:0:0:
192,192,31029,1,0,0:0:0:0:
448,192,31342,1,0,0:0:0:0:
448,192,31654,1,0,0:0:0:0:
192,192,31654,1,0,0:0:0:0:
64,192,31967,1,0,0:0:0:0:
64,192,32279,1,0,0:0:0:0:
320,192,32279,1,0,0:0:0:0:
192,192,32592,1,0,0:0:0:0:
448,192,32748,1,0,0:0:0:0:
320,192,32904,1,0,0:0:0:0:
64,192,33061,1,0,0:0:0:0:
192,192,33061,1,0,0:0:0:0:
448,192,33373,1,0,0:0:0:0:
64,192,33529,1,0,0:0:0:0:
64,192,33842,1,0,0:0:0:0:
320,192,33998,1,0,0:0:0:0:
192,192,34154,1,0,0:0:0:0:
320,192,34311,1,0,0:0:0:0:
448,192,34311,1,0,0:0:0:0:
64,192,34623,1,0,0:0:0:0:
320,192,34779,128,0,35092:0:0:0:0:
192,192,35092,1,0,0:0:0:0:
448,192,35248,1,0,0:0:0:0:
320,192,35404,1,0,0:0:0:0:
192,192,35561,1,0,0:0:0:0:
64,192,35561,128,0,35873:0:0:0:0:
448,192,35873,1,0,0:0:0:0:
192,192,36029,1,0,0:0:0:0:
320,192,36342,1,0,0:0:0:0:
64,192,36498,1,0,0:0:0:0:
448,192,36654,1,0,0:0:0:0:
192,192,36811,128,0,37123:0:0:0:0:
320,192,37123,128,0,37436:0:0:0:0:
64,192,37436,1,0,0:0:0:0:
448,192,37592,1,0,0:0:0:0:
192,192,37748,1,0,0:0:0:0:
320,192,37904,1,0,0:0:0:0:
448,192,38061,128,0,38373:0:0:0:0:
64,192,38373,1,0,0:0:0:0:
320,192,38529,1,0,0:0:0:0:
192,192,38842,1,0,0:0:0:0:
448,192,38998,1,0,0:0:0:0:
64,192,39154,1,0,0:0:0:0:
320,192,39311,128,0,39623:0:0:0:0:
192,192,39623,1,0,0:0:0:0:
448,192,39779,128,0,40092:0:0:0:0:
64,192,40092,1,0,0:0:0:0:
320,192,40248,1,0,0:0:0:0:
192,192,40404,1,0,0:0:0:0:
448,192,40561,128,0,40873:0:0:0:0:
320,192,40873,1,0,0:0:0:0:
64,192,41029,1,0,0:0:0:0:
448,192,41186,1,0,0:0:0:0:
192,192,41342,128,0,41654:0:0:0:0:
320,192,41654,1,0,0:0:0:0:
64,192,41811,1,0,0:0:0:0:
320,192,41967,128,0,42279:0:0:0:0:
192,192,42279,1,0,0:0:0:0:
448,192,42436,1,0,0:0:0:0:
64,192,42592,128,0,42904:0:0:0:0:
320,192,42904,1,0,0:0:0:0:
192,192,43061,128,0,43373:0:0:0:0:
448,192,43373,128,0,43686:0:0:0:0:
64,192,43686,1,0,0:0:0:0:
320,192,43842,1,0,0:0:0:0:
192,192,43998,1,0,0:0:0:0:
448,192,44154,1,0,0:0:0:0:
64,192,44311,128,0,44623:0:0:0:0:
192,192,44311,1,0,0:0:0:0:
448,192,44623,128,0,45092:0:0:0:0:
64,192,45092,1,0,0:0:0:0:
192,192,45248,1,0,0:0:0:0:
320,192,45404,1,0,0:0:0:0:
64,192,45561,1,0,0:0:0:0:
448,192,45561,128,0,45873:0:0:0:0:
320,192,45873,1,0,0:0:0:0:
192,192,46029,1,0,0:0:0:0:
64,192,46186,1,0,0:0:0:0:
320,192,46342,128,0,46654:0:0:0:0:
192,192,46654,1,0,0:0:0:0:
448,192,46811,128,0,47123:0:0:0:0:
320,192,47123,1,0,0:0:0:0:
64,192,47279,1,0,0:0:0:0:
448,192,47436,1,0,0:0:0:0:
192,192,47592,1,0,0:0:0:0:
320,192,47748,128,0,48061:0:0:0:0:
64,192,48061,128,0,48373:0:0:0:0:
192,192,48373,1,0,0:0:0:0:
448,192,48529,1,0,0:0:0:0:
64,192,48686,1,0,0:0:0:0:
320,192,48842,128,0,49154:0:0:0:0:
192,192,49154,1,0,0:0:0:0:
448,192,49311,128,0,49623:0:0:0:0:
320,192,49623,1,0,0:0:0:0:
64,192,49779,128,0,50092:0:0:0:0:
448,192,50092,1,0,0:0:0:0:
320,192,50248,1,0,0:0:0:0:
192,192,50404,1,0,0:0:0:0:
448,192,50561,1,0,0:0:0:0:
64,192,50561,128,0,50873:0:0:0:0:
320,192,50873,1,0,0:0:0:0:
448,192,51029,1,0,0:0:0:0:
192,192,51186,1,0,0:0:0:0:
320,192,51342,128,0,51654:0:0:0:0:
64,192,51654,1,0,0:0:0:0:
448,192,51811,128,0,52123:0:0:0:0:
320,192,52123,1,0,0:0:0:0:
64,192,52279,1,0,0:0:0:0:
448,192,52436,1,0,0:0:0:0:
192,192,52592,128,0,52904:0:0:0:0:
320,192,52904,1,0,0:0:0:0:
64,192,53061,128,0,53373:0:0:0:0:
448,192,53373,128,0,53686:0:0:0:0:
192,192,53842,128,0,54311:0:0:0:0:
320,192,54311,128,0,54936:0:0:0:0:
64,192,54936,1,0,0:0:0:0:
448,192,55092,1,0,0:0:0:0:
320,192,55248,1,0,0:0:0:0:
192,192,55404,1,0,0:0:0:0:
64,192,55561,1,0,0:0:0:0:
448,192,55561,128,0,55873:0:0:0:0:
192,192,55873,1,0,0:0:0:0:
320,192,56029,1,0,0:0:0:0:
64,192,56186,1,0,0:0:0:0:
192,192,56342,1,0,0:0:0:0:
448,192,56654,1,0,0:0:0:0:
64,192,56811,128,0,57123:0:0:0:0:
320,192,57123,1,0,0:0:0:0:
192,192,57279,1,0,0:0:0:0:
448,192,57436,1,0,0:0:0:0:
320,192,57592,1,0,0:0:0:0:
64,192,57904,1,0,0:0:0:0:
448,192,58061,128,0,58373:0:0:0:0:
192,192,58373,1,0,0:0:0:0:
64,192,58529,1,0,0:0:0:0:
320,192,58686,1,0,0:0:0:0:
192,192,58842,128,0,59154:0:0:0:0:
448,192,59154,1,0,0:0:0:0:
64,192,59311,128,0,59623:0:0:0:0:
320,192,59623,1,0,0:0:0:0:
192,192,59779,1,0,0:0:0:0:
64,192,60092,1,0,0:0:0:0:
192,192,60248,1,0,0:0:0:0:
320,192,60404,1,0,0:0:0:0:
64,192,60561,1,0,0:0:0:0:
448,192,60561,128,0,60873:0:0:0:0:
192,192,60873,1,0,0:0:0:0:
320,192,61029,1,0,0:0:0:0:
448,192,61186,1,0,0:0:0:0:
64,192,61342,128,0,61654:0:0:0:0:
320,192,61654,1,0,0:0:0:0:
192,192,61811,128,0,62123:0:0:0:0:
448,192,62123,128,0,62436:0:0:0:0:
64,192,62436,128,0,62748:0:0:0:0:
320,192,62748,128,0,63061:0:0:0:0:
192,192,63061,128,0,63373:0:0:0:0:
448,192,63373,1,0,0:0:0:0:
64,192,63529,128,0,63842:0:0:0:0:
320,192,63842,128,0,64154:0:0:0:0:
192,192,64154,1,0,0:0:0:0:
448,192,64311,128,0,64623:0:0:0:0:
192,192,64623,1,0,0:0:0:0:
320,192,64936,1,0,0:0:0:0:
64,192,65092,1,0,0:0:0:0:
448,192,65248,1,0,0:0:0:0:
192,192,65404,1,0,0:0:0:0:
448,192,65561,1,0,0:0:0:0:
64,192,65561,128,0,65873:0:0:0:0:
320,192,65873,1,0,0:0:0:0:
192,192,66029,1,0,0:0:0:0:
448,192,66186,1,0,0:0:0:0:
320,192,66342,1,0,0:0:0:0:
64,192,66654,1,0,0:0:0:0:
448,192,66811,128,0,67123:0:0:0:0:
192,192,67123,1,0,0:0:0:0:
320,192,67279,1,0,0:0:0:0:
64,192,67436,1,0,0:0:0:0:
192,192,67592,1,0,0:0:0:0:
448,192,67904,1,0,0:0:0:0:
64,192,68061,128,0,68373:0:0:0:0:
320,192,68373,1,0,0:0:0:0:
448,192,68529,1,0,0:0:0:0:
192,192,68686,1,0,0:0:0:0:
320,192,68842,128,0,69154:0:0:0:0:
64,192,69154,1,0,0:0:0:0:
448,192,69311,1,0,0:0:0:0:
320,192,69623,1,0,0:0:0:0:
192,192,69779,1,0,0:0:0:0:
64,192,69936,1,0,0:0:0:0:
448,192,70092,1,0,0:0:0:0:
192,192,70404,1,0,0:0:0:0:
320,192,70561,128,0,70873:0:0:0:0:
64,192,71029,128,0,71342:0:0:0:0:
448,192,71342,128,0,71654:0:0:0:0:
320,192,71654,128,0,71967:0:0:0:0:
192,192,71967,128,0,72279:0:0:0:0:
448,192,72279,128,0,72592:0:0:0:0:
64,192,72592,1,0,0:0:0:0:
192,192,72748,1,0,0:0:0:0:
320,192,72904,1,0,0:0:0:0:
64,192,73061,1,0,0:0:0:0:
448,192,73373,1,0,0:0:0:0:
192,192,73529,1,0,0:0:0:0:
320,192,73842,128,0,74154:0:0:0:0:
192,192,74154,1,0,0:0:0:0:
448,192,74311,1,0,0:0:0:0:
64,192,74623,1,0,0:0:0:0:
320,192,74779,1,0,0:0:0:0:
192,192,75092,128,0,75404:0:0:0:0:
448,192,75404,1,0,0:0:0:0:
320,192,75561,1,0,0:0:0:0:
64,192,75873,1,0,0:0:0:0:
192,192,76029,1,0,0:0:0:0:
448,192,76342,1,0,0:0:0:0:
320,192,76498,1,0,0:0:0:0:
192,192,76654,1,0,0:0:0:0:
64,192,76811,128,0,77123:0:0:0:0:
448,192,77123,128,0,77436:0:0:0:0:
192,192,77592,1,0,0:0:0:0:
320,192,77748,1,0,0:0:0:0:
192,192,77904,128,0,78217:0:0:0:0:
448,192,78217,128,0,78529:0:0:0:0:
64,192,78529,128,0,78842:0:0:0:0:
192,192,78842,128,0,79154:0:0:0:0:
320,192,79154,128,0,79467:0:0:0:0:
64,192,79467,128,0,79779:0:0:0:0:
448,192,79779,1,0,0:0:0:0:
192,192,79936,128,0,80248:0:0:0:0:
320,192,80404,1,0,0:0:0:0:
192,192,80561,1,0,0:0:0:0:
448,192,80717,1,0,0:0:0:0:
64,192,80717,1,0,0:0:0:0:
192,192,81029,1,0,0:0:0:0:
448,192,81029,1,0,0:0:0:0:
320,192,81342,1,0,0:0:0:0:
64,192,81342,1,0,0:0:0:0:
64,192,81654,1,0,0:0:0:0:
448,192,81654,1,0,0:0:0:0:
192,192,81967,1,0,0:0:0:0:
320,192,81967,1,0,0:0:0:0:
64,192,83217,1,0,0:0:0:0:
448,192,83217,128,0,83529:0:0:0:0:
192,192,83529,128,0,83842:0:0:0:0:
320,192,83842,128,0,84154:0:0:0:0:
64,192,84154,1,0,0:0:0:0:
448,192,84311,1,0,0:0:0:0:
192,192,84467,1,0,0:0:0:0:
320,192,84623,1,0,0:0:0:0:
192,192,84936,1,0,0:0:0:0:
448,192,85092,1,0,0:0:0:0:
320,192,85248,1,0,0:0:0:0:
64,192,85404,128,0,85717:0:0:0:0:
448,192,85717,128,0,86029:0:0:0:0:
320,192,85717,1,0,0:0:0:0:
192,192,86029,128,0,86342:0:0:0:0:
448,192,86342,1,0,0:0:0:0:
64,192,86498,1,0,0:0:0:0:
192,192,86654,1,0,0:0:0:0:
320,192,86811,128,0,87123:0:0:0:0:
64,192,87123,1,0,0:0:0:0:
448,192,87279,1,0,0:0:0:0:
192,192,87436,1,0,0:0:0:0:
320,192,87592,1,0,0:0:0:0:
448,192,87748,128,0,88061:0:0:0:0:
192,192,88061,1,0,0:0:0:0:
64,192,88061,128,0,88686:0:0:0:0:
