osu file format v14

[General]
AudioFilename: LiSA - Shirushi.mp3
AudioLeadIn: 0
PreviewTime: 57990
Countdown: 0
SampleSet: Normal
StackLeniency: 0.7
Mode: 1
LetterboxInBreaks: 0
WidescreenStoryboard: 0

[Editor]
DistanceSpacing: 1.6
BeatDivisor: 4
GridSize: 32
TimelineZoom: 1.2

[Metadata]
Title:Shirushi -TV ver.-
TitleUnicode:シルシ -TV ver.-
Artist:LiSA
ArtistUnicode:LiSA
Creator:streeteelf
Version:Futsuu
Source:ソードアート・オンラインⅡ
Tags:ending Sword Art Online sao kirito asuna TV size Mother's Rosario yuuki
BeatmapID:683032
BeatmapSetID:304910

[Difficulty]
HPDrainRate:8
CircleSize:2
OverallDifficulty:4
ApproachRate:10
SliderMultiplier:1.4
SliderTickRate:1

[Events]
//Background and Video events
0,0,"sword_art_online_mother_s_rosario___colorful_wish_by_lysergicx-d87bke6.jpg",0,50
//Break Periods
//Storyboard Layer 0 (Background)
//Storyboard Layer 1 (Fail)
//Storyboard Layer 2 (Pass)
//Storyboard Layer 3 (Foreground)
//Storyboard Sound Samples

[TimingPoints]
1792,410.958904109589,4,1,0,60,1,0
12271,-100,4,1,0,50,0,0
14737,-100,4,1,0,40,0,0
16483,-100,4,1,0,30,0,0
16689,-100,4,1,0,60,0,0
39497,-100,4,1,0,40,0,0
41038,-100,4,1,0,50,0,0
42682,-100,4,1,0,52,0,0
43093,-100,4,1,0,54,0,0
43504,-100,4,1,0,56,0,0
43915,-100,4,1,0,58,0,0
44326,-100,4,1,0,60,0,0
49257,-100,4,1,0,70,0,0
54600,-100,4,1,0,50,0,0
59326,-100,4,1,0,60,0,1
82339,-100,4,1,0,60,0,0
85319,-100,4,1,0,30,0,0

[HitObjects]
256,192,1792,5,0,0:0:0:0:
256,192,2408,1,0,0:0:0:0:
256,192,3024,1,8,0:0:0:0:
256,192,4257,1,0,0:0:0:0:
256,192,4668,1,8,0:0:0:0:
256,192,5079,1,0,0:0:0:0:
256,192,5696,1,0,0:0:0:0:
256,192,6312,1,8,0:0:0:0:
256,192,7545,1,0,0:0:0:0:
256,192,7956,1,8,0:0:0:0:
256,192,8367,1,0,0:0:0:0:
256,192,8778,1,0,0:0:0:0:
256,192,9189,1,8,0:0:0:0:
256,192,10011,1,0,0:0:0:0:
256,192,10833,1,8,0:0:0:0:
256,192,11655,1,8,0:0:0:0:
256,192,12476,1,0,0:0:0:0:
256,192,12887,1,0,0:0:0:0:
256,192,14942,1,0,0:0:0:0:
256,192,16586,1,8,0:0:0:0:
256,192,18230,1,0,0:0:0:0:
256,192,18641,1,0,0:0:0:0:
256,192,19052,1,8,0:0:0:0:
256,192,19874,1,0,0:0:0:0:
256,192,20696,1,8,0:0:0:0:
256,192,21107,1,0,0:0:0:0:
256,192,21518,1,8,0:0:0:0:
256,192,22339,1,8,0:0:0:0:
256,192,23161,1,0,0:0:0:0:
256,192,23572,1,0,0:0:0:0:
256,192,23983,1,8,0:0:0:0:
256,192,24394,1,0,0:0:0:0:
256,192,24805,1,8,0:0:0:0:
256,192,25627,1,0,0:0:0:0:
256,192,26038,1,8,0:0:0:0:
256,192,26449,1,8,0:0:0:0:
256,192,26860,1,0,0:0:0:0:
256,192,27271,1,8,0:0:0:0:
256,192,28093,1,0,0:0:0:0:
256,192,28915,1,8,0:0:0:0:
256,192,29120,1,8,0:0:0:0:
256,192,29326,1,8,0:0:0:0:
256,192,30148,1,0,0:0:0:0:
256,192,30353,1,0,0:0:0:0:
256,192,30559,1,0,0:0:0:0:
256,192,30970,1,8,0:0:0:0:
256,192,31381,1,0,0:0:0:0:
256,192,31792,1,0,0:0:0:0:
256,192,32202,1,8,0:0:0:0:
256,192,33024,1,0,0:0:0:0:
256,192,33435,1,0,0:0:0:0:
256,192,33846,1,8,0:0:0:0:
256,192,34257,1,8,0:0:0:0:
256,192,34668,1,0,0:0:0:0:
256,192,35490,1,8,0:0:0:0:
256,192,35901,1,0,0:0:0:0:
256,192,36107,1,0,0:0:0:0:
256,192,36312,1,8,0:0:0:0:
256,192,36723,1,8,0:0:0:0:
256,192,37134,1,0,0:0:0:0:
256,192,37339,1,0,0:0:0:0:
256,192,37750,1,0,0:0:0:0:
256,192,37956,1,0,0:0:0:0:
256,192,38778,1,0,0:0:0:0:
256,192,39189,1,0,0:0:0:0:
256,192,39600,1,8,0:0:0:0:
256,192,40011,1,0,0:0:0:0:
256,192,40422,1,8,0:0:0:0:
256,192,41244,1,8,0:0:0:0:
256,192,42065,1,8,0:0:0:0:
256,192,42476,1,8,0:0:0:0:
256,192,42887,1,0,0:0:0:0:
256,192,43298,1,8,0:0:0:0:
256,192,43709,1,8,0:0:0:0:
256,192,43915,1,0,0:0:0:0:
256,192,44120,1,8,0:0:0:0:
256,192,44531,1,0,0:0:0:0:
256,192,45353,1,8,0:0:0:0:
256,192,45764,1,8,0:0:0:0:
256,192,46175,1,0,0:0:0:0:
256,192,46997,1,8,0:0:0:0:
256,192,47408,1,0,0:0:0:0:
256,192,47613,1,0,0:0:0:0:
256,192,47819,1,8,0:0:0:0:
256,192,48230,1,0,0:0:0:0:
256,192,48641,1,8,0:0:0:0:
256,192,49052,1,8,0:0:0:0:
256,192,49463,1,4,0:0:0:0:
256,192,50285,1,0,0:0:0:0:
256,192,50696,1,8,0:0:0:0:
256,192,51107,1,4,0:0:0:0:
256,192,51723,1,4,0:0:0:0:
256,192,52339,1,4,0:0:0:0:
256,192,52750,1,0,0:0:0:0:
256,192,53161,1,8,0:0:0:0:
256,192,53572,1,0,0:0:0:0:
256,192,53778,1,0,0:0:0:0:
256,192,53983,1,0,0:0:0:0:
256,192,54394,1,8,0:0:0:0:
256,192,55011,1,0,0:0:0:0:
256,192,55627,1,8,0:0:0:0:
256,192,56038,12,0,57271,0:0:0:0:
256,192,57682,5,4,0:0:0:0:
256,192,58504,1,8,0:0:0:0:
256,192,58915,1,8,0:0:0:0:
256,192,59326,1,4,0:0:0:0:
256,192,60148,1,8,0:0:0:0:
256,192,60970,1,0,0:0:0:0:
256,192,61381,1,0,0:0:0:0:
256,192,61791,1,8,0:0:0:0:
256,192,62202,1,8,0:0:0:0:
256,192,62613,1,0,0:0:0:0:
256,192,63435,1,8,0:0:0:0:
256,192,63846,1,0,0:0:0:0:
256,192,64052,1,0,0:0:0:0:
256,192,64257,1,8,0:0:0:0:
256,192,64668,1,0,0:0:0:0:
256,192,65079,1,8,0:0:0:0:
256,192,65490,1,0,0:0:0:0:
256,192,65901,1,8,0:0:0:0:
256,192,66723,1,0,0:0:0:0:
256,192,67134,1,8,0:0:0:0:
256,192,67339,1,0,0:0:0:0:
256,192,67545,1,8,0:0:0:0:
256,192,67956,1,0,0:0:0:0:
256,192,68367,1,8,0:0:0:0:
256,192,68778,1,8,0:0:0:0:
256,192,69189,1,4,0:0:0:0:
256,192,70011,1,8,0:0:0:0:
256,192,70833,1,0,0:0:0:0:
256,192,71244,1,0,0:0:0:0:
256,192,71655,1,8,0:0:0:0:
256,192,71860,1,8,0:0:0:0:
256,192,72065,1,8,0:0:0:0:
256,192,72476,1,4,0:0:0:0:
256,192,73298,1,8,0:0:0:0:
256,192,74120,1,0,0:0:0:0:
256,192,74531,1,0,0:0:0:0:
256,192,74942,1,8,0:0:0:0:
256,192,75353,1,0,0:0:0:0:
256,192,75764,1,8,0:0:0:0:
256,192,76586,1,0,0:0:0:0:
256,192,76997,1,8,0:0:0:0:
256,192,77202,1,8,0:0:0:0:
256,192,77408,1,8,0:0:0:0:
256,192,77819,1,0,0:0:0:0:
256,192,78230,1,8,0:0:0:0:
256,192,79052,1,8,0:0:0:0:
256,192,79463,1,0,0:0:0:0:
256,192,79668,1,0,0:0:0:0:
256,192,80079,1,8,0:0:0:0:
256,192,80285,1,8,0:0:0:0:
256,192,80696,1,0,0:0:0:0:
256,192,81518,1,8,0:0:0:0:
256,192,81723,1,8,0:0:0:0:
256,192,81928,1,8,0:0:0:0:
256,192,82339,1,0,0:0:0:0:
256,192,82956,1,0,0:0:0:0:
256,192,83572,1,0,0:0:0:0:
256,192,84805,1,8,0:0:0:0:
256,192,85422,12,0,88709,0:0:0:0:
