osu file format v14

[General]
AudioFilename: LiSA - [ ED3].mp3
AudioLeadIn: 0
PreviewTime: 57887
Countdown: 0
SampleSet: Soft
StackLeniency: 0.7
Mode: 0
LetterboxInBreaks: 0
WidescreenStoryboard: 0

[Editor]
Bookmarks: 64257,77408
DistanceSpacing: 1.1
BeatDivisor: 8
GridSize: 4
TimelineZoom: 1.200006

[Metadata]
Title:Shirushi (TV Size)
TitleUnicode:シルシ (TV Size)
Artist:LiSA
ArtistUnicode:LiSA
Creator:aigoh
Version:Normal
Source:ソードアート・オンラインⅡ
Tags:Sword Art Online SAO ED ending 3 Mother's Rosario
BeatmapID:1685618
BeatmapSetID:232301

[Difficulty]
HPDrainRate:4
CircleSize:3
OverallDifficulty:4
ApproachRate:5
SliderMultiplier:1.99999990463257
SliderTickRate:1

[Events]
//Background and Video events
0,0,"shirushi.jpg",0,0
//Break Periods
//Storyboard Layer 0 (Background)
//Storyboard Layer 1 (Fail)
//Storyboard Layer 2 (Pass)
//Storyboard Layer 3 (Foreground)
//Storyboard Sound Samples

[TimingPoints]
1792,821.917808219178,4,2,7,30,1,0
1792,-100,4,2,7,30,0,0
12887,-100,4,2,2,15,0,0
13504,-100,4,2,7,20,0,0
14120,-100,4,2,7,15,0,0
14942,-100,4,2,7,24,0,0
16586,-100,4,2,7,30,0,0
18230,-100,4,2,2,50,0,0
21107,-100,4,2,2,30,0,0
21518,-100,4,2,2,50,0,0
24805,-100,4,2,2,50,0,0
29326,-100,4,2,2,30,0,0
30559,-100,4,2,2,40,0,0
30970,-100,4,2,2,30,0,0
31381,-100,4,2,2,40,0,0
39189,-100,4,2,7,30,0,0
40011,-100,4,2,2,40,0,0
40422,-100,4,2,2,30,0,0
41244,-100,4,2,2,50,0,0
44531,-100,4,2,7,60,0,0
44942,-100,4,2,2,60,0,0
49463,-100,4,2,7,60,0,0
54394,-100,4,2,7,45,0,0
55011,-100,4,2,7,55,0,0
55627,-100,4,2,7,60,0,0
57682,-100,4,2,7,65,0,0
59326,821.917808219178,4,2,7,90,1,1
59326,-100,4,2,7,90,0,1
70421,-100,4,2,7,90,0,1
71654,-100,4,2,7,80,0,0
72476,-100,4,2,7,90,0,1
82339,-100,4,2,7,55,0,0
83572,-100,4,2,7,65,0,0
84394,-100,4,2,7,55,0,0
88709,-100,4,2,7,40,0,0

[Colours]
Combo1 : 227,197,243
Combo2 : 146,239,250
Combo3 : 207,177,248
Combo4 : 157,206,255

[HitObjects]
325,146,1792,6,0,P|400:155|492:92,2,149.999992847443,2|2|2,0:0|0:0|0:0,0:0:0:0:
198,24,4052,5,0,0:0:0:0:
160,63,4257,2,0,P|162:101|164:150,1,49.9999976158143,2|0,0:0|0:0,0:0:0:0:
202,151,4668,2,0,P|200:189|198:238,1,49.9999976158143,2|2,0:0|0:0,0:0:0:0:
147,217,5079,2,0,B|56:198|95:240|-1:218,2,149.999992847443,2|2|2,0:0|0:0|0:0,0:0:0:0:
277,334,7339,5,0,0:0:0:0:
325,362,7545,2,0,L|387:351,1,49.9999976158143,2|0,0:0|0:0,0:0:0:0:
415,316,7956,2,0,L|486:328,1,49.9999976158143,2|2,0:0|0:0,0:0:0:0:
486,273,8367,2,0,P|466:187|523:81,1,199.999990463257,2|2,0:0|0:0,0:0:0:0:
385,33,10011,2,0,B|296:47|296:47|261:36|261:36|189:45,1,199.999990463257,2|2,0:0|0:0,0:0:0:0:
80,133,11655,5,2,0:0:0:0:
80,133,12476,2,0,P|83:168|86:209,2,49.9999976158143,2|0|10,0:0|0:0|0:0,0:0:0:0:
256,192,13093,12,2,16586,0:0:0:0:
377,64,18230,6,0,P|325:73|270:75,1,99.9999952316285,2|0,1:2|0:0,0:0:0:0:
227,55,18846,1,0,0:0:0:0:
174,39,19052,2,0,P|124:41|74:50,1,99.9999952316285,10|2,1:2|0:0,0:0:0:0:
7,137,19874,2,0,P|42:201|35:274,1,149.999992847443,2|0,1:2|1:0,0:0:0:0:
50,329,20696,2,0,L|154:341,1,99.9999952316285,10|2,0:0|0:0,0:0:0:0:
259,352,21518,5,2,1:2:0:0:
421,323,22134,1,0,0:0:0:0:
464,289,22339,2,0,P|466:241|482:187,1,99.9999952316285,10|2,0:0|0:0,0:0:0:0:
495,138,22956,1,0,0:0:0:0:
466,90,23161,2,0,P|418:103|369:94,1,99.9999952316285,2|0,1:2|0:0,0:0:0:0:
320,68,23778,1,0,1:0:0:0:
267,85,23983,2,0,P|266:109|267:134,2,49.9999976158143,10|2|2,0:0|0:0|0:0,0:0:0:0:
182,14,24805,1,2,1:2:0:0:
182,14,25627,6,0,P|129:25|43:32,1,99.9999952316285,10|2,0:0|0:0,0:0:0:0:
6,109,26449,2,0,P|41:174|29:247,1,149.999992847443,2|0,1:2|1:0,0:0:0:0:
8,354,27476,2,0,P|57:360|106:370,1,99.9999952316285,2|0,1:2|0:0,0:0:0:0:
155,344,28093,6,0,P|206:342|246:370,1,99.9999952316285,2|0,0:0|0:0,0:0:0:0:
299,374,28709,2,0,B|388:382|355:341|443:345,1,149.999992847443,2|2,0:0|0:0,0:0:0:0:
503,216,30148,2,0,P|499:191|497:166,1,49.9999976158143,2|10,0:0|0:0,0:0:0:0:
453,133,30559,2,0,P|403:129|353:105,1,99.9999952316285,2|10,0:0|0:0,0:0:0:0:
276,35,31381,6,0,P|230:55|181:59,1,99.9999952316285,2|0,1:2|0:0,0:0:0:0:
70,69,32202,2,0,P|66:118|61:178,1,99.9999952316285,10|0,0:0|0:0,0:0:0:0:
96,273,33024,2,0,P|49:278|-24:236,2,99.9999952316285,2|2|10,1:2|0:0|0:0,0:0:0:0:
202,242,34257,1,2,0:0:0:0:
268,330,34668,6,0,B|322:323|322:323|355:330|355:330|415:320,1,149.999992847443,2|2,1:2|1:2,0:0:0:0:
463,161,35901,2,0,L|512:154,2,49.9999976158143,2|0|2,0:0|0:0|0:2,0:0:0:0:
352,156,36723,1,2,0:0:0:0:
258,97,37134,2,0,P|245:129|242:167,1,49.9999976158143,10|0,0:0|0:0,0:0:0:0:
242,254,37750,1,0,0:0:0:0:
192,278,37956,6,0,P|116:292|43:301,2,149.999992847443,2|0|2,1:2|1:2|0:0,0:0:0:0:
400,276,40011,2,0,P|452:285|502:291,2,99.9999952316285,8|2|0,0:0|0:0|0:0,0:0:0:0:
296,239,41244,6,0,P|312:143|246:55,1,199.999990463257,2|10,1:2|0:0,0:0:0:0:
156,20,42476,1,2,0:0:0:0:
111,119,42887,2,0,P|61:107|11:105,1,99.9999952316285,2|2,0:0|0:0,0:0:0:0:
0,215,43709,2,0,P|49:226|99:228,1,99.9999952316285,10|10,0:0|1:2,0:0:0:0:
198,186,44531,5,2,0:0:0:0:
267,271,44942,2,0,P|262:295|259:320,1,49.9999976158143,0|0,0:0|0:0,0:0:0:0:
284,369,45353,2,0,P|332:351|385:353,1,99.9999952316285,10|2,1:2|0:0,0:0:0:0:
461,278,46175,2,0,P|452:204|434:107,1,149.999992847443,2|0,1:2|1:0,0:0:0:0:
287,64,47408,2,0,P|263:73|239:79,1,49.9999976158143,0|0,0:0|0:0,0:0:0:0:
185,68,47819,6,0,P|143:48|87:51,1,99.9999952316285,2|0,1:2|0:0,0:0:0:0:
119,157,48641,2,0,P|99:199|102:255,1,99.9999952316285,10|12,0:0|0:3,0:0:0:0:
129,358,49463,1,4,0:0:0:0:
234,326,49874,2,0,L|311:339,1,49.9999976158143,8|4,0:0|0:3,0:0:0:0:
336,319,50285,2,0,L|434:335,1,99.9999952316285,10|4,0:0|0:3,0:0:0:0:
451,226,51107,6,0,P|374:216|320:166,2,149.999992847443,4|4|6,1:2|1:2|1:2,0:0:0:0:
453,115,52750,2,0,P|507:104|519:99,2,49.9999976158143,8|8|2,0:0|0:0|1:2,0:0:0:0:
366,46,53572,2,0,P|312:57|300:62,1,49.9999976158143,8|0,1:2|1:0,0:0:0:0:
276,92,53983,2,0,P|251:98|227:101,1,49.9999976158143,8|0,1:2|1:0,0:0:0:0:
189,141,54394,6,0,P|130:105|50:119,2,149.999992847443,2|2|2,0:0|0:0|0:0,0:0:0:0:
278,276,57682,5,14,1:2:0:0:
330,294,57887,1,10,1:2:0:0:
330,294,59326,6,0,P|420:323|483:253,1,199.999990463257,6|10,1:2|0:0,0:0:0:0:
509,145,60558,1,0,0:0:0:0:
436,62,60969,2,0,B|317:14|365:103|232:48,1,199.999990463257,2|10,0:0|0:0,0:0:0:0:
138,19,62202,1,0,0:0:0:0:
48,82,62613,6,0,P|10:172|42:264,1,199.999990463257,2|8,1:2|0:0,0:0:0:0:
87,296,63641,1,2,0:0:0:0:
141,289,63846,2,0,P|165:281|189:277,1,49.9999976158143,2|2,0:0|1:2,0:0:0:0:
238,303,64257,2,0,P|284:321|335:322,1,99.9999952316285,2|2,1:2|1:2,0:0:0:0:
430,268,65079,2,0,P|421:209|418:197,1,49.9999976158143,10|0,0:0|1:0,0:0:0:0:
466,183,65490,2,0,P|475:124|478:112,1,49.9999976158143,2|0,0:0|1:0,0:0:0:0:
449,84,65901,6,0,P|403:102|352:103,1,99.9999952316285,4|2,1:2|0:0,0:0:0:0:
312,66,66517,1,0,0:0:0:0:
258,54,66723,1,8,0:0:0:0:
156,98,67134,1,2,0:0:0:0:
124,143,67339,2,0,P|144:190|147:251,1,99.9999952316285,2|0,1:2|1:0,0:0:0:0:
131,291,67956,1,2,1:2:0:0:
199,378,68367,2,0,L|317:360,1,99.9999952316285,10|2,0:0|0:0,0:0:0:0:
407,356,69189,6,0,B|447:235|382:295|433:150,1,199.999990463257,6|10,1:2|0:0,0:0:0:0:
503,78,70421,1,2,0:2:0:0:
399,40,70832,2,0,P|372:33|349:31,1,49.9999976158143,2|8,1:2|0:0,0:0:0:0:
300,54,71243,2,0,P|275:59|250:62,1,49.9999976158143,2|8,1:2|0:0,0:0:0:0:
198,45,71654,2,0,P|148:41|100:52,1,99.9999952316285,8|12,0:3|1:3,0:0:0:0:
54,83,72271,1,12,1:3:0:0:
57,138,72476,6,0,P|42:236|27:341,1,199.999990463257,6|10,1:2|0:0,0:0:0:0:
129,377,73709,1,0,0:0:0:0:
207,299,74120,2,0,B|286:313|286:313|331:302|331:302|403:311,1,199.999990463257,2|10,0:0|0:0,0:0:0:0:
506,350,75353,1,0,0:0:0:0:
505,239,75764,6,0,P|482:160|367:169,1,199.999990463257,2|10,1:2|0:0,0:0:0:0:
334,191,76791,1,0,0:0:0:0:
280,204,76997,2,0,P|256:195|233:184,1,49.9999976158143,2|2,0:0|0:0,0:0:0:0:
197,143,77408,2,0,L|191:43,1,99.9999952316285,6|2,1:2|1:2,0:0:0:0:
82,64,78230,2,0,L|79:113,1,49.9999976158143,10|8,1:2|0:0,0:0:0:0:
91,167,78641,2,0,L|88:216,1,49.9999976158143,10|8,1:2|0:0,0:0:0:0:
86,272,79052,6,0,P|155:258|241:302,1,149.999992847443,6|6,1:2|1:2,0:0:0:0:
368,371,80284,2,0,P|389:326|385:277,1,99.9999952316285,14|0,0:0|0:0,0:0:0:0:
363,225,80901,2,0,B|350:176|350:176|362:127,1,99.9999952316285,8|4,0:3|0:3,0:0:0:0:
346,75,81517,2,0,L|296:72,1,49.9999976158143,8|8,2:0|2:0,0:0:0:0:
248,100,81928,2,0,L|198:97,1,49.9999976158143,10|10,1:2|1:2,0:0:0:0:
148,121,82339,6,0,P|72:117|-2:160,2,149.999992847443,2|2|2,0:0|0:0|0:0,0:0:0:0:
241,227,84394,1,2,0:0:0:0:
284,327,84805,2,0,P|358:332|433:336,1,149.999992847443,2|2,0:0|0:0,0:0:0:0:
256,192,85627,12,2,88709,0:0:0:0:
