osu file format v14

[General]
AudioFilename: audio.ogg
AudioLeadIn: 0
PreviewTime: 57899
Countdown: 0
SampleSet: Soft
StackLeniency: 0.7
Mode: 3
LetterboxInBreaks: 0
SpecialStyle: 0
WidescreenStoryboard: 1

[Editor]
Bookmarks: 52237,72373
DistanceSpacing: 1.8
BeatDivisor: 16
GridSize: 16
TimelineZoom: 2.000006

[Metadata]
Title:Shirushi (TV Size)
TitleUnicode:シルシ (TV Size)
Artist:LiSA
ArtistUnicode:LiSA
Creator:Roasted Chicken
Version:Hard
Source:ソードアート・オンラインⅡ
Tags:織部 里沙 oribe risa Sword Art Online SAO 2 ED ending 3 Mother's Rosario UnluckyCroco japanese jpop j-pop pop anime launcher SVWC-70060
BeatmapID:3076913
BeatmapSetID:1500477

[Difficulty]
HPDrainRate:8
CircleSize:4
OverallDifficulty:7.3
ApproachRate:8.5
SliderMultiplier:2.99999990463257
SliderTickRate:2

[Events]
//Background and Video events
0,0,"shirushi.jpg",0,0
//Break Periods
//Storyboard Layer 0 (Background)
//Storyboard Layer 1 (Fail)
//Storyboard Layer 2 (Pass)
//Storyboard Layer 3 (Foreground)
//Storyboard Layer 4 (Overlay)
//Storyboard Sound Samples

[TimingPoints]
1804,821.917808219178,4,2,1,20,1,0
44954,-100,4,2,1,30,0,0
49064,-100,4,2,1,60,0,0
54406,-100,4,2,1,30,0,0
57694,-100,4,2,1,50,0,0
59338,821.917808219178,4,2,1,60,1,1
82351,-100,4,2,1,40,0,0

[HitObjects]
320,192,1804,1,0,0:0:0:0:
448,192,1804,1,0,0:0:0:0:
192,192,2214,1,0,0:0:0:0:
64,192,2420,1,0,0:0:0:0:
320,192,2420,1,0,0:0:0:0:
192,192,2831,1,0,0:0:0:0:
64,192,3036,1,0,0:0:0:0:
448,192,3036,1,0,0:0:0:0:
64,192,4064,1,0,0:0:0:0:
192,192,4269,1,0,0:0:0:0:
448,192,4269,1,0,0:0:0:0:
64,192,4475,1,0,0:0:0:0:
192,192,4680,1,0,0:0:0:0:
320,192,4886,1,0,0:0:0:0:
64,192,5091,1,0,0:0:0:0:
448,192,5091,1,0,0:0:0:0:
448,192,5502,1,0,0:0:0:0:
192,192,5708,1,0,0:0:0:0:
320,192,5708,1,0,0:0:0:0:
192,192,6119,1,0,0:0:0:0:
64,192,6324,1,0,0:0:0:0:
448,192,6324,1,0,0:0:0:0:
64,192,7351,1,0,0:0:0:0:
448,192,7557,1,0,0:0:0:0:
320,192,7762,1,0,0:0:0:0:
192,192,7968,128,0,8379:0:0:0:0:
64,192,8173,128,0,8379:0:0:0:0:
320,192,8379,1,0,0:0:0:0:
448,192,8379,1,0,0:0:0:0:
192,192,8790,128,0,9201:0:0:0:0:
64,192,9201,1,0,0:0:0:0:
448,192,9201,1,0,0:0:0:0:
320,192,9612,128,0,10023:0:0:0:0:
64,192,10023,1,0,0:0:0:0:
192,192,10023,1,0,0:0:0:0:
64,192,10434,128,0,10845:0:0:0:0:
320,192,10845,1,0,0:0:0:0:
448,192,10845,1,0,0:0:0:0:
448,192,11256,128,0,11667:0:0:0:0:
64,192,11667,128,0,11975:0:0:0:0:
192,192,11667,1,0,0:0:0:0:
192,192,12488,1,0,0:0:0:0:
320,192,12694,1,0,0:0:0:0:
448,192,12899,1,0,0:0:0:0:
64,192,14954,1,0,0:0:0:0:
448,192,16598,128,0,17728:0:0:0:0:
64,192,17283,128,0,18242:0:0:0:0:
320,192,17728,128,0,18242:0:0:0:0:
192,192,18242,1,0,0:0:0:0:
448,192,18242,1,0,0:0:0:0:
64,192,18653,128,0,18858:0:0:0:0:
448,192,18858,128,0,19064:0:0:0:0:
64,192,19064,128,0,19475:0:0:0:0:
192,192,19064,1,0,0:0:0:0:
448,192,19475,1,0,0:0:0:0:
192,192,19680,128,0,20297:0:0:0:0:
320,192,19886,1,0,0:0:0:0:
448,192,20297,128,0,20502:0:0:0:0:
320,192,20502,128,0,20708:0:0:0:0:
448,192,20708,1,0,0:0:0:0:
64,192,20913,128,0,21119:0:0:0:0:
192,192,21119,128,0,21735:0:0:0:0:
448,192,21530,1,0,0:0:0:0:
64,192,22146,128,0,22351:0:0:0:0:
320,192,22351,1,0,0:0:0:0:
448,192,22351,128,0,22557:0:0:0:0:
64,192,22557,128,0,22762:0:0:0:0:
448,192,22762,128,0,22968:0:0:0:0:
64,192,22968,128,0,23173:0:0:0:0:
192,192,23173,1,0,0:0:0:0:
320,192,23173,128,0,23584:0:0:0:0:
448,192,23584,1,0,0:0:0:0:
192,192,23790,128,0,24201:0:0:0:0:
320,192,23995,1,0,0:0:0:0:
64,192,24201,1,0,0:0:0:0:
448,192,24201,1,0,0:0:0:0:
192,192,24406,1,0,0:0:0:0:
320,192,24406,128,0,24689:0:0:0:0:
64,192,24689,128,0,25228:0:0:0:0:
448,192,24817,1,0,0:0:0:0:
64,192,25639,128,0,26050:0:0:0:0:
192,192,26050,1,0,0:0:0:0:
448,192,26050,128,0,26461:0:0:0:0:
64,192,26461,1,0,0:0:0:0:
320,192,26461,128,0,26872:0:0:0:0:
192,192,26872,1,0,0:0:0:0:
448,192,27077,128,0,27488:0:0:0:0:
64,192,27283,1,0,0:0:0:0:
192,192,27488,128,0,28105:0:0:0:0:
64,192,28105,128,0,28516:0:0:0:0:
320,192,28105,1,0,0:0:0:0:
448,192,28516,1,0,0:0:0:0:
320,192,28721,128,0,29338:0:0:0:0:
192,192,28927,1,0,0:0:0:0:
448,192,29132,1,0,0:0:0:0:
64,192,29338,128,0,29749:0:0:0:0:
192,192,29338,1,0,0:0:0:0:
448,192,29749,1,0,0:0:0:0:
320,192,30160,1,0,0:0:0:0:
64,192,30365,1,0,0:0:0:0:
192,192,30571,128,0,30776:0:0:0:0:
320,192,30571,1,0,0:0:0:0:
448,192,30776,128,0,30982:0:0:0:0:
64,192,30982,128,0,31187:0:0:0:0:
320,192,31187,128,0,31393:0:0:0:0:
192,192,31393,128,0,31804:0:0:0:0:
448,192,31393,1,0,0:0:0:0:
320,192,31804,1,0,0:0:0:0:
64,192,32009,128,0,32420:0:0:0:0:
448,192,32214,1,0,0:0:0:0:
192,192,32420,1,0,0:0:0:0:
448,192,32625,128,0,33242:0:0:0:0:
64,192,33036,1,0,0:0:0:0:
192,192,33447,1,0,0:0:0:0:
320,192,33653,128,0,33858:0:0:0:0:
64,192,33858,128,0,34064:0:0:0:0:
448,192,33858,1,0,0:0:0:0:
192,192,34064,128,0,34269:0:0:0:0:
320,192,34269,1,0,0:0:0:0:
448,192,34269,128,0,34475:0:0:0:0:
64,192,34475,128,0,34680:0:0:0:0:
192,192,34680,1,0,0:0:0:0:
320,192,34680,128,0,35091:0:0:0:0:
192,192,35091,1,0,0:0:0:0:
448,192,35297,128,0,35708:0:0:0:0:
64,192,35502,1,0,0:0:0:0:
64,192,35913,1,0,0:0:0:0:
192,192,35913,1,0,0:0:0:0:
448,192,36119,128,0,36324:0:0:0:0:
320,192,36324,1,0,0:0:0:0:
192,192,36735,128,0,37146:0:0:0:0:
320,192,37146,1,0,0:0:0:0:
448,192,37146,1,0,0:0:0:0:
64,192,37351,128,0,37762:0:0:0:0:
192,192,37557,1,0,0:0:0:0:
320,192,37762,1,0,0:0:0:0:
448,192,37968,128,0,38379:0:0:0:0:
192,192,38379,1,0,0:0:0:0:
320,192,38584,128,0,38995:0:0:0:0:
448,192,38790,1,0,0:0:0:0:
64,192,38995,1,0,0:0:0:0:
192,192,39201,128,0,39612:0:0:0:0:
448,192,39612,1,0,0:0:0:0:
64,192,40023,128,0,40434:0:0:0:0:
320,192,40434,1,0,0:0:0:0:
448,192,40434,128,0,40845:0:0:0:0:
192,192,40845,128,0,42077:0:0:0:0:
320,192,41256,1,0,0:0:0:0:
64,192,41667,1,0,0:0:0:0:
320,192,42077,1,0,0:0:0:0:
448,192,42488,1,0,0:0:0:0:
64,192,42899,1,0,0:0:0:0:
192,192,43310,1,0,0:0:0:0:
64,192,43721,1,0,0:0:0:0:
448,192,43721,1,0,0:0:0:0:
320,192,43927,1,0,0:0:0:0:
192,192,44132,1,0,0:0:0:0:
448,192,44132,1,0,0:0:0:0:
320,192,44543,1,0,0:0:0:0:
448,192,44543,1,0,0:0:0:0:
64,192,44954,128,0,45160:0:0:0:0:
448,192,45160,128,0,45365:0:0:0:0:
64,192,45365,128,0,45571:0:0:0:0:
320,192,45365,1,0,0:0:0:0:
192,192,45776,1,0,0:0:0:0:
320,192,45776,128,0,46187:0:0:0:0:
448,192,45982,1,0,0:0:0:0:
64,192,46187,1,0,0:0:0:0:
192,192,46187,128,0,46393:0:0:0:0:
448,192,46393,128,0,46598:0:0:0:0:
64,192,46598,128,0,46804:0:0:0:0:
448,192,46804,128,0,47009:0:0:0:0:
320,192,47009,1,0,0:0:0:0:
192,192,47420,128,0,47625:0:0:0:0:
320,192,47625,128,0,47831:0:0:0:0:
192,192,47831,128,0,48242:0:0:0:0:
448,192,47831,1,0,0:0:0:0:
64,192,48242,128,0,48653:0:0:0:0:
320,192,48653,1,0,0:0:0:0:
448,192,48653,128,0,49064:0:0:0:0:
192,192,49064,1,2,0:0:0:0:
320,192,49064,128,0,49475:0:0:0:0:
64,192,49475,1,2,0:0:0:0:
192,192,49475,1,4,0:0:0:0:
448,192,49475,1,0,0:0:0:0:
320,192,49680,128,0,49886:0:0:0:0:
64,192,49886,128,8,50091:0:0:0:0:
448,192,49886,1,0,0:0:0:0:
192,192,50091,1,8,0:0:0:0:
320,192,50091,128,0,50297:0:0:0:0:
64,192,50297,1,0,0:0:0:70:Tom1.wav
192,192,50297,128,0,50708:0:0:0:0:
320,192,50502,1,0,0:0:0:70:Tom2.wav
448,192,50502,1,0,0:0:0:0:
64,192,50708,128,0,51119:0:0:0:70:Tom3.wav
448,192,50708,1,0,0:0:0:0:
192,192,51119,1,4,0:0:0:0:
320,192,51119,128,2,51530:0:0:0:0:
448,192,51119,128,0,51530:0:0:0:0:
64,192,51530,1,8,0:0:0:0:
192,192,51530,1,0,0:0:0:0:
64,192,51735,128,4,52146:0:0:0:0:
320,192,51735,1,2,0:0:0:0:
448,192,51735,128,0,52146:0:0:0:0:
192,192,52146,1,2,0:0:0:0:
64,192,52351,128,2,53379:0:0:0:0:
320,192,52351,1,4,0:0:0:0:
448,192,52351,128,0,52762:0:0:0:0:
192,192,52762,1,2,0:0:0:0:
320,192,52968,1,8,0:0:0:0:
448,192,52968,1,0,0:0:0:0:
192,192,53173,1,2,0:0:0:0:
448,192,53173,1,0,0:0:0:0:
320,192,53584,1,8,0:0:0:0:
448,192,53584,1,0,0:0:0:0:
64,192,53790,1,8,0:0:0:0:
192,192,53790,1,0,0:0:0:0:
320,192,53995,128,8,54406:0:0:0:0:
448,192,53995,1,0,0:0:0:0:
64,192,54201,1,8,0:0:0:0:
192,192,54201,1,0,0:0:0:0:
64,192,54406,1,0,0:0:0:0:
448,192,54406,128,0,54817:0:0:0:0:
64,192,55023,128,0,55639:0:0:0:0:
192,192,55023,1,0,0:0:0:0:
448,192,55228,1,0,0:0:0:0:
320,192,55434,1,0,0:0:0:0:
192,192,55639,1,0,0:0:0:0:
448,192,55639,128,0,57488:0:0:0:0:
64,192,55845,1,0,0:0:0:0:
320,192,56050,1,0,0:0:0:0:
64,192,56256,1,0,0:0:0:0:
192,192,56461,1,0,0:0:0:0:
64,192,56667,1,0,0:0:0:0:
64,192,56872,1,0,0:0:0:0:
320,192,57077,1,0,0:0:0:0:
320,192,57283,1,0,0:0:0:0:
64,192,57488,1,0,0:0:0:0:
192,192,57557,1,0,0:0:0:0:
320,192,57625,1,0,0:0:0:0:
64,192,57694,1,8,0:0:0:0:
448,192,57694,1,0,0:0:0:0:
64,192,57899,1,8,0:0:0:0:
448,192,57899,1,0,0:0:0:0:
320,192,58516,128,0,58927:0:0:0:0:
448,192,58927,1,0,0:0:0:0:
64,192,59030,1,0,0:0:0:0:
192,192,59132,1,0,0:0:0:0:
320,192,59235,1,0,0:0:0:0:
64,192,59338,128,2,60159:0:0:0:0:
192,192,59338,1,4,0:0:0:0:
448,192,59338,128,0,59748:0:0:0:0:
320,192,59748,1,0,0:0:0:0:
192,192,60159,1,8,0:0:0:0:
320,192,60159,128,0,60570:0:0:0:0:
448,192,60159,128,0,60981:0:0:0:0:
64,192,60570,1,0,0:0:0:0:
320,192,60776,1,2,0:0:0:0:
64,192,60981,128,0,61803:0:0:0:0:
192,192,60981,128,0,61392:0:0:0:0:
448,192,61187,1,2,0:0:0:0:
320,192,61392,1,2,0:0:0:0:
192,192,61803,128,8,62214:0:0:0:0:
320,192,61803,128,0,62625:0:0:0:0:
448,192,61803,128,0,62625:0:0:0:0:
64,192,62214,1,0,0:0:0:0:
64,192,62625,128,2,63447:0:0:0:0:
192,192,62625,128,0,63036:0:0:0:0:
320,192,63036,1,0,0:0:0:0:
192,192,63447,1,8,0:0:0:0:
448,192,63447,1,0,0:0:0:0:
320,192,63653,128,0,63858:0:0:0:0:
192,192,63858,128,0,64064:0:0:0:0:
448,192,63858,128,0,63961:0:0:0:0:
64,192,64064,128,2,64577:0:0:0:0:
320,192,64064,1,0,0:0:0:0:
448,192,64166,128,0,64269:0:0:0:0:
192,192,64269,128,0,64372:0:0:0:0:
192,192,64474,128,2,64577:0:0:0:0:
320,192,64680,128,2,64783:0:0:0:0:
448,192,64680,1,0,0:0:0:0:
64,192,64885,128,0,64988:0:0:0:0:
64,192,65091,128,8,65502:0:0:0:0:
320,192,65091,128,0,65296:0:0:0:0:
448,192,65091,1,0,0:0:0:0:
192,192,65296,128,0,65502:0:0:0:0:
448,192,65502,128,0,65913:0:0:0:0:
320,192,65707,128,0,65913:0:0:0:0:
64,192,65913,128,2,66324:0:0:0:0:
192,192,65913,128,0,66324:0:0:0:0:
448,192,66324,128,0,66529:0:0:0:0:
64,192,66529,128,0,67146:0:0:0:0:
192,192,66735,1,8,0:0:0:0:
320,192,66735,1,0,0:0:0:0:
448,192,67146,128,0,67351:0:0:0:0:
64,192,67351,128,2,67968:0:0:0:0:
192,192,67351,1,0,0:0:0:0:
320,192,67557,1,0,0:0:0:0:
320,192,67968,128,2,68173:0:0:0:0:
448,192,67968,1,0,0:0:0:0:
192,192,68173,128,0,68584:0:0:0:0:
320,192,68379,1,8,0:0:0:0:
448,192,68379,1,0,0:0:0:0:
64,192,68584,128,0,68790:0:0:0:0:
320,192,68790,128,0,69201:0:0:0:0:
64,192,69201,128,2,70331:0:0:0:0:
192,192,69201,1,4,0:0:0:0:
448,192,69201,1,0,0:0:0:0:
448,192,69560,128,0,69663:0:0:0:0:
192,192,69817,128,0,69920:0:0:0:0:
192,192,70022,1,8,0:0:0:0:
320,192,70022,128,0,70125:0:0:0:0:
448,192,70228,128,0,70331:0:0:0:0:
320,192,70331,128,0,70433:0:0:0:0:
192,192,70433,128,0,70536:0:0:0:0:
320,192,70639,128,0,70742:0:0:0:0:
64,192,70844,128,2,71050:0:0:0:0:
448,192,70844,1,0,0:0:0:0:
192,192,71050,1,8,0:0:0:0:
320,192,71050,1,0,0:0:0:0:
192,192,71255,128,2,71461:0:0:0:0:
448,192,71255,1,0,0:0:0:0:
64,192,71461,1,8,0:0:0:0:
320,192,71461,1,0,0:0:0:0:
64,192,71666,128,8,72077:0:0:0:0:
192,192,71666,1,0,0:0:0:0:
448,192,71666,128,0,71872:0:0:0:0:
320,192,71872,128,0,72077:0:0:0:70:Tom2.wav
192,192,72077,128,0,72283:0:0:0:70:Tom3.wav
448,192,72077,128,0,72283:0:0:0:0:
320,192,72283,128,0,72488:0:0:0:0:
64,192,72488,128,2,73310:0:0:0:0:
192,192,72488,128,4,72899:0:0:0:0:
448,192,72488,1,0,0:0:0:0:
320,192,72899,1,0,0:0:0:0:
192,192,73310,128,8,73721:0:0:0:0:
320,192,73310,128,0,74132:0:0:0:0:
448,192,73310,1,0,0:0:0:0:
64,192,73721,1,0,0:0:0:0:
192,192,73927,1,2,0:0:0:0:
64,192,74132,128,0,74954:0:0:0:0:
448,192,74132,128,0,74543:0:0:0:0:
320,192,74338,1,2,0:0:0:0:
192,192,74543,1,2,0:0:0:0:
192,192,74954,128,8,75365:0:0:0:0:
320,192,74954,128,0,75776:0:0:0:0:
448,192,74954,128,0,75776:0:0:0:0:
64,192,75365,1,0,0:0:0:0:
64,192,75776,128,2,76598:0:0:0:0:
192,192,75776,128,0,76598:0:0:0:0:
448,192,76187,1,0,0:0:0:0:
320,192,76598,1,8,0:0:0:0:
448,192,76598,1,0,0:0:0:0:
192,192,76803,128,0,77009:0:0:0:0:
448,192,76803,128,0,77317:0:0:0:0:
64,192,77009,128,0,77214:0:0:0:0:
320,192,77009,128,0,77214:0:0:0:0:
192,192,77214,128,0,77420:0:0:0:0:
320,192,77317,128,0,77420:0:0:0:0:
64,192,77420,1,2,0:0:0:0:
448,192,77420,1,0,0:0:0:0:
320,192,77625,1,8,0:0:0:0:
448,192,77625,1,0,0:0:0:0:
64,192,77831,128,2,78242:0:0:0:0:
192,192,77831,128,0,78036:0:0:0:0:
320,192,78036,1,0,0:0:0:0:
192,192,78242,1,8,0:0:0:0:
320,192,78242,128,0,78447:0:0:0:0:
448,192,78242,128,0,78653:0:0:0:0:
64,192,78447,128,0,78653:0:0:0:0:
192,192,78653,1,8,0:0:0:0:
320,192,78653,1,0,0:0:0:0:
64,192,78858,128,8,78961:0:0:0:0:
192,192,78858,128,0,78961:0:0:0:0:
64,192,79064,128,4,79269:0:0:0:0:
320,192,79064,128,2,79474:0:0:0:0:
448,192,79064,128,0,79474:0:0:0:0:
64,192,79474,128,8,79577:0:0:0:0:
192,192,79474,128,0,79577:0:0:0:0:
64,192,79680,128,4,80091:0:0:0:0:
192,192,79680,128,2,79885:0:0:0:0:
448,192,79680,128,0,80091:0:0:0:0:
192,192,80091,1,2,0:0:0:0:
320,192,80091,1,0,0:0:0:0:
64,192,80296,1,2,0:0:0:0:
320,192,80296,128,4,80399:0:0:0:0:
448,192,80296,128,0,80399:0:0:0:0:
320,192,80502,1,0,0:0:0:0:
448,192,80502,128,0,80707:0:0:0:0:
64,192,80707,128,2,81529:0:0:0:0:
192,192,80707,1,0,0:0:0:0:
320,192,80913,1,8,0:0:0:0:
448,192,80913,1,0,0:0:0:0:
192,192,81118,1,2,0:0:0:0:
448,192,81118,1,0,0:0:0:0:
320,192,81427,1,0,0:0:0:0:
192,192,81529,1,8,0:0:0:0:
448,192,81529,1,0,0:0:0:0:
64,192,81735,1,8,0:0:0:0:
320,192,81735,1,0,0:0:0:0:
64,192,81940,1,8,0:0:0:0:
192,192,81940,1,0,0:0:0:0:
320,192,82043,1,0,0:0:0:0:
192,192,82146,1,8,0:0:0:0:
448,192,82146,1,0,0:0:0:0:
64,192,82248,1,0,0:0:0:0:
320,192,82351,1,0,0:0:0:0:
448,192,82351,128,0,82711:0:0:0:0:
320,192,82711,1,0,0:0:0:0:
192,192,82968,128,0,83327:0:0:0:0:
64,192,83327,1,0,0:0:0:0:
64,192,83584,128,0,83790:0:0:0:0:
192,192,83790,128,0,84046:0:0:0:0:
320,192,84457,128,0,84714:0:0:0:0:
448,192,84868,128,0,85074:0:0:0:0:
192,192,85074,1,0,0:0:0:0:
64,192,85433,128,0,85639:0:0:0:0:
192,192,85639,1,0,0:0:0:0:
320,192,85690,1,0,0:0:0:0:
448,192,85742,128,0,88721:0:0:0:0:
64,192,86897,1,0,0:0:0:0:
192,192,86974,1,0,0:0:0:0:
320,192,87077,1,0,0:0:0:0:
