osu file format v14

[General]
AudioFilename: audio.ogg
AudioLeadIn: 0
PreviewTime: 57899
Countdown: 0
SampleSet: Soft
StackLeniency: 0.7
Mode: 3
LetterboxInBreaks: 0
SpecialStyle: 0
WidescreenStoryboard: 1

[Editor]
Bookmarks: 52237,72373
DistanceSpacing: 1.8
BeatDivisor: 8
GridSize: 16
TimelineZoom: 1.000006

[Metadata]
Title:Shirushi (TV Size)
TitleUnicode:シルシ (TV Size)
Artist:LiSA
ArtistUnicode:LiSA
Creator:Roasted Chicken
Version:Easy
Source:ソードアート・オンラインⅡ
Tags:織部 里沙 oribe risa Sword Art Online SAO 2 ED ending 3 Mother's Rosario UnluckyCroco japanese jpop j-pop pop anime launcher SVWC-70060
BeatmapID:3077937
BeatmapSetID:1500477

[Difficulty]
HPDrainRate:7
CircleSize:4
OverallDifficulty:6.5
ApproachRate:8.5
SliderMultiplier:2.99999990463257
SliderTickRate:2

[Events]
//Background and Video events
0,0,"shirushi.jpg",0,0
//Break Periods
//Storyboard Layer 0 (Background)
//Storyboard Layer 1 (Fail)
//Storyboard Layer 2 (Pass)
//Storyboard Layer 3 (Foreground)
//Storyboard Layer 4 (Overlay)
//Storyboard Sound Samples

[TimingPoints]
1804,821.917808219178,4,2,1,20,1,0
44954,-100,4,2,1,30,0,0
49064,-100,4,2,1,60,0,0
54406,-100,4,2,1,30,0,0
57694,-100,4,2,1,50,0,0
59338,821.917808219178,4,2,1,60,1,1
82351,-100,4,2,1,40,0,0

[HitObjects]
448,192,1804,1,0,0:0:0:0:
64,192,2420,1,0,0:0:0:0:
64,192,3036,1,0,0:0:0:0:
192,192,4064,1,0,0:0:0:0:
448,192,4269,128,0,4680:0:0:0:0:
64,192,4680,128,0,5091:0:0:0:0:
320,192,5091,1,0,0:0:0:0:
192,192,5708,1,0,0:0:0:0:
64,192,6324,1,0,0:0:0:0:
192,192,7351,1,0,0:0:0:0:
448,192,7557,128,0,7968:0:0:0:0:
64,192,7968,128,0,8379:0:0:0:0:
192,192,8379,1,0,0:0:0:0:
320,192,9201,1,0,0:0:0:0:
64,192,10023,1,0,0:0:0:0:
448,192,10845,1,0,0:0:0:0:
192,192,11667,1,0,0:0:0:0:
64,192,12488,1,0,0:0:0:0:
320,192,12694,1,0,0:0:0:0:
448,192,12899,1,0,0:0:0:0:
320,192,14954,1,0,0:0:0:0:
448,192,16598,128,0,18242:0:0:0:0:
64,192,18242,1,0,0:0:0:0:
192,192,18242,1,0,0:0:0:0:
320,192,19064,1,0,0:0:0:0:
192,192,19886,1,0,0:0:0:0:
320,192,20708,1,0,0:0:0:0:
64,192,21530,1,0,0:0:0:0:
320,192,22351,1,0,0:0:0:0:
64,192,23173,1,0,0:0:0:0:
448,192,23995,1,0,0:0:0:0:
320,192,24201,1,0,0:0:0:0:
192,192,24406,1,0,0:0:0:0:
64,192,24817,1,0,0:0:0:0:
448,192,26050,1,0,0:0:0:0:
192,192,26461,1,0,0:0:0:0:
320,192,27283,1,0,0:0:0:0:
64,192,28105,1,0,0:0:0:0:
192,192,28927,1,0,0:0:0:0:
448,192,29132,1,0,0:0:0:0:
192,192,29338,1,0,0:0:0:0:
320,192,29749,1,0,0:0:0:0:
64,192,30160,1,0,0:0:0:0:
448,192,30365,1,0,0:0:0:0:
64,192,30571,1,0,0:0:0:0:
192,192,31393,1,0,0:0:0:0:
320,192,32214,1,0,0:0:0:0:
448,192,33036,1,0,0:0:0:0:
320,192,33447,1,0,0:0:0:0:
64,192,33858,1,0,0:0:0:0:
192,192,34269,1,0,0:0:0:0:
320,192,34680,1,0,0:0:0:0:
448,192,35502,1,0,0:0:0:0:
64,192,35913,1,0,0:0:0:0:
192,192,36324,1,0,0:0:0:0:
448,192,36735,1,0,0:0:0:0:
320,192,37146,1,0,0:0:0:0:
192,192,37557,1,0,0:0:0:0:
64,192,37968,1,0,0:0:0:0:
448,192,39612,1,0,0:0:0:0:
320,192,40434,1,0,0:0:0:0:
64,192,41256,1,0,0:0:0:0:
448,192,42488,1,0,0:0:0:0:
64,192,42899,1,0,0:0:0:0:
192,192,43310,1,0,0:0:0:0:
320,192,43721,1,0,0:0:0:0:
64,192,44132,1,0,0:0:0:0:
448,192,44543,1,0,0:0:0:0:
192,192,45776,1,0,0:0:0:0:
64,192,45982,1,0,0:0:0:0:
320,192,46187,1,0,0:0:0:0:
448,192,47009,1,0,0:0:0:0:
192,192,47831,1,0,0:0:0:0:
448,192,48653,1,0,0:0:0:0:
320,192,48858,1,0,0:0:0:0:
192,192,49064,1,2,0:0:0:0:
64,192,49269,1,0,0:0:0:0:
320,192,49475,1,2,0:0:0:0:
448,192,49475,1,4,0:0:0:0:
192,192,49886,1,8,0:0:0:0:
320,192,50091,1,8,0:0:0:0:
64,192,50297,1,0,0:0:0:70:Tom1.wav
448,192,50502,1,0,0:0:0:70:Tom2.wav
192,192,50708,1,0,0:0:0:70:Tom3.wav
320,192,51119,1,4,0:0:0:0:
448,192,51119,128,2,51530:0:0:0:0:
192,192,51530,1,8,0:0:0:0:
64,192,51735,128,4,52146:0:0:0:0:
320,192,51735,1,2,0:0:0:0:
192,192,52146,1,2,0:0:0:0:
320,192,52351,1,2,0:0:0:0:
448,192,52351,128,4,52762:0:0:0:0:
64,192,52762,1,2,0:0:0:0:
192,192,52968,1,8,0:0:0:0:
320,192,53173,1,2,0:0:0:0:
192,192,53584,1,8,0:0:0:0:
448,192,53790,1,8,0:0:0:0:
64,192,53995,1,8,0:0:0:0:
320,192,54201,1,8,0:0:0:0:
448,192,54406,1,0,0:0:0:0:
192,192,55023,1,0,0:0:0:0:
320,192,55639,128,0,57694:0:0:0:0:
448,192,57694,1,8,0:0:0:0:
64,192,57899,1,8,0:0:0:0:
448,192,58927,128,0,59338:0:0:0:0:
64,192,59338,1,2,0:0:0:0:
192,192,59338,128,4,60159:0:0:0:0:
64,192,60159,1,8,0:0:0:0:
448,192,60159,128,0,60776:0:0:0:0:
320,192,60776,1,2,0:0:0:0:
64,192,60981,128,0,61803:0:0:0:0:
448,192,61187,1,2,0:0:0:0:
320,192,61392,1,2,0:0:0:0:
192,192,61803,128,8,62625:0:0:0:0:
448,192,61803,128,0,62625:0:0:0:0:
320,192,62625,128,2,63447:0:0:0:0:
64,192,63447,1,8,0:0:0:0:
448,192,63653,1,0,0:0:0:0:
192,192,63858,1,0,0:0:0:0:
64,192,64064,128,2,64680:0:0:0:0:
448,192,64474,1,2,0:0:0:0:
192,192,64680,1,2,0:0:0:0:
64,192,65091,1,8,0:0:0:0:
320,192,65091,1,0,0:0:0:0:
192,192,65296,1,0,0:0:0:0:
448,192,65502,1,0,0:0:0:0:
64,192,65707,1,0,0:0:0:0:
320,192,65913,1,2,0:0:0:0:
448,192,66324,1,0,0:0:0:0:
320,192,66529,1,0,0:0:0:0:
192,192,66735,1,8,0:0:0:0:
448,192,67146,1,0,0:0:0:0:
320,192,67351,1,2,0:0:0:0:
320,192,67968,1,2,0:0:0:0:
192,192,68173,1,0,0:0:0:0:
448,192,68379,1,8,0:0:0:0:
64,192,68584,1,0,0:0:0:0:
192,192,68790,1,0,0:0:0:0:
320,192,69201,1,2,0:0:0:0:
448,192,69201,1,4,0:0:0:0:
64,192,70022,1,8,0:0:0:0:
320,192,70022,1,0,0:0:0:0:
448,192,70844,1,2,0:0:0:0:
320,192,71050,1,8,0:0:0:0:
64,192,71255,1,2,0:0:0:0:
192,192,71461,1,8,0:0:0:0:
448,192,71666,128,8,72077:0:0:0:0:
192,192,72077,128,0,72488:0:0:0:70:Tom3.wav
64,192,72488,128,2,73310:0:0:0:0:
320,192,72488,1,4,0:0:0:0:
192,192,73310,1,8,0:0:0:0:
448,192,73310,128,0,73927:0:0:0:0:
64,192,73927,1,2,0:0:0:0:
192,192,74132,128,0,74954:0:0:0:0:
448,192,74338,1,2,0:0:0:0:
320,192,74543,1,2,0:0:0:0:
64,192,74954,128,8,75776:0:0:0:0:
448,192,74954,128,0,75776:0:0:0:0:
320,192,75776,128,2,76598:0:0:0:0:
64,192,76598,1,8,0:0:0:0:
448,192,76803,128,0,77214:0:0:0:0:
192,192,77009,1,0,0:0:0:0:
320,192,77214,1,0,0:0:0:0:
64,192,77420,1,2,0:0:0:0:
448,192,77625,1,8,0:0:0:0:
192,192,77831,128,2,78242:0:0:0:0:
64,192,78242,1,8,0:0:0:0:
448,192,78242,1,0,0:0:0:0:
320,192,78447,1,0,0:0:0:0:
64,192,78653,1,8,0:0:0:0:
192,192,78858,1,8,0:0:0:0:
320,192,79064,128,4,79474:0:0:0:0:
448,192,79064,1,2,0:0:0:0:
192,192,79474,1,8,0:0:0:0:
64,192,79680,128,4,80091:0:0:0:0:
448,192,79680,1,2,0:0:0:0:
192,192,80091,1,2,0:0:0:0:
320,192,80296,1,2,0:0:0:0:
448,192,80296,1,4,0:0:0:0:
192,192,80707,1,2,0:0:0:0:
320,192,80913,1,8,0:0:0:0:
192,192,81118,1,2,0:0:0:0:
448,192,81529,1,8,0:0:0:0:
320,192,81735,1,8,0:0:0:0:
64,192,81940,1,8,0:0:0:0:
192,192,82146,1,8,0:0:0:0:
448,192,82351,1,0,0:0:0:0:
64,192,83584,1,0,0:0:0:0:
320,192,85639,128,0,88721:0:0:0:0:
