osu file format v14

[General]
AudioFilename: audio.mp3
AudioLeadIn: 0
PreviewTime: 58941
Countdown: 0
SampleSet: Soft
StackLeniency: 0.6
Mode: 0
LetterboxInBreaks: 0
WidescreenStoryboard: 1

[Editor]
DistanceSpacing: 1.2
BeatDivisor: 4
GridSize: 8
TimelineZoom: 2.2

[Metadata]
Title:Shirushi (TV Size)
TitleUnicode:シルシ (TV Size)
Artist:LiSA
ArtistUnicode:LiSA
Creator:- Ex -
Version:Sorrow
Source:ソードアート・オンラインⅡ
Tags:Sword Art Online II 2 SAO Mother's Rosario ed Ending JP Japanese pop j-pop jpop Anime Launcher Konno Yuuki Asuna 紺野木綿季 ユウキ Zekken alo alfheim Kowari yShadowXOP_ -_Ex_- Wanpachi Cycopton
BeatmapID:2402567
BeatmapSetID:1145949

[Difficulty]
HPDrainRate:6
CircleSize:4
OverallDifficulty:8
ApproachRate:8.3
SliderMultiplier:1.9
SliderTickRate:1

[Events]
//Background and Video events
0,0,"bg.jpg",0,0
Video,58,"video.mp4"
//Break Periods
//Storyboard Layer 0 (Background)
//Storyboard Layer 1 (Fail)
//Storyboard Layer 2 (Pass)
//Storyboard Layer 3 (Foreground)
//Storyboard Layer 4 (Overlay)
//Storyboard Sound Samples

[TimingPoints]
2640,821.917808219178,4,2,1,50,1,0
2640,-62.5,4,2,1,50,0,0
5105,754.716981132075,4,2,1,50,1,0
5105,-62.5,4,2,1,50,0,0
5889,839.160839160839,4,2,1,50,1,0
5889,-62.5,4,2,1,50,0,0
5927,-62.5,4,2,1,50,0,0
8395,800,4,2,1,50,1,0
8395,-62.5,4,2,1,50,0,0
9215,821.917808219178,4,2,1,50,1,0
9215,-64.5161290322581,4,2,1,50,0,0
13735,-83.3333333333333,4,2,1,50,0,0
15585,-83.3333333333333,4,2,1,5,0,0
15790,-83.3333333333333,4,2,1,50,0,0
17434,-83.3333333333333,4,2,1,60,0,0
19078,821.917808219178,4,2,1,60,1,0
19078,-71.4285714285714,4,2,1,60,0,0
25550,-71.4285714285714,4,2,1,5,0,0
25653,-71.4285714285714,4,2,1,50,0,0
32229,-66.6666666666667,4,2,1,50,0,0
42092,-64.5161290322581,4,2,1,50,0,0
43324,-64.5161290322581,4,2,1,40,0,0
43735,-64.5161290322581,4,2,1,45,0,0
44146,-64.5161290322581,4,2,1,50,0,0
44557,-62.5,4,2,1,55,0,0
44968,-62.5,4,2,1,60,0,0
45379,-60.6060606060606,4,2,1,60,0,0
50311,-60.6060606060606,4,2,1,70,0,0
52571,-57.1428571428571,4,2,1,70,0,0
53187,-54.054054054054,4,2,1,70,0,0
55242,-90.9090909090909,4,2,1,50,0,0
58119,-90.9090909090909,4,2,1,5,0,0
58324,-66.6666666666667,4,2,1,50,0,0
59352,-90.9090909090909,4,2,1,50,0,0
59968,-90.9090909090909,4,2,1,5,0,0
60174,821.917808219178,4,2,1,30,1,0
60174,-45.4545454545455,4,2,1,75,0,0
70037,-50,4,2,1,75,0,0
71680,-45.4545454545455,4,2,1,75,0,0
83187,-55.5555555555556,4,2,1,50,0,0
85291,582.52427184466,4,2,1,30,1,0
85291,-111.111111111111,4,2,1,50,0,0
85904,750,4,2,1,30,1,0
86277,821.917808219178,4,2,1,30,1,0
89564,-55.5555555555556,4,2,1,40,0,0

[Colours]
Combo1 : 255,255,128
Combo2 : 128,128,255
Combo3 : 255,128,255

[HitObjects]
75,50,2640,6,0,B|35:111|35:111|66:199,1,152,2|0,0:0|0:0,0:0:0:0:
19,264,3256,2,0,P|54:218|155:244,1,152,2|0,0:0|0:0,0:0:0:0:
207,281,3872,2,0,B|291:316|343:231|343:231|321:386|480:384,1,380,2|0,0:0|0:0,0:0:0:0:
436,275,5105,6,0,L|458:195,1,76,2|2,0:0|0:0,0:0:0:0:
409,144,5482,2,0,L|387:64,1,76,2|2,0:0|0:0,0:0:0:0:
268,26,5889,6,0,P|214:64|125:46,1,152,2|0,0:0|0:0,0:0:0:0:
51,18,6518,2,0,B|108:52|108:52|83:143,1,152,2|0,0:0|0:0,0:0:0:0:
41,223,7147,2,0,B|122:189|175:275|175:275|153:118|289:120,1,380,2|0,0:0|0:0,0:0:0:0:
270,217,8395,5,2,0:0:0:0:
150,287,8595,1,2,0:0:0:0:
250,357,8795,2,0,P|289:347|334:339,1,76,2|2,0:0|0:0,0:0:0:0:
450,326,9215,6,0,L|473:176,1,147.250001123428,2|0,0:0|0:0,0:0:0:0:
409,44,10037,2,0,B|356:55|356:55|333:79|333:79|266:93,1,147.250001123428,2|0,0:0|0:0,0:0:0:0:
126,57,10859,6,0,B|157:48|164:29|164:29|199:73|158:130,1,147.250001123428,2|0,0:0|0:0,0:0:0:0:
0,228,11681,2,0,B|79:220|59:271|144:266,1,147.250001123428,2|0,0:0|0:0,0:0:0:0:
279,187,12503,1,2,0:0:0:0:
292,301,13324,5,2,0:0:0:0:
292,301,13530,1,2,0:0:0:0:
292,301,13735,2,0,B|304:227|220:203|220:203|225:195|225:195|191:204|154:182|123:150|115:94|137:40|192:26|230:24|258:48|258:48|214:58|200:108,1,512.999984344483,2|0,0:0|0:0,0:0:0:0:
278,119,15790,6,0,B|458:104|310:4|569:-30|571:108|477:230|366:90,1,455.999986083985,2|2,0:0|0:1,0:0:0:0:
50,58,19078,6,0,B|90:119|90:119|70:175,1,132.999995941162,2|0,0:0|0:0,0:0:0:0:
20,261,19694,1,0,0:0:0:0:
94,332,19900,2,0,P|160:322|235:311,1,132.999995941162,10|0,0:3|0:0,0:0:0:0:
321,361,20516,1,0,0:0:0:0:
426,276,20722,6,0,B|412:196|412:196|457:148,1,132.999995941162,2|0,0:0|0:0,0:0:0:0:
507,77,21338,1,0,0:0:0:0:
408,27,21544,2,0,L|339:62,1,66.4999979705811,10|0,0:3|0:0,0:0:0:0:
283,140,21955,2,0,L|345:161,1,66.4999979705811
143,32,22366,6,0,P|152:97|162:163,1,132.999995941162,2|0,0:0|0:0,0:0:0:0:
95,237,22982,1,0,0:0:0:0:
167,306,23187,2,0,P|198:295|230:285,1,66.4999979705811,10|0,0:3|0:0,0:0:0:0:
324,340,23598,1,0,0:0:0:0:
408,248,23804,1,0,0:0:0:0:
283,140,24009,6,0,P|226:172|159:162,1,132.999995941162,2|0,0:3|0:0,0:0:0:0:
34,139,24626,2,0,P|45:186|48:203,1,66.4999979705811,0|2,0:0|0:0,0:0:0:0:
84,325,25037,1,0,0:0:0:0:
84,325,25242,2,0,P|43:333|12:340,1,66.4999979705811,2|0,0:0|0:0,0:0:0:0:
188,339,25653,6,0,P|241:376|311:373,1,132.999995941162,2|0,0:0|0:0,0:0:0:0:
405,330,26270,1,0,0:0:0:0:
321,236,26475,2,0,P|288:240|255:244,1,66.4999979705811,8|0,0:3|0:0,0:0:0:0:
406,161,26886,2,0,P|438:165|471:169,1,66.4999979705811,2|0,0:0|0:0,0:0:0:0:
311,94,27297,6,0,L|328:22,1,66.4999979705811,2|0,0:0|0:0,0:0:0:0:
201,117,27708,1,0,0:0:0:0:
201,117,27913,2,0,L|138:98,1,66.4999979705811,0|10,0:0|0:3,0:0:0:0:
215,224,28324,2,0,P|303:201|348:191,1,132.999995941162
459,243,28941,6,0,L|440:329,1,66.4999979705811,2|0,0:0|0:0,0:0:0:0:
340,373,29352,2,0,L|325:308,1,66.4999979705811,0|0,0:0|0:0,0:0:0:0:
385,181,29763,1,2,0:0:0:0:
248,82,29968,1,2,0:0:0:0:
399,34,30174,2,0,P|423:51|479:65,1,66.4999979705811,2|0,0:0|0:0,0:0:0:0:
385,181,30585,5,8,0:3:0:0:
374,194,30996,5,2,0:0:0:0:
309,39,31201,1,2,0:0:0:0:
198,183,31407,6,0,P|168:171|136:163,1,66.4999979705811,2|0,0:0|0:0,0:0:0:0:
24,256,31818,2,0,P|54:243|86:235,1,66.4999979705811,0|0,0:0|0:0,0:0:0:0:
251,299,32229,6,0,P|307:345|388:335,1,142.500005435944,2|0,0:0|0:0,0:0:0:0:
464,279,32845,1,0,0:0:0:0:
385,175,33050,2,0,P|380:130|379:95,1,71.2500027179719,10|0,0:3|0:0,0:0:0:0:
246,12,33461,2,0,P|244:47|240:82,1,71.2500027179719,0|0,0:0|0:0,0:0:0:0:
165,209,33872,6,0,P|114:160|44:155,1,142.500005435944,2|2,0:0|0:0,0:0:0:0:
0,244,34489,1,0,0:0:0:0:
116,340,34694,2,0,L|210:320,1,71.2500027179719,10|0,0:3|0:0,0:0:0:0:
314,238,35105,2,0,L|220:218,1,71.2500027179719,2|0,0:0|0:0,0:0:0:0:
111,106,35516,6,0,B|151:155|151:155|133:238,1,142.500005435944,2|0,0:0|0:0,0:0:0:0:
20,69,36133,2,0,P|74:13|143:14,1,142.500005435944,2|0,0:0|0:0,0:0:0:0:
260,117,36749,1,2,0:0:0:0:
111,106,36955,1,0,0:0:0:0:
269,11,37160,6,0,P|314:47|419:37,1,142.500005435944,2|0,0:0|0:0,0:0:0:0:
475,122,37776,1,0,0:0:0:0:
395,216,37982,1,10,0:3:0:0:
395,216,38187,2,0,P|410:287|425:355,1,142.500005435944,0|0,0:0|0:0,0:0:0:0:
248,339,38804,6,0,P|168:348|112:311,1,142.500005435944,2|0,0:0|0:0,0:0:0:0:
0,210,39420,2,0,P|8:244|16:279,1,71.2500027179719,0|8,0:0|0:3,0:0:0:0:
68,96,39831,1,0,0:0:0:0:
171,221,40037,2,0,P|136:213|101:206,1,71.2500027179719,2|0,0:0|0:0,0:0:0:0:
246,62,40448,5,2,0:0:0:0:
258,76,40859,2,0,L|331:58,1,71.2500027179719,0|0,0:0|0:0,0:0:0:0:
425,177,41270,2,0,L|352:159,1,71.2500027179719,2|0,0:0|0:0,0:0:0:0:
258,278,41681,2,0,L|331:260,1,71.2500027179719,0|0,0:0|0:0,0:0:0:0:
180,361,42092,6,0,P|145:300|170:206,1,147.250001123428,2|0,0:0|0:0,0:0:0:0:
245,44,42708,1,0,0:0:0:0:
309,194,42913,2,0,P|258:179|239:174,1,73.6250005617142,8|0,0:3|0:0,0:0:0:0:
437,18,43324,5,2,0:0:0:0:
419,24,43735,2,0,P|398:51|387:101,1,73.6250005617142,2|0,0:0|0:0,0:0:0:0:
428,232,44146,2,0,P|414:200|376:165,1,73.6250005617142,2|0,0:0|0:0,0:0:0:0:
319,343,44557,6,0,P|357:347|412:330,1,76,10|8,0:3|0:3,0:0:0:0:
284,175,44968,2,0,P|261:206|248:261,1,76,2|0,0:0|0:0,0:0:0:0:
129,383,45379,2,0,P|114:337|88:301,1,78.3750007474423,2|0,0:0|0:0,0:0:0:0:
0,197,45790,5,0,0:0:0:0:
97,72,45996,1,0,0:0:0:0:
173,189,46201,2,0,P|132:182|84:171,1,78.3750007474423,8|2,0:3|0:0,0:0:0:0:
216,68,46612,2,0,P|257:61|305:50,1,78.3750007474423,2|2,0:0|0:0,0:0:0:0:
485,151,47023,5,2,0:0:0:0:
324,35,47229,1,0,0:0:0:0:
332,207,47434,1,0,0:0:0:0:
461,50,47640,1,0,0:0:0:0:
480,248,47845,6,0,L|457:350,1,78.3750007474423,10|0,0:3|0:0,0:0:0:0:
320,380,48256,1,0,0:0:0:0:
253,239,48461,1,0,0:0:0:0:
364,135,48667,6,0,B|397:108|445:121|445:121|455:163|494:176,1,156.750001494885,2|0,0:0|0:0,0:0:0:0:
323,35,49283,1,0,0:0:0:0:
220,153,49489,2,0,P|228:191|237:229,1,78.3750007474423,2|2,0:0|0:0,0:0:0:0:
320,380,49900,2,0,P|328:341|337:303,1,78.3750007474423,8|0,3:1|0:0,0:0:0:0:
296,75,50311,6,0,P|228:41|134:87,1,156.750001494885,4|8,0:0|0:0,0:0:0:0:
0,215,50927,1,8,0:0:0:0:
222,180,51133,1,8,0:0:0:0:
22,77,51338,1,8,3:1:0:0:
109,240,51544,2,0,P|101:281|94:319,1,78.3750007474423,8|0,3:1|0:0,0:0:0:0:
287,376,51955,6,0,L|468:345,1,156.750001494885,4|8,3:2|0:0,0:0:0:0:
512,186,52571,2,0,P|447:131|358:149,1,166.250001585484,4|0,3:2|0:0,0:0:0:0:
176,240,53187,2,0,B|219:194|219:194|207:54,1,175.749999329567,12|0,3:2|0:0,0:0:0:0:
132,5,53804,5,8,0:0:0:0:
310,178,54009,1,2,0:0:0:0:
302,196,54420,5,8,0:0:0:0:
390,62,54626,1,8,0:0:0:0:
171,130,54831,1,8,0:0:0:0:
387,280,55037,1,8,0:0:0:0:
137,325,55242,6,0,B|49:354|49:354|32:326|-10:310,1,156.750004783631,0|2,0:0|0:0,0:0:0:0:
172,70,56475,6,0,P|340:71|214:195,1,418.000012756348,2|0,0:0|0:0,0:0:0:0:
128,186,58324,6,0,L|143:249,1,35.625001358986,2|2,0:0|0:0,0:0:0:0:
158,310,58530,1,8,0:0:0:0:
256,112,58735,1,8,0:0:0:0:
256,112,59352,6,0,B|281:106|306:82|306:82|342:149|301:201,1,156.750004783631,0|0,3:0|0:0,0:0:0:0:
230,214,60174,6,0,B|346:187|295:297|445:265,1,209.000006378174,6|0,3:2|0:1,0:0:0:0:
255,310,60790,1,0,0:0:0:0:
403,156,60996,2,0,B|390:81|383:7|383:7|351:45|318:49,1,209.000006378174,8|0,0:0|0:0,0:0:0:0:
193,137,61612,1,0,3:0:0:0:
377,269,61817,6,0,P|437:269|488:237,1,104.500003189087,0|0,0:0|0:0,0:0:0:0:
250,371,62228,2,0,P|200:336|142:332,1,104.500003189087,0|0,3:0|0:0,0:0:0:0:
330,165,62639,2,0,L|354:393,1,209.000006378174,8|0,0:0|0:0,0:0:0:0:
473,237,63256,1,0,0:0:0:0:
248,184,63461,6,0,B|132:157|183:267|33:235,1,209.000006378174,2|0,3:2|0:0,0:0:0:0:
239,86,64078,1,0,0:0:0:0:
225,281,64283,1,8,0:0:0:0:
82,143,64489,1,0,0:0:0:0:
307,46,64694,6,0,L|433:78,1,104.500003189087,0|0,0:0|3:0,0:0:0:0:
225,281,65105,1,0,0:0:0:0:
172,33,65310,1,0,3:0:0:0:
364,214,65516,2,0,L|336:337,1,104.500003189087,0|0,3:0|0:0,0:0:0:0:
213,97,65927,5,8,0:0:0:0:
400,200,66132,1,0,0:0:0:0:
171,246,66338,1,0,0:0:0:0:
337,74,66543,1,0,0:0:0:0:
301,291,66749,6,0,B|230:306|230:306|173:279|173:279|85:301,1,209.000006378174,2|0,3:0|0:0,0:0:0:0:
172,377,67365,1,0,0:0:0:0:
234,206,67571,2,0,P|221:150|210:94,1,104.500003189087,8|0,0:0|0:0,0:0:0:0:
104,221,67982,1,0,3:0:0:0:
336,203,68187,1,0,3:0:0:0:
126,71,68393,6,0,P|66:71|15:39,1,104.500003189087,2|0,0:0|0:0,0:0:0:0:
257,152,68804,2,0,P|307:117|365:113,1,104.500003189087,0|0,3:0|0:0,0:0:0:0:
511,234,69215,1,8,0:0:0:0:
336,203,69420,1,0,0:0:0:0:
466,117,69626,2,0,P|472:67|481:-6,1,104.500003189087,0|0,0:0|0:0,0:0:0:0:
315,213,70037,6,0,L|337:368,2,142.5,6|0|0,3:2|0:0|0:0,0:0:0:0:
125,262,70858,2,0,L|145:121,2,142.5,8|0|0,0:0|0:0|0:0,0:0:0:0:
21,276,71680,6,0,P|73:267|125:261,1,104.500003189087,0|8,3:0|0:0,0:0:0:0:
335,354,72091,2,0,P|283:346|232:340,1,104.500003189087,0|8,3:0|0:0,0:0:0:0:
429,251,72502,5,8,0:0:0:0:
251,174,72708,1,8,3:1:0:0:
439,75,72913,1,8,3:1:0:0:
426,284,73119,1,0,3:0:0:0:
226,175,73324,6,0,B|148:174|148:174|105:216|105:216|20:215,1,209.000006378174,4|0,3:2|0:0,0:0:0:0:
198,272,73941,1,0,0:0:0:0:
62,140,74146,2,0,B|54:69|38:5|38:5|62:40|109:47,1,209.000006378174,8|0,0:0|0:0,0:0:0:0:
259,103,74763,1,0,0:0:0:0:
98,262,74968,6,0,P|38:262|-13:230,1,104.500003189087,0|0,3:0|0:0,0:0:0:0:
250,278,75379,2,0,P|280:329|277:390,1,104.500003189087,0|0,3:0|0:0,0:0:0:0:
176,150,75790,2,0,B|152:86|197:28|242:18|242:18|229:68|265:130,1,209.000006378174,8|0,0:0|0:0,0:0:0:0:
62,140,76406,1,0,0:0:0:0:
310,222,76612,6,0,B|430:199|387:313|530:266,1,209.000006378174,0|0,3:0|0:0,0:0:0:0:
330,320,77228,1,0,0:0:0:0:
488,167,77434,1,8,0:2:0:0:
420,374,77639,1,0,0:0:0:0:
315,140,77845,1,0,0:0:0:0:
139,330,78050,5,2,0:0:0:0:
160,345,78153,1,2,0:0:0:0:
183,352,78256,2,0,B|213:304|213:304|190:242,1,104.500003189087,2|8,0:0|0:0,0:0:0:0:
65,110,78667,2,0,B|34:159|34:159|50:203,1,104.500003189087,2|0,3:0|0:0,0:0:0:0:
272,359,79078,5,8,0:0:0:0:
323,131,79283,1,2,0:0:0:0:
120,233,79489,1,8,0:0:0:0:
370,306,79694,1,8,0:0:0:0:
415,93,79900,6,0,P|374:47|313:35,1,104.500003189087,4|0,3:2|0:0,0:0:0:0:
115,85,80310,1,8,0:0:0:0:
352,208,80516,6,0,L|478:191,1,104.500003189087,4|0,3:2|0:0,0:0:0:0:
226,36,80927,1,8,0:0:0:0:
183,237,81132,6,0,P|90:309|1:295,1,209.000006378174,4|0,3:2|3:0,0:0:0:0:
179,101,81749,1,8,0:0:0:0:
282,304,81954,1,2,0:0:0:0:
274,327,82365,5,8,0:0:0:0:
301,69,82571,1,8,0:0:0:0:
163,268,82776,1,8,0:0:0:0:
165,49,82982,1,8,0:0:0:0:
333,253,83187,6,0,P|405:319|499:304,1,170.999994781494,2|0,0:0|0:0,0:0:0:0:
343,131,83804,2,0,P|249:160|215:249,1,170.999994781494,0|0,0:0|0:0,0:0:0:0:
443,200,84420,2,0,P|464:104|404:30,1,170.999994781494,2|0,0:0|0:0,0:0:0:0:
236,126,85291,6,0,P|193:118|151:110,1,85.4999973907472
9,154,85727,1,0,0:0:0:0:
68,32,85904,1,0,0:0:0:0:
180,282,86277,5,0,0:0:0:0:
256,192,86482,12,0,89564,0:0:0:0:
