osu file format v14

[General]
AudioFilename: audio.mp3
AudioLeadIn: 0
PreviewTime: 56045
Countdown: 1
SampleSet: None
StackLeniency: 0.7
Mode: 3
LetterboxInBreaks: 0
SpecialStyle: 0
WidescreenStoryboard: 0

[Editor]
DistanceSpacing: 1.2
BeatDivisor: 4
GridSize: 32
TimelineZoom: 1.7

[Metadata]
Title:Rock-Mode
TitleUnicode:Rock-Mode
Artist:LiSA
ArtistUnicode:LiSA
Creator:L A U R A
Version:
Source:
Tags:
BeatmapID:1432292
BeatmapSetID:677191

[Difficulty]
HPDrainRate:8
CircleSize:4
OverallDifficulty:8
ApproachRate:5
SliderMultiplier:1.4
SliderTickRate:1

[Events]
//Background and Video events
0,0,"3fccf2a9f6b080ca5d569837aeea7a47.jpg",0,0
//Break Periods
//Storyboard Layer 0 (Background)
//Storyboard Layer 1 (Fail)
//Storyboard Layer 2 (Pass)
//Storyboard Layer 3 (Foreground)
//Storyboard Sound Samples

[TimingPoints]
212,333.333333333333,4,1,0,30,1,0

[HitObjects]
320,192,212,5,0,0:0:0:0:
448,192,212,128,0,545:0:0:0:0:
64,192,378,1,0,0:0:0:0:
192,192,545,1,0,0:0:0:0:
320,192,545,1,0,0:0:0:0:
448,192,711,1,0,0:0:0:0:
320,192,795,1,0,0:0:0:0:
192,192,878,1,0,0:0:0:0:
64,192,878,128,0,1211:0:0:0:0:
448,192,1045,1,0,0:0:0:0:
192,192,1211,1,0,0:0:0:0:
320,192,1211,1,0,0:0:0:0:
448,192,1545,1,0,0:0:0:0:
320,192,1545,128,0,1878:0:0:0:0:
64,192,1711,1,0,0:0:0:0:
192,192,1878,1,0,0:0:0:0:
448,192,1878,1,0,0:0:0:0:
320,192,2045,1,0,0:0:0:0:
192,192,2128,1,0,0:0:0:0:
448,192,2211,1,0,0:0:0:0:
64,192,2211,128,0,2545:0:0:0:0:
192,192,2378,1,0,0:0:0:0:
320,192,2545,1,0,0:0:0:0:
448,192,2545,1,0,0:0:0:0:
192,192,2878,1,0,0:0:0:0:
448,192,2878,128,0,3211:0:0:0:0:
320,192,3045,1,0,0:0:0:0:
64,192,3211,1,0,0:0:0:0:
192,192,3211,1,0,0:0:0:0:
320,192,3378,1,0,0:0:0:0:
448,192,3461,1,0,0:0:0:0:
320,192,3545,1,0,0:0:0:0:
64,192,3545,128,0,3878:0:0:0:0:
192,192,3711,1,0,0:0:0:0:
320,192,3878,1,0,0:0:0:0:
448,192,3878,1,0,0:0:0:0:
192,192,4211,1,0,0:0:0:0:
320,192,4211,1,0,0:0:0:0:
64,192,4378,1,0,0:0:0:0:
448,192,4378,1,0,0:0:0:0:
448,192,4545,1,0,0:0:0:0:
64,192,4545,1,0,0:0:0:0:
448,192,4711,1,0,0:0:0:0:
64,192,4711,1,0,0:0:0:0:
448,192,4878,1,0,0:0:0:0:
64,192,4878,1,0,0:0:0:0:
448,192,5045,1,0,0:0:0:0:
64,192,5045,1,0,0:0:0:0:
448,192,5211,1,0,0:0:0:0:
64,192,5211,1,0,0:0:0:0:
448,192,5378,1,0,0:0:0:0:
64,192,5378,1,0,0:0:0:0:
192,192,5545,128,0,5711:0:0:0:0:
448,192,5711,128,0,5878:0:0:0:0:
320,192,5878,128,0,6045:0:0:0:0:
64,192,6045,128,0,6211:0:0:0:0:
448,192,6211,128,0,6378:0:0:0:0:
64,192,6545,128,0,6628:0:0:0:0:
64,192,6711,128,0,6878:0:0:0:0:
320,192,6878,128,0,7045:0:0:0:0:
192,192,7045,128,0,7211:0:0:0:0:
448,192,7211,128,0,7378:0:0:0:0:
64,192,7378,128,0,7545:0:0:0:0:
320,192,7545,128,0,7711:0:0:0:0:
448,192,7711,1,0,0:0:0:0:
320,192,7795,1,0,0:0:0:0:
64,192,7878,1,0,0:0:0:0:
192,192,7878,1,0,0:0:0:0:
320,192,8211,1,0,0:0:0:0:
64,192,8211,1,0,0:0:0:0:
448,192,8211,128,0,8378:0:0:0:0:
64,192,8378,128,0,8545:0:0:0:0:
320,192,8545,128,0,8711:0:0:0:0:
448,192,8545,1,0,0:0:0:0:
192,192,8711,128,0,8878:0:0:0:0:
448,192,8878,128,0,9045:0:0:0:0:
64,192,8878,1,0,0:0:0:0:
320,192,9045,1,0,0:0:0:0:
64,192,9211,128,0,9295:0:0:0:0:
192,192,9211,1,0,0:0:0:0:
64,192,9378,128,0,9545:0:0:0:0:
192,192,9545,128,0,9711:0:0:0:0:
448,192,9545,1,0,0:0:0:0:
320,192,9711,128,0,9878:0:0:0:0:
64,192,9878,128,0,10045:0:0:0:0:
192,192,9878,1,0,0:0:0:0:
448,192,10045,128,0,10211:0:0:0:0:
192,192,10211,128,0,10378:0:0:0:0:
64,192,10211,1,0,0:0:0:0:
320,192,10378,1,0,0:0:0:0:
448,192,10545,128,0,10711:0:0:0:0:
64,192,10545,1,0,0:0:0:0:
320,192,10711,128,0,10878:0:0:0:0:
64,192,10878,128,0,11211:0:0:0:0:
192,192,10878,1,0,0:0:0:0:
320,192,11045,1,0,0:0:0:0:
448,192,11211,128,0,11545:0:0:0:0:
192,192,11211,1,0,0:0:0:0:
320,192,11378,1,0,0:0:0:0:
192,192,11545,128,0,11878:0:0:0:0:
64,192,11545,1,0,0:0:0:0:
320,192,11711,1,0,0:0:0:0:
448,192,11878,128,0,12211:0:0:0:0:
64,192,11878,1,0,0:0:0:0:
192,192,12045,1,0,0:0:0:0:
64,192,12211,128,0,12378:0:0:0:0:
320,192,12211,1,0,0:0:0:0:
192,192,12378,128,0,12545:0:0:0:0:
448,192,12545,128,0,12711:0:0:0:0:
64,192,12545,1,0,0:0:0:0:
320,192,12711,1,0,0:0:0:0:
64,192,12878,128,0,13045:0:0:0:0:
448,192,12878,1,0,0:0:0:0:
192,192,13045,128,0,13211:0:0:0:0:
448,192,13211,128,0,13378:0:0:0:0:
320,192,13211,1,0,0:0:0:0:
192,192,13378,1,0,0:0:0:0:
448,192,13545,1,0,0:0:0:0:
64,192,13545,128,0,13711:0:0:0:0:
320,192,13545,1,0,0:0:0:0:
192,192,13711,128,0,13878:0:0:0:0:
448,192,13878,128,0,14045:0:0:0:0:
64,192,13878,1,0,0:0:0:0:
192,192,14045,128,0,14211:0:0:0:0:
320,192,14211,128,0,14378:0:0:0:0:
448,192,14211,1,0,0:0:0:0:
192,192,14378,1,0,0:0:0:0:
64,192,14545,128,0,14628:0:0:0:0:
448,192,14545,1,0,0:0:0:0:
64,192,14711,128,0,14878:0:0:0:0:
448,192,14878,128,0,15045:0:0:0:0:
320,192,14878,1,0,0:0:0:0:
192,192,15045,128,0,15211:0:0:0:0:
320,192,15211,128,0,15378:0:0:0:0:
448,192,15211,1,0,0:0:0:0:
64,192,15378,128,0,15545:0:0:0:0:
448,192,15545,128,0,15711:0:0:0:0:
192,192,15545,1,0,0:0:0:0:
320,192,15711,1,0,0:0:0:0:
64,192,15878,128,0,16211:0:0:0:0:
192,192,15878,1,0,0:0:0:0:
320,192,16045,1,0,0:0:0:0:
192,192,16211,1,0,0:0:0:0:
448,192,16211,128,0,16378:0:0:0:0:
320,192,16378,1,0,0:0:0:0:
64,192,16545,1,0,0:0:0:0:
192,192,16545,1,0,0:0:0:0:
448,192,16711,1,0,0:0:0:0:
320,192,16711,128,0,16878:0:0:0:0:
64,192,16878,1,0,0:0:0:0:
192,192,16878,128,0,17045:0:0:0:0:
448,192,17045,128,0,17211:0:0:0:0:
320,192,17211,1,0,0:0:0:0:
64,192,17211,1,0,0:0:0:0:
64,192,17378,1,0,0:0:0:0:
192,192,17378,128,0,17711:0:0:0:0:
448,192,17545,1,0,0:0:0:0:
320,192,17545,1,0,0:0:0:0:
64,192,17711,1,0,0:0:0:0:
448,192,17711,128,0,17878:0:0:0:0:
192,192,17878,1,0,0:0:0:0:
64,192,17878,1,0,0:0:0:0:
320,192,17878,128,0,18045:0:0:0:0:
448,192,18045,1,0,0:0:0:0:
64,192,18211,128,0,18878:0:0:0:0:
192,192,18211,1,0,0:0:0:0:
320,192,18378,1,0,0:0:0:0:
192,192,18461,1,0,0:0:0:0:
448,192,18545,1,0,0:0:0:0:
320,192,18545,1,0,0:0:0:0:
320,192,18878,1,0,0:0:0:0:
192,192,18878,1,0,0:0:0:0:
448,192,18878,128,0,21211:0:0:0:0:
64,192,19211,1,0,0:0:0:0:
320,192,19545,1,0,0:0:0:0:
64,192,19878,1,0,0:0:0:0:
192,192,20211,1,0,0:0:0:0:
320,192,20545,1,0,0:0:0:0:
64,192,20878,1,0,0:0:0:0:
192,192,21045,1,0,0:0:0:0:
320,192,21045,1,0,0:0:0:0:
64,192,21211,1,0,0:0:0:0:
320,192,21211,1,0,0:0:0:0:
64,192,21545,128,0,23545:0:0:0:0:
448,192,21545,1,0,0:0:0:0:
192,192,21878,1,0,0:0:0:0:
448,192,22211,1,0,0:0:0:0:
192,192,22545,1,0,0:0:0:0:
448,192,22628,1,0,0:0:0:0:
320,192,22628,1,0,0:0:0:0:
448,192,23045,1,0,0:0:0:0:
192,192,23128,1,0,0:0:0:0:
320,192,23211,1,0,0:0:0:0:
448,192,23211,1,0,0:0:0:0:
320,192,23545,1,0,0:0:0:0:
448,192,23545,1,0,0:0:0:0:
192,192,23711,1,0,0:0:0:0:
64,192,23711,1,0,0:0:0:0:
320,192,23795,1,0,0:0:0:0:
448,192,23795,1,0,0:0:0:0:
64,192,23878,1,0,0:0:0:0:
192,192,23878,1,0,0:0:0:0:
320,192,23961,1,0,0:0:0:0:
448,192,23961,1,0,0:0:0:0:
64,192,24045,1,0,0:0:0:0:
192,192,24128,1,0,0:0:0:0:
448,192,24211,128,0,25545:0:0:0:0:
320,192,24211,1,0,0:0:0:0:
64,192,24545,1,0,0:0:0:0:
320,192,24878,1,0,0:0:0:0:
192,192,25211,1,0,0:0:0:0:
64,192,25545,128,0,26878:0:0:0:0:
320,192,25545,1,0,0:0:0:0:
192,192,25878,1,0,0:0:0:0:
448,192,26211,1,0,0:0:0:0:
320,192,26545,1,0,0:0:0:0:
448,192,26545,1,0,0:0:0:0:
192,192,26628,1,0,0:0:0:0:
320,192,26711,1,0,0:0:0:0:
192,192,26878,1,0,0:0:0:0:
448,192,26878,128,0,27045:0:0:0:0:
320,192,27045,1,0,0:0:0:0:
192,192,27211,1,0,0:0:0:0:
64,192,27211,1,0,0:0:0:0:
320,192,27378,128,0,27545:0:0:0:0:
64,192,27545,128,0,27711:0:0:0:0:
448,192,27545,1,0,0:0:0:0:
320,192,27711,128,0,27878:0:0:0:0:
64,192,27878,1,0,0:0:0:0:
192,192,27878,1,0,0:0:0:0:
448,192,28045,128,0,28378:0:0:0:0:
192,192,28211,1,0,0:0:0:0:
320,192,28211,1,0,0:0:0:0:
64,192,28378,128,0,28545:0:0:0:0:
320,192,28545,128,0,28711:0:0:0:0:
448,192,28545,1,0,0:0:0:0:
192,192,28711,1,0,0:0:0:0:
64,192,28878,128,0,29211:0:0:0:0:
448,192,28878,1,0,0:0:0:0:
192,192,29045,1,0,0:0:0:0:
320,192,29211,1,0,0:0:0:0:
448,192,29211,1,0,0:0:0:0:
64,192,29545,1,0,0:0:0:0:
192,192,29545,1,0,0:0:0:0:
448,192,29545,128,0,32211:0:0:0:0:
320,192,29878,1,0,0:0:0:0:
64,192,29878,1,0,0:0:0:0:
192,192,30045,1,0,0:0:0:0:
320,192,30378,1,0,0:0:0:0:
64,192,30711,1,0,0:0:0:0:
192,192,30711,1,0,0:0:0:0:
320,192,31045,1,0,0:0:0:0:
64,192,31378,1,0,0:0:0:0:
192,192,31378,1,0,0:0:0:0:
320,192,31545,1,0,0:0:0:0:
64,192,31711,1,0,0:0:0:0:
192,192,31878,1,0,0:0:0:0:
320,192,31878,1,0,0:0:0:0:
64,192,32211,128,0,34878:0:0:0:0:
320,192,32211,1,0,0:0:0:0:
192,192,32378,1,0,0:0:0:0:
320,192,32545,1,0,0:0:0:0:
448,192,32545,1,0,0:0:0:0:
192,192,32711,1,0,0:0:0:0:
448,192,33045,1,0,0:0:0:0:
192,192,33378,1,0,0:0:0:0:
320,192,33378,1,0,0:0:0:0:
448,192,33711,1,0,0:0:0:0:
192,192,34045,1,0,0:0:0:0:
448,192,34045,1,0,0:0:0:0:
192,192,34378,1,0,0:0:0:0:
320,192,34545,1,0,0:0:0:0:
448,192,34545,1,0,0:0:0:0:
192,192,34795,1,0,0:0:0:0:
320,192,34878,1,0,0:0:0:0:
448,192,34878,128,0,36211:0:0:0:0:
192,192,35045,1,0,0:0:0:0:
64,192,35211,1,0,0:0:0:0:
320,192,35211,1,0,0:0:0:0:
192,192,35545,1,0,0:0:0:0:
64,192,35711,1,0,0:0:0:0:
192,192,36045,1,0,0:0:0:0:
320,192,36045,1,0,0:0:0:0:
64,192,36211,128,0,37545:0:0:0:0:
192,192,36211,1,0,0:0:0:0:
320,192,36378,1,0,0:0:0:0:
320,192,36711,1,0,0:0:0:0:
448,192,36711,1,0,0:0:0:0:
320,192,37045,1,0,0:0:0:0:
192,192,37211,1,0,0:0:0:0:
448,192,37211,1,0,0:0:0:0:
320,192,37545,1,0,0:0:0:0:
448,192,37545,128,0,37711:0:0:0:0:
64,192,37711,1,0,0:0:0:0:
320,192,37878,1,0,0:0:0:0:
192,192,37878,1,0,0:0:0:0:
64,192,38045,128,0,38211:0:0:0:0:
320,192,38211,128,0,38378:0:0:0:0:
448,192,38211,1,0,0:0:0:0:
64,192,38378,128,0,38545:0:0:0:0:
192,192,38545,1,0,0:0:0:0:
320,192,38545,1,0,0:0:0:0:
448,192,38711,128,0,39045:0:0:0:0:
192,192,38878,1,0,0:0:0:0:
320,192,38878,1,0,0:0:0:0:
64,192,39045,128,0,39211:0:0:0:0:
320,192,39211,128,0,39378:0:0:0:0:
448,192,39211,1,0,0:0:0:0:
192,192,39378,1,0,0:0:0:0:
64,192,39545,128,0,39878:0:0:0:0:
448,192,39545,1,0,0:0:0:0:
320,192,39711,1,0,0:0:0:0:
192,192,39878,1,0,0:0:0:0:
448,192,39878,128,0,40211:0:0:0:0:
320,192,40211,1,0,0:0:0:0:
64,192,40211,128,0,40545:0:0:0:0:
192,192,40545,1,0,0:0:0:0:
320,192,40711,1,0,0:0:0:0:
64,192,40878,1,0,0:0:0:0:
192,192,40878,1,0,0:0:0:0:
320,192,41378,1,0,0:0:0:0:
192,192,41545,1,0,0:0:0:0:
64,192,41711,1,0,0:0:0:0:
192,192,42045,1,0,0:0:0:0:
320,192,42211,1,0,0:0:0:0:
448,192,42211,1,0,0:0:0:0:
64,192,42378,1,0,0:0:0:0:
320,192,42711,1,0,0:0:0:0:
192,192,42878,1,0,0:0:0:0:
320,192,43045,1,0,0:0:0:0:
64,192,43211,1,0,0:0:0:0:
448,192,43378,1,0,0:0:0:0:
320,192,43545,1,0,0:0:0:0:
64,192,43545,1,0,0:0:0:0:
192,192,43711,1,0,0:0:0:0:
448,192,44045,1,0,0:0:0:0:
320,192,44378,1,0,0:0:0:0:
64,192,44711,1,0,0:0:0:0:
192,192,44878,1,0,0:0:0:0:
448,192,44878,1,0,0:0:0:0:
320,192,45045,1,0,0:0:0:0:
64,192,45211,1,0,0:0:0:0:
448,192,45211,128,0,45545:0:0:0:0:
320,192,45545,1,0,0:0:0:0:
64,192,45545,128,0,45878:0:0:0:0:
320,192,45878,1,0,0:0:0:0:
448,192,45878,1,0,0:0:0:0:
192,192,46045,1,0,0:0:0:0:
64,192,46211,1,0,0:0:0:0:
448,192,46211,1,0,0:0:0:0:
192,192,46711,1,0,0:0:0:0:
320,192,46878,1,0,0:0:0:0:
448,192,47045,1,0,0:0:0:0:
192,192,47211,1,0,0:0:0:0:
64,192,47378,1,0,0:0:0:0:
192,192,47545,1,0,0:0:0:0:
320,192,47545,1,0,0:0:0:0:
448,192,47711,1,0,0:0:0:0:
320,192,48045,1,0,0:0:0:0:
448,192,48211,1,0,0:0:0:0:
192,192,48378,1,0,0:0:0:0:
64,192,48711,1,0,0:0:0:0:
192,192,48878,1,0,0:0:0:0:
320,192,48878,1,0,0:0:0:0:
448,192,49045,1,0,0:0:0:0:
64,192,49211,1,0,0:0:0:0:
320,192,49211,1,0,0:0:0:0:
192,192,49378,1,0,0:0:0:0:
448,192,49711,1,0,0:0:0:0:
64,192,50045,1,0,0:0:0:0:
192,192,50211,1,0,0:0:0:0:
448,192,50211,1,0,0:0:0:0:
320,192,50378,1,0,0:0:0:0:
64,192,50545,1,0,0:0:0:0:
192,192,50545,1,0,0:0:0:0:
320,192,50711,1,0,0:0:0:0:
448,192,50711,1,0,0:0:0:0:
64,192,50878,1,0,0:0:0:0:
192,192,50878,1,0,0:0:0:0:
448,192,50878,1,0,0:0:0:0:
64,192,52045,1,0,0:0:0:0:
448,192,52045,1,0,0:0:0:0:
320,192,52045,1,0,0:0:0:0:
64,192,53211,1,0,0:0:0:0:
192,192,53211,1,0,0:0:0:0:
192,192,53378,1,0,0:0:0:0:
320,192,53378,1,0,0:0:0:0:
448,192,53378,1,0,0:0:0:0:
320,192,54545,1,0,0:0:0:0:
448,192,54545,1,0,0:0:0:0:
192,192,54711,1,0,0:0:0:0:
64,192,54878,1,0,0:0:0:0:
448,192,54878,1,0,0:0:0:0:
320,192,55045,1,0,0:0:0:0:
64,192,55211,1,0,0:0:0:0:
192,192,55211,1,0,0:0:0:0:
320,192,55378,1,0,0:0:0:0:
64,192,55545,1,0,0:0:0:0:
448,192,55545,1,0,0:0:0:0:
192,192,55628,1,0,0:0:0:0:
448,192,55711,1,0,0:0:0:0:
320,192,55795,1,0,0:0:0:0:
64,192,55878,1,0,0:0:0:0:
192,192,55878,1,0,0:0:0:0:
448,192,56211,1,0,0:0:0:0:
320,192,56211,1,0,0:0:0:0:
64,192,56545,1,0,0:0:0:0:
192,192,56545,1,0,0:0:0:0:
320,192,56711,1,0,0:0:0:0:
192,192,57045,1,0,0:0:0:0:
64,192,57045,1,0,0:0:0:0:
64,192,57211,1,0,0:0:0:0:
448,192,57211,1,0,0:0:0:0:
320,192,57211,1,0,0:0:0:0:
192,192,57545,1,0,0:0:0:0:
320,192,57878,1,0,0:0:0:0:
448,192,57878,1,0,0:0:0:0:
192,192,58045,1,0,0:0:0:0:
320,192,58378,1,0,0:0:0:0:
448,192,58378,1,0,0:0:0:0:
64,192,58545,1,0,0:0:0:0:
192,192,58545,1,0,0:0:0:0:
448,192,58545,1,0,0:0:0:0:
192,192,58878,1,0,0:0:0:0:
320,192,58878,1,0,0:0:0:0:
448,192,58878,1,0,0:0:0:0:
192,192,59045,1,0,0:0:0:0:
448,192,59045,1,0,0:0:0:0:
64,192,59045,1,0,0:0:0:0:
320,192,59378,1,0,0:0:0:0:
448,192,59378,1,0,0:0:0:0:
64,192,59711,1,0,0:0:0:0:
192,192,59711,1,0,0:0:0:0:
320,192,60045,1,0,0:0:0:0:
448,192,60045,1,0,0:0:0:0:
64,192,60045,1,0,0:0:0:0:
64,192,60378,1,0,0:0:0:0:
192,192,60378,1,0,0:0:0:0:
320,192,60545,1,0,0:0:0:0:
448,192,60545,1,0,0:0:0:0:
192,192,60711,1,0,0:0:0:0:
320,192,60878,1,0,0:0:0:0:
448,192,60878,1,0,0:0:0:0:
64,192,61045,1,0,0:0:0:0:
192,192,61045,1,0,0:0:0:0:
320,192,61128,1,0,0:0:0:0:
448,192,61128,1,0,0:0:0:0:
64,192,61211,1,0,0:0:0:0:
192,192,61211,1,0,0:0:0:0:
320,192,61295,1,0,0:0:0:0:
448,192,61295,1,0,0:0:0:0:
64,192,61378,1,0,0:0:0:0:
192,192,61378,1,0,0:0:0:0:
320,192,61461,1,0,0:0:0:0:
448,192,61461,1,0,0:0:0:0:
192,192,61545,1,0,0:0:0:0:
64,192,61545,128,0,61711:0:0:0:0:
448,192,61711,128,0,61878:0:0:0:0:
192,192,61878,128,0,62045:0:0:0:0:
320,192,62045,128,0,62211:0:0:0:0:
64,192,62211,128,0,62378:0:0:0:0:
448,192,62378,128,0,62878:0:0:0:0:
64,192,62878,1,0,0:0:0:0:
192,192,62878,128,0,63045:0:0:0:0:
448,192,63045,128,0,63211:0:0:0:0:
64,192,63211,1,0,0:0:0:0:
320,192,63211,128,0,63378:0:0:0:0:
192,192,63378,128,0,63545:0:0:0:0:
64,192,63545,1,0,0:0:0:0:
448,192,63545,128,0,63711:0:0:0:0:
320,192,63711,1,0,0:0:0:0:
192,192,63878,128,0,64045:0:0:0:0:
64,192,63878,1,0,0:0:0:0:
448,192,64045,128,0,64211:0:0:0:0:
320,192,64211,1,0,0:0:0:0:
192,192,64211,128,0,64378:0:0:0:0:
320,192,64378,128,0,64545:0:0:0:0:
448,192,64545,128,0,64711:0:0:0:0:
64,192,64545,1,0,0:0:0:0:
192,192,64711,128,0,64878:0:0:0:0:
64,192,64878,128,0,65045:0:0:0:0:
448,192,64878,1,0,0:0:0:0:
320,192,65045,1,0,0:0:0:0:
64,192,65211,1,0,0:0:0:0:
448,192,65211,128,0,65545:0:0:0:0:
192,192,65378,1,0,0:0:0:0:
64,192,65545,1,0,0:0:0:0:
320,192,65545,128,0,65878:0:0:0:0:
192,192,65711,1,0,0:0:0:0:
64,192,65878,128,0,66211:0:0:0:0:
448,192,65878,1,0,0:0:0:0:
192,192,66045,1,0,0:0:0:0:
320,192,66211,128,0,66545:0:0:0:0:
448,192,66211,1,0,0:0:0:0:
192,192,66378,1,0,0:0:0:0:
448,192,66545,1,0,0:0:0:0:
64,192,66545,128,0,66711:0:0:0:0:
192,192,66711,1,0,0:0:0:0:
448,192,66878,128,0,67045:0:0:0:0:
320,192,66878,1,0,0:0:0:0:
64,192,67045,128,0,67211:0:0:0:0:
320,192,67211,128,0,67378:0:0:0:0:
192,192,67211,1,0,0:0:0:0:
448,192,67378,1,0,0:0:0:0:
64,192,67545,128,0,67711:0:0:0:0:
192,192,67545,1,0,0:0:0:0:
448,192,67711,128,0,67878:0:0:0:0:
192,192,67878,128,0,68045:0:0:0:0:
320,192,67878,1,0,0:0:0:0:
64,192,68045,1,0,0:0:0:0:
320,192,68211,1,0,0:0:0:0:
64,192,68211,1,0,0:0:0:0:
448,192,68211,128,0,68378:0:0:0:0:
192,192,68378,128,0,68545:0:0:0:0:
320,192,68545,128,0,68711:0:0:0:0:
448,192,68545,1,0,0:0:0:0:
64,192,68711,128,0,68878:0:0:0:0:
448,192,68878,128,0,69045:0:0:0:0:
192,192,68878,1,0,0:0:0:0:
64,192,69045,1,0,0:0:0:0:
320,192,69211,128,0,69378:0:0:0:0:
448,192,69211,1,0,0:0:0:0:
192,192,69378,128,0,69545:0:0:0:0:
448,192,69545,128,0,69711:0:0:0:0:
320,192,69545,1,0,0:0:0:0:
64,192,69711,128,0,69878:0:0:0:0:
192,192,69878,128,0,70045:0:0:0:0:
320,192,69878,1,0,0:0:0:0:
448,192,70045,128,0,70211:0:0:0:0:
64,192,70211,128,0,70378:0:0:0:0:
320,192,70211,1,0,0:0:0:0:
192,192,70378,1,0,0:0:0:0:
448,192,70545,128,0,70878:0:0:0:0:
320,192,70545,1,0,0:0:0:0:
192,192,70711,1,0,0:0:0:0:
64,192,70878,128,0,71045:0:0:0:0:
320,192,70878,1,0,0:0:0:0:
448,192,71045,128,0,71211:0:0:0:0:
64,192,71211,1,0,0:0:0:0:
192,192,71211,1,0,0:0:0:0:
320,192,71378,128,0,71545:0:0:0:0:
64,192,71545,128,0,71711:0:0:0:0:
448,192,71545,1,0,0:0:0:0:
192,192,71711,128,0,71878:0:0:0:0:
320,192,71878,1,0,0:0:0:0:
448,192,71878,1,0,0:0:0:0:
64,192,72045,128,0,72378:0:0:0:0:
192,192,72211,1,0,0:0:0:0:
320,192,72211,1,0,0:0:0:0:
448,192,72378,128,0,72545:0:0:0:0:
320,192,72545,128,0,72878:0:0:0:0:
64,192,72545,1,0,0:0:0:0:
192,192,72711,1,0,0:0:0:0:
64,192,72878,128,0,73211:0:0:0:0:
448,192,72878,1,0,0:0:0:0:
192,192,73045,1,0,0:0:0:0:
320,192,73045,1,0,0:0:0:0:
448,192,73045,1,0,0:0:0:0:
192,192,73211,1,0,0:0:0:0:
320,192,73211,1,0,0:0:0:0:
448,192,73211,1,0,0:0:0:0:
64,192,73545,1,0,0:0:0:0:
320,192,73545,1,0,0:0:0:0:
448,192,73545,128,0,73711:0:0:0:0:
192,192,73711,128,0,73878:0:0:0:0:
320,192,73878,128,0,74045:0:0:0:0:
448,192,73878,1,0,0:0:0:0:
64,192,74045,128,0,74211:0:0:0:0:
448,192,74211,128,0,74378:0:0:0:0:
192,192,74211,1,0,0:0:0:0:
320,192,74378,1,0,0:0:0:0:
64,192,74545,128,0,74711:0:0:0:0:
192,192,74545,1,0,0:0:0:0:
448,192,74711,128,0,74878:0:0:0:0:
192,192,74878,128,0,75045:0:0:0:0:
64,192,74878,1,0,0:0:0:0:
320,192,75045,128,0,75211:0:0:0:0:
64,192,75211,128,0,75378:0:0:0:0:
448,192,75211,1,0,0:0:0:0:
320,192,75378,128,0,75545:0:0:0:0:
192,192,75545,128,0,75711:0:0:0:0:
448,192,75545,1,0,0:0:0:0:
64,192,75711,1,0,0:0:0:0:
448,192,75878,128,0,76045:0:0:0:0:
320,192,75878,1,0,0:0:0:0:
192,192,76045,128,0,76211:0:0:0:0:
64,192,76211,128,0,76545:0:0:0:0:
448,192,76211,1,0,0:0:0:0:
320,192,76378,1,0,0:0:0:0:
448,192,76545,128,0,76878:0:0:0:0:
192,192,76545,1,0,0:0:0:0:
320,192,76711,1,0,0:0:0:0:
64,192,76878,128,0,77211:0:0:0:0:
192,192,76878,1,0,0:0:0:0:
320,192,77045,1,0,0:0:0:0:
448,192,77211,128,0,77378:0:0:0:0:
192,192,77211,1,0,0:0:0:0:
320,192,77378,1,0,0:0:0:0:
64,192,77545,128,0,77711:0:0:0:0:
448,192,77545,1,0,0:0:0:0:
192,192,77711,128,0,77878:0:0:0:0:
320,192,77878,128,0,78045:0:0:0:0:
448,192,77878,1,0,0:0:0:0:
192,192,78045,1,0,0:0:0:0:
448,192,78211,128,0,78378:0:0:0:0:
64,192,78211,1,0,0:0:0:0:
320,192,78378,128,0,78545:0:0:0:0:
192,192,78545,128,0,78711:0:0:0:0:
64,192,78545,1,0,0:0:0:0:
320,192,78711,1,0,0:0:0:0:
320,192,78878,1,0,0:0:0:0:
64,192,78878,1,0,0:0:0:0:
448,192,78878,128,0,79045:0:0:0:0:
192,192,79045,128,0,79211:0:0:0:0:
320,192,79211,128,0,79378:0:0:0:0:
448,192,79211,1,0,0:0:0:0:
64,192,79378,128,0,79545:0:0:0:0:
448,192,79545,128,0,79711:0:0:0:0:
192,192,79545,1,0,0:0:0:0:
320,192,79711,1,0,0:0:0:0:
64,192,79878,128,0,80045:0:0:0:0:
192,192,79878,1,0,0:0:0:0:
320,192,80045,128,0,80211:0:0:0:0:
64,192,80211,128,0,80378:0:0:0:0:
448,192,80211,1,0,0:0:0:0:
192,192,80378,128,0,80545:0:0:0:0:
448,192,80545,128,0,80711:0:0:0:0:
320,192,80545,1,0,0:0:0:0:
64,192,80711,128,0,80878:0:0:0:0:
320,192,80878,128,0,81045:0:0:0:0:
192,192,80878,1,0,0:0:0:0:
64,192,81045,1,0,0:0:0:0:
448,192,81211,128,0,81545:0:0:0:0:
320,192,81211,1,0,0:0:0:0:
192,192,81378,1,0,0:0:0:0:
64,192,81545,128,0,82211:0:0:0:0:
320,192,81545,1,0,0:0:0:0:
192,192,81711,1,0,0:0:0:0:
448,192,81878,1,0,0:0:0:0:
320,192,81878,1,0,0:0:0:0:
192,192,82045,1,0,0:0:0:0:
192,192,82211,128,0,82878:0:0:0:0:
448,192,82211,1,0,0:0:0:0:
320,192,82378,1,0,0:0:0:0:
64,192,82545,1,0,0:0:0:0:
448,192,82545,1,0,0:0:0:0:
320,192,82711,1,0,0:0:0:0:
448,192,82878,128,0,83545:0:0:0:0:
64,192,82878,1,0,0:0:0:0:
192,192,83045,1,0,0:0:0:0:
320,192,83211,128,0,83545:0:0:0:0:
64,192,83211,1,0,0:0:0:0:
192,192,83378,1,0,0:0:0:0:
64,192,83545,1,0,0:0:0:0:
192,192,83628,1,0,0:0:0:0:
448,192,83711,1,0,0:0:0:0:
320,192,83795,1,0,0:0:0:0:
64,192,83878,1,0,0:0:0:0:
192,192,83878,1,0,0:0:0:0:
448,192,83961,1,0,0:0:0:0:
64,192,84045,1,0,0:0:0:0:
192,192,84128,1,0,0:0:0:0:
320,192,84211,1,0,0:0:0:0:
448,192,84211,1,0,0:0:0:0:
192,192,84378,1,0,0:0:0:0:
64,192,84545,1,0,0:0:0:0:
192,192,84545,1,0,0:0:0:0:
448,192,84545,1,0,0:0:0:0:
320,192,84711,1,0,0:0:0:0:
320,192,84878,1,0,0:0:0:0:
448,192,84878,1,0,0:0:0:0:
64,192,84878,1,0,0:0:0:0:
192,192,85045,1,0,0:0:0:0:
64,192,85211,1,0,0:0:0:0:
192,192,85211,1,0,0:0:0:0:
320,192,85211,1,0,0:0:0:0:
448,192,85378,1,0,0:0:0:0:
448,192,85545,1,0,0:0:0:0:
320,192,85545,1,0,0:0:0:0:
64,192,85545,1,0,0:0:0:0:
192,192,85711,1,0,0:0:0:0:
64,192,85878,1,0,0:0:0:0:
192,192,85878,1,0,0:0:0:0:
320,192,85878,1,0,0:0:0:0:
448,192,86045,1,0,0:0:0:0:
448,192,86211,1,0,0:0:0:0:
320,192,86211,1,0,0:0:0:0:
64,192,86211,1,0,0:0:0:0:
192,192,86378,1,0,0:0:0:0:
64,192,86545,1,0,0:0:0:0:
192,192,86545,1,0,0:0:0:0:
448,192,86545,1,0,0:0:0:0:
448,192,86878,1,0,0:0:0:0:
320,192,86878,128,0,87045:0:0:0:0:
192,192,87045,1,0,0:0:0:0:
192,192,87378,128,0,87545:0:0:0:0:
64,192,87378,1,0,0:0:0:0:
448,192,87545,128,0,87711:0:0:0:0:
320,192,87545,1,0,0:0:0:0:
192,192,87711,128,0,87878:0:0:0:0:
64,192,87711,1,0,0:0:0:0:
448,192,88045,128,0,88378:0:0:0:0:
320,192,88045,1,0,0:0:0:0:
64,192,88045,1,0,0:0:0:0:
64,192,88378,128,0,88545:0:0:0:0:
192,192,88378,1,0,0:0:0:0:
320,192,88378,1,0,0:0:0:0:
320,192,88545,128,0,88711:0:0:0:0:
448,192,88545,1,0,0:0:0:0:
64,192,88878,128,0,89211:0:0:0:0:
448,192,88878,1,0,0:0:0:0:
192,192,89045,128,0,89211:0:0:0:0:
448,192,89211,128,0,89545:0:0:0:0:
320,192,89211,1,0,0:0:0:0:
192,192,89545,1,0,0:0:0:0:
320,192,89545,1,0,0:0:0:0:
64,192,89545,128,0,89711:0:0:0:0:
320,192,89711,128,0,89878:0:0:0:0:
192,192,89878,128,0,90045:0:0:0:0:
64,192,89878,1,0,0:0:0:0:
448,192,90045,128,0,90211:0:0:0:0:
64,192,90211,128,0,90378:0:0:0:0:
320,192,90211,1,0,0:0:0:0:
192,192,90378,1,0,0:0:0:0:
448,192,90545,128,0,90628:0:0:0:0:
320,192,90545,1,0,0:0:0:0:
448,192,90711,128,0,90878:0:0:0:0:
192,192,90878,128,0,91045:0:0:0:0:
64,192,90878,1,0,0:0:0:0:
320,192,91045,128,0,91211:0:0:0:0:
64,192,91211,128,0,91378:0:0:0:0:
192,192,91211,1,0,0:0:0:0:
448,192,91378,128,0,91545:0:0:0:0:
192,192,91545,128,0,91711:0:0:0:0:
320,192,91545,1,0,0:0:0:0:
64,192,91711,1,0,0:0:0:0:
320,192,91878,128,0,92045:0:0:0:0:
448,192,91878,1,0,0:0:0:0:
64,192,92045,128,0,92211:0:0:0:0:
448,192,92211,128,0,92545:0:0:0:0:
192,192,92211,1,0,0:0:0:0:
320,192,92378,1,0,0:0:0:0:
192,192,92545,128,0,92878:0:0:0:0:
64,192,92545,1,0,0:0:0:0:
448,192,92711,1,0,0:0:0:0:
320,192,92878,128,0,93211:0:0:0:0:
64,192,92878,1,0,0:0:0:0:
192,192,93045,1,0,0:0:0:0:
64,192,93211,128,0,93545:0:0:0:0:
448,192,93211,1,0,0:0:0:0:
320,192,93378,1,0,0:0:0:0:
448,192,93545,128,0,93711:0:0:0:0:
192,192,93545,1,0,0:0:0:0:
320,192,93711,128,0,93878:0:0:0:0:
64,192,93878,128,0,94045:0:0:0:0:
192,192,93878,1,0,0:0:0:0:
320,192,94045,1,0,0:0:0:0:
448,192,94211,128,0,94378:0:0:0:0:
64,192,94211,1,0,0:0:0:0:
320,192,94378,128,0,94545:0:0:0:0:
64,192,94545,128,0,94711:0:0:0:0:
192,192,94545,1,0,0:0:0:0:
320,192,94711,1,0,0:0:0:0:
192,192,94878,1,0,0:0:0:0:
448,192,94878,128,0,95045:0:0:0:0:
64,192,94878,1,0,0:0:0:0:
64,192,95045,128,0,95211:0:0:0:0:
320,192,95211,128,0,95378:0:0:0:0:
192,192,95378,128,0,95545:0:0:0:0:
448,192,95545,128,0,95711:0:0:0:0:
64,192,95545,1,0,0:0:0:0:
320,192,95711,1,0,0:0:0:0:
64,192,95878,128,0,95961:0:0:0:0:
192,192,95878,1,0,0:0:0:0:
64,192,96045,128,0,96211:0:0:0:0:
320,192,96211,128,0,96378:0:0:0:0:
448,192,96211,1,0,0:0:0:0:
192,192,96378,128,0,96545:0:0:0:0:
448,192,96545,128,0,96711:0:0:0:0:
320,192,96545,1,0,0:0:0:0:
64,192,96711,128,0,96878:0:0:0:0:
192,192,96878,128,0,97045:0:0:0:0:
320,192,96878,1,0,0:0:0:0:
64,192,97045,1,0,0:0:0:0:
448,192,97211,128,0,97545:0:0:0:0:
192,192,97211,1,0,0:0:0:0:
320,192,97378,1,0,0:0:0:0:
64,192,97545,128,0,97878:0:0:0:0:
192,192,97545,1,0,0:0:0:0:
192,192,97878,1,0,0:0:0:0:
320,192,97878,1,0,0:0:0:0:
448,192,98045,128,0,98211:0:0:0:0:
320,192,98045,1,0,0:0:0:0:
192,192,98211,128,0,98378:0:0:0:0:
64,192,98211,1,0,0:0:0:0:
64,192,98378,128,0,98545:0:0:0:0:
448,192,98378,1,0,0:0:0:0:
448,192,98711,128,0,98878:0:0:0:0:
320,192,98711,1,0,0:0:0:0:
64,192,98711,1,0,0:0:0:0:
448,192,99045,128,0,99211:0:0:0:0:
64,192,99045,1,0,0:0:0:0:
192,192,99045,1,0,0:0:0:0:
64,192,99211,128,0,99545:0:0:0:0:
320,192,99211,1,0,0:0:0:0:
192,192,99378,1,0,0:0:0:0:
448,192,99545,128,0,99711:0:0:0:0:
320,192,99545,1,0,0:0:0:0:
64,192,99711,1,0,0:0:0:0:
192,192,99795,1,0,0:0:0:0:
320,192,99878,1,0,0:0:0:0:
448,192,99878,1,0,0:0:0:0:
448,192,100211,1,0,0:0:0:0:
64,192,100211,1,0,0:0:0:0:
192,192,100211,1,0,0:0:0:0:
320,192,100378,1,0,0:0:0:0:
192,192,100545,1,0,0:0:0:0:
64,192,100545,1,0,0:0:0:0:
448,192,100711,1,0,0:0:0:0:
448,192,100878,1,0,0:0:0:0:
192,192,101045,1,0,0:0:0:0:
448,192,101211,1,0,0:0:0:0:
192,192,101211,1,0,0:0:0:0:
64,192,101378,1,0,0:0:0:0:
64,192,101545,1,0,0:0:0:0:
320,192,101711,1,0,0:0:0:0:
320,192,101878,1,0,0:0:0:0:
448,192,101878,1,0,0:0:0:0:
192,192,102045,1,0,0:0:0:0:
192,192,102211,1,0,0:0:0:0:
320,192,102378,1,0,0:0:0:0:
320,192,102545,1,0,0:0:0:0:
64,192,102545,128,0,102878:0:0:0:0:
192,192,102711,1,0,0:0:0:0:
320,192,102878,1,0,0:0:0:0:
448,192,102878,128,0,103211:0:0:0:0:
192,192,103045,1,0,0:0:0:0:
320,192,103211,1,0,0:0:0:0:
64,192,103211,1,0,0:0:0:0:
192,192,103378,1,0,0:0:0:0:
192,192,103545,1,0,0:0:0:0:
448,192,103711,1,0,0:0:0:0:
448,192,103878,1,0,0:0:0:0:
64,192,103878,1,0,0:0:0:0:
192,192,104045,1,0,0:0:0:0:
192,192,104211,1,0,0:0:0:0:
320,192,104378,1,0,0:0:0:0:
64,192,104545,1,0,0:0:0:0:
320,192,104545,1,0,0:0:0:0:
192,192,104711,1,0,0:0:0:0:
192,192,104878,1,0,0:0:0:0:
448,192,105045,1,0,0:0:0:0:
448,192,105211,1,0,0:0:0:0:
64,192,105211,128,0,105378:0:0:0:0:
192,192,105378,1,0,0:0:0:0:
448,192,105378,128,0,105545:0:0:0:0:
320,192,105545,1,0,0:0:0:0:
64,192,105545,128,0,105878:0:0:0:0:
192,192,105711,1,0,0:0:0:0:
320,192,105878,1,0,0:0:0:0:
448,192,105878,1,0,0:0:0:0:
192,192,106045,1,0,0:0:0:0:
192,192,106211,1,0,0:0:0:0:
448,192,106378,1,0,0:0:0:0:
448,192,106545,1,0,0:0:0:0:
64,192,106545,128,0,106711:0:0:0:0:
320,192,106711,128,0,106878:0:0:0:0:
192,192,106878,1,0,0:0:0:0:
448,192,106878,128,0,107211:0:0:0:0:
64,192,107045,1,0,0:0:0:0:
320,192,107211,1,0,0:0:0:0:
192,192,107211,1,0,0:0:0:0:
64,192,107378,1,0,0:0:0:0:
64,192,107545,1,0,0:0:0:0:
320,192,107711,1,0,0:0:0:0:
320,192,107878,1,0,0:0:0:0:
448,192,107878,1,0,0:0:0:0:
192,192,108045,1,0,0:0:0:0:
64,192,108211,1,0,0:0:0:0:
320,192,108211,1,0,0:0:0:0:
448,192,108211,128,0,108378:0:0:0:0:
192,192,108378,1,0,0:0:0:0:
320,192,108545,1,0,0:0:0:0:
448,192,108545,1,0,0:0:0:0:
64,192,108711,128,0,108878:0:0:0:0:
448,192,108878,128,0,109045:0:0:0:0:
320,192,108878,1,0,0:0:0:0:
192,192,109045,128,0,109211:0:0:0:0:
320,192,109211,1,0,0:0:0:0:
64,192,109211,1,0,0:0:0:0:
448,192,109378,128,0,109711:0:0:0:0:
192,192,109545,1,0,0:0:0:0:
320,192,109545,1,0,0:0:0:0:
64,192,109711,128,0,109878:0:0:0:0:
320,192,109878,128,0,110045:0:0:0:0:
448,192,109878,1,0,0:0:0:0:
192,192,110045,1,0,0:0:0:0:
64,192,110211,128,0,110545:0:0:0:0:
448,192,110211,1,0,0:0:0:0:
320,192,110211,1,0,0:0:0:0:
192,192,110378,1,0,0:0:0:0:
448,192,110461,1,0,0:0:0:0:
320,192,110545,1,0,0:0:0:0:
192,192,110545,1,0,0:0:0:0:
64,192,110878,1,0,0:0:0:0:
192,192,110878,1,0,0:0:0:0:
448,192,110878,128,0,111045:0:0:0:0:
320,192,111045,1,0,0:0:0:0:
64,192,111211,128,0,111378:0:0:0:0:
320,192,111211,1,0,0:0:0:0:
192,192,111378,1,0,0:0:0:0:
448,192,111545,128,0,111711:0:0:0:0:
192,192,111545,1,0,0:0:0:0:
320,192,111711,1,0,0:0:0:0:
192,192,111878,128,0,112045:0:0:0:0:
448,192,111878,1,0,0:0:0:0:
64,192,112045,128,0,112211:0:0:0:0:
320,192,112045,1,0,0:0:0:0:
448,192,112211,1,0,0:0:0:0:
192,192,112378,1,0,0:0:0:0:
448,192,112545,128,0,112711:0:0:0:0:
192,192,112545,1,0,0:0:0:0:
320,192,112711,1,0,0:0:0:0:
64,192,112878,1,0,0:0:0:0:
64,192,113045,128,0,113211:0:0:0:0:
192,192,113045,1,0,0:0:0:0:
448,192,113211,1,0,0:0:0:0:
320,192,113211,1,0,0:0:0:0:
320,192,113378,1,0,0:0:0:0:
448,192,113545,128,0,113711:0:0:0:0:
64,192,113545,1,0,0:0:0:0:
192,192,113711,1,0,0:0:0:0:
320,192,113878,1,0,0:0:0:0:
448,192,113878,1,0,0:0:0:0:
64,192,114045,128,0,114211:0:0:0:0:
192,192,114045,1,0,0:0:0:0:
320,192,114211,1,0,0:0:0:0:
448,192,114378,128,0,114545:0:0:0:0:
192,192,114378,1,0,0:0:0:0:
64,192,114545,1,0,0:0:0:0:
320,192,114545,1,0,0:0:0:0:
192,192,114711,128,0,115045:0:0:0:0:
64,192,114711,1,0,0:0:0:0:
320,192,114878,1,0,0:0:0:0:
448,192,114878,1,0,0:0:0:0:
64,192,115045,1,0,0:0:0:0:
320,192,115211,1,0,0:0:0:0:
192,192,115211,1,0,0:0:0:0:
448,192,115378,1,0,0:0:0:0:
448,192,115545,128,0,115711:0:0:0:0:
320,192,115545,1,0,0:0:0:0:
64,192,115711,128,0,115878:0:0:0:0:
192,192,115711,1,0,0:0:0:0:
320,192,115878,128,0,116045:0:0:0:0:
448,192,115878,1,0,0:0:0:0:
64,192,116045,128,0,116211:0:0:0:0:
192,192,116045,128,0,116211:0:0:0:0:
448,192,116211,128,0,116545:0:0:0:0:
320,192,116378,1,0,0:0:0:0:
192,192,116545,1,0,0:0:0:0:
64,192,116545,1,0,0:0:0:0:
64,192,116711,128,0,116878:0:0:0:0:
448,192,116711,1,0,0:0:0:0:
192,192,116878,1,0,0:0:0:0:
448,192,117045,1,0,0:0:0:0:
320,192,117211,128,0,117378:0:0:0:0:
192,192,117211,1,0,0:0:0:0:
448,192,117378,128,0,117545:0:0:0:0:
320,192,117461,1,0,0:0:0:0:
64,192,117545,1,0,0:0:0:0:
192,192,117545,1,0,0:0:0:0:
320,192,117711,1,0,0:0:0:0:
448,192,117878,1,0,0:0:0:0:
64,192,117878,1,0,0:0:0:0:
192,192,117878,1,0,0:0:0:0:
320,192,118045,1,0,0:0:0:0:
192,192,118128,1,0,0:0:0:0:
320,192,118211,1,0,0:0:0:0:
448,192,118211,1,0,0:0:0:0:
64,192,118378,1,0,0:0:0:0:
192,192,118378,1,0,0:0:0:0:
64,192,118545,1,0,0:0:0:0:
448,192,118545,1,0,0:0:0:0:
320,192,118711,1,0,0:0:0:0:
448,192,118711,1,0,0:0:0:0:
192,192,118878,1,0,0:0:0:0:
448,192,118878,1,0,0:0:0:0:
64,192,118878,128,0,119045:0:0:0:0:
448,192,119045,128,0,119211:0:0:0:0:
192,192,119211,1,0,0:0:0:0:
320,192,119211,1,0,0:0:0:0:
64,192,119378,128,0,119545:0:0:0:0:
320,192,119545,128,0,119711:0:0:0:0:
448,192,119545,1,0,0:0:0:0:
192,192,119711,128,0,119878:0:0:0:0:
64,192,119878,1,0,0:0:0:0:
320,192,119878,1,0,0:0:0:0:
448,192,120045,128,0,120378:0:0:0:0:
192,192,120211,1,0,0:0:0:0:
320,192,120211,1,0,0:0:0:0:
64,192,120378,128,0,120545:0:0:0:0:
320,192,120545,128,0,120711:0:0:0:0:
448,192,120545,1,0,0:0:0:0:
192,192,120711,1,0,0:0:0:0:
64,192,120878,128,0,121545:0:0:0:0:
448,192,120878,1,0,0:0:0:0:
320,192,121045,1,0,0:0:0:0:
192,192,121211,128,0,121545:0:0:0:0:
448,192,121211,1,0,0:0:0:0:
320,192,121545,1,0,0:0:0:0:
448,192,121545,1,0,0:0:0:0:
192,192,121878,1,0,0:0:0:0:
320,192,122045,1,0,0:0:0:0:
64,192,122211,1,0,0:0:0:0:
192,192,122211,1,0,0:0:0:0:
448,192,122545,1,0,0:0:0:0:
192,192,122711,1,0,0:0:0:0:
320,192,122878,1,0,0:0:0:0:
64,192,123045,1,0,0:0:0:0:
192,192,123045,1,0,0:0:0:0:
448,192,123211,1,0,0:0:0:0:
320,192,123378,1,0,0:0:0:0:
448,192,123545,1,0,0:0:0:0:
64,192,123545,1,0,0:0:0:0:
192,192,123711,1,0,0:0:0:0:
64,192,124045,1,0,0:0:0:0:
320,192,124211,1,0,0:0:0:0:
448,192,124211,1,0,0:0:0:0:
192,192,124378,1,0,0:0:0:0:
320,192,124545,1,0,0:0:0:0:
64,192,124711,1,0,0:0:0:0:
192,192,124878,1,0,0:0:0:0:
448,192,124878,1,0,0:0:0:0:
320,192,125045,1,0,0:0:0:0:
64,192,125211,1,0,0:0:0:0:
192,192,125378,1,0,0:0:0:0:
448,192,125378,1,0,0:0:0:0:
320,192,125545,1,0,0:0:0:0:
64,192,125711,1,0,0:0:0:0:
192,192,125711,1,0,0:0:0:0:
448,192,125878,1,0,0:0:0:0:
64,192,126045,1,0,0:0:0:0:
192,192,126045,1,0,0:0:0:0:
320,192,126211,1,0,0:0:0:0:
448,192,126211,128,0,126545:0:0:0:0:
64,192,126545,128,0,126878:0:0:0:0:
320,192,126545,128,0,126711:0:0:0:0:
192,192,126711,128,0,126878:0:0:0:0:
320,192,126878,1,0,0:0:0:0:
448,192,126878,128,0,127211:0:0:0:0:
64,192,127211,1,0,0:0:0:0:
192,192,127378,1,0,0:0:0:0:
320,192,127545,1,0,0:0:0:0:
448,192,127545,1,0,0:0:0:0:
64,192,128045,1,0,0:0:0:0:
192,192,128045,1,0,0:0:0:0:
320,192,128211,1,0,0:0:0:0:
448,192,128378,1,0,0:0:0:0:
192,192,128378,1,0,0:0:0:0:
64,192,128711,1,0,0:0:0:0:
192,192,128878,1,0,0:0:0:0:
448,192,128878,1,0,0:0:0:0:
320,192,129045,1,0,0:0:0:0:
64,192,129211,1,0,0:0:0:0:
192,192,129295,1,0,0:0:0:0:
448,192,129378,1,0,0:0:0:0:
320,192,129461,1,0,0:0:0:0:
64,192,129545,1,0,0:0:0:0:
192,192,129545,1,0,0:0:0:0:
448,192,129711,1,0,0:0:0:0:
64,192,129878,1,0,0:0:0:0:
320,192,130045,1,0,0:0:0:0:
64,192,130211,1,0,0:0:0:0:
192,192,130211,1,0,0:0:0:0:
320,192,130378,1,0,0:0:0:0:
448,192,130545,1,0,0:0:0:0:
64,192,130545,1,0,0:0:0:0:
192,192,130711,1,0,0:0:0:0:
320,192,130711,1,0,0:0:0:0:
320,192,131045,1,0,0:0:0:0:
192,192,131045,1,0,0:0:0:0:
192,192,131378,1,0,0:0:0:0:
64,192,131378,1,0,0:0:0:0:
320,192,131545,1,0,0:0:0:0:
448,192,131545,128,0,132211:0:0:0:0:
64,192,131878,1,0,0:0:0:0:
192,192,131878,1,0,0:0:0:0:
320,192,132045,1,0,0:0:0:0:
192,192,132128,1,0,0:0:0:0:
320,192,132211,1,0,0:0:0:0:
64,192,132211,1,0,0:0:0:0:
192,192,132295,1,0,0:0:0:0:
448,192,132378,1,0,0:0:0:0:
320,192,132461,1,0,0:0:0:0:
192,192,132545,1,0,0:0:0:0:
64,192,132545,1,0,0:0:0:0:
448,192,132628,1,0,0:0:0:0:
64,192,132711,1,0,0:0:0:0:
192,192,132795,1,0,0:0:0:0:
448,192,132878,1,0,0:0:0:0:
320,192,132878,1,0,0:0:0:0:
64,192,132961,1,0,0:0:0:0:
192,192,133045,1,0,0:0:0:0:
448,192,133045,1,0,0:0:0:0:
320,192,133128,1,0,0:0:0:0:
192,192,133211,1,0,0:0:0:0:
64,192,133211,1,0,0:0:0:0:
448,192,133295,1,0,0:0:0:0:
320,192,133378,1,0,0:0:0:0:
192,192,133461,1,0,0:0:0:0:
448,192,133545,1,0,0:0:0:0:
64,192,133545,1,0,0:0:0:0:
320,192,133628,1,0,0:0:0:0:
64,192,133711,1,0,0:0:0:0:
192,192,133795,1,0,0:0:0:0:
448,192,133878,1,0,0:0:0:0:
320,192,133878,1,0,0:0:0:0:
64,192,133961,1,0,0:0:0:0:
192,192,134045,1,0,0:0:0:0:
448,192,134045,1,0,0:0:0:0:
320,192,134128,1,0,0:0:0:0:
64,192,134211,1,0,0:0:0:0:
192,192,134211,1,0,0:0:0:0:
320,192,134295,1,0,0:0:0:0:
64,192,134378,1,0,0:0:0:0:
448,192,134378,1,0,0:0:0:0:
192,192,134461,1,0,0:0:0:0:
448,192,134545,1,0,0:0:0:0:
320,192,134545,1,0,0:0:0:0:
64,192,134628,1,0,0:0:0:0:
192,192,134711,1,0,0:0:0:0:
320,192,134711,1,0,0:0:0:0:
64,192,134795,1,0,0:0:0:0:
448,192,134795,1,0,0:0:0:0:
192,192,134878,1,0,0:0:0:0:
320,192,134878,1,0,0:0:0:0:
64,192,135045,1,0,0:0:0:0:
320,192,135211,1,0,0:0:0:0:
192,192,135211,1,0,0:0:0:0:
448,192,135378,1,0,0:0:0:0:
320,192,135461,1,0,0:0:0:0:
192,192,135545,1,0,0:0:0:0:
64,192,135545,1,0,0:0:0:0:
320,192,135711,1,0,0:0:0:0:
64,192,135878,1,0,0:0:0:0:
448,192,135878,1,0,0:0:0:0:
192,192,136045,1,0,0:0:0:0:
448,192,136128,1,0,0:0:0:0:
192,192,136211,1,0,0:0:0:0:
320,192,136211,1,0,0:0:0:0:
64,192,136378,1,0,0:0:0:0:
448,192,136545,1,0,0:0:0:0:
320,192,136545,1,0,0:0:0:0:
64,192,136711,1,0,0:0:0:0:
192,192,136795,1,0,0:0:0:0:
64,192,136878,1,0,0:0:0:0:
320,192,136878,1,0,0:0:0:0:
448,192,137045,1,0,0:0:0:0:
64,192,137211,1,0,0:0:0:0:
192,192,137211,1,0,0:0:0:0:
320,192,137378,1,0,0:0:0:0:
64,192,137545,1,0,0:0:0:0:
192,192,137545,1,0,0:0:0:0:
448,192,137545,1,0,0:0:0:0:
320,192,137711,1,0,0:0:0:0:
192,192,137878,1,0,0:0:0:0:
64,192,137878,1,0,0:0:0:0:
320,192,138045,1,0,0:0:0:0:
192,192,138128,1,0,0:0:0:0:
320,192,138211,1,0,0:0:0:0:
448,192,138211,1,0,0:0:0:0:
64,192,138211,1,0,0:0:0:0:
192,192,138378,1,0,0:0:0:0:
448,192,138545,1,0,0:0:0:0:
320,192,138545,1,0,0:0:0:0:
192,192,138711,1,0,0:0:0:0:
64,192,138795,1,0,0:0:0:0:
320,192,138878,1,0,0:0:0:0:
448,192,138878,1,0,0:0:0:0:
192,192,138878,1,0,0:0:0:0:
64,192,139045,1,0,0:0:0:0:
192,192,139211,1,0,0:0:0:0:
448,192,139211,1,0,0:0:0:0:
320,192,139378,1,0,0:0:0:0:
64,192,139545,1,0,0:0:0:0:
192,192,139545,1,0,0:0:0:0:
448,192,139545,1,0,0:0:0:0:
320,192,139711,1,0,0:0:0:0:
64,192,139878,1,0,0:0:0:0:
192,192,139878,1,0,0:0:0:0:
320,192,140045,1,0,0:0:0:0:
448,192,140211,1,0,0:0:0:0:
64,192,140211,1,0,0:0:0:0:
192,192,140211,1,0,0:0:0:0:
320,192,140378,1,0,0:0:0:0:
320,192,140545,1,0,0:0:0:0:
448,192,140545,1,0,0:0:0:0:
64,192,140545,1,0,0:0:0:0:
192,192,140711,1,0,0:0:0:0:
64,192,140878,1,0,0:0:0:0:
192,192,140878,1,0,0:0:0:0:
448,192,140878,1,0,0:0:0:0:
320,192,141045,1,0,0:0:0:0:
320,192,141211,1,0,0:0:0:0:
448,192,141211,1,0,0:0:0:0:
64,192,141211,1,0,0:0:0:0:
192,192,141378,1,0,0:0:0:0:
64,192,141378,1,0,0:0:0:0:
320,192,141711,1,0,0:0:0:0:
448,192,141711,1,0,0:0:0:0:
192,192,141711,1,0,0:0:0:0:
64,192,142045,1,0,0:0:0:0:
448,192,142045,1,0,0:0:0:0:
192,192,142045,1,0,0:0:0:0:
192,192,142211,1,0,0:0:0:0:
320,192,142211,1,0,0:0:0:0:
64,192,142211,1,0,0:0:0:0:
64,192,142545,1,0,0:0:0:0:
448,192,142545,128,0,142878:0:0:0:0:
192,192,142878,1,0,0:0:0:0:
320,192,142878,1,0,0:0:0:0:
64,192,142878,128,0,143045:0:0:0:0:
448,192,143045,128,0,143211:0:0:0:0:
192,192,143211,128,0,143378:0:0:0:0:
64,192,143211,1,0,0:0:0:0:
320,192,143378,128,0,143545:0:0:0:0:
64,192,143545,128,0,143711:0:0:0:0:
448,192,143545,1,0,0:0:0:0:
320,192,143711,1,0,0:0:0:0:
448,192,143878,128,0,144045:0:0:0:0:
64,192,143878,1,0,0:0:0:0:
192,192,144045,128,0,144211:0:0:0:0:
320,192,144211,128,0,144378:0:0:0:0:
448,192,144211,1,0,0:0:0:0:
64,192,144378,128,0,144545:0:0:0:0:
448,192,144545,128,0,144711:0:0:0:0:
192,192,144545,1,0,0:0:0:0:
64,192,144711,128,0,144878:0:0:0:0:
320,192,144878,128,0,145045:0:0:0:0:
448,192,144878,1,0,0:0:0:0:
192,192,145045,1,0,0:0:0:0:
64,192,145211,128,0,145378:0:0:0:0:
448,192,145211,1,0,0:0:0:0:
320,192,145378,128,0,145545:0:0:0:0:
64,192,145545,128,0,145878:0:0:0:0:
192,192,145545,1,0,0:0:0:0:
320,192,145711,1,0,0:0:0:0:
448,192,145878,128,0,146211:0:0:0:0:
192,192,145878,1,0,0:0:0:0:
320,192,146045,1,0,0:0:0:0:
192,192,146211,128,0,146545:0:0:0:0:
64,192,146211,1,0,0:0:0:0:
320,192,146378,1,0,0:0:0:0:
64,192,146545,1,0,0:0:0:0:
448,192,146545,128,0,146711:0:0:0:0:
320,192,146711,1,0,0:0:0:0:
64,192,146878,128,0,147045:0:0:0:0:
192,192,146878,1,0,0:0:0:0:
448,192,147045,128,0,147211:0:0:0:0:
192,192,147211,128,0,147378:0:0:0:0:
320,192,147211,1,0,0:0:0:0:
64,192,147378,1,0,0:0:0:0:
448,192,147545,128,0,147711:0:0:0:0:
320,192,147545,1,0,0:0:0:0:
64,192,147711,128,0,147878:0:0:0:0:
320,192,147878,128,0,148045:0:0:0:0:
192,192,147878,1,0,0:0:0:0:
448,192,148045,1,0,0:0:0:0:
64,192,148211,128,0,148378:0:0:0:0:
192,192,148211,1,0,0:0:0:0:
320,192,148211,1,0,0:0:0:0:
448,192,148378,128,0,148545:0:0:0:0:
192,192,148545,128,0,148711:0:0:0:0:
64,192,148545,1,0,0:0:0:0:
320,192,148711,128,0,148878:0:0:0:0:
64,192,148878,128,0,149045:0:0:0:0:
448,192,148878,1,0,0:0:0:0:
192,192,149045,1,0,0:0:0:0:
448,192,149211,128,0,149378:0:0:0:0:
320,192,149211,1,0,0:0:0:0:
192,192,149378,128,0,149545:0:0:0:0:
320,192,149545,128,0,149711:0:0:0:0:
64,192,149545,1,0,0:0:0:0:
192,192,149711,128,0,149878:0:0:0:0:
448,192,149878,128,0,150045:0:0:0:0:
64,192,149878,1,0,0:0:0:0:
192,192,150045,128,0,150211:0:0:0:0:
320,192,150211,128,0,150378:0:0:0:0:
448,192,150211,1,0,0:0:0:0:
192,192,150378,1,0,0:0:0:0:
64,192,150545,128,0,150878:0:0:0:0:
448,192,150545,1,0,0:0:0:0:
192,192,150711,1,0,0:0:0:0:
448,192,150878,128,0,151045:0:0:0:0:
320,192,150878,1,0,0:0:0:0:
192,192,151045,128,0,151211:0:0:0:0:
64,192,151211,1,0,0:0:0:0:
320,192,151211,1,0,0:0:0:0:
448,192,151378,128,0,151545:0:0:0:0:
64,192,151545,128,0,151711:0:0:0:0:
192,192,151545,1,0,0:0:0:0:
320,192,151711,128,0,151878:0:0:0:0:
448,192,151878,1,0,0:0:0:0:
192,192,151878,1,0,0:0:0:0:
64,192,152045,128,0,152378:0:0:0:0:
192,192,152211,1,0,0:0:0:0:
320,192,152211,1,0,0:0:0:0:
448,192,152378,128,0,152545:0:0:0:0:
192,192,152545,128,0,152711:0:0:0:0:
64,192,152545,1,0,0:0:0:0:
320,192,152711,1,0,0:0:0:0:
448,192,152878,128,0,153211:0:0:0:0:
64,192,152878,1,0,0:0:0:0:
64,192,153045,1,0,0:0:0:0:
192,192,153045,1,0,0:0:0:0:
320,192,153045,1,0,0:0:0:0:
64,192,153211,1,0,0:0:0:0:
192,192,153211,1,0,0:0:0:0:
320,192,153211,1,0,0:0:0:0:
192,192,153545,128,0,153711:0:0:0:0:
64,192,153545,1,0,0:0:0:0:
448,192,153711,128,0,153878:0:0:0:0:
64,192,153878,128,0,154045:0:0:0:0:
192,192,153878,1,0,0:0:0:0:
320,192,154045,128,0,154211:0:0:0:0:
192,192,154211,128,0,154378:0:0:0:0:
448,192,154211,1,0,0:0:0:0:
64,192,154378,1,0,0:0:0:0:
448,192,154545,128,0,154711:0:0:0:0:
320,192,154545,1,0,0:0:0:0:
64,192,154711,128,0,154878:0:0:0:0:
320,192,154878,128,0,155045:0:0:0:0:
448,192,154878,1,0,0:0:0:0:
64,192,155045,128,0,155211:0:0:0:0:
192,192,155211,128,0,155378:0:0:0:0:
448,192,155211,1,0,0:0:0:0:
320,192,155378,128,0,155545:0:0:0:0:
64,192,155545,128,0,155711:0:0:0:0:
192,192,155545,1,0,0:0:0:0:
448,192,155711,1,0,0:0:0:0:
320,192,155878,128,0,156045:0:0:0:0:
192,192,155878,1,0,0:0:0:0:
64,192,156045,128,0,156211:0:0:0:0:
192,192,156211,128,0,156545:0:0:0:0:
448,192,156211,1,0,0:0:0:0:
320,192,156378,1,0,0:0:0:0:
448,192,156545,128,0,156878:0:0:0:0:
64,192,156545,1,0,0:0:0:0:
320,192,156711,1,0,0:0:0:0:
64,192,156878,128,0,157211:0:0:0:0:
192,192,156878,1,0,0:0:0:0:
320,192,157045,1,0,0:0:0:0:
448,192,157211,128,0,157378:0:0:0:0:
192,192,157211,1,0,0:0:0:0:
64,192,157378,1,0,0:0:0:0:
320,192,157545,128,0,157711:0:0:0:0:
192,192,157545,1,0,0:0:0:0:
64,192,157711,128,0,157878:0:0:0:0:
448,192,157878,128,0,158045:0:0:0:0:
192,192,157878,1,0,0:0:0:0:
320,192,158045,1,0,0:0:0:0:
64,192,158211,128,0,158378:0:0:0:0:
192,192,158211,1,0,0:0:0:0:
448,192,158378,128,0,158545:0:0:0:0:
192,192,158545,128,0,158711:0:0:0:0:
320,192,158545,1,0,0:0:0:0:
64,192,158711,1,0,0:0:0:0:
448,192,158878,128,0,159045:0:0:0:0:
320,192,158878,1,0,0:0:0:0:
192,192,158878,1,0,0:0:0:0:
64,192,159045,128,0,159211:0:0:0:0:
320,192,159211,128,0,159378:0:0:0:0:
192,192,159211,1,0,0:0:0:0:
192,192,159378,128,0,159545:0:0:0:0:
448,192,159545,128,0,159711:0:0:0:0:
64,192,159545,1,0,0:0:0:0:
320,192,159711,1,0,0:0:0:0:
64,192,159878,128,0,160045:0:0:0:0:
192,192,159878,1,0,0:0:0:0:
320,192,160045,128,0,160211:0:0:0:0:
64,192,160211,128,0,160378:0:0:0:0:
448,192,160211,1,0,0:0:0:0:
192,192,160378,128,0,160545:0:0:0:0:
320,192,160545,128,0,160711:0:0:0:0:
448,192,160545,1,0,0:0:0:0:
64,192,160711,128,0,160878:0:0:0:0:
192,192,160878,128,0,161045:0:0:0:0:
448,192,160878,1,0,0:0:0:0:
320,192,161045,1,0,0:0:0:0:
448,192,161211,128,0,161545:0:0:0:0:
64,192,161211,1,0,0:0:0:0:
320,192,161378,1,0,0:0:0:0:
64,192,161545,128,0,162211:0:0:0:0:
192,192,161545,128,0,161878:0:0:0:0:
320,192,161711,1,0,0:0:0:0:
448,192,161878,1,0,0:0:0:0:
320,192,161878,1,0,0:0:0:0:
192,192,162045,1,0,0:0:0:0:
448,192,162211,128,0,162878:0:0:0:0:
320,192,162211,1,0,0:0:0:0:
192,192,162378,1,0,0:0:0:0:
64,192,162545,1,0,0:0:0:0:
320,192,162545,1,0,0:0:0:0:
192,192,162711,1,0,0:0:0:0:
64,192,162878,128,0,163545:0:0:0:0:
320,192,162878,1,0,0:0:0:0:
448,192,163045,1,0,0:0:0:0:
192,192,163211,128,0,163545:0:0:0:0:
448,192,163211,1,0,0:0:0:0:
320,192,163378,1,0,0:0:0:0:
448,192,163545,1,0,0:0:0:0:
320,192,163628,1,0,0:0:0:0:
64,192,163711,1,0,0:0:0:0:
192,192,163795,1,0,0:0:0:0:
320,192,163878,1,0,0:0:0:0:
448,192,163878,1,0,0:0:0:0:
448,192,164045,1,0,0:0:0:0:
320,192,164128,1,0,0:0:0:0:
64,192,164211,1,0,0:0:0:0:
192,192,164211,1,0,0:0:0:0:
320,192,164378,1,0,0:0:0:0:
320,192,164545,1,0,0:0:0:0:
448,192,164545,1,0,0:0:0:0:
64,192,164545,1,0,0:0:0:0:
192,192,164711,1,0,0:0:0:0:
64,192,164878,1,0,0:0:0:0:
192,192,164878,1,0,0:0:0:0:
448,192,164878,1,0,0:0:0:0:
320,192,165045,1,0,0:0:0:0:
320,192,165211,1,0,0:0:0:0:
448,192,165211,1,0,0:0:0:0:
64,192,165211,1,0,0:0:0:0:
192,192,165378,1,0,0:0:0:0:
64,192,165545,1,0,0:0:0:0:
192,192,165545,1,0,0:0:0:0:
448,192,165545,1,0,0:0:0:0:
320,192,165711,1,0,0:0:0:0:
320,192,165878,1,0,0:0:0:0:
448,192,165878,1,0,0:0:0:0:
64,192,165878,1,0,0:0:0:0:
192,192,166045,1,0,0:0:0:0:
64,192,166211,1,0,0:0:0:0:
192,192,166211,1,0,0:0:0:0:
320,192,166211,1,0,0:0:0:0:
448,192,166378,1,0,0:0:0:0:
448,192,166545,1,0,0:0:0:0:
320,192,166545,1,0,0:0:0:0:
192,192,166545,1,0,0:0:0:0:
64,192,166878,128,0,167045:0:0:0:0:
192,192,166878,1,0,0:0:0:0:
448,192,167045,128,0,167211:0:0:0:0:
320,192,167045,1,0,0:0:0:0:
320,192,167378,128,0,167545:0:0:0:0:
448,192,167378,1,0,0:0:0:0:
64,192,167545,128,0,167711:0:0:0:0:
192,192,167545,1,0,0:0:0:0:
448,192,167711,128,0,167878:0:0:0:0:
320,192,167711,1,0,0:0:0:0:
64,192,168045,128,0,168378:0:0:0:0:
320,192,168045,1,0,0:0:0:0:
448,192,168045,1,0,0:0:0:0:
448,192,168378,128,0,168545:0:0:0:0:
320,192,168378,1,0,0:0:0:0:
192,192,168545,128,0,168711:0:0:0:0:
64,192,168545,1,0,0:0:0:0:
320,192,168545,1,0,0:0:0:0:
448,192,168878,128,0,169211:0:0:0:0:
320,192,168878,1,0,0:0:0:0:
192,192,169045,1,0,0:0:0:0:
320,192,169128,1,0,0:0:0:0:
64,192,169211,128,0,169545:0:0:0:0:
192,192,169211,1,0,0:0:0:0:
192,192,169545,1,0,0:0:0:0:
448,192,169545,128,0,169628:0:0:0:0:
64,192,170045,128,0,170211:0:0:0:0:
448,192,170211,128,0,170378:0:0:0:0:
320,192,170211,1,0,0:0:0:0:
192,192,170378,128,0,170461:0:0:0:0:
64,192,170711,128,0,170878:0:0:0:0:
448,192,171045,128,0,171211:0:0:0:0:
192,192,171378,128,0,171545:0:0:0:0:
320,192,171545,128,0,171628:0:0:0:0:
448,192,171545,1,0,0:0:0:0:
320,192,172045,1,0,0:0:0:0:
448,192,172045,1,0,0:0:0:0:
192,192,172128,1,0,0:0:0:0:
64,192,172211,128,0,172295:0:0:0:0:
192,192,172711,128,0,172878:0:0:0:0:
448,192,172878,128,0,173045:0:0:0:0:
64,192,172878,1,0,0:0:0:0:
320,192,173045,128,0,173128:0:0:0:0:
64,192,173378,128,0,173545:0:0:0:0:
192,192,173378,1,0,0:0:0:0:
448,192,173711,128,0,173878:0:0:0:0:
192,192,174045,128,0,174211:0:0:0:0:
448,192,174211,128,0,174878:0:0:0:0:
320,192,174211,1,0,0:0:0:0:
320,192,174711,1,0,0:0:0:0:
64,192,174878,128,0,174961:0:0:0:0:
192,192,174878,1,0,0:0:0:0:
448,192,175378,128,0,175545:0:0:0:0:
192,192,175545,128,0,175711:0:0:0:0:
64,192,175545,1,0,0:0:0:0:
320,192,175711,128,0,175795:0:0:0:0:
64,192,176045,128,0,176211:0:0:0:0:
192,192,176211,1,0,0:0:0:0:
448,192,176378,128,0,176545:0:0:0:0:
64,192,176711,128,0,176878:0:0:0:0:
320,192,176878,128,0,176961:0:0:0:0:
448,192,176878,1,0,0:0:0:0:
64,192,177378,1,0,0:0:0:0:
192,192,177461,1,0,0:0:0:0:
448,192,177545,128,0,177628:0:0:0:0:
320,192,177545,1,0,0:0:0:0:
64,192,178045,128,0,178211:0:0:0:0:
320,192,178211,128,0,178378:0:0:0:0:
448,192,178211,1,0,0:0:0:0:
192,192,178378,128,0,178545:0:0:0:0:
448,192,178711,128,0,178878:0:0:0:0:
64,192,178711,1,0,0:0:0:0:
192,192,179045,128,0,179211:0:0:0:0:
320,192,179045,1,0,0:0:0:0:
64,192,179378,128,0,179711:0:0:0:0:
448,192,179378,1,0,0:0:0:0:
192,192,179545,1,0,0:0:0:0:
320,192,179545,1,0,0:0:0:0:
448,192,179711,128,0,179878:0:0:0:0:
320,192,179878,128,0,180045:0:0:0:0:
64,192,179878,1,0,0:0:0:0:
192,192,180045,128,0,180211:0:0:0:0:
448,192,180045,1,0,0:0:0:0:
64,192,180211,128,0,180295:0:0:0:0:
320,192,180211,1,0,0:0:0:0:
448,192,180211,1,0,0:0:0:0:
448,192,180711,128,0,180878:0:0:0:0:
64,192,180878,128,0,181045:0:0:0:0:
320,192,180878,1,0,0:0:0:0:
192,192,181045,128,0,181211:0:0:0:0:
448,192,181378,128,0,181545:0:0:0:0:
320,192,181545,1,0,0:0:0:0:
64,192,181711,128,0,181878:0:0:0:0:
448,192,182045,128,0,182211:0:0:0:0:
192,192,182211,128,0,182295:0:0:0:0:
64,192,182211,128,0,182378:0:0:0:0:
192,192,182711,1,0,0:0:0:0:
64,192,182795,1,0,0:0:0:0:
448,192,182878,128,0,182961:0:0:0:0:
320,192,182878,128,0,183045:0:0:0:0:
64,192,183378,128,0,183545:0:0:0:0:
320,192,183545,128,0,183711:0:0:0:0:
448,192,183545,1,0,0:0:0:0:
192,192,183711,128,0,183878:0:0:0:0:
448,192,184045,128,0,184211:0:0:0:0:
64,192,184045,1,0,0:0:0:0:
64,192,184378,128,0,184545:0:0:0:0:
192,192,184545,1,0,0:0:0:0:
448,192,184711,128,0,185545:0:0:0:0:
320,192,184878,128,0,185545:0:0:0:0:
64,192,185545,128,0,185628:0:0:0:0:
192,192,185545,1,0,0:0:0:0:
448,192,186045,128,0,186211:0:0:0:0:
192,192,186211,128,0,186378:0:0:0:0:
64,192,186211,1,0,0:0:0:0:
448,192,186378,128,0,186461:0:0:0:0:
320,192,186378,128,0,186545:0:0:0:0:
64,192,186711,128,0,186878:0:0:0:0:
448,192,186878,1,0,0:0:0:0:
320,192,187045,128,0,187211:0:0:0:0:
448,192,187378,128,0,187545:0:0:0:0:
64,192,187545,128,0,187711:0:0:0:0:
192,192,187545,128,0,187628:0:0:0:0:
64,192,188045,1,0,0:0:0:0:
192,192,188128,1,0,0:0:0:0:
320,192,188211,128,0,188378:0:0:0:0:
448,192,188211,128,0,188295:0:0:0:0:
192,192,188711,128,0,188878:0:0:0:0:
448,192,188878,128,0,189045:0:0:0:0:
64,192,188878,1,0,0:0:0:0:
320,192,189045,128,0,189211:0:0:0:0:
192,192,189045,128,0,189128:0:0:0:0:
448,192,189378,1,0,0:0:0:0:
64,192,189378,128,0,189711:0:0:0:0:
192,192,189378,1,0,0:0:0:0:
192,192,189711,5,0,0:0:0:0:
448,192,189711,128,0,190045:0:0:0:0:
320,192,190045,1,0,0:0:0:0:
64,192,190045,128,0,190378:0:0:0:0:
192,192,190045,1,0,0:0:0:0:
448,192,190378,1,0,0:0:0:0:
64,192,190545,1,0,0:0:0:0:
192,192,190545,1,0,0:0:0:0:
448,192,190711,1,0,0:0:0:0:
320,192,190711,1,0,0:0:0:0:
192,192,190795,1,0,0:0:0:0:
320,192,190878,5,0,0:0:0:0:
448,192,190878,1,0,0:0:0:0:
64,192,190878,1,0,0:0:0:0:
192,192,191045,1,0,0:0:0:0:
320,192,191211,1,0,0:0:0:0:
448,192,191211,1,0,0:0:0:0:
192,192,191378,1,0,0:0:0:0:
64,192,191378,128,0,191545:0:0:0:0:
320,192,191545,1,0,0:0:0:0:
448,192,191545,128,0,191711:0:0:0:0:
192,192,191711,128,0,191878:0:0:0:0:
64,192,191878,1,0,0:0:0:0:
448,192,191878,1,0,0:0:0:0:
320,192,192045,1,0,0:0:0:0:
192,192,192045,128,0,192211:0:0:0:0:
448,192,192211,1,0,0:0:0:0:
192,192,192378,1,0,0:0:0:0:
64,192,192378,128,0,192545:0:0:0:0:
320,192,192545,1,0,0:0:0:0:
448,192,192545,1,0,0:0:0:0:
192,192,192711,128,0,192878:0:0:0:0:
448,192,192878,1,0,0:0:0:0:
64,192,192878,128,0,192961:0:0:0:0:
320,192,193045,1,0,0:0:0:0:
64,192,193211,1,0,0:0:0:0:
448,192,193211,1,0,0:0:0:0:
192,192,193378,1,0,0:0:0:0:
320,192,193545,1,0,0:0:0:0:
448,192,193545,128,0,193628:0:0:0:0:
192,192,193711,1,0,0:0:0:0:
64,192,193878,1,0,0:0:0:0:
320,192,193878,1,0,0:0:0:0:
448,192,194045,1,0,0:0:0:0:
64,192,194045,128,0,194211:0:0:0:0:
320,192,194211,1,0,0:0:0:0:
192,192,194211,128,0,194378:0:0:0:0:
64,192,194378,1,0,0:0:0:0:
448,192,194378,128,0,194461:0:0:0:0:
192,192,194545,1,0,0:0:0:0:
320,192,194545,1,0,0:0:0:0:
448,192,194711,1,0,0:0:0:0:
64,192,194711,128,0,194878:0:0:0:0:
320,192,194878,1,0,0:0:0:0:
192,192,195045,1,0,0:0:0:0:
448,192,195045,128,0,195211:0:0:0:0:
320,192,195211,1,0,0:0:0:0:
64,192,195211,1,0,0:0:0:0:
192,192,195378,128,0,195545:0:0:0:0:
448,192,195378,1,0,0:0:0:0:
320,192,195545,1,0,0:0:0:0:
64,192,195545,128,0,195878:0:0:0:0:
448,192,195711,1,0,0:0:0:0:
192,192,195878,1,0,0:0:0:0:
320,192,195878,128,0,195961:0:0:0:0:
448,192,196045,1,0,0:0:0:0:
320,192,196211,1,0,0:0:0:0:
448,192,196211,1,0,0:0:0:0:
64,192,196211,1,0,0:0:0:0:
192,192,196378,1,0,0:0:0:0:
320,192,196545,1,0,0:0:0:0:
448,192,196545,1,0,0:0:0:0:
64,192,196711,1,0,0:0:0:0:
448,192,196711,128,0,196878:0:0:0:0:
192,192,196878,1,0,0:0:0:0:
320,192,196878,128,0,197045:0:0:0:0:
64,192,197045,128,0,197128:0:0:0:0:
448,192,197211,1,0,0:0:0:0:
192,192,197211,1,0,0:0:0:0:
320,192,197378,1,0,0:0:0:0:
64,192,197378,128,0,197545:0:0:0:0:
192,192,197545,1,0,0:0:0:0:
64,192,197711,1,0,0:0:0:0:
448,192,197711,128,0,197878:0:0:0:0:
192,192,197878,1,0,0:0:0:0:
320,192,197878,1,0,0:0:0:0:
64,192,198045,128,0,198211:0:0:0:0:
448,192,198211,1,0,0:0:0:0:
320,192,198211,128,0,198295:0:0:0:0:
192,192,198378,1,0,0:0:0:0:
320,192,198545,1,0,0:0:0:0:
448,192,198545,1,0,0:0:0:0:
192,192,198711,1,0,0:0:0:0:
448,192,198878,1,0,0:0:0:0:
320,192,198878,128,0,198961:0:0:0:0:
64,192,199045,1,0,0:0:0:0:
192,192,199211,1,0,0:0:0:0:
320,192,199211,1,0,0:0:0:0:
448,192,199378,1,0,0:0:0:0:
64,192,199378,128,0,199545:0:0:0:0:
320,192,199545,1,0,0:0:0:0:
192,192,199545,128,0,199711:0:0:0:0:
448,192,199711,128,0,199878:0:0:0:0:
64,192,199711,1,0,0:0:0:0:
320,192,199878,1,0,0:0:0:0:
192,192,199878,1,0,0:0:0:0:
64,192,200045,1,0,0:0:0:0:
448,192,200045,1,0,0:0:0:0:
320,192,200378,1,0,0:0:0:0:
448,192,200378,1,0,0:0:0:0:
64,192,200711,1,0,0:0:0:0:
192,192,200711,1,0,0:0:0:0:
448,192,201045,1,0,0:0:0:0:
64,192,201211,1,0,0:0:0:0:
192,192,201211,1,0,0:0:0:0:
320,192,201378,1,0,0:0:0:0:
192,192,201461,1,0,0:0:0:0:
320,192,201545,1,0,0:0:0:0:
448,192,201545,1,0,0:0:0:0:
64,192,203878,1,0,0:0:0:0:
448,192,203878,1,0,0:0:0:0:
320,192,203961,1,0,0:0:0:0:
192,192,204045,1,0,0:0:0:0:
64,192,204045,128,0,204378:0:0:0:0:
192,192,204378,1,0,0:0:0:0:
448,192,204461,1,0,0:0:0:0:
320,192,204545,1,0,0:0:0:0:
192,192,204628,1,0,0:0:0:0:
64,192,204711,1,0,0:0:0:0:
192,192,204795,1,0,0:0:0:0:
320,192,204878,1,0,0:0:0:0:
448,192,204878,128,0,205878:0:0:0:0:
64,192,205045,1,0,0:0:0:0:
64,192,205211,1,0,0:0:0:0:
320,192,205211,1,0,0:0:0:0:
192,192,205545,1,0,0:0:0:0:
320,192,205878,128,0,206711:0:0:0:0:
64,192,205878,1,0,0:0:0:0:
448,192,206045,1,0,0:0:0:0:
192,192,206378,1,0,0:0:0:0:
64,192,206545,1,0,0:0:0:0:
448,192,206545,1,0,0:0:0:0:
192,192,206711,128,0,206878:0:0:0:0:
64,192,206878,128,0,207211:0:0:0:0:
448,192,207211,128,0,209045:0:0:0:0:
320,192,207211,1,0,0:0:0:0:
192,192,207378,1,0,0:0:0:0:
64,192,207545,1,0,0:0:0:0:
320,192,207711,1,0,0:0:0:0:
64,192,207878,1,0,0:0:0:0:
192,192,207878,1,0,0:0:0:0:
320,192,208211,1,0,0:0:0:0:
64,192,208545,1,0,0:0:0:0:
320,192,208545,1,0,0:0:0:0:
192,192,208711,1,0,0:0:0:0:
320,192,209045,128,0,209211:0:0:0:0:
192,192,209211,128,0,209545:0:0:0:0:
64,192,209211,1,0,0:0:0:0:
64,192,209545,1,0,0:0:0:0:
448,192,209545,1,0,0:0:0:0:
320,192,209545,1,0,0:0:0:0:
64,192,209878,1,0,0:0:0:0:
192,192,209878,1,0,0:0:0:0:
320,192,210045,1,0,0:0:0:0:
448,192,210045,1,0,0:0:0:0:
64,192,210045,1,0,0:0:0:0:
320,192,210378,1,0,0:0:0:0:
448,192,210378,1,0,0:0:0:0:
192,192,210545,1,0,0:0:0:0:
64,192,210545,1,0,0:0:0:0:
320,192,210545,1,0,0:0:0:0:
320,192,210878,1,0,0:0:0:0:
448,192,210878,1,0,0:0:0:0:
64,192,211211,1,0,0:0:0:0:
448,192,211211,1,0,0:0:0:0:
192,192,211378,1,0,0:0:0:0:
64,192,211378,1,0,0:0:0:0:
320,192,211711,1,0,0:0:0:0:
448,192,211711,1,0,0:0:0:0:
64,192,211878,1,0,0:0:0:0:
192,192,211878,1,0,0:0:0:0:
448,192,211878,1,0,0:0:0:0:
448,192,212211,1,0,0:0:0:0:
64,192,212211,1,0,0:0:0:0:
192,192,212378,1,0,0:0:0:0:
320,192,212378,1,0,0:0:0:0:
64,192,212711,1,0,0:0:0:0:
320,192,212711,1,0,0:0:0:0:
192,192,213045,1,0,0:0:0:0:
448,192,213045,1,0,0:0:0:0:
320,192,213378,1,0,0:0:0:0:
448,192,213378,1,0,0:0:0:0:
64,192,213378,1,0,0:0:0:0:
64,192,213711,1,0,0:0:0:0:
192,192,213711,1,0,0:0:0:0:
320,192,213878,1,0,0:0:0:0:
448,192,213878,1,0,0:0:0:0:
192,192,214045,1,0,0:0:0:0:
64,192,214045,1,0,0:0:0:0:
320,192,214211,1,0,0:0:0:0:
448,192,214211,1,0,0:0:0:0:
64,192,214378,1,0,0:0:0:0:
192,192,214378,1,0,0:0:0:0:
320,192,214461,1,0,0:0:0:0:
448,192,214461,1,0,0:0:0:0:
64,192,214545,1,0,0:0:0:0:
192,192,214545,1,0,0:0:0:0:
320,192,214628,1,0,0:0:0:0:
448,192,214628,1,0,0:0:0:0:
64,192,214711,1,0,0:0:0:0:
192,192,214711,1,0,0:0:0:0:
320,192,214795,1,0,0:0:0:0:
448,192,214795,1,0,0:0:0:0:
192,192,214878,1,0,0:0:0:0:
64,192,214878,128,0,215045:0:0:0:0:
448,192,215045,128,0,215211:0:0:0:0:
192,192,215211,128,0,215378:0:0:0:0:
320,192,215378,128,0,215545:0:0:0:0:
64,192,215545,128,0,215711:0:0:0:0:
448,192,215711,128,0,216045:0:0:0:0:
320,192,216045,1,0,0:0:0:0:
64,192,216100,1,0,0:0:0:0:
192,192,216156,1,0,0:0:0:0:
320,192,216211,1,0,0:0:0:0:
448,192,216211,1,0,0:0:0:0:
192,192,216323,1,0,0:0:0:0:
64,192,216323,1,0,0:0:0:0:
320,192,216434,1,0,0:0:0:0:
448,192,216434,1,0,0:0:0:0:
64,192,216545,1,0,0:0:0:0:
192,192,216656,1,0,0:0:0:0:
320,192,216767,1,0,0:0:0:0:
448,192,216878,1,0,0:0:0:0:
320,192,216989,1,0,0:0:0:0:
64,192,217045,1,0,0:0:0:0:
192,192,217100,1,0,0:0:0:0:
320,192,217156,1,0,0:0:0:0:
64,192,217211,1,0,0:0:0:0:
448,192,217211,1,0,0:0:0:0:
192,192,217211,1,0,0:0:0:0:
320,192,217545,1,0,0:0:0:0:
64,192,217545,1,0,0:0:0:0:
448,192,217545,128,0,217711:0:0:0:0:
192,192,217711,128,0,217878:0:0:0:0:
320,192,217878,128,0,218045:0:0:0:0:
448,192,217878,1,0,0:0:0:0:
64,192,218045,128,0,218211:0:0:0:0:
448,192,218211,128,0,218378:0:0:0:0:
192,192,218211,1,0,0:0:0:0:
320,192,218378,1,0,0:0:0:0:
192,192,218545,128,0,218711:0:0:0:0:
64,192,218545,1,0,0:0:0:0:
320,192,218711,128,0,218878:0:0:0:0:
64,192,218878,128,0,219045:0:0:0:0:
448,192,218878,1,0,0:0:0:0:
320,192,219045,128,0,219211:0:0:0:0:
192,192,219211,128,0,219378:0:0:0:0:
64,192,219211,1,0,0:0:0:0:
448,192,219378,128,0,219545:0:0:0:0:
64,192,219545,128,0,219711:0:0:0:0:
320,192,219545,1,0,0:0:0:0:
192,192,219711,1,0,0:0:0:0:
448,192,219878,128,0,220045:0:0:0:0:
320,192,219878,1,0,0:0:0:0:
192,192,220045,128,0,220211:0:0:0:0:
64,192,220211,128,0,220545:0:0:0:0:
448,192,220211,1,0,0:0:0:0:
320,192,220378,1,0,0:0:0:0:
448,192,220545,128,0,220878:0:0:0:0:
192,192,220545,1,0,0:0:0:0:
320,192,220711,1,0,0:0:0:0:
192,192,220878,128,0,221211:0:0:0:0:
64,192,220878,1,0,0:0:0:0:
448,192,221045,1,0,0:0:0:0:
320,192,221211,128,0,221378:0:0:0:0:
64,192,221211,1,0,0:0:0:0:
448,192,221378,1,0,0:0:0:0:
64,192,221545,128,0,221711:0:0:0:0:
192,192,221545,1,0,0:0:0:0:
320,192,221711,128,0,221878:0:0:0:0:
448,192,221878,128,0,222045:0:0:0:0:
64,192,221878,1,0,0:0:0:0:
192,192,222045,1,0,0:0:0:0:
320,192,222211,128,0,222378:0:0:0:0:
448,192,222211,1,0,0:0:0:0:
64,192,222378,128,0,222545:0:0:0:0:
192,192,222545,128,0,222711:0:0:0:0:
448,192,222545,1,0,0:0:0:0:
320,192,222711,1,0,0:0:0:0:
448,192,222878,128,0,223045:0:0:0:0:
64,192,222878,1,0,0:0:0:0:
192,192,222878,1,0,0:0:0:0:
320,192,223045,128,0,223211:0:0:0:0:
64,192,223211,128,0,223378:0:0:0:0:
448,192,223211,1,0,0:0:0:0:
192,192,223378,128,0,223545:0:0:0:0:
448,192,223545,128,0,223711:0:0:0:0:
320,192,223545,1,0,0:0:0:0:
192,192,223711,1,0,0:0:0:0:
64,192,223878,128,0,224045:0:0:0:0:
448,192,223878,1,0,0:0:0:0:
320,192,224045,128,0,224211:0:0:0:0:
192,192,224211,128,0,224378:0:0:0:0:
64,192,224211,1,0,0:0:0:0:
448,192,224378,128,0,224545:0:0:0:0:
64,192,224545,128,0,224711:0:0:0:0:
320,192,224545,1,0,0:0:0:0:
192,192,224711,128,0,224878:0:0:0:0:
320,192,224878,128,0,225045:0:0:0:0:
448,192,224878,1,0,0:0:0:0:
192,192,225045,1,0,0:0:0:0:
448,192,225211,128,0,225545:0:0:0:0:
64,192,225211,1,0,0:0:0:0:
320,192,225378,1,0,0:0:0:0:
64,192,225545,128,0,225711:0:0:0:0:
192,192,225545,1,0,0:0:0:0:
320,192,225711,128,0,225878:0:0:0:0:
64,192,225878,1,0,0:0:0:0:
192,192,225878,1,0,0:0:0:0:
448,192,226045,128,0,226211:0:0:0:0:
192,192,226211,128,0,226378:0:0:0:0:
64,192,226211,1,0,0:0:0:0:
320,192,226378,128,0,226545:0:0:0:0:
192,192,226545,1,0,0:0:0:0:
448,192,226545,1,0,0:0:0:0:
64,192,226711,128,0,227045:0:0:0:0:
192,192,226878,1,0,0:0:0:0:
448,192,226878,1,0,0:0:0:0:
320,192,227045,128,0,227211:0:0:0:0:
448,192,227211,128,0,227378:0:0:0:0:
64,192,227211,1,0,0:0:0:0:
192,192,227378,1,0,0:0:0:0:
64,192,227545,128,0,227878:0:0:0:0:
448,192,227545,1,0,0:0:0:0:
192,192,227711,1,0,0:0:0:0:
320,192,227711,1,0,0:0:0:0:
448,192,227711,1,0,0:0:0:0:
320,192,227878,1,0,0:0:0:0:
448,192,227878,1,0,0:0:0:0:
192,192,227878,1,0,0:0:0:0:
448,192,228211,128,0,228378:0:0:0:0:
64,192,228211,1,0,0:0:0:0:
320,192,228211,1,0,0:0:0:0:
192,192,228378,128,0,228545:0:0:0:0:
320,192,228545,128,0,228711:0:0:0:0:
448,192,228545,1,0,0:0:0:0:
64,192,228711,128,0,228878:0:0:0:0:
448,192,228878,128,0,229045:0:0:0:0:
192,192,228878,1,0,0:0:0:0:
320,192,229045,1,0,0:0:0:0:
192,192,229211,128,0,229378:0:0:0:0:
64,192,229211,1,0,0:0:0:0:
320,192,229378,128,0,229545:0:0:0:0:
64,192,229545,128,0,229711:0:0:0:0:
448,192,229545,1,0,0:0:0:0:
192,192,229711,128,0,229878:0:0:0:0:
448,192,229878,128,0,230045:0:0:0:0:
64,192,229878,1,0,0:0:0:0:
320,192,230045,128,0,230211:0:0:0:0:
64,192,230211,128,0,230378:0:0:0:0:
192,192,230211,1,0,0:0:0:0:
320,192,230378,1,0,0:0:0:0:
448,192,230545,128,0,230711:0:0:0:0:
64,192,230545,1,0,0:0:0:0:
320,192,230711,128,0,230878:0:0:0:0:
64,192,230878,128,0,231211:0:0:0:0:
192,192,230878,1,0,0:0:0:0:
320,192,231045,1,0,0:0:0:0:
448,192,231211,128,0,231545:0:0:0:0:
192,192,231211,1,0,0:0:0:0:
320,192,231378,1,0,0:0:0:0:
192,192,231545,128,0,231878:0:0:0:0:
64,192,231545,1,0,0:0:0:0:
320,192,231711,1,0,0:0:0:0:
64,192,231878,128,0,232045:0:0:0:0:
448,192,231878,1,0,0:0:0:0:
320,192,232045,1,0,0:0:0:0:
448,192,232211,128,0,232378:0:0:0:0:
64,192,232211,1,0,0:0:0:0:
192,192,232378,128,0,232545:0:0:0:0:
320,192,232545,128,0,232711:0:0:0:0:
448,192,232545,1,0,0:0:0:0:
192,192,232711,1,0,0:0:0:0:
64,192,232878,128,0,233045:0:0:0:0:
448,192,232878,1,0,0:0:0:0:
320,192,233045,128,0,233211:0:0:0:0:
192,192,233211,128,0,233378:0:0:0:0:
64,192,233211,1,0,0:0:0:0:
320,192,233378,1,0,0:0:0:0:
448,192,233545,128,0,233711:0:0:0:0:
64,192,233545,1,0,0:0:0:0:
192,192,233545,1,0,0:0:0:0:
64,192,233711,128,0,233878:0:0:0:0:
320,192,233878,128,0,234045:0:0:0:0:
448,192,233878,1,0,0:0:0:0:
192,192,234045,128,0,234211:0:0:0:0:
448,192,234211,128,0,234378:0:0:0:0:
64,192,234211,1,0,0:0:0:0:
320,192,234378,1,0,0:0:0:0:
64,192,234545,128,0,234711:0:0:0:0:
192,192,234545,1,0,0:0:0:0:
448,192,234711,128,0,234878:0:0:0:0:
192,192,234878,128,0,235045:0:0:0:0:
320,192,234878,1,0,0:0:0:0:
448,192,235045,128,0,235211:0:0:0:0:
64,192,235211,128,0,235378:0:0:0:0:
192,192,235211,1,0,0:0:0:0:
320,192,235378,128,0,235545:0:0:0:0:
64,192,235545,128,0,235711:0:0:0:0:
448,192,235545,1,0,0:0:0:0:
192,192,235711,1,0,0:0:0:0:
448,192,235878,128,0,236211:0:0:0:0:
64,192,235878,1,0,0:0:0:0:
320,192,236045,1,0,0:0:0:0:
64,192,236211,128,0,236878:0:0:0:0:
192,192,236211,1,0,0:0:0:0:
320,192,236378,1,0,0:0:0:0:
448,192,236545,1,0,0:0:0:0:
192,192,236545,1,0,0:0:0:0:
320,192,236711,1,0,0:0:0:0:
448,192,236878,128,0,237545:0:0:0:0:
192,192,236878,1,0,0:0:0:0:
320,192,237045,1,0,0:0:0:0:
64,192,237211,1,0,0:0:0:0:
192,192,237211,1,0,0:0:0:0:
320,192,237378,1,0,0:0:0:0:
64,192,237545,128,0,238211:0:0:0:0:
192,192,237545,1,0,0:0:0:0:
320,192,237711,1,0,0:0:0:0:
192,192,237878,128,0,238211:0:0:0:0:
448,192,237878,1,0,0:0:0:0:
320,192,238045,1,0,0:0:0:0:
320,192,238211,1,0,0:0:0:0:
448,192,238211,1,0,0:0:0:0:
192,192,238295,1,0,0:0:0:0:
448,192,238378,1,0,0:0:0:0:
320,192,238461,1,0,0:0:0:0:
64,192,238545,1,0,0:0:0:0:
192,192,238545,1,0,0:0:0:0:
64,192,238711,1,0,0:0:0:0:
192,192,238795,1,0,0:0:0:0:
320,192,238878,1,0,0:0:0:0:
448,192,238878,1,0,0:0:0:0:
64,192,239211,1,0,0:0:0:0:
192,192,239211,1,0,0:0:0:0:
448,192,239211,1,0,0:0:0:0:
320,192,239378,1,0,0:0:0:0:
192,192,239545,1,0,0:0:0:0:
320,192,239545,1,0,0:0:0:0:
448,192,239545,1,0,0:0:0:0:
64,192,239711,1,0,0:0:0:0:
192,192,239878,1,0,0:0:0:0:
64,192,239878,1,0,0:0:0:0:
448,192,239878,1,0,0:0:0:0:
320,192,240045,1,0,0:0:0:0:
320,192,240211,1,0,0:0:0:0:
448,192,240211,1,0,0:0:0:0:
64,192,240211,1,0,0:0:0:0:
192,192,240378,1,0,0:0:0:0:
64,192,240545,1,0,0:0:0:0:
192,192,240545,1,0,0:0:0:0:
448,192,240545,1,0,0:0:0:0:
320,192,240711,1,0,0:0:0:0:
320,192,240878,1,0,0:0:0:0:
448,192,240878,1,0,0:0:0:0:
192,192,240878,1,0,0:0:0:0:
64,192,241045,1,0,0:0:0:0:
64,192,241211,1,0,0:0:0:0:
192,192,241211,1,0,0:0:0:0:
448,192,241211,1,0,0:0:0:0:
320,192,241545,1,0,0:0:0:0:
448,192,241545,1,0,0:0:0:0:
64,192,241545,128,0,241711:0:0:0:0:
320,192,241711,128,0,241878:0:0:0:0:
192,192,241711,1,0,0:0:0:0:
64,192,242045,128,0,242211:0:0:0:0:
448,192,242045,1,0,0:0:0:0:
320,192,242211,128,0,242378:0:0:0:0:
448,192,242211,1,0,0:0:0:0:
192,192,242378,128,0,242545:0:0:0:0:
64,192,242378,1,0,0:0:0:0:
448,192,242711,128,0,243045:0:0:0:0:
64,192,242711,1,0,0:0:0:0:
320,192,242711,1,0,0:0:0:0:
64,192,243045,128,0,243211:0:0:0:0:
192,192,243045,1,0,0:0:0:0:
320,192,243211,128,0,243378:0:0:0:0:
448,192,243211,1,0,0:0:0:0:
192,192,243211,1,0,0:0:0:0:
64,192,243545,128,0,243878:0:0:0:0:
448,192,243545,1,0,0:0:0:0:
320,192,243711,1,0,0:0:0:0:
192,192,243795,1,0,0:0:0:0:
320,192,243878,1,0,0:0:0:0:
448,192,243878,1,0,0:0:0:0:
64,192,244211,128,0,244378:0:0:0:0:
192,192,244211,1,0,0:0:0:0:
320,192,244211,1,0,0:0:0:0:
448,192,244378,128,0,244545:0:0:0:0:
192,192,244545,128,0,244711:0:0:0:0:
64,192,244545,1,0,0:0:0:0:
320,192,244711,128,0,244878:0:0:0:0:
64,192,244878,128,0,245045:0:0:0:0:
448,192,244878,1,0,0:0:0:0:
192,192,245045,1,0,0:0:0:0:
448,192,245211,128,0,245295:0:0:0:0:
320,192,245211,1,0,0:0:0:0:
448,192,245378,128,0,245545:0:0:0:0:
64,192,245545,128,0,245711:0:0:0:0:
192,192,245545,1,0,0:0:0:0:
320,192,245711,128,0,245878:0:0:0:0:
64,192,245878,128,0,246045:0:0:0:0:
448,192,245878,1,0,0:0:0:0:
320,192,246045,128,0,246211:0:0:0:0:
64,192,246211,128,0,246378:0:0:0:0:
192,192,246211,1,0,0:0:0:0:
448,192,246378,1,0,0:0:0:0:
320,192,246545,128,0,246711:0:0:0:0:
192,192,246545,1,0,0:0:0:0:
64,192,246711,128,0,246878:0:0:0:0:
448,192,246878,128,0,247211:0:0:0:0:
192,192,246878,1,0,0:0:0:0:
320,192,247045,1,0,0:0:0:0:
64,192,247211,128,0,247545:0:0:0:0:
192,192,247211,1,0,0:0:0:0:
448,192,247378,1,0,0:0:0:0:
320,192,247545,128,0,247878:0:0:0:0:
192,192,247545,1,0,0:0:0:0:
448,192,247711,1,0,0:0:0:0:
192,192,247878,128,0,248211:0:0:0:0:
64,192,247878,1,0,0:0:0:0:
320,192,248045,1,0,0:0:0:0:
448,192,248211,128,0,248378:0:0:0:0:
64,192,248211,1,0,0:0:0:0:
320,192,248378,128,0,248545:0:0:0:0:
64,192,248545,128,0,248711:0:0:0:0:
448,192,248545,1,0,0:0:0:0:
192,192,248711,1,0,0:0:0:0:
448,192,248878,128,0,249045:0:0:0:0:
320,192,248878,1,0,0:0:0:0:
192,192,249045,128,0,249211:0:0:0:0:
64,192,249211,128,0,249378:0:0:0:0:
320,192,249211,1,0,0:0:0:0:
192,192,249378,1,0,0:0:0:0:
448,192,249545,128,0,249711:0:0:0:0:
320,192,249545,1,0,0:0:0:0:
192,192,249711,128,0,249878:0:0:0:0:
320,192,249878,128,0,250045:0:0:0:0:
448,192,249878,1,0,0:0:0:0:
64,192,250045,128,0,250211:0:0:0:0:
448,192,250211,128,0,250378:0:0:0:0:
192,192,250211,1,0,0:0:0:0:
320,192,250378,1,0,0:0:0:0:
64,192,250545,128,0,250628:0:0:0:0:
192,192,250545,1,0,0:0:0:0:
64,192,250711,128,0,250878:0:0:0:0:
192,192,250878,128,0,251045:0:0:0:0:
448,192,250878,1,0,0:0:0:0:
320,192,251045,128,0,251211:0:0:0:0:
448,192,251211,128,0,251378:0:0:0:0:
64,192,251211,1,0,0:0:0:0:
192,192,251378,128,0,251545:0:0:0:0:
64,192,251545,128,0,251711:0:0:0:0:
320,192,251545,1,0,0:0:0:0:
192,192,251711,1,0,0:0:0:0:
448,192,251878,128,0,252211:0:0:0:0:
320,192,251878,1,0,0:0:0:0:
192,192,252045,1,0,0:0:0:0:
64,192,252211,1,0,0:0:0:0:
320,192,252211,1,0,0:0:0:0:
192,192,252211,1,0,0:0:0:0:
320,192,252711,1,0,0:0:0:0:
448,192,252711,1,0,0:0:0:0:
64,192,252711,1,0,0:0:0:0:
64,192,252878,1,0,0:0:0:0:
192,192,252878,1,0,0:0:0:0:
448,192,252878,1,0,0:0:0:0:
320,192,253045,1,0,0:0:0:0:
448,192,253045,1,0,0:0:0:0:
64,192,253378,1,0,0:0:0:0:
192,192,253378,1,0,0:0:0:0:
448,192,253378,1,0,0:0:0:0:
192,192,253711,1,0,0:0:0:0:
320,192,253711,1,0,0:0:0:0:
448,192,253711,1,0,0:0:0:0:
64,192,254045,1,0,0:0:0:0:
192,192,254045,1,0,0:0:0:0:
320,192,254211,1,0,0:0:0:0:
448,192,254211,1,0,0:0:0:0:
64,192,254211,1,0,0:0:0:0:
