osu file format v14

[General]
AudioFilename: audio.mp3
AudioLeadIn: 0
PreviewTime: 62878
Countdown: 0
SampleSet: Normal
StackLeniency: 0.2
Mode: 0
LetterboxInBreaks: 0
WidescreenStoryboard: 0

[Editor]
Bookmarks: 5431,18510,42510,42826,111036,116405,130773,141194,141668,143720,145615,150036,155247,160931,165352,167720,180877,192521,192995,194574,195205,196626,202153,209258,209416,217311,223626,224890,227416,229942,234363,234995,244942
DistanceSpacing: 0.8
BeatDivisor: 4
GridSize: 16
TimelineZoom: 2.200001

[Metadata]
Title:Rising Hope
TitleUnicode:Rising Hope
Artist:LiSA
ArtistUnicode:LiSA
Creator:Starz15
Version:Here We GO!!
Source:魔法科高校の劣等生
Tags:
BeatmapID:1274723
BeatmapSetID:603558

[Difficulty]
HPDrainRate:5
CircleSize:4
OverallDifficulty:10
ApproachRate:10
SliderMultiplier:1.4
SliderTickRate:1

[Events]
//Background and Video events
0,0,"maxresdefault.jpg",0,0
//Break Periods
2,8446,9849
2,10657,11902
2,18709,19955
2,20762,22165
2,48552,50270
2,51078,52323
2,127183,130481
2,137288,140270
2,173341,180427
2,225090,226966
2,227616,229492
//Storyboard Layer 0 (Background)
//Storyboard Layer 1 (Fail)
//Storyboard Layer 2 (Pass)
//Storyboard Layer 3 (Foreground)
//Storyboard Sound Samples

[TimingPoints]
1721,315.789473684211,4,1,1,50,1,0
5405,315.789473684211,4,1,1,50,1,0
6510,-200,4,1,1,50,0,0
7931,-90.9090909090909,4,1,1,50,0,0
12352,-50,4,1,1,50,0,0
12983,-66.6666666666667,4,1,1,50,0,0
17247,-50,4,1,1,50,0,0
18036,-142.857142857143,4,1,1,50,0,0
22615,-100,4,1,1,50,0,0
35720,-66.6666666666667,4,1,1,50,0,0
38247,-133.333333333333,4,1,1,50,0,0
39510,-100,4,1,1,50,0,0
40141,-50,4,1,1,50,0,0
41089,-133.333333333333,4,1,1,50,0,0
41562,-100,4,1,1,50,0,0
60668,-66.6666666666667,4,1,1,50,0,0
63510,-50,4,1,1,50,0,1
91299,-80,4,1,1,50,0,0
95089,-55.5555555555556,4,1,1,50,0,0
95799,-50,4,1,1,50,0,0
96352,-50,4,1,1,50,0,1
106457,-100,4,1,1,50,0,0
108668,-80,4,1,1,50,0,0
110247,-80,4,1,1,85,0,0
111747,-80,4,1,1,50,0,0
112141,-80,4,1,1,75,0,0
112378,-80,4,1,1,50,0,0
113405,-80,4,1,1,75,0,0
113641,-80,4,1,1,50,0,0
115931,-50,4,1,1,50,0,0
117036,-66.6666666666667,4,1,1,50,0,0
153983,-133.333333333333,4,1,1,50,0,0
155405,-100,4,1,1,50,0,0
167720,-66.6666666666667,4,1,1,50,0,0
173141,315.789473684211,4,1,0,50,1,0
186048,315.789473684211,4,3,0,25,1,0
192048,-50,4,1,1,50,0,1
196311,-50,4,1,1,75,0,1
197100,-50,4,1,1,50,0,1
203732,-50,4,1,1,75,0,1
204699,-50,4,1,1,50,0,1
216837,-66.6666666666667,4,1,1,50,0,1
217311,-50,4,1,1,50,0,1
223626,-50,4,1,1,50,0,0
232469,-66.6666666666667,4,1,1,20,0,0
234995,-50,4,1,1,52,0,1
239416,-50,4,1,1,52,0,1
244942,-50,4,1,1,52,0,0

[Colours]
Combo1 : 115,215,182
Combo2 : 70,232,171
Combo3 : 78,250,202
Combo4 : 4,249,200
Combo5 : 140,232,206

[HitObjects]
92,80,5405,5,0,0:0:0:0:
129,139,5483,1,0,0:0:0:0:
189,177,5562,1,0,0:0:0:0:
260,186,5641,1,0,0:0:0:0:
328,166,5720,1,0,0:0:0:0:
336,72,5878,2,0,L|424:44,1,70
477,112,6194,2,0,L|411:134,1,70
328,264,6510,2,0,P|324:309|396:236,1,280
260,186,7931,2,0,B|140:186|140:186|180:218,1,154.000004699707
352,132,10299,5,0,0:0:0:0:
352,132,10378,1,0,0:0:0:0:
352,132,10457,1,0,0:0:0:0:
192,268,12352,6,0,P|136:204|132:204,1,70
228,160,12510,2,0,P|240:75|243:73,1,70
310,134,12668,2,0,P|398:111|349:197,1,210
380,193,12983,2,0,L|384:323,1,105.000004005432
286,334,13299,2,0,L|282:204,1,105.000004005432
252,72,13615,1,0,0:0:0:0:
380,193,13773,1,0,0:0:0:0:
204,242,13931,1,0,0:0:0:0:
349,114,14089,2,0,P|442:140|454:161,1,105.000004005432
441,281,14405,5,0,0:0:0:0:
279,349,14562,2,0,L|253:235,1,105.000004005432
333,160,14878,1,0,0:0:0:0:
178,285,15036,1,0,0:0:0:0:
356,358,15194,1,0,0:0:0:0:
333,160,15352,1,0,0:0:0:0:
169,204,15510,2,0,P|108:237|102:311,1,105.000004005432
185,370,15826,6,0,P|246:337|252:263,1,105.000004005432
246,58,16141,1,0,0:0:0:0:
380,273,16299,1,0,0:0:0:0:
387,74,16457,1,0,0:0:0:0:
145,211,16615,1,0,0:0:0:0:
345,342,16773,2,0,P|410:344|428:214,1,210.000008010865
243,156,17247,1,0,0:0:0:0:
150,346,17405,2,0,P|126:257|151:197,1,140
104,160,17641,5,0,0:0:0:0:
173,158,17719,1,0,0:0:0:0:
243,156,17798,1,0,0:0:0:0:
313,155,17877,1,0,0:0:0:0:
383,153,17956,1,0,0:0:0:0:
454,152,18036,2,0,P|506:172|451:165,1,146.999995513916
143,221,20405,5,0,0:0:0:0:
359,193,20562,1,0,0:0:0:0:
86,76,22615,5,0,0:0:0:0:
141,114,22694,1,0,0:0:0:0:
206,120,22773,2,0,P|268:110|347:67,1,140
366,322,23405,1,0,0:0:0:0:
89,201,23720,1,0,0:0:0:0:
300,81,24036,1,0,0:0:0:0:
304,188,24194,1,0,0:0:0:0:
304,188,24273,1,0,0:0:0:0:
304,188,24352,2,0,L|301:271,1,70
216,343,24668,5,0,0:0:0:0:
183,176,24826,1,0,0:0:0:0:
183,176,24905,1,0,0:0:0:0:
183,176,24983,1,0,0:0:0:0:
402,173,25141,1,0,0:0:0:0:
402,173,25220,1,0,0:0:0:0:
402,173,25299,1,0,0:0:0:0:
350,329,25457,1,0,0:0:0:0:
350,329,25536,1,0,0:0:0:0:
350,329,25615,5,0,0:0:0:0:
265,116,25773,1,0,0:0:0:0:
196,308,25931,1,0,0:0:0:0:
409,259,26089,1,0,0:0:0:0:
111,205,26247,1,0,0:0:0:0:
391,149,26405,1,0,0:0:0:0:
196,308,26562,1,0,0:0:0:0:
196,308,26641,1,0,0:0:0:0:
196,308,26720,1,0,0:0:0:0:
224,122,27668,5,0,0:0:0:0:
405,179,27826,1,0,0:0:0:0:
205,255,27983,2,0,P|191:328|292:293,1,210
317,210,28615,1,0,0:0:0:0:
362,114,28773,2,0,L|451:102,1,70
287,31,29089,1,0,0:0:0:0:
216,201,29247,1,0,0:0:0:0:
154,82,29405,2,0,L|69:68,1,70
103,195,29720,2,0,L|24:229,1,70
100,316,30036,5,0,0:0:0:0:
206,267,30194,2,0,L|291:271,1,70
441,331,30510,1,0,0:0:0:0:
356,197,30668,2,0,L|374:113,1,70
251,62,30983,1,0,0:0:0:0:
220,198,31141,2,0,L|205:266,1,70
95,333,31457,1,0,0:0:0:0:
63,165,31615,2,0,L|135:178,1,70
277,253,31931,2,0,P|299:205|290:165,1,70
337,27,32247,5,0,0:0:0:0:
385,197,32405,1,0,0:0:0:0:
236,56,32562,5,0,0:0:0:0:
425,120,32720,1,0,0:0:0:0:
252,183,32878,1,0,0:0:0:0:
217,182,32956,1,0,0:0:0:0:
186,166,33035,1,0,0:0:0:0:
165,138,33114,1,0,0:0:0:0:
159,104,33194,1,0,0:0:0:0:
147,245,33352,2,0,L|150:340,1,70
287,352,33668,5,0,0:0:0:0:
363,255,33826,2,0,L|360:160,1,70
370,62,34141,2,0,P|296:69|280:64,1,70
92,122,34457,1,0,0:0:0:0:
290,146,34615,1,0,0:0:0:0:
167,29,34773,1,0,0:0:0:0:
156,232,34931,1,0,0:0:0:0:
210,93,35089,1,0,0:0:0:0:
60,230,35247,1,0,0:0:0:0:
151,330,35405,6,0,L|234:338,1,70
370,299,35720,2,0,P|382:240|352:187,1,105.000004005432
334,172,35957,1,0,0:0:0:0:
334,172,36035,1,0,0:0:0:0:
196,70,36273,1,0,0:0:0:0:
196,70,36352,1,0,0:0:0:0:
208,260,36589,1,0,0:0:0:0:
208,260,36668,1,0,0:0:0:0:
429,150,36826,5,0,0:0:0:0:
97,188,36983,1,0,0:0:0:0:
260,341,37141,1,0,0:0:0:0:
279,38,37299,1,0,0:0:0:0:
279,38,37615,2,0,L|278:154,1,105.000004005432
260,341,37931,2,0,L|261:225,1,105.000004005432
201,157,38247,2,0,B|142:131|142:131|125:90|125:90|66:65,1,157.500006008148
69,260,38878,1,0,0:0:0:0:
196,256,39036,2,0,L|320:236,1,105.000004005432
372,120,39510,6,0,P|395:178|386:210,1,70
352,328,39826,1,0,0:0:0:0:
249,320,39983,1,0,0:0:0:0:
188,220,40141,2,0,P|149:151|261:95,1,210
238,85,40457,2,0,B|295:152|295:152|423:145,1,210
417,145,40773,2,0,P|405:247|365:181,1,210
370,224,41089,2,0,L|250:231,1,105.000004005432
162,285,41562,6,0,P|107:301|70:221,1,140
207,95,42036,1,0,0:0:0:0:
271,333,42194,1,0,0:0:0:0:
451,148,42352,1,0,0:0:0:0:
158,222,42510,1,0,0:0:0:0:
143,181,42589,1,0,0:0:0:0:
131,140,42668,1,0,0:0:0:0:
271,333,42826,5,0,0:0:0:0:
363,112,42983,1,0,0:0:0:0:
78,228,43141,1,0,0:0:0:0:
304,280,43299,2,0,B|412:280|412:280|384:260,1,140
294,194,43773,2,0,P|286:138|302:106,1,70
344,40,44089,1,0,0:0:0:0:
204,200,44247,1,0,0:0:0:0:
344,40,44405,1,0,0:0:0:0:
204,200,44562,2,0,P|148:200|132:184,1,70
48,100,44878,6,0,P|64:156|56:184,1,70
88,324,45194,1,0,0:0:0:0:
139,193,45352,1,0,0:0:0:0:
206,300,45510,1,0,0:0:0:0:
248,148,45668,1,0,0:0:0:0:
312,276,45826,2,0,P|372:304|412:244,1,140
352,112,46299,1,0,0:0:0:0:
232,200,46457,2,0,L|176:144,1,70
212,40,46773,5,0,0:0:0:0:
167,245,46931,2,0,L|167:337,1,70
352,352,47247,1,0,0:0:0:0:
316,128,47405,1,0,0:0:0:0:
451,236,47562,1,0,0:0:0:0:
451,236,47641,1,0,0:0:0:0:
451,236,47720,5,0,0:0:0:0:
248,320,47878,1,0,0:0:0:0:
204,72,48036,1,0,0:0:0:0:
91,241,48194,1,0,0:0:0:0:
394,183,48352,1,0,0:0:0:0:
394,183,50720,5,0,0:0:0:0:
146,223,50878,1,0,0:0:0:0:
56,148,52773,5,0,0:0:0:0:
93,184,52851,1,0,0:0:0:0:
142,202,52930,1,0,0:0:0:0:
194,199,53009,1,0,0:0:0:0:
241,175,53088,1,0,0:0:0:0:
270,130,53168,1,0,0:0:0:0:
317,106,53247,1,0,0:0:0:0:
369,103,53326,5,0,0:0:0:0:
419,119,53405,2,0,L|413:262,1,140
325,346,53878,1,0,0:0:0:0:
188,338,54036,2,0,L|194:195,1,140
162,61,54510,1,0,0:0:0:0:
58,148,54668,2,0,P|82:166|144:154,1,70
213,121,54983,2,0,P|237:103|299:115,1,70
343,174,55299,2,0,P|367:192|429:180,1,70
490,132,55615,2,0,P|466:114|404:126,1,70
195,158,55931,5,0,3:0:0:0:
289,131,56246,1,0,3:0:0:0:
316,225,56561,1,0,3:0:0:0:
222,252,56877,1,0,3:0:0:0:
185,95,57194,5,8,3:0:0:0:
159,262,57352,1,0,3:0:0:0:
352,121,57510,1,8,3:0:0:0:
326,288,57668,1,0,3:0:0:0:
96,64,57826,5,8,3:0:0:0:
130,345,57984,1,0,3:0:0:0:
377,29,58142,1,8,3:0:0:0:
414,321,58299,1,0,3:0:0:0:
256,192,58457,5,0,3:0:0:0:
115,167,60668,5,0,0:0:0:0:
127,105,60747,1,0,0:0:0:0:
180,69,60826,1,0,0:0:0:0:
245,79,60905,1,0,0:0:0:0:
291,126,60983,6,0,P|394:139|423:115,1,105.000004005432,0|0,3:0|0:0,0:0:0:0:
350,56,61299,1,0,0:0:0:0:
361,234,61457,2,0,L|342:364,1,105.000004005432
99,318,61773,1,0,0:0:0:0:
227,119,61931,1,0,0:0:0:0:
345,337,62089,2,0,P|401:327|444:301,1,105.000004005432
354,41,62405,5,0,3:0:0:0:
225,300,62562,1,0,3:0:0:0:
406,209,62720,5,0,3:0:0:0:
147,80,62877,1,0,3:0:0:0:
125,169,63510,6,0,P|142:241|170:138,1,280
30,66,63983,1,0,0:0:0:0:
213,63,64141,2,0,P|282:113|265:301,1,280
80,328,64615,1,0,0:0:0:0:
338,369,64773,2,0,B|415:370|415:370|480:330,1,140
302,87,65089,1,8,0:0:0:0:
338,369,65247,1,8,0:0:0:0:
483,210,65405,1,8,0:0:0:0:
173,257,65562,1,8,0:0:0:0:
408,317,65720,5,8,0:0:0:0:
207,113,65878,1,8,0:0:0:0:
224,316,66036,2,0,P|143:331|158:181,1,280,4|0,3:0|0:0,0:0:0:0:
308,228,66510,1,0,0:0:0:0:
160,64,66668,2,0,B|272:107|272:107|319:82|319:82|435:126,1,280
356,320,67141,1,0,0:0:0:0:
208,192,67299,6,0,P|128:180|208:264,1,280
392,156,67773,1,8,0:0:0:0:
248,344,67931,1,8,0:0:0:0:
216,68,68089,1,8,0:0:0:0:
408,328,68247,1,8,0:0:0:0:
116,268,68405,1,8,0:0:0:0:
429,224,68562,2,0,P|450:104|329:112,1,280,4|0,3:0|0:0,0:0:0:0:
206,384,69036,1,0,0:0:0:0:
392,156,69194,1,0,0:0:0:0:
183,158,69352,5,0,0:0:0:0:
372,377,69510,1,0,0:0:0:0:
82,302,69668,1,0,0:0:0:0:
415,236,69826,2,0,B|341:260|341:260|279:238,1,140
111,109,70141,2,0,B|185:85|185:85|247:107,1,140
244,312,70457,2,0,P|203:240|237:171,1,140
512,104,70773,1,0,0:0:0:0:
119,90,70931,2,0,B|188:114|188:114|269:82,1,140,8|0,3:0|0:0,0:0:0:0:
421,167,71247,1,0,0:0:0:0:
311,328,71405,6,0,P|227:334|320:261,1,280
460,346,71878,1,0,0:0:0:0:
217,128,72036,1,8,0:0:0:0:
230,97,72115,1,8,0:0:0:0:
245,64,72194,1,8,0:0:0:0:
128,327,72352,1,0,0:0:0:0:
402,193,72510,1,0,0:0:0:0:
27,134,72668,1,0,0:0:0:0:
279,370,72826,1,0,0:0:0:0:
342,51,72983,5,0,0:0:0:0:
126,77,73141,1,8,0:0:0:0:
85,129,73219,1,8,0:0:0:0:
115,189,73298,1,8,0:0:0:0:
173,215,73378,1,8,0:0:0:0:
203,275,73457,1,8,0:0:0:0:
163,328,73535,1,8,0:0:0:0:
93,318,73615,2,0,B|86:254|138:227|138:227|139:175|139:175|208:147|218:32,1,280,8|0,3:0|0:0,0:0:0:0:
459,24,74089,1,0,0:0:0:0:
304,192,74247,6,0,P|296:272|372:184,1,280
220,31,74720,1,0,0:0:0:0:
72,198,74878,2,0,P|155:209|214:161,1,140
316,81,75194,1,8,0:0:0:0:
265,384,75352,1,8,0:0:0:0:
512,129,75510,1,8,0:0:0:0:
146,203,75668,1,8,0:0:0:0:
505,381,75826,1,8,0:0:0:0:
316,81,75983,1,8,0:0:0:0:
186,361,76141,6,0,B|124:370|87:323|87:323|50:340|50:340|-20:284|17:205,1,280,4|0,3:0|0:0,0:0:0:0:
241,68,76615,1,0,0:0:0:0:
310,330,76773,2,0,B|337:263|337:263|314:169,1,140
150,176,77089,2,0,B|123:243|123:243|146:337,1,140
402,325,77405,2,0,B|370:243|370:243|393:157|393:157|350:39,1,280
121,254,77878,2,0,P|208:269|271:241,1,140
455,112,78194,6,0,P|368:97|305:125,1,140
201,317,78510,1,8,0:0:0:0:
201,15,78669,1,8,0:0:0:0:
461,166,78825,1,8,0:0:0:0:
210,331,78983,1,8,0:0:0:0:
215,30,79142,1,8,0:0:0:0:
475,184,79299,2,0,L|467:358,1,140,8|0,0:0|0:0,0:0:0:0:
309,113,79615,5,0,0:0:0:0:
188,384,79773,1,0,0:0:0:0:
405,140,79931,1,0,0:0:0:0:
88,157,80089,1,0,0:0:0:0:
372,384,80247,1,0,0:0:0:0:
11,322,80405,1,0,0:0:0:0:
176,165,80562,2,0,P|105:133|33:157,1,140
71,353,80878,1,8,3:0:0:0:
93,324,80957,5,8,3:0:0:0:
88,294,81036,2,0,B|285:357|161:202|389:317,1,280,8|0,3:0|0:0,0:0:0:0:
428,171,81510,2,0,P|446:81|363:162,1,280
407,363,81983,1,0,0:0:0:0:
267,170,82141,2,0,P|162:163|130:117,1,140
239,58,82457,2,0,P|344:65|376:111,1,140
366,199,82773,2,0,P|361:282|410:325,1,140
271,273,83089,2,0,P|183:285|150:237,1,140
142,213,83326,1,0,3:0:0:0:
139,170,83405,5,0,3:0:0:0:
212,32,83562,1,0,3:0:0:0:
346,173,83720,2,0,P|260:187|232:131,1,140
367,51,84036,5,0,0:0:0:0:
301,341,84352,5,0,0:0:0:0:
211,36,84668,5,0,0:0:0:0:
182,187,84826,1,0,0:0:0:0:
155,327,84983,2,0,P|86:291|90:185,1,140
172,112,85299,2,0,P|247:145|235:242,1,140
406,336,85615,2,0,L|397:186,1,140
250,56,85931,2,0,L|259:206,1,140
489,152,86247,2,0,L|349:160,1,140
185,294,86563,2,0,L|324:285,1,140
165,216,86878,2,0,P|109:273|159:368,1,140
269,193,87193,5,0,0:0:0:0:
414,41,87352,2,0,B|404:119|404:119|442:217,1,140
271,382,87668,1,0,0:0:0:0:
475,339,87826,1,0,0:0:0:0:
345,182,87983,2,0,P|251:118|202:157,1,140
170,189,88299,1,0,0:0:0:0:
124,238,88377,1,0,0:0:0:0:
56,233,88456,1,0,0:0:0:0:
19,177,88535,1,0,0:0:0:0:
39,113,88614,5,0,0:0:0:0:
102,89,88693,1,0,0:0:0:0:
177,126,88773,1,0,0:0:0:0:
256,160,88851,1,0,0:0:0:0:
343,159,88930,1,0,0:0:0:0:
423,124,89009,1,0,0:0:0:0:
473,52,89089,1,0,0:0:0:0:
470,216,89247,2,0,B|423:275|423:275|313:296,1,140
256,160,89562,2,0,B|303:101|303:101|413:80,1,140
260,384,89878,5,0,0:0:0:0:
267,348,91299,2,0,P|289:279|254:154,1,175
87,98,91773,1,0,0:0:0:0:
279,51,91931,1,0,0:0:0:0:
83,209,92089,2,0,P|147:225|196:204,1,87.5
298,160,92405,1,0,0:0:0:0:
412,370,92562,1,0,0:0:0:0:
160,314,92720,2,0,B|262:260|231:345|349:273,1,175
445,148,93194,1,0,0:0:0:0:
272,136,93352,6,0,B|205:164|205:164|180:196|180:196|106:227,1,175
120,84,93826,1,0,3:0:0:0:
286,298,93983,1,0,3:0:0:0:
303,51,94141,1,0,3:0:0:0:
66,169,94299,1,0,3:0:0:0:
381,246,94457,1,0,3:0:0:0:
210,46,94615,1,0,3:0:0:0:
202,337,94773,1,0,3:0:0:0:
362,141,94931,1,0,3:0:0:0:
114,305,95089,5,0,0:0:0:0:
158,348,95167,1,0,0:0:0:0:
219,359,95246,1,0,0:0:0:0:
275,333,95325,1,0,0:0:0:0:
307,280,95404,1,0,0:0:0:0:
304,218,95483,1,0,0:0:0:0:
266,169,95562,1,0,0:0:0:0:
207,150,95641,1,0,0:0:0:0:
147,168,95720,1,0,0:0:0:0:
194,215,95799,5,8,0:0:0:0:
266,223,95877,1,8,0:0:0:0:
327,184,95956,1,8,0:0:0:0:
351,114,96035,1,8,0:0:0:0:
323,46,96114,1,8,0:0:0:0:
259,11,96193,1,8,0:0:0:0:
187,25,96272,1,8,0:0:0:0:
144,83,96352,2,0,B|126:155|126:155|154:274,1,140
262,358,96668,2,0,B|280:286|280:286|251:166,1,140
187,25,96983,5,0,0:0:0:0:
171,307,97141,1,0,0:0:0:0:
351,114,97299,1,0,0:0:0:0:
107,254,97457,2,0,P|104:360|254:297,1,280
204,68,97931,1,0,0:0:0:0:
354,302,98089,1,0,0:0:0:0:
39,178,98247,1,0,0:0:0:0:
358,54,98405,1,0,0:0:0:0:
243,350,98562,1,0,0:0:0:0:
379,183,98720,1,0,0:0:0:0:
163,185,98878,6,0,P|135:105|261:145,1,280
243,350,99352,1,0,0:0:0:0:
364,77,99510,1,0,0:0:0:0:
90,336,99668,1,0,0:0:0:0:
451,384,99826,1,0,0:0:0:0:
173,275,99983,2,0,B|115:220|115:220|122:9,1,280
212,102,100457,1,0,0:0:0:0:
271,136,100535,1,0,0:0:0:0:
340,133,100614,1,0,0:0:0:0:
397,93,100693,5,0,0:0:0:0:
406,161,100773,1,0,0:0:0:0:
434,223,100851,1,0,0:0:0:0:
420,291,100930,1,0,0:0:0:0:
370,338,101009,1,0,0:0:0:0:
301,347,101088,1,0,3:0:0:0:
241,314,101167,1,0,3:0:0:0:
210,253,101246,1,0,3:0:0:0:
221,185,101325,1,0,3:0:0:0:
271,136,101405,6,0,P|296:45|146:89,1,280
111,280,101878,1,0,0:0:0:0:
223,74,102036,1,0,0:0:0:0:
287,275,102194,1,0,0:0:0:0:
60,126,102352,1,0,0:0:0:0:
189,291,102510,2,0,B|243:351|243:351|443:351,1,280
287,84,102983,1,0,0:0:0:0:
332,277,103141,1,0,0:0:0:0:
462,150,103299,1,0,0:0:0:0:
191,212,103457,5,0,0:0:0:0:
361,10,103615,1,0,0:0:0:0:
262,345,103773,1,0,0:0:0:0:
107,169,103931,2,0,P|155:122|260:150,1,140
413,246,104247,2,0,P|345:247|296:200,1,140
446,116,104562,1,0,0:0:0:0:
124,297,104720,1,0,0:0:0:0:
179,26,104878,1,0,0:0:0:0:
317,284,105036,6,0,B|350:319|370:346|370:346|355:235|430:154,1,280
365,47,105510,1,0,0:0:0:0:
356,114,105588,1,0,0:0:0:0:
299,150,105667,1,0,0:0:0:0:
235,129,105746,1,0,0:0:0:0:
186,86,105826,2,0,B|116:68|116:68|41:74,1,140
123,224,106141,2,0,B|196:247|196:247|268:236,1,140
368,219,106457,2,0,P|435:265|352:284,1,210
346,95,107089,1,0,0:0:0:0:
239,194,107247,6,0,P|172:199|151:187,1,70
101,95,107562,2,0,P|171:64|186:66,1,70
340,201,107878,1,0,0:0:0:0:
144,310,108036,1,0,0:0:0:0:
306,70,108194,1,0,0:0:0:0:
313,347,108352,1,0,0:0:0:0:
108,163,108510,1,0,0:0:0:0:
340,201,108668,2,0,P|388:247|406:302,1,87.5
388,356,108983,5,0,0:0:0:0:
392,68,109141,1,0,0:0:0:0:
308,332,109299,5,0,0:0:0:0:
323,116,109457,1,0,0:0:0:0:
218,260,109615,2,0,P|143:262|116:235,1,87.5
241,114,109931,2,0,P|316:112|343:139,1,87.5
421,306,110247,1,8,0:0:0:0:
18,244,110405,1,8,0:0:0:0:
377,151,110562,1,8,0:0:0:0:
133,13,110720,1,8,0:0:0:0:
208,359,110878,1,8,0:0:0:0:
392,56,111036,5,8,0:0:0:0:
57,108,111194,1,8,0:0:0:0:
380,229,111352,1,8,0:0:0:0:
111,352,111510,1,8,0:0:0:0:
276,177,111668,2,0,P|301:246|214:218,1,175,8|0,0:0|0:0,0:0:0:0:
27,193,112141,1,10,3:0:0:0:
485,250,112299,1,10,3:0:0:0:
214,60,112457,2,0,P|270:45|323:64,1,87.5
343,209,112773,5,0,0:0:0:0:
433,106,112931,1,0,0:0:0:0:
257,194,113089,2,0,P|264:253|298:285,1,87.5
390,384,113405,1,10,3:0:0:0:
317,0,113562,1,10,3:0:0:0:
99,136,113720,6,0,P|77:100|78:57,1,87.5
183,182,114036,1,0,0:0:0:0:
183,174,114352,1,0,0:0:0:0:
183,166,114668,1,0,0:0:0:0:
185,159,114983,1,0,0:0:0:0:
185,153,115299,5,8,0:0:0:0:
237,365,115456,1,8,0:0:0:0:
317,232,115614,5,8,0:0:0:0:
104,285,115772,1,8,0:0:0:0:
416,70,115931,5,0,0:0:0:0:
436,135,116009,1,0,0:0:0:0:
406,196,116088,1,0,0:0:0:0:
342,219,116167,1,0,0:0:0:0:
275,202,116247,1,0,0:0:0:0:
210,225,116326,1,0,0:0:0:0:
178,284,116405,2,0,L|184:133,1,140
190,40,116720,5,0,0:0:0:0:
98,210,116878,1,0,0:0:0:0:
311,110,117036,1,0,0:0:0:0:
236,320,117194,2,0,P|205:260|223:199,1,105.000004005432
276,55,117510,1,0,0:0:0:0:
323,292,117668,1,0,0:0:0:0:
414,131,117826,1,0,0:0:0:0:
159,162,117984,1,0,0:0:0:0:
419,269,118141,1,0,0:0:0:0:
208,96,118299,5,0,0:0:0:0:
236,320,118457,1,0,0:0:0:0:
337,153,118615,2,0,L|349:42,1,105.000004005432
98,184,118931,1,8,1:0:0:0:
264,44,119089,1,8,1:0:0:0:
273,260,119247,1,8,1:0:0:0:
104,58,119405,1,8,1:0:0:0:
154,343,119562,1,8,1:0:0:0:
348,164,119720,1,8,1:0:0:0:
30,249,119878,5,8,1:0:0:0:
273,260,120036,1,8,1:0:0:0:
41,104,120194,1,8,1:0:0:0:
154,343,120352,1,8,1:0:0:0:
193,55,120510,1,8,1:0:0:0:
348,164,120668,1,8,1:0:0:0:
30,249,120826,1,8,1:0:0:0:
284,352,120983,1,8,1:0:0:0:
122,225,121141,1,4,3:0:0:0:
161,191,121219,5,4,3:0:0:0:
212,180,121298,1,4,3:0:0:0:
262,195,121377,1,4,3:0:0:0:
299,231,121457,2,0,P|357:284|485:208,1,210.000008010865
280,130,121931,1,8,0:0:0:0:
296,354,122089,1,8,0:0:0:0:
390,196,122247,2,0,L|409:67,1,105.000004005432
161,165,122562,1,8,0:0:0:0:
362,272,122720,1,8,0:0:0:0:
242,92,122878,6,0,L|116:73,1,105.000004005432
231,284,123194,1,0,0:0:0:0:
333,64,123352,1,0,0:0:0:0:
362,272,123510,1,0,0:0:0:0:
242,92,123668,1,0,0:0:0:0:
74,303,123826,1,0,0:0:0:0:
287,204,123983,2,0,L|397:189,1,105.000004005432
323,117,124299,1,0,0:0:0:0:
261,351,124457,1,0,0:0:0:0:
170,178,124615,5,0,0:0:0:0:
439,283,124773,1,0,0:0:0:0:
189,296,124931,1,0,0:0:0:0:
258,55,125089,1,0,0:0:0:0:
269,282,125247,2,0,P|350:302|309:221,1,210.000008010865
210,222,125720,1,0,0:0:0:0:
149,229,125798,1,0,0:0:0:0:
95,200,125877,1,0,0:0:0:0:
67,147,125956,1,0,0:0:0:0:
74,87,126035,5,0,0:0:0:0:
115,42,126114,1,0,0:0:0:0:
174,28,126193,1,0,0:0:0:0:
230,51,126272,1,0,0:0:0:0:
264,101,126351,1,0,3:0:0:0:
309,143,126431,1,0,3:0:0:0:
368,162,126509,1,0,3:0:0:0:
426,139,126588,1,0,3:0:0:0:
458,82,126668,2,0,L|452:318,1,210.000008010865,0|0,3:0|0:0,0:0:0:0:
184,244,130931,5,0,0:0:0:0:
172,285,131010,1,0,0:0:0:0:
164,319,131089,1,0,0:0:0:0:
200,60,131247,5,0,0:0:0:0:
308,282,131405,2,0,P|374:286|416:257,1,105.000004005432
357,185,131720,2,0,L|365:58,1,105.000004005432
155,199,132036,2,0,L|147:326,1,105.000004005432
249,91,132352,2,0,L|144:84,1,105.000004005432
263,293,132668,2,0,L|367:299,1,105.000004005432
414,281,132905,5,0,0:0:0:0:
414,281,132983,1,0,0:0:0:0:
249,91,133141,1,0,0:0:0:0:
196,272,133299,1,0,0:0:0:0:
392,188,133457,1,0,0:0:0:0:
166,116,133615,2,0,L|58:145,1,105.000004005432
163,336,133931,1,8,0:0:0:0:
58,225,134089,1,8,0:0:0:0:
252,326,134247,2,0,L|293:204,1,105.000004005432
166,116,134562,5,8,0:0:0:0:
296,82,134720,1,8,0:0:0:0:
116,238,134878,2,0,L|1:199,1,105.000004005432
146,49,135194,5,0,0:0:0:0:
335,355,135352,1,0,0:0:0:0:
255,8,135510,5,0,0:0:0:0:
235,368,135668,1,0,0:0:0:0:
362,49,135826,5,0,0:0:0:0:
138,332,135984,1,0,0:0:0:0:
427,145,136141,5,0,0:0:0:0:
81,249,136299,1,0,0:0:0:0:
424,260,136457,5,0,0:0:0:0:
81,147,136615,1,0,0:0:0:0:
419,344,136773,6,0,P|501:290|474:196,1,210.000008010865,0|0,0:0|0:3,0:0:0:0:
108,192,140720,5,0,0:0:0:0:
404,192,140878,5,0,0:0:0:0:
211,144,141194,6,0,P|257:257|301:143,1,315.000012016297,0|0,0:3|0:3,0:3:0:0:
216,56,141826,5,0,0:0:0:0:
317,30,142140,1,0,0:0:0:0:
343,132,142456,1,0,0:0:0:0:
241,157,142772,1,0,0:0:0:0:
140,183,143089,5,0,0:0:0:0:
165,284,143403,1,0,0:0:0:0:
267,259,143719,1,0,0:0:0:0:
241,157,144035,1,0,0:0:0:0:
104,213,144352,5,0,0:0:0:0:
133,262,144430,1,0,0:0:0:0:
184,285,144509,1,0,0:0:0:0:
241,276,144588,1,0,0:0:0:0:
281,236,144667,1,0,0:0:0:0:
295,183,144747,1,0,0:0:0:0:
334,142,144825,1,0,0:0:0:0:
390,128,144904,5,0,0:0:0:0:
445,146,144983,1,0,3:0:0:0:
482,189,145062,1,0,3:0:0:0:
491,246,145141,1,0,3:0:0:0:
469,299,145220,1,0,3:0:0:0:
481,361,145299,1,0,3:0:0:0:
423,343,145377,1,0,3:0:0:0:
367,317,145456,1,0,3:0:0:0:
312,346,145535,1,0,3:0:0:0:
253,362,145615,6,0,B|285:258|285:258|284:125,1,210.000008010865,0|0,3:0|0:0,0:0:0:0:
154,54,146089,1,0,0:0:0:0:
88,203,146247,2,0,P|152:203|193:170,1,105.000004005432
317,67,146562,2,0,P|375:104|393:180,1,105.000004005432
344,333,146878,1,0,0:0:0:0:
279,173,147036,1,0,0:0:0:0:
446,206,147194,1,0,0:0:0:0:
185,329,147352,1,0,0:0:0:0:
201,147,147510,2,0,P|258:90|326:103,1,105.000004005432
324,250,147826,6,0,B|200:299|238:197|94:270,1,210.000008010865
101,109,148299,1,0,0:0:0:0:
165,330,148457,1,0,0:0:0:0:
234,169,148615,1,0,0:0:0:0:
348,301,148773,1,0,0:0:0:0:
258,97,148931,1,0,0:0:0:0:
271,255,149089,1,0,0:0:0:0:
223,294,149167,1,0,0:0:0:0:
163,307,149246,1,0,0:0:0:0:
104,291,149325,5,0,0:0:0:0:
61,247,149404,1,0,0:0:0:0:
44,188,149483,1,0,0:0:0:0:
58,130,149562,1,0,0:0:0:0:
97,83,149641,1,0,0:0:0:0:
147,49,149720,1,0,3:0:0:0:
201,78,149798,1,0,3:0:0:0:
258,97,149877,1,0,3:0:0:0:
312,66,149956,1,0,3:0:0:0:
358,26,150036,6,0,L|344:174,1,105.000004005432,0|0,3:0|0:0,0:0:0:0:
408,288,150352,2,0,P|319:295|289:269,1,105.000004005432
248,371,150668,2,0,P|198:298|205:259,1,105.000004005432
96,275,150983,2,0,P|135:195|172:182,1,105.000004005432
279,124,151299,2,0,L|318:186,4,52.5000020027161
180,110,151694,2,0,L|141:48,2,52.5000020027161
224,180,151931,1,0,0:0:0:0:
224,212,152010,1,0,0:0:0:0:
166,264,152089,1,0,0:0:0:0:
166,296,152168,5,0,0:0:0:0:
221,352,152247,1,0,0:0:0:0:
381,313,152405,2,0,P|391:245|363:197,1,105.000004005432
334,180,152641,1,0,0:0:0:0:
279,150,152719,1,0,0:0:0:0:
262,91,152798,1,0,0:0:0:0:
292,38,152877,1,0,0:0:0:0:
351,21,152956,1,0,0:0:0:0:
404,51,153035,1,0,0:0:0:0:
420,111,153114,5,0,0:0:0:0:
413,175,153194,1,0,3:0:0:0:
413,175,153273,1,0,3:0:0:0:
413,175,153352,1,0,3:0:0:0:
413,175,153431,1,0,3:0:0:0:
413,175,153510,1,0,3:0:0:0:
261,378,153668,1,0,0:0:0:0:
262,91,153826,1,0,0:0:0:0:
192,264,153983,2,0,B|164:253|137:265|120:312|120:312|119:262|100:247|73:239|73:239|97:177|66:142|44:115|44:115|80:124|114:99|114:99|112:132,1,420.000016021729,4|0,0:0|0:0,0:0:0:0:
161,181,155405,6,0,P|215:178|249:78,1,140
182,112,155878,1,0,0:0:0:0:
276,226,156036,2,0,B|336:235|336:235|358:265|358:265|410:274,1,140
304,338,156510,1,0,0:0:0:0:
209,275,156668,2,0,L|127:283,1,70
39,208,156983,2,0,L|121:216,1,70
235,154,157299,2,0,L|153:162,1,70
82,120,157615,2,0,P|74:69|131:65,1,105
116,55,157931,2,0,B|161:78|161:78|271:68,1,140
364,53,158405,5,0,0:0:0:0:
295,160,158562,2,0,L|300:253,1,70
303,347,158878,1,0,0:0:0:0:
195,265,159036,1,0,0:0:0:0:
360,285,159194,2,0,L|455:308,1,70
393,213,159510,2,0,L|486:180,1,70
383,134,159826,2,0,L|442:57,1,70
328,68,160141,1,0,0:0:0:0:
328,68,160457,2,0,B|280:68|280:68|232:68|232:68|184:68|184:68|104:68,1,210
71,213,161089,6,0,P|117:214|169:129,1,140
96,141,161562,1,0,0:0:0:0:
133,289,161720,2,0,L|209:303,1,70
246,276,161957,1,8,0:0:0:0:
246,276,162036,1,8,0:0:0:0:
296,149,162194,1,8,0:0:0:0:
296,149,162273,1,8,0:0:0:0:
296,149,162352,2,0,L|284:68,1,70
193,178,162668,1,0,3:0:0:0:
330,284,162826,5,0,3:0:0:0:
379,118,162983,2,0,L|361:32,1,70,0|0,3:0|3:0,3:0:0:0:
193,178,163299,2,0,L|211:264,1,70,0|0,3:0|3:0,3:0:0:0:
290,66,163615,2,0,L|220:11,1,70,0|0,3:0|3:0,3:0:0:0:
278,226,163931,2,0,L|347:280,1,70,0|0,3:0|3:0,3:0:0:0:
181,62,164247,1,8,0:0:0:0:
181,319,164405,1,8,0:0:0:0:
403,192,164561,1,8,0:0:0:0:
80,190,164720,5,8,0:0:0:0:
342,343,164878,1,8,0:0:0:0:
342,39,165034,1,8,0:0:0:0:
70,288,165194,5,8,0:0:0:0:
443,92,165352,1,8,0:0:0:0:
56,142,167720,5,0,1:0:0:0:
93,93,167798,1,0,1:0:0:0:
148,67,167877,1,0,1:0:0:0:
210,71,167956,1,0,1:0:0:0:
261,103,168036,2,0,P|307:143|391:128,1,105.000004005432
340,52,168352,1,0,0:0:0:0:
218,182,168510,2,0,L|233:294,1,105.000004005432
329,351,168826,5,8,0:0:0:0:
390,346,168904,1,8,0:0:0:0:
436,303,168983,1,8,0:0:0:0:
446,242,169062,1,8,0:0:0:0:
415,188,169141,1,8,0:0:0:0:
363,154,169220,1,8,0:0:0:0:
322,108,169299,2,8,B|296:62|296:62|299:3,1,105.000004005432,8|0,0:0|0:0,0:0:0:0:
236,123,169615,1,8,0:0:0:0:
236,123,169694,5,8,0:0:0:0:
236,123,169773,2,0,L|225:273,1,105.000004005432,8|0,0:0|0:0,0:0:0:0:
207,384,170089,1,0,0:0:0:0:
48,224,170247,1,0,0:0:0:0:
181,292,170405,2,0,P|264:300|300:262,1,105.000004005432
289,54,170720,1,0,0:0:0:0:
441,250,170878,1,0,0:0:0:0:
235,148,171036,2,0,L|115:147,1,105.000004005432
64,295,171352,1,8,0:0:0:0:
115,329,171430,5,8,0:0:0:0:
175,315,171509,1,8,0:0:0:0:
215,266,171589,1,8,0:0:0:0:
267,232,171668,2,0,P|329:219|386:240,1,105.000004005432
415,382,172036,1,0,3:0:0:0:
300,10,172194,1,0,3:0:0:0:
110,278,172352,1,0,3:0:0:0:
512,144,172510,1,0,3:0:0:0:
256,192,173141,5,0,0:0:0:0:
360,252,180877,5,0,0:0:0:0:
292,301,181034,1,0,0:0:0:0:
208,301,181192,1,0,0:0:0:0:
140,252,181350,1,0,0:0:0:0:
114,172,181508,1,0,0:0:0:0:
140,92,181666,1,0,0:0:0:0:
208,42,181824,1,0,0:0:0:0:
226,88,181983,1,0,0:0:0:0:
244,127,182141,1,0,0:0:0:0:
262,167,182298,5,0,0:0:0:0:
278,208,182456,1,0,0:0:0:0:
296,247,182614,1,0,0:0:0:0:
314,287,182771,1,0,0:0:0:0:
330,328,182930,1,0,0:0:0:0:
344,368,183088,1,0,0:0:0:0:
344,368,183246,2,0,L|360:196,1,140
264,72,183719,1,0,0:0:0:0:
200,196,183877,2,0,P|132:184|104:112,1,140
178,125,184351,5,0,0:0:0:0:
200,298,184509,2,0,L|132:312,2,70
296,336,184983,2,0,P|392:300|404:280,1,105
390,302,185298,2,0,L|384:184,1,105
368,152,185614,1,0,0:0:0:0:
368,152,185693,1,0,0:0:0:0:
368,152,185772,1,0,0:0:0:0:
217,61,186048,6,0,L|231:122,3,35
165,217,186363,2,0,L|151:156,3,35
267,166,186679,6,0,L|206:180,3,35
225,265,186995,2,0,B|272:255|317:280,1,70
400,344,187311,2,0,B|414:322|404:275,1,70
180,152,187626,1,0,0:0:0:0:
444,44,187784,1,0,0:0:0:0:
155,365,187942,1,0,0:0:0:0:
180,0,188100,5,0,0:0:0:0:
256,192,189521,12,0,191574,0:0:0:0:
154,309,192048,6,8,L|240:281,1,70
342,238,192205,1,8,0:0:0:0:
410,193,192283,1,8,0:0:0:0:
420,107,192362,1,8,0:0:0:0:
358,50,192441,1,8,0:0:0:0:
269,88,192521,2,8,L|171:112,1,70
120,221,192679,2,8,L|218:197,1,70
339,172,192837,1,8,0:0:0:0:
421,180,192915,1,8,0:0:0:0:
455,258,192994,5,8,0:0:0:0:
393,313,193074,2,8,P|422:381|427:384,1,70
321,265,193232,1,8,0:0:0:0:
247,272,193310,1,8,0:0:0:0:
187,228,193389,1,8,0:0:0:0:
173,154,193468,1,8,0:0:0:0:
214,92,193547,1,8,0:0:0:0:
285,73,193626,1,8,0:0:0:0:
353,107,193705,1,0,0:0:0:0:
418,150,193783,5,0,0:0:0:0:
483,123,193862,1,0,0:0:0:0:
499,53,193941,1,0,3:0:0:0:
452,0,194020,1,0,3:0:0:0:
381,7,194099,1,0,3:0:0:0:
320,54,194179,1,0,3:0:0:0:
254,80,194257,1,0,3:0:0:0:
185,62,194336,1,0,3:0:0:0:
140,7,194415,1,0,3:0:0:0:
95,72,194495,5,0,3:0:0:0:
87,150,194574,2,0,B|110:251|110:251|181:292|181:292|204:393,1,280,4|0,3:0|0:0,0:0:0:0:
406,209,195048,1,0,0:0:0:0:
200,33,195205,2,0,P|210:126|298:152,1,140
369,380,195521,1,0,0:0:0:0:
41,241,195679,1,0,0:0:0:0:
344,178,195837,2,0,B|390:178|420:227|420:227|448:95|339:60,1,280
119,45,196311,5,8,1:0:0:0:
212,370,196469,1,8,1:0:0:0:
344,178,196626,1,8,1:0:0:0:
0,245,196784,1,8,1:0:0:0:
238,45,196942,1,8,1:0:0:0:
165,341,197100,2,0,P|236:324|264:234,1,140,14|0,3:0|0:0,0:0:0:0:
328,36,197416,5,0,0:0:0:0:
461,295,197574,1,0,0:0:0:0:
88,186,197732,1,0,0:0:0:0:
418,92,197890,1,0,0:0:0:0:
237,384,198048,1,0,0:0:0:0:
114,47,198205,1,0,0:0:0:0:
136,344,198363,6,0,B|156:296|156:296|191:284|191:284|220:216,1,140
296,75,198679,2,0,P|351:96|340:215,1,140
400,376,198995,1,8,0:0:0:0:
199,196,199153,1,8,0:0:0:0:
400,376,199311,1,8,0:0:0:0:
199,196,199469,2,0,L|323:308,1,140
468,89,199784,1,0,0:0:0:0:
141,146,199942,2,0,P|135:239|274:189,1,280
391,0,200416,1,8,0:0:0:0:
346,66,200494,5,8,0:0:0:0:
355,148,200573,1,8,0:0:0:0:
408,214,200653,1,8,0:0:0:0:
445,287,200732,2,0,P|413:352|293:368,1,140
32,277,201048,1,0,0:0:0:0:
355,148,201205,1,0,0:0:0:0:
225,360,201363,1,0,0:0:0:0:
171,24,201520,1,0,0:0:0:0:
0,136,201679,1,8,0:0:0:0:
46,199,201757,5,8,0:0:0:0:
117,234,201836,1,8,0:0:0:0:
193,211,201915,1,8,0:0:0:0:
272,214,201994,1,8,0:0:0:0:
340,256,202073,1,8,0:0:0:0:
385,322,202153,2,0,B|434:285|412:219|412:219|445:189|445:189|435:89|338:68,1,280,8|0,3:0|0:0,0:0:0:0:
194,72,202626,1,0,0:0:0:0:
35,257,202784,2,0,P|141:321|200:211,1,280
72,37,203258,1,0,0:0:0:0:
117,244,203416,6,0,P|205:275|267:232,1,140
433,68,203732,1,8,0:0:0:0:
361,384,203890,1,8,0:0:0:0:
156,0,204048,1,8,0:0:0:0:
117,244,204205,1,8,0:0:0:0:
334,0,204363,1,8,0:0:0:0:
235,342,204521,1,8,0:0:0:0:
163,127,204679,2,0,P|253:108|397:258,1,280,4|0,3:0|0:0,0:0:0:0:
117,244,205153,1,0,0:0:0:0:
232,40,205311,6,0,B|256:160|256:160|300:188|300:188|328:328,1,280
94,384,205784,1,0,0:0:0:0:
187,198,205942,2,0,L|158:46,1,140
367,101,206258,1,0,0:0:0:0:
108,171,206416,2,0,P|128:259|197:279,1,140
265,226,206732,2,0,P|245:138|176:118,1,140
32,264,207048,1,8,0:0:0:0:
388,162,207205,1,8,0:0:0:0:
8,129,207363,5,8,0:0:0:0:
388,293,207520,1,8,0:0:0:0:
172,9,207679,5,8,0:0:0:0:
198,337,207837,2,0,P|274:301|286:230,1,140,8|0,0:0|0:0,0:0:0:0:
116,60,208153,1,0,0:0:0:0:
202,254,208310,1,0,0:0:0:0:
371,149,208469,2,0,P|447:131|522:176,1,140
387,359,208784,1,0,0:0:0:0:
268,211,208942,2,0,L|266:59,1,140
75,76,209258,1,8,0:0:0:0:
49,155,209337,1,8,0:0:0:0:
116,205,209416,5,8,0:0:0:0:
184,155,209495,1,8,0:0:0:0:
159,76,209574,2,0,B|176:195|176:195|144:237|144:237|160:368,1,280,8|0,3:0|0:0,0:0:0:0:
268,320,210048,2,0,P|351:300|427:361,1,140
375,159,210363,2,0,P|292:179|216:118,1,140
146,189,210679,6,0,L|154:328,1,140
246,158,210995,2,0,L|237:18,1,140
163,106,211311,6,0,L|23:114,1,140
227,246,211627,2,0,L|366:237,1,140
405,259,211863,1,2,3:0:0:0:
443,279,211942,1,2,3:0:0:0:
260,40,212100,1,8,0:0:0:0:
159,298,212258,2,0,P|225:333|298:288,1,140
293,195,212574,2,0,P|227:160|154:205,1,140
66,339,212890,5,0,0:0:0:0:
85,115,213047,1,0,0:0:0:0:
269,244,213204,1,0,0:0:0:0:
66,339,213363,1,0,0:0:0:0:
256,162,213521,6,0,P|335:192|345:271,1,140
282,325,213837,2,0,P|202:294|192:215,1,140
200,88,214153,2,0,B|180:56|180:56|176:168,1,140
292,204,214469,6,0,P|362:209|403:140,1,140
331,138,214784,2,0,L|339:342,1,140
232,280,215100,2,0,P|166:302|100:283,1,140
164,208,215416,2,0,B|153:153|153:153|127:135|127:135|114:68,1,140
0,4,215732,1,0,0:0:0:0:
290,239,215890,2,0,P|378:259|438:219,1,140
254,63,216205,5,0,0:0:0:0:
272,334,216363,1,0,0:0:0:0:
61,211,216521,2,0,P|39:139|63:58,1,140
146,119,216837,1,0,0:0:0:0:
152,178,216915,1,0,0:0:0:0:
196,217,216994,1,0,0:0:0:0:
255,217,217073,1,0,0:0:0:0:
299,177,217152,1,0,0:0:0:0:
304,118,217231,1,0,0:0:0:0:
254,63,217311,5,0,3:0:0:0:
337,46,217390,1,0,3:0:0:0:
416,80,217469,1,0,3:0:0:0:
453,157,217548,1,0,3:0:0:0:
413,235,217626,1,0,3:0:0:0:
340,288,217784,2,0,P|410:333|476:314,1,140
196,255,218100,2,0,B|120:271|120:271|36:255,1,140
64,100,218416,2,0,P|104:24|188:68,1,140
195,143,218732,6,0,B|213:194|195:255|195:255|163:219,1,140
78,212,219048,2,0,P|75:298|133:335,1,140
253,377,219363,5,8,0:0:0:0:
276,294,219441,1,8,0:0:0:0:
250,215,219520,1,8,0:0:0:0:
219,136,219599,1,8,0:0:0:0:
244,58,219678,1,8,0:0:0:0:
316,9,219758,1,8,0:0:0:0:
399,39,219837,2,0,B|392:130|392:130|446:227,1,140,8|8,0:0|0:0,0:0:0:0:
432,365,220153,5,8,0:0:0:0:
89,327,220311,1,8,0:0:0:0:
434,258,220469,5,8,0:0:0:0:
91,220,220627,1,8,0:0:0:0:
434,159,220784,5,8,0:0:0:0:
91,121,220942,1,8,0:0:0:0:
442,65,221100,5,8,0:0:0:0:
100,28,221258,1,8,0:0:0:0:
199,290,221416,5,8,0:0:0:0:
369,192,221573,1,8,0:0:0:0:
199,93,221731,1,8,0:0:0:0:
353,361,221890,5,8,0:0:0:0:
353,22,222047,1,8,0:0:0:0:
60,191,222205,1,8,0:0:0:0:
243,316,222363,1,0,3:0:0:0:
311,359,222441,1,0,3:0:0:0:
391,346,222520,1,0,3:0:0:0:
440,283,222599,1,0,3:0:0:0:
432,206,222678,1,0,3:0:0:0:
376,148,222757,1,0,3:0:0:0:
296,149,222836,5,0,3:0:0:0:
230,195,222916,1,0,3:0:0:0:
161,236,222994,1,0,3:0:0:0:
84,214,223073,1,0,3:0:0:0:
39,149,223152,1,0,3:0:0:0:
58,72,223231,1,0,3:0:0:0:
135,22,223310,1,8,3:0:0:0:
217,53,223389,1,8,3:0:0:0:
287,119,223469,1,8,3:0:0:0:
377,138,223547,5,8,3:0:0:0:
459,103,223626,1,8,3:0:0:0:
256,192,224890,5,0,0:0:0:0:
256,192,227416,5,0,0:0:0:0:
310,26,229942,5,0,3:0:0:0:
201,357,230100,1,0,3:0:0:0:
365,94,230258,5,0,3:0:0:0:
146,289,230416,1,0,3:0:0:0:
338,174,230574,5,0,3:0:0:0:
173,209,230732,1,0,3:0:0:0:
421,246,230890,5,0,3:0:0:0:
90,137,231048,1,0,3:0:0:0:
353,301,231206,5,0,3:0:0:0:
158,82,231364,1,0,3:0:0:0:
273,274,231522,5,0,3:0:0:0:
238,109,231680,1,0,3:0:0:0:
226,335,231837,5,0,3:0:0:0:
285,48,231995,1,0,3:0:0:0:
143,334,232153,5,0,3:0:0:0:
361,41,232311,1,0,3:0:0:0:
212,319,232469,6,0,L|217:266,3,52.5000020027161
300,65,232784,2,0,L|294:117,3,52.5000020027161
383,236,233100,6,0,L|330:230,3,52.5000020027161
129,148,233416,2,0,L|181:153,3,52.5000020027161
114,277,233732,1,0,0:0:0:0:
162,296,233810,1,0,0:0:0:0:
214,294,233889,1,0,0:0:0:0:
256,263,233968,1,0,0:0:0:0:
283,218,234047,1,0,0:0:0:0:
316,178,234126,1,0,0:0:0:0:
365,162,234205,1,0,0:0:0:0:
417,171,234284,5,0,0:0:0:0:
459,201,234363,1,4,0:0:0:0:
384,320,234995,6,0,B|380:264|380:264|358:243|358:243|353:171,1,140
308,46,235311,2,0,P|250:67|276:81,1,140
229,331,235626,1,0,0:0:0:0:
102,218,235784,1,0,0:0:0:0:
329,239,235942,1,0,0:0:0:0:
170,146,236100,2,0,P|152:61|230:42,1,140
280,179,236416,1,0,0:0:0:0:
416,70,236574,2,0,L|400:210,1,140
386,336,236890,2,0,P|303:315|278:237,1,140
279,133,237205,5,0,0:0:0:0:
76,239,237363,1,0,0:0:0:0:
134,70,237521,2,0,P|187:128|188:225,1,140
257,383,237837,2,0,P|204:325|203:228,1,140
279,133,238153,2,0,B|391:133|391:133|363:161,1,140
315,307,238469,1,0,0:0:0:0:
156,215,238626,2,0,L|170:49,1,140
279,133,238942,1,0,0:0:0:0:
32,224,239100,1,0,0:0:0:0:
229,339,239258,5,0,0:0:0:0:
379,117,239416,2,8,L|371:215,1,70,12|8,3:0|3:0,3:0:0:0:
133,267,239574,2,8,L|141:169,1,70,12|8,3:0|3:0,3:0:0:0:
279,133,239732,2,0,L|267:274,1,140,14|0,3:0|0:0,0:0:0:0:
229,339,239969,1,0,0:0:0:0:
298,342,240047,1,0,0:0:0:0:
362,315,240126,1,0,0:0:0:0:
408,264,240205,1,0,0:0:0:0:
427,197,240284,1,0,0:0:0:0:
434,130,240363,6,0,B|403:53|279:66,1,140
155,59,240679,2,0,L|-6:93,1,140
83,340,240995,1,0,0:0:0:0:
309,75,241153,2,0,B|280:183|280:183|221:217|221:217|183:356,1,280
264,358,241626,2,0,L|284:268,1,70
368,193,241784,2,0,L|348:283,1,70
279,289,241942,1,0,0:0:0:0:
209,301,242021,1,0,0:0:0:0:
176,239,242100,5,0,0:0:0:0:
225,188,242179,1,0,0:0:0:0:
287,221,242258,1,0,0:0:0:0:
336,170,242337,1,0,0:0:0:0:
303,108,242416,1,0,0:0:0:0:
233,120,242495,1,0,0:0:0:0:
156,131,242574,2,0,P|173:68|256:46,1,140
481,328,242890,5,0,0:0:0:0:
128,217,243048,1,0,0:0:0:0:
247,30,243205,5,0,0:0:0:0:
136,383,243363,1,0,0:0:0:0:
404,255,243521,5,0,0:0:0:0:
146,46,243679,2,0,B|163:150|163:150|225:201|225:201|252:340,1,280
456,366,244153,5,0,0:0:0:0:
296,24,244311,1,0,0:0:0:0:
65,304,244469,1,0,0:0:0:0:
481,73,244626,5,0,0:0:0:0:
251,353,244784,1,0,0:0:0:0:
90,11,244942,1,0,0:0:0:0:
