osu file format v14

[General]
AudioFilename: audio.mp3
AudioLeadIn: 0
PreviewTime: 240950
Countdown: 0
SampleSet: Soft
StackLeniency: 0.3
Mode: 0
LetterboxInBreaks: 0
WidescreenStoryboard: 0

[Editor]
Bookmarks: 21070,41827,62584,72950,78151,83341,88530,109286,117058,137827,158584,166368,187124,207881,213070,220854,231220,241611,262368,270151,290908,311665,332422
DistanceSpacing: 0.3
BeatDivisor: 4
GridSize: 16
TimelineZoom: 2.3

[Metadata]
Title:Rising Hope (LU-I Remix)
TitleUnicode:Rising Hope (LU-I Remix)
Artist:LiSA
ArtistUnicode:LiSA
Creator:Ohwow
Version:Irregularity
Source:魔法科高校の劣等生
Tags:Mahouka Koukou no Rettousei The Irregular at Magic High School opening A - Remix Nation 11 j-core hardcore edm
BeatmapID:1420353
BeatmapSetID:561679

[Difficulty]
HPDrainRate:5
CircleSize:4.2
OverallDifficulty:8
ApproachRate:9.4
SliderMultiplier:2
SliderTickRate:1

[Events]
//Background and Video events
0,0,"bg.jpg",0,0
//Break Periods
2,88842,98247
2,221166,230572
//Storyboard Layer 0 (Background)
//Storyboard Layer 1 (Fail)
//Storyboard Layer 2 (Pass)
//Storyboard Layer 3 (Foreground)
//Storyboard Sound Samples

[TimingPoints]
302,324.324324324324,4,2,4,50,1,0
302,-142.857142857143,4,2,4,50,0,0
20383,-83.3333333333333,4,2,4,50,0,0
20464,-83.3333333333333,4,2,4,5,0,0
20572,-83.3333333333333,4,2,4,60,0,0
20734,-166.666666666666,4,2,4,70,0,0
20977,-166.666666666666,4,2,1,5,0,0
21058,-90.9090909090909,4,2,1,70,0,0
30139,-71.4285714285714,4,2,1,70,0,0
30383,-71.4285714285714,4,2,1,5,0,0
30464,-71.4285714285714,4,2,1,70,0,0
30707,-71.4285714285714,4,2,1,5,0,0
30788,-71.4285714285714,4,2,1,70,0,0
31031,-71.4285714285714,4,2,1,5,0,0
31112,-100,4,2,1,70,0,0
31437,-90.9090909090909,4,2,1,70,0,0
39220,-125,4,2,1,70,0,0
39869,-90.9090909090909,4,2,1,70,0,0
40518,-166.666666666667,4,2,1,70,0,0
40761,-166.666666666667,4,2,1,5,0,0
40842,-100,4,2,1,50,0,0
41166,-100,4,2,1,60,0,0
41815,-100,4,2,1,70,0,0
51869,-200,4,2,1,5,0,0
52112,-200,4,2,1,5,0,0
52193,-100,4,2,1,70,0,0
61842,-100,4,2,1,5,0,0
61923,-83.3333333333333,4,2,1,50,0,0
62085,-83.3333333333333,4,2,1,60,0,0
62247,-66.6666666666667,4,2,1,70,0,0
62491,-66.6666666666667,4,2,1,5,0,0
62572,-100,4,2,1,70,0,0
63869,-66.6666666666667,4,2,1,70,0,0
64031,-66.6666666666667,4,2,1,5,0,0
64112,-83.3333333333333,4,2,1,70,0,0
64274,-83.3333333333333,4,2,1,5,0,0
64356,-66.6666666666667,4,2,1,70,0,0
64437,-66.6666666666667,4,2,1,5,0,0
64518,-83.3333333333333,4,2,1,70,0,0
64842,-66.6666666666667,4,2,1,70,0,0
65166,-83.3333333333333,4,2,1,70,0,0
65207,-83.3333333333333,4,2,1,5,0,0
65329,-83.3333333333333,4,2,1,70,0,0
65369,-83.3333333333333,4,2,1,5,0,0
65491,-83.3333333333333,4,2,1,70,0,0
65531,-83.3333333333333,4,2,1,5,0,0
65653,-83.3333333333333,4,2,1,70,0,0
65693,-83.3333333333333,4,2,1,5,0,0
65815,-83.3333333333333,4,2,1,70,0,0
66869,-83.3333333333333,4,2,1,5,0,0
66950,-83.3333333333333,4,2,1,70,0,0
67031,-83.3333333333333,4,2,1,5,0,0
67112,-83.3333333333333,4,2,1,70,0,0
67193,-83.3333333333333,4,2,1,5,0,0
67274,-83.3333333333333,4,2,1,70,0,0
67356,-83.3333333333333,4,2,1,5,0,0
67437,-66.6666666666667,4,2,1,70,0,0
67680,-66.6666666666667,4,2,1,5,0,0
67761,-100,4,2,1,70,0,0
68653,-100,4,2,1,5,0,0
68734,-100,4,2,1,70,0,0
68815,-100,4,2,1,5,0,0
68896,-100,4,2,1,70,0,0
68977,-100,4,2,1,5,0,0
69058,-83.3333333333333,4,2,1,70,0,0
69220,-100,4,2,1,5,0,0
69301,-83.3333333333333,4,2,1,70,0,0
69464,-100,4,2,1,5,0,0
69545,-83.3333333333333,4,2,1,70,0,0
72950,-100,4,2,1,70,0,0
79112,-66.6666666666667,4,2,1,70,0,0
79356,-66.6666666666667,4,2,1,5,0,0
79437,-100,4,2,1,70,0,0
82274,-100,4,2,1,5,0,0
82356,-86.9565217391304,4,2,1,70,0,0
82599,-100,4,2,1,5,0,0
82680,-76.9230769230769,4,2,1,70,0,0
82923,-100,4,2,1,5,0,0
83004,-68.9655172413793,4,2,1,70,0,0
83247,-100,4,2,1,5,0,0
83329,-100,4,2,3,50,0,0
85923,-62.5,4,2,1,70,0,0
86410,-83.3333333333333,4,2,1,70,0,0
87058,-66.6666666666667,4,2,1,70,0,0
87869,-83.3333333333333,4,2,1,70,0,0
98896,-142.857142857143,4,2,1,70,0,0
109274,-142.857142857143,4,3,1,30,0,0
110572,-142.857142857143,4,3,1,40,0,0
111869,-142.857142857143,4,3,1,50,0,0
113166,-142.857142857143,4,3,1,60,0,0
114464,-142.857142857143,4,3,1,70,0,0
116085,-83.3333333333333,4,2,1,70,0,0
117058,-76.9230769230769,4,2,1,80,0,1
121923,-76.9230769230769,4,2,5,80,0,0
122207,-76.9230769230769,4,2,1,5,0,0
122247,-76.9230769230769,4,2,1,80,0,1
136518,-76.9230769230769,4,2,1,30,0,1
136842,-76.9230769230769,4,2,1,45,0,1
137166,-76.9230769230769,4,2,1,60,0,1
137491,-76.9230769230769,4,2,1,75,0,1
137653,-76.9230769230769,4,2,1,75,0,0
137815,-76.9230769230769,4,2,1,80,0,1
157274,-90.9090909090909,4,2,1,80,0,1
157518,-90.9090909090909,4,2,1,5,0,1
157599,-76.9230769230769,4,2,1,80,0,1
157842,-76.9230769230769,4,2,1,5,0,1
157923,-66.6666666666667,4,2,1,80,0,1
158166,-66.6666666666667,4,2,1,5,0,1
158247,-76.9230769230769,4,2,1,80,0,0
158491,-76.9230769230769,4,2,1,5,0,0
158572,-90.9090909090909,4,2,1,80,0,1
163761,-76.9230769230769,4,2,1,80,0,1
164572,-125,4,2,1,80,0,1
164977,-125,4,2,1,5,0,1
165058,-100,4,2,1,80,0,1
165869,-125,4,2,1,80,0,1
166274,-125,4,2,1,5,0,1
166356,-90.9090909090909,4,2,1,70,0,0
175437,-71.4285714285714,4,2,1,70,0,0
175680,-71.4285714285714,4,2,1,5,0,0
175761,-71.4285714285714,4,2,1,70,0,0
176004,-71.4285714285714,4,2,1,5,0,0
176085,-71.4285714285714,4,2,1,70,0,0
176329,-71.4285714285714,4,2,1,5,0,0
176410,-100,4,2,1,70,0,0
176734,-90.9090909090909,4,2,1,70,0,0
184518,-125,4,2,1,70,0,0
185166,-90.9090909090909,4,2,1,70,0,0
185815,-166.666666666667,4,2,1,70,0,0
186058,-166.666666666667,4,2,1,5,0,0
186139,-100,4,2,1,50,0,0
186464,-100,4,2,1,60,0,0
187112,-90.9090909090909,4,2,1,70,0,0
187356,-90.9090909090909,4,2,1,5,0,0
187437,-90.9090909090909,4,2,1,70,0,0
189626,-90.9090909090909,4,2,1,5,0,0
189707,-90.9090909090909,4,2,1,70,0,0
189910,-90.9090909090909,4,2,1,5,0,0
190031,-90.9090909090909,4,2,1,70,0,0
190072,-90.9090909090909,4,2,1,5,0,0
190193,-90.9090909090909,4,2,1,70,0,0
190234,-90.9090909090909,4,2,1,5,0,0
190356,-90.9090909090909,4,2,1,70,0,0
192626,-76.9230769230769,4,2,1,70,0,0
192950,-90.9090909090909,4,2,1,70,0,0
197166,-90.9090909090909,4,2,1,100,0,0
197247,-90.9090909090909,4,2,1,70,0,0
197734,-90.9090909090909,4,2,1,5,0,0
197815,-90.9090909090909,4,2,1,70,0,0
207788,-90.9090909090909,4,2,1,5,0,0
207869,-125,4,2,2,70,0,0
208112,-125,4,2,2,5,0,0
208193,-125,4,2,2,70,0,0
211274,-125,4,2,2,5,0,0
211437,-125,4,2,2,40,0,0
211477,-125,4,2,2,45,0,0
211518,-125,4,2,2,50,0,0
211558,-125,4,2,2,55,0,0
211599,-125,4,2,2,60,0,0
211639,-125,4,2,2,65,0,0
211680,-125,4,2,2,70,0,0
211761,-125,4,2,2,70,0,0
212734,-125,4,2,2,70,0,0
212815,-125,4,2,2,5,0,0
212896,-66.6666666666667,4,2,5,70,0,0
212977,-66.6666666666667,4,2,5,5,0,0
213058,-90.9090909090909,4,2,1,70,0,0
219545,-125,4,2,1,70,0,0
219788,-125,4,2,1,5,0,0
219869,-125,4,2,1,40,0,0
220193,-125,4,2,1,50,0,0
220518,-125,4,2,1,60,0,0
220842,-125,4,2,1,70,0,0
231220,-125,4,2,6,70,0,0
236410,-125,4,2,1,70,0,0
237058,-125,4,3,1,30,0,0
237707,-125,4,3,1,40,0,0
238356,-125,4,3,1,50,0,0
239004,-125,4,3,1,60,0,0
240301,-125,4,3,1,70,0,0
241112,-125,4,2,1,70,0,0
241274,-66.6666666666667,4,2,1,70,0,0
241518,-66.6666666666667,4,2,1,5,0,0
241599,-76.9230769230769,4,2,1,70,0,1
261058,-90.9090909090909,4,2,1,70,0,1
261302,-90.9090909090909,4,2,1,5,0,1
261383,-76.9230769230769,4,2,1,70,0,1
261626,-76.9230769230769,4,2,1,5,0,1
261707,-66.6666666666667,4,2,1,70,0,1
261950,-66.6666666666667,4,2,1,5,0,1
262031,-76.9230769230769,4,2,1,70,0,0
262356,-90.9090909090909,4,2,1,70,0,1
267545,-76.9230769230769,4,2,1,70,0,1
268356,-125,4,2,1,70,0,1
268761,-125,4,2,1,70,0,1
268842,-100,4,2,1,70,0,1
269653,-100,4,2,1,70,0,0
270058,-100,4,2,1,5,0,1
270139,-76.9230769230769,4,2,1,70,0,1
289599,-166.666666666667,4,2,1,70,0,1
289842,-166.666666666667,4,2,1,5,0,1
289923,-125,4,2,1,50,0,1
290247,-100,4,2,1,65,0,1
290572,-100,4,2,1,80,0,1
290815,-100,4,2,1,5,0,1
290896,-90.9090909090909,4,2,1,70,0,0
299977,-71.4285714285714,4,2,1,70,0,0
300220,-71.4285714285714,4,2,1,5,0,0
300301,-71.4285714285714,4,2,1,70,0,0
300545,-71.4285714285714,4,2,1,5,0,0
300626,-71.4285714285714,4,2,1,70,0,0
300869,-71.4285714285714,4,2,1,5,0,0
300950,-100,4,2,1,70,0,0
301274,-90.9090909090909,4,2,1,70,0,0
310356,-111.111111111111,4,2,1,70,0,0
310599,-111.111111111111,4,2,1,5,0,0
310680,-90.9090909090909,4,2,5,70,0,0
311653,-90.9090909090909,4,2,1,70,0,0
311815,-90.9090909090909,4,2,1,30,0,0
320410,-90.9090909090909,4,2,1,70,0,0
320734,-142.857142857143,4,2,1,70,0,0
320815,-142.857142857143,4,2,1,5,0,0
321058,-142.857142857143,4,2,1,70,0,0
321139,-142.857142857143,4,2,1,5,0,0
321383,-142.857142857143,4,2,1,70,0,0
321545,-142.857142857143,4,2,1,30,0,0
322031,-111.111111111111,4,2,1,70,0,0
331274,-111.111111111111,4,2,1,45,0,0
331437,-111.111111111111,4,2,1,50,0,0
331761,-111.111111111111,4,2,3,60,0,0
332491,-111.111111111111,4,2,1,5,0,0

[Colours]
Combo1 : 1,186,149
Combo2 : 90,181,254
Combo3 : 203,155,255
Combo4 : 0,113,225
SliderTrackOverride : 30,30,30
SliderBorder : 130,215,255

[HitObjects]
59,55,302,6,0,L|143:48,1,69.9999978637696,4|0,0:0|0:0,0:0:0:0:
143,34,626,1,0,0:0:0:0:
40,145,788,2,0,L|124:138,1,69.9999978637696
124,124,1112,1,0,0:0:0:0:
21,235,1274,2,0,L|105:228,1,69.9999978637696
105,214,1599,1,0,0:0:0:0:
2,325,1761,2,0,L|86:318,1,69.9999978637696
86,304,2085,1,0,0:0:0:0:
158,377,2247,6,0,L|227:382,3,69.9999978637696
201,295,2896,6,0,L|208:211,1,69.9999978637696
199,205,3220,1,0,0:0:0:0:
303,176,3383,2,0,L|310:260,1,69.9999978637696
301,266,3707,1,0,0:0:0:0:
405,295,3869,2,0,L|412:211,1,69.9999978637696
403,205,4193,1,0,0:0:0:0:
507,176,4356,2,0,L|514:260,1,69.9999978637696
505,266,4680,1,0,0:0:0:0:
467,350,4842,5,0,0:0:0:0:
464,356,5004,1,0,0:0:0:0:
461,362,5166,1,0,0:0:0:0:
458,368,5329,1,0,0:0:0:0:
358,332,5491,6,0,L|274:339,1,69.9999978637696
271,325,5815,1,0,0:0:0:0:
388,235,5977,2,0,L|304:242,1,69.9999978637696
301,228,6301,1,0,0:0:0:0:
418,138,6464,2,0,L|334:145,1,69.9999978637696
331,131,6788,1,0,0:0:0:0:
448,41,6950,2,0,L|364:48,1,69.9999978637696
361,34,7274,1,0,0:0:0:0:
258,119,7437,6,0,L|188:113,3,69.9999978637696
93,56,8085,6,0,L|87:125,1,69.9999978637696
73,141,8410,1,0,0:0:0:0:
191,137,8572,2,0,L|196:206,1,69.9999978637696
211,222,8897,1,0,0:0:0:0:
93,218,9058,2,0,L|87:287,1,69.9999978637696
73,303,9383,1,0,0:0:0:0:
191,299,9545,2,0,L|196:368,1,69.9999978637696
211,384,9870,1,0,0:0:0:0:
301,332,10031,5,0,0:0:0:0:
307,328,10193,1,0,0:0:0:0:
313,324,10356,1,0,0:0:0:0:
319,320,10518,1,0,0:0:0:0:
279,219,10680,6,0,L|204:208,1,69.9999978637696,6|0,0:0|0:0,0:0:0:0:
189,205,11004,1,2,0:0:0:0:
378,159,11166,2,0,L|367:234,1,69.9999978637696,0|2,0:0|0:0,0:0:0:0:
365,249,11490,1,0,0:0:0:0:
319,60,11653,2,0,L|394:70,1,69.9999978637696,2|0,0:0|0:0,0:0:0:0:
409,73,11977,1,2,0:0:0:0:
219,119,12139,2,0,L|229:44,1,69.9999978637696,0|2,0:0|0:0,0:0:0:0:
233,29,12463,1,0,0:0:0:0:
279,219,12626,6,0,L|204:208,1,69.9999978637696,2|0,0:0|0:0,0:0:0:0:
150,109,12950,2,0,L|219:118,1,69.9999978637696,2|0,0:0|0:0,0:0:0:0:
139,250,13274,6,0,L|64:260,1,69.9999978637696,2|0,0:0|0:0,0:0:0:0:
48,262,13599,1,2,0:0:0:0:
206,325,13761,2,0,L|131:335,1,69.9999978637696,0|2,0:0|0:0,0:0:0:0:
115,337,14086,1,0,0:0:0:0:
241,237,14247,1,2,0:0:0:0:
320,378,14410,6,0,L|340:228,1,139.999995727539,0|0,0:0|0:0,0:0:0:0:
185,194,14896,2,0,L|240:236,1,69.9999978637696,2|0,0:0|0:0,0:0:0:0:
355,126,15220,5,2,0:0:0:0:
270,160,15383,1,0,0:0:0:0:
427,183,15545,1,2,0:0:0:0:
440,92,15708,1,0,0:0:0:0:
342,217,15869,6,0,L|397:259,1,69.9999978637696,2|0,0:0|0:0,0:0:0:0:
413,273,16193,1,2,0:0:0:0:
203,272,16356,2,0,P|237:274|272:281,1,69.9999978637696,0|2,0:0|0:0,0:0:0:0:
292,287,16680,1,0,0:0:0:0:
133,215,16842,1,2,0:0:0:0:
40,362,17004,6,0,P|104:336|172:348,1,139.999995727539,0|0,0:0|0:0,0:0:0:0:
297,355,17491,2,0,P|288:321|292:286,1,69.9999978637696,2|0,0:0|0:0,0:0:0:0:
409,178,17815,2,0,P|384:202|352:216,1,69.9999978637696,2|0,0:0|0:0,0:0:0:0:
202,171,18139,2,0,P|235:179|263:200,1,69.9999978637696,2|0,0:0|0:0,0:0:0:0:
401,300,18464,6,0,L|303:308,1,69.9999978637696,2|0,0:0|0:0,0:0:0:0:
125,260,18788,2,0,L|195:266,1,69.9999978637696,2|0,0:0|0:0,0:0:0:0:
313,180,19112,2,0,L|318:110,2,69.9999978637696,2|0|2,0:0|0:0|0:0,0:0:0:0:
401,300,19599,6,0,L|261:311,1,139.999995727539
313,180,20085,2,0,L|411:188,1,69.9999978637696
222,101,20383,6,0,P|191:105|159:98,1,59.9999981689454
312,62,20572,1,0,0:0:0:0:
312,62,20734,6,0,L|312:152,1,89.9999972534181
264,230,21058,6,0,P|317:241|367:222,1,110.000003356934,6|0,0:0|0:0,0:0:0:0:
222,101,21383,2,0,L|112:105,1,110.000003356934,10|0,0:0|0:0,0:0:0:0:
0,194,21707,1,2,0:0:0:0:
58,25,21869,1,0,0:0:0:0:
166,183,22031,1,10,0:0:0:0:
0,295,22193,6,0,P|104:255|223:297,1,220.000006713867
374,181,22680,2,0,P|322:198|269:187,1,110.000003356934,10|0,0:0|0:0,0:0:0:0:
145,78,23004,1,2,0:0:0:0:
35,222,23166,1,0,0:0:0:0:
31,58,23329,1,10,0:0:0:0:
139,200,23491,1,0,0:0:0:0:
244,25,23653,6,0,P|297:13|348:31,1,110.000003356934,2|0,0:0|0:0,0:0:0:0:
296,219,23977,2,0,L|290:109,1,110.000003356934,10|0,0:0|0:0,0:0:0:0:
165,181,24301,1,2,0:0:0:0:
388,193,24464,1,0,0:0:0:0:
191,162,24626,1,10,0:0:0:0:
316,330,24788,6,0,L|425:324,1,110.000003356934,0|2,0:0|0:0,0:0:0:0:
296,219,25112,1,0,0:0:0:0:
208,363,25274,1,10,0:0:0:0:
291,188,25437,1,0,0:0:0:0:
436,340,25599,2,0,L|490:337,1,55.0000016784668,2|0,0:0|0:0,0:0:0:0:
430,251,25761,1,0,0:0:0:0:
428,233,25815,1,0,0:0:0:0:
427,215,25869,1,0,0:0:0:0:
426,197,25923,1,10,0:0:0:0:
316,330,26085,1,0,0:0:0:0:
286,150,26247,6,0,L|136:156,1,110.000003356934,2|0,0:0|0:0,0:0:0:0:
12,235,26572,2,0,P|62:255|118:242,1,110.000003356934,10|0,0:0|0:0,0:0:0:0:
229,42,26896,1,2,0:0:0:0:
326,222,27058,1,0,0:0:0:0:
151,155,27220,1,10,0:0:0:0:
362,51,27383,6,0,B|361:199|361:199|411:137,1,220.000006713867
328,34,27869,2,0,L|327:143,1,110.000003356934,10|0,0:0|0:0,0:0:0:0:
392,316,28193,1,2,0:0:0:0:
244,232,28356,1,0,0:0:0:0:
420,332,28518,1,10,0:0:0:0:
327,144,28680,1,0,0:0:0:0:
160,319,28842,6,0,P|105:318|61:287,1,110.000003356934,2|0,0:0|0:0,0:0:0:0:
140,116,29166,2,0,L|135:226,1,110.000003356934,10|0,0:0|0:0,0:0:0:0:
38,125,29491,1,2,0:0:0:0:
251,98,29653,1,0,0:0:0:0:
227,219,29815,1,10,0:0:0:0:
174,17,29977,1,0,0:0:0:0:
384,40,30139,6,0,B|367:113|367:113|412:259,1,209.999993591309,2|0,0:0|0:0,0:0:0:0:
480,179,30464,2,0,P|385:146|313:215,1,209.999993591309,2|0,0:0|0:0,0:0:0:0:
318,312,30788,2,0,B|178:308|178:308|237:271,1,209.999993591309,2|0,0:0|0:0,0:0:0:0:
341,334,31112,6,0,B|440:336,1,100,8|0,0:0|0:0,0:0:0:0:
206,129,31437,6,0,P|154:111|101:125,1,110.000003356934,14|0,0:0|0:0,0:0:0:0:
313,214,31761,2,0,L|321:104,1,110.000003356934,10|0,0:0|0:0,0:0:0:0:
159,21,32085,1,10,0:0:0:0:
150,208,32247,1,0,0:0:0:0:
302,75,32410,1,10,0:0:0:0:
166,238,32572,1,0,0:0:0:0:
25,68,32734,6,0,P|7:120|21:173,1,110.000003356934,10|0,0:0|0:0,0:0:0:0:
212,128,33058,2,0,L|91:123,1,110.000003356934,10|0,0:0|0:0,0:0:0:0:
36,319,33383,1,10,0:0:0:0:
150,208,33545,1,0,0:0:0:0:
171,362,33707,1,10,0:0:0:0:
38,189,33869,1,0,0:0:0:0:
255,126,34031,6,0,L|415:119,1,110.000003356934,10|0,0:0|0:0,0:0:0:0:
390,315,34356,2,0,P|345:285|323:236,1,110.000003356934,10|0,0:0|0:0,0:0:0:0:
468,79,34680,1,10,0:0:0:0:
419,223,34842,1,0,0:0:0:0:
322,43,35004,1,10,0:0:0:0:
188,214,35166,1,0,0:0:0:0:
365,132,35329,6,0,L|255:126,1,110.000003356934,10|0,0:0|0:0,0:0:0:0:
111,195,35653,1,10,0:0:0:0:
289,224,35815,1,0,0:0:0:0:
116,336,35977,2,0,L|61:333,1,55.0000016784668,10|0,0:0|0:0,0:0:0:0:
114,250,36139,1,0,0:0:0:0:
113,232,36193,1,0,0:0:0:0:
112,214,36247,1,0,0:0:0:0:
111,195,36301,1,10,0:0:0:0:
231,281,36464,1,0,0:0:0:0:
273,46,36626,5,10,1:2:0:0:
163,134,36788,1,8,1:2:0:0:
399,148,36950,2,0,P|408:94|387:44,1,110.000003356934,10|8,1:2|1:2,0:0:0:0:
235,191,37274,1,10,1:2:0:0:
425,269,37437,1,8,1:2:0:0:
312,106,37599,1,10,1:2:0:0:
158,276,37761,1,8,1:2:0:0:
10,88,37923,6,0,L|12:197,1,110.000003356934,10|8,1:2|1:2,0:0:0:0:
137,371,38247,2,0,L|134:261,1,110.000003356934,10|8,1:2|1:2,0:0:0:0:
205,74,38572,1,10,1:2:0:0:
257,211,38734,1,8,1:2:0:0:
83,125,38896,1,10,1:2:0:0:
224,288,39058,1,8,1:2:0:0:
339,42,39220,6,0,L|348:3,3,40,2|0|0|0,1:2|1:0|1:0|1:0,0:0:0:0:
425,135,39545,2,0,L|434:173,3,40,2|0|0|0,1:2|1:0|1:0|1:0,0:0:0:0:
284,212,39869,6,0,L|337:198,1,55.0000016784668,2|0,1:2|1:0,0:0:0:0:
478,269,40031,2,0,L|424:255,1,55.0000016784668,0|0,1:0|1:0,0:0:0:0:
284,326,40193,2,0,L|337:312,1,55.0000016784668,2|0,1:2|1:0,0:0:0:0:
478,383,40356,2,0,L|424:369,1,55.0000016784668,0|0,1:0|1:0,0:0:0:0:
227,204,40518,6,0,L|314:181,1,89.9999972534181,2|0,1:2|0:0,0:0:0:0:
337,197,40842,5,0,1:0:0:0:
375,198,40923,1,0,1:0:0:0:
415,182,41004,1,0,1:0:0:0:
447,144,41085,1,0,1:0:0:0:
455,89,41166,1,0,1:0:0:0:
428,34,41247,1,0,1:0:0:0:
367,5,41329,6,0,P|341:8|306:21,1,50,0|0,1:0|1:0,0:0:0:0:
219,73,41491,2,0,P|208:97|201:132,1,50,0|0,1:0|0:0,0:0:0:0:
203,249,41653,2,0,P|218:270|247:293,1,50,0|0,0:1|0:0,0:0:0:0:
463,257,41815,6,0,P|456:329|395:369,1,150,6|0,0:0|0:0,0:0:0:0:
313,364,42139,2,0,L|315:264,1,100,2|0,0:0|0:0,0:0:0:0:
362,77,42464,2,0,B|313:103|313:103|220:85,1,150,2|0,0:0|0:0,0:0:0:0:
216,168,42788,2,0,B|323:188,1,100,2|0,0:0|0:0,0:0:0:0:
131,69,43112,6,0,P|96:133|24:145,1,150,2|0,0:0|0:0,0:0:0:0:
0,137,43437,1,2,0:0:0:0:
163,222,43599,2,0,P|183:274|161:333,1,100,0|2,0:0|0:0,0:0:0:0:
53,331,43923,2,0,P|33:279|55:220,1,100,0|2,0:0|0:0,0:0:0:0:
197,209,44247,2,0,P|210:232|217:261,1,50,0|0,0:0|0:0,0:0:0:0:
333,331,44410,6,0,P|333:276|377:215,1,100,2|0,0:0|0:0,0:0:0:0:
464,173,44734,1,2,0:0:0:0:
324,106,44896,2,0,L|192:100,1,100,0|2,0:0|0:0,0:0:0:0:
97,205,45220,2,0,L|206:209,1,100,0|2,0:0|0:0,0:0:0:0:
82,95,45545,1,0,0:0:0:0:
55,315,45707,5,2,0:0:0:0:
97,205,45869,1,0,0:0:0:0:
171,296,46031,1,2,0:0:0:0:
55,315,46193,1,0,0:0:0:0:
302,226,46356,5,2,0:0:0:0:
264,127,46518,1,0,0:0:0:0:
197,209,46680,1,2,0:0:0:0:
302,226,46842,1,0,0:0:0:0:
130,339,47004,6,0,L|20:344,1,100,2|0,0:0|0:0,0:0:0:0:
318,306,47329,2,0,L|187:312,1,100,2|0,0:0|0:0,0:0:0:0:
506,273,47653,2,0,B|405:277|405:277|445:241,1,150,2|0,0:0|0:0,0:0:0:0:
459,226,47977,1,2,0:0:0:0:
354,61,48139,6,0,L|361:170,1,100,0|2,0:0|0:0,0:0:0:0:
226,136,48464,1,0,0:0:0:0:
363,185,48626,1,2,0:0:0:0:
235,12,48788,2,0,L|227:121,1,100,0|2,0:0|0:0,0:0:0:0:
101,194,49112,1,0,0:0:0:0:
114,96,49274,1,2,0:0:0:0:
220,241,49437,1,0,0:0:0:0:
15,301,49599,6,0,L|147:294,1,100,2|0,0:0|0:0,0:0:0:0:
221,216,49923,1,2,0:0:0:0:
113,318,50085,1,0,0:0:0:0:
10,142,50247,2,0,P|53:75|133:72,1,150,2|0,0:0|0:0,0:0:0:0:
139,79,50572,1,2,0:0:0:0:
274,155,50734,6,0,P|323:152|367:118,1,100,0|2,0:0|0:0,0:0:0:0:
504,247,51058,2,0,P|463:218|414:215,1,100,0|2,0:0|0:0,0:0:0:0:
281,333,51383,2,0,L|181:327,1,100,0|2,0:0|0:0,0:0:0:0:
294,198,51707,1,0,0:0:0:0:
316,361,51869,6,0,L|390:358,1,75
281,333,52193,6,0,L|149:326,1,100,6|0,0:0|0:0,0:0:0:0:
102,239,52518,1,10,0:0:0:0:
248,121,52680,1,0,0:0:0:0:
124,128,52842,2,0,L|223:122,1,100,2|0,0:0|0:0,0:0:0:0:
303,34,53166,1,10,0:0:0:0:
368,197,53329,1,0,0:0:0:0:
475,105,53491,6,0,P|392:119|364:194,1,150,2|0,0:0|0:0,0:0:0:0:
368,197,53815,1,10,0:0:0:0:
281,333,53977,2,0,L|182:327,1,100,0|2,0:0|0:0,0:0:0:0:
124,128,54301,2,0,L|223:122,1,100,0|10,0:0|0:0,0:0:0:0:
152,242,54626,2,0,L|102:239,1,50
87,22,54788,6,0,B|124:41|124:41|232:35,1,150,2|0,0:0|0:0,0:0:0:0:
257,33,55112,1,10,0:0:0:0:
413,0,55274,2,0,P|430:47|417:116,1,100,0|2,0:0|0:0,0:0:0:0:
320,186,55599,2,0,P|315:235|332:282,1,100,0|10,0:0|0:0,0:0:0:0:
451,351,55923,1,0,0:0:0:0:
449,173,56085,5,2,0:0:0:0:
320,186,56247,1,0,0:0:0:0:
191,199,56410,1,10,0:0:0:0:
320,186,56572,1,0,0:0:0:0:
235,314,56734,5,2,0:0:0:0:
174,229,56896,1,0,0:0:0:0:
113,145,57058,1,10,0:0:0:0:
174,229,57220,1,0,0:0:0:0:
297,61,57383,6,0,P|342:43|392:45,1,100,2|0,0:0|0:0,0:0:0:0:
267,224,57707,2,0,P|249:179|251:129,1,100,10|0,0:0|0:0,0:0:0:0:
430,254,58031,2,0,P|384:272|334:270,1,100,2|0,0:0|0:0,0:0:0:0:
460,91,58356,2,0,P|478:136|476:186,1,100,10|0,0:0|0:0,0:0:0:0:
364,157,58680,5,2,0:0:0:0:
418,10,58842,1,0,0:0:0:0:
364,157,59004,1,10,0:0:0:0:
297,61,59166,2,0,L|190:65,1,100,0|2,0:0|0:0,0:0:0:0:
69,148,59491,2,0,L|176:152,1,100,0|10,0:0|0:0,0:0:0:0:
43,36,59815,1,0,0:0:0:0:
0,266,59977,6,0,B|42:238|42:238|157:242,1,150,2|0,0:0|0:0,0:0:0:0:
166,244,60301,1,10,0:0:0:0:
354,147,60464,2,0,P|304:144|260:166,1,100,0|2,0:0|0:0,0:0:0:0:
318,338,60788,2,0,B|324:239,1,100,0|10,0:0|0:0,0:0:0:0:
318,363,61112,1,0,0:0:0:0:
181,279,61274,6,0,L|230:281,1,50,2|0,0:0|0:0,0:0:0:0:
409,227,61437,2,0,L|359:224,1,50,0|0,0:0|0:0,0:0:0:0:
173,132,61599,2,0,B|285:136|285:136|243:156,1,150,10|0,0:0|0:0,0:0:0:0:
103,181,61923,6,0,P|92:156|90:114,1,59.9999981689454,8|0,0:0|0:0,0:0:0:0:
355,87,62085,2,0,P|366:112|368:154,1,59.9999981689454,8|0,0:0|0:0,0:0:0:0:
237,337,62247,6,0,P|226:247|306:291,1,225.000008583069,8|0,0:0|0:0,0:0:0:0:
115,291,62572,6,0,B|75:287|75:287|42:292|42:292|2:289|2:289|31:255|32:208,1,200,6|0,0:0|0:0,0:0:0:0:
13,89,63058,1,2,0:0:0:0:
158,200,63220,1,8,0:0:0:0:
367,89,63383,6,0,P|326:64|277:67,1,100
295,189,63707,1,0,0:0:0:0:
265,22,63869,6,0,P|339:18|402:56,1,150.000005722046,2|0,0:0|0:0,0:0:0:0:
493,172,64112,6,0,P|433:169|382:199,1,119.999996337891,0|0,0:0|0:0,0:0:0:0:
254,294,64356,6,0,P|290:290|325:303,1,75.0000028610231,2|0,0:0|0:0,0:0:0:0:
466,336,64518,6,0,L|346:331,1,119.999996337891,8|0,0:0|0:0,0:0:0:0:
32,301,64842,6,0,P|98:366|119:276,1,225.000008583069
50,192,65166,6,0,L|58:220,1,29.9999990844727,2|0,0:0|0:0,0:0:0:0:
121,131,65329,2,0,L|129:159,1,29.9999990844727,0|0,0:0|0:0,0:0:0:0:
192,70,65491,2,0,L|200:98,1,29.9999990844727,0|0,0:0|0:0,0:0:0:0:
263,9,65653,2,0,L|271:37,1,29.9999990844727,2|0,0:0|0:0,0:0:0:0:
313,167,65815,5,8,0:0:0:0:
398,74,65977,2,0,L|401:14,1,59.9999981689454
293,147,66139,2,0,L|300:266,1,119.999996337891,2|0,0:0|0:0,0:0:0:0:
272,127,66464,1,2,0:0:0:0:
179,28,66626,6,0,P|137:102|51:95,1,179.999994506836,0|0,0:0|0:0,0:0:0:0:
30,116,66950,2,0,P|64:133|112:139,1,59.9999981689454,2|0,0:0|0:0,0:0:0:0:
272,127,67112,2,0,P|251:158|212:187,1,59.9999981689454,8|0,0:0|0:0,0:0:0:0:
79,318,67274,2,0,P|99:286|138:257,1,59.9999981689454,0|0,0:0|0:0,0:0:0:0:
371,306,67437,6,0,B|295:289|230:307|230:307|264:276|300:266,1,225.000008583069
452,167,67761,6,0,B|460:136|490:108|490:108|431:109|431:109|403:99|356:97,1,200,6|0,0:0|0:0,0:0:0:0:
234,173,68247,1,2,0:0:0:0:
164,23,68410,1,8,0:0:0:0:
97,171,68572,6,0,L|93:121,1,50,0|0,0:0|0:0,0:0:0:0:
166,270,68734,2,0,L|211:291,1,50,2|0,0:0|0:0,0:0:0:0:
47,279,68896,2,0,L|5:307,1,50,0|0,0:0|0:0,0:0:0:0:
194,242,69058,6,0,L|302:293,1,119.999996337891,2|0,0:0|0:0,0:0:0:0:
408,302,69301,2,0,L|299:249,1,119.999996337891
298,207,69545,1,2,0:0:0:0:
166,97,69707,6,0,B|51:112|51:112|0:74,2,179.999994506836,8|0|0,0:0|0:0|0:0,0:0:0:0:
315,33,70356,5,10,0:0:0:0:
388,181,70518,1,0,0:0:0:0:
469,79,70680,1,10,0:0:0:0:
292,167,70842,2,0,P|298:216|346:270,1,119.999996337891,0|10,0:0|0:0,0:0:0:0:
511,347,71166,2,0,P|505:298|457:244,1,119.999996337891,0|10,0:0|0:0,0:0:0:0:
330,365,71491,1,0,0:0:0:0:
203,140,71653,5,0,1:0:0:0:
388,181,71815,1,0,1:0:0:0:
260,23,71977,1,0,1:0:0:0:
170,209,72139,1,0,1:0:0:0:
431,81,72301,5,0,1:0:0:0:
402,71,72383,1,0,1:0:0:0:
372,71,72464,1,0,1:0:0:0:
342,78,72545,1,0,1:0:0:0:
314,107,72626,5,0,1:0:0:0:
276,119,72707,1,0,1:0:0:0:
236,119,72788,1,0,1:0:0:0:
198,107,72869,1,0,1:0:0:0:
167,68,72950,6,0,P|117:67|68:80,1,100,6|0,0:0|0:0,0:0:0:0:
188,190,73274,1,10,0:0:0:0:
260,23,73437,1,0,0:0:0:0:
260,23,73599,2,0,P|210:23|161:10,1,100,2|0,0:0|0:0,0:0:0:0:
387,0,73923,1,10,0:0:0:0:
321,142,74085,1,0,0:0:0:0:
479,208,74247,6,0,P|495:261|480:315,1,100,2|0,0:0|0:0,0:0:0:0:
312,220,74572,2,0,P|349:179|404:165,1,100,10|0,0:0|0:0,0:0:0:0:
406,359,74896,2,0,P|352:346|312:306,1,100,2|0,0:0|0:0,0:0:0:0:
479,208,75220,2,0,P|494:255|485:303,1,100,10|0,0:0|0:0,0:0:0:0:
298,236,75545,6,0,B|397:221,1,100,2|0,0:0|0:0,0:0:0:0:
268,95,75869,1,10,0:0:0:0:
168,245,76031,1,0,0:0:0:0:
168,245,76193,2,0,B|267:259,1,100,2|0,0:0|0:0,0:0:0:0:
144,123,76518,1,10,0:0:0:0:
99,292,76680,1,0,0:0:0:0:
236,143,76842,6,0,P|234:93|208:52,1,100,2|0,0:0|0:0,0:0:0:0:
78,193,77167,2,0,P|122:215|172:214,1,100,10|0,0:0|0:0,0:0:0:0:
115,31,77491,2,0,P|73:58|51:102,1,100,2|0,0:0|0:0,0:0:0:0:
183,292,77815,5,10,0:0:0:0:
247,245,77923,1,2,0:0:0:0:
326,257,78031,1,2,0:0:0:0:
373,322,78139,6,0,L|376:348,20,25,2|0|0|0|0|0|0|0|0|0|0|0|0|0|0|0|0|0|0|0|0,0:0|0:0|0:0|0:0|0:0|0:0|0:0|0:0|0:0|0:0|0:0|0:0|0:0|0:0|0:0|0:0|0:0|0:0|0:0|0:0|0:0,0:0:0:0:
497,168,79112,6,0,P|458:84|331:130,1,225.000008583069,2|0,0:0|0:0,0:0:0:0:
308,177,79437,6,0,L|305:203,20,25,2|0|0|0|0|0|0|0|0|0|0|0|0|0|0|0|0|0|0|0|0,0:0|0:0|0:0|0:0|0:0|0:0|0:0|0:0|0:0|0:0|0:0|0:0|0:0|0:0|0:0|0:0|0:0|0:0|0:0|0:0|0:0,0:0:0:0:
162,141,80410,5,2,0:0:0:0:
209,205,80518,1,2,0:0:0:0:
197,284,80626,1,2,0:0:0:0:
132,331,80734,6,0,L|106:334,20,25,2|0|0|0|0|0|0|0|0|0|0|0|0|0|0|0|0|0|0|0|0,0:0|0:0|0:0|0:0|0:0|0:0|0:0|0:0|0:0|0:0|0:0|0:0|0:0|0:0|0:0|0:0|0:0|0:0|0:0|0:0|0:0,0:0:0:0:
197,284,81707,1,2,0:0:0:0:
213,306,82031,6,0,P|270:350|355:356,1,150,2|0,0:0|0:0,0:0:0:0:
366,245,82356,2,0,P|297:296|212:305,1,172.500003290176,0|0,0:0|0:0,0:0:0:0:
192,184,82680,2,0,P|261:237|365:245,1,194.999991073609,8|0,0:0|0:0,0:0:0:0:
386,117,83004,2,0,P|308:176|193:184,1,217.500006637573,0|0,0:0|0:0,0:0:0:0:
245,36,83329,5,6,0:0:0:0:
248,44,83491,1,2,0:0:0:0:
251,52,83653,1,2,0:0:0:0:
254,60,83815,1,2,0:0:0:0:
257,68,83977,1,2,0:0:0:0:
188,133,84139,5,2,0:0:0:0:
161,59,84301,1,2,0:0:0:0:
215,207,84464,1,2,0:0:0:0:
218,215,84626,1,2,0:0:0:0:
146,272,84788,5,2,0:0:0:0:
119,198,84950,1,2,0:0:0:0:
173,346,85112,1,2,0:0:0:0:
176,354,85274,1,2,0:0:0:0:
68,262,85437,5,2,0:0:0:0:
252,206,85599,1,2,0:0:0:0:
92,124,85761,1,2,0:0:0:0:
281,367,85923,5,6,0:0:0:0:
443,169,86085,2,0,B|422:117|363:103|322:132|322:132|318:181|367:209,1,240
363,321,86410,6,0,B|310:346|310:346|263:332|263:332|224:334|224:334|191:327,1,179.999994506836,6|0,0:0|0:0,0:0:0:0:
162,321,86734,1,2,0:0:0:0:
270,115,86896,1,0,0:0:0:0:
34,211,87058,6,0,B|2:160|2:160|69:179|69:179|104:175|104:175|160:192,1,225.000008583069,6|0,0:0|0:0,0:0:0:0:
197,204,87383,5,2,0:0:0:0:
57,309,87545,1,2,0:0:0:0:
159,65,87707,1,2,0:0:0:0:
350,296,87869,6,0,P|418:169|294:227,1,359.999989013672,2|0,0:0|0:0,0:0:0:0:
256,304,88518,5,6,0:0:0:0:
399,272,98896,6,0,P|339:237|271:248,1,139.999995727539,4|0,0:0|0:0,0:0:0:0:
207,322,99383,1,0,0:0:0:0:
207,322,99545,2,0,L|51:307,1,139.999995727539,0|0,0:0|0:0,0:0:0:0:
43,213,100031,1,0,0:0:0:0:
140,213,100193,6,0,P|212:178|235:119,1,139.999995727539,0|0,0:0|0:0,0:0:0:0:
232,27,100680,2,0,L|371:13,2,139.999995727539,0|0|0,0:0|0:0|0:0,0:0:0:0:
234,125,101491,6,0,L|373:111,1,139.999995727539,0|0,0:0|0:0,0:0:0:0:
449,172,101977,1,0,0:0:0:0:
449,172,102139,2,0,P|389:206|316:190,1,139.999995727539,0|0,0:0|0:0,0:0:0:0:
253,124,102626,1,0,0:0:0:0:
204,209,102788,6,0,B|225:260|225:260|210:347,1,139.999995727539,0|0,0:0|0:0,0:0:0:0:
131,287,103274,2,0,P|62:280|3:316,2,139.999995727539,0|0|0,0:0|0:0|0:0,0:0:0:0:
120,189,104085,6,0,P|89:170|67:143,1,69.9999978637696,0|0,0:0|0:0,0:0:0:0:
227,92,104410,2,0,P|226:125|214:158,1,69.9999978637696,0|0,0:0|0:0,0:0:0:0:
90,48,104734,2,0,P|119:30|154:24,1,69.9999978637696
258,69,105058,2,0,P|287:86|322:92,1,69.9999978637696
446,95,105383,6,0,L|442:164,1,69.9999978637696,0|0,0:0|0:0,0:0:0:0:
350,198,105707,2,0,L|353:267,1,69.9999978637696,0|0,0:0|0:0,0:0:0:0:
424,335,106031,2,0,P|355:317|281:349,1,139.999995727539,0|0,0:0|0:0,0:0:0:0:
212,274,106518,6,0,L|208:204,1,69.9999978637696
201,106,106842,1,0,0:0:0:0:
320,40,107004,2,0,L|312:180,1,139.999995727539
202,124,107491,1,0,0:0:0:0:
104,205,107653,2,0,P|70:214|35:214,1,69.9999978637696
84,316,107977,6,0,L|177:305,1,69.9999978637696,0|0,0:0|0:0,0:0:0:0:
272,370,108301,2,0,L|202:378,1,69.9999978637696,0|0,0:0|0:0,0:0:0:0:
300,286,108626,2,0,L|393:275,1,69.9999978637696,0|0,0:0|0:0,0:0:0:0:
488,340,108950,2,0,L|418:348,1,69.9999978637696,0|0,0:0|0:0,0:0:0:0:
272,370,109274,6,0,L|225:364,3,34.9999989318848,0|0|0|0,0:0|0:0|0:0|0:0,0:0:0:0:
194,293,109599,2,0,L|159:297,3,34.9999989318848,0|0|0|0,0:0|0:0|0:0|0:0,0:0:0:0:
141,379,109923,2,0,L|94:373,3,34.9999989318848,0|0|0|0,0:0|0:0|0:0|0:0,0:0:0:0:
63,302,110247,2,0,L|28:306,3,34.9999989318848,0|0|0|0,0:0|0:0|0:0|0:0,0:0:0:0:
96,200,110572,5,0,0:0:0:0:
99,182,110653,1,0,0:0:0:0:
102,164,110734,1,0,0:0:0:0:
105,146,110815,1,0,0:0:0:0:
108,128,110896,2,0,L|96:75,3,34.9999989318848
183,48,111220,5,0,0:0:0:0:
201,51,111301,1,0,0:0:0:0:
219,54,111383,1,0,0:0:0:0:
237,57,111464,1,0,0:0:0:0:
255,60,111545,2,0,L|308:48,3,34.9999989318848
435,57,111869,5,0,0:0:0:0:
445,79,111950,1,0,0:0:0:0:
449,103,112031,1,0,0:0:0:0:
444,127,112112,1,0,0:0:0:0:
433,149,112193,5,0,0:0:0:0:
426,177,112274,1,0,0:0:0:0:
431,206,112355,1,0,0:0:0:0:
444,233,112436,1,0,0:0:0:0:
467,253,112518,5,0,0:0:0:0:
431,247,112599,1,0,0:0:0:0:
397,250,112680,1,0,0:0:0:0:
364,261,112761,1,0,0:0:0:0:
333,278,112842,2,0,P|320:289|312:304,1,34.9999989318848,0|0,0:0|0:0,0:0:0:0:
210,352,113004,5,0,0:0:0:0:
174,358,113085,1,0,0:0:0:0:
140,355,113166,1,0,0:0:0:0:
107,344,113247,1,0,0:0:0:0:
76,327,113328,2,0,P|63:316|55:301,1,34.9999989318848
200,206,113491,2,0,P|183:211|166:211,1,34.9999989318848
43,152,113653,1,0,0:0:0:0:
43,152,113734,1,0,0:0:0:0:
43,152,113815,5,0,0:0:0:0:
21,114,113896,1,0,0:0:0:0:
21,71,113977,1,0,0:0:0:0:
44,34,114058,1,0,0:0:0:0:
82,15,114139,1,0,0:0:0:0:
125,17,114220,1,0,0:0:0:0:
161,42,114301,1,0,0:0:0:0:
178,81,114382,1,0,0:0:0:0:
173,124,114464,5,0,0:0:0:0:
219,102,114545,1,0,0:0:0:0:
271,99,114626,1,0,0:0:0:0:
321,115,114707,1,0,0:0:0:0:
359,151,114788,1,0,0:0:0:0:
411,146,114869,1,0,0:0:0:0:
439,102,114950,1,0,0:0:0:0:
421,53,115031,1,0,0:0:0:0:
371,36,115112,5,0,0:0:0:0:
327,64,115193,1,0,0:0:0:0:
321,115,115274,1,0,0:0:0:0:
359,151,115356,1,0,0:0:0:0:
375,204,115437,1,0,0:0:0:0:
365,260,115518,1,0,0:0:0:0:
325,310,115599,1,0,0:0:0:0:
259,320,115680,1,0,0:0:0:0:
190,305,115761,5,0,0:0:0:0:
190,305,116085,6,0,L|201:207,1,59.9999981689454,0|0,0:0|0:0,0:0:0:0:
243,149,116247,2,0,L|168:157,1,59.9999981689454,0|0,0:0|0:0,0:0:0:0:
98,222,116410,2,0,L|89:147,1,59.9999981689454,0|0,0:0|0:0,0:0:0:0:
47,66,116572,2,0,L|121:74,1,59.9999981689454,0|0,0:0|0:0,0:0:0:0:
350,50,116734,5,8,0:0:0:0:
392,47,116815,1,0,0:0:0:0:
431,68,116896,1,0,0:0:0:0:
455,105,116977,1,0,0:0:0:0:
449,156,117058,6,0,B|413:178|413:178|326:164,1,129.999994049073,6|0,0:0|0:0,0:0:0:0:
243,149,117301,1,0,0:0:0:0:
219,180,117383,1,10,0:0:0:0:
373,287,117544,2,0,B|245:266,1,129.999994049073,0|2,0:0|0:0,0:0:0:0:
165,249,117787,1,0,0:0:0:0:
141,280,117869,1,0,0:0:0:0:
60,164,118031,2,0,B|124:174,1,64.9999970245363,10|0,0:0|0:0,0:0:0:0:
141,280,118192,2,0,B|77:269,1,64.9999970245363,0|0,0:0|0:0,0:0:0:0:
45,97,118356,6,0,B|72:129|72:129|166:143,1,129.999994049073,2|0,0:0|0:0,0:0:0:0:
243,149,118599,1,0,0:0:0:0:
267,118,118681,1,10,0:0:0:0:
112,11,118842,2,0,B|240:32,1,129.999994049073,0|2,0:0|0:0,0:0:0:0:
323,46,119085,1,0,0:0:0:0:
347,15,119167,1,0,0:0:0:0:
463,166,119329,2,0,L|422:115,1,64.9999970245363,10|0,0:0|0:0,0:0:0:0:
452,305,119491,2,0,L|411:254,1,64.9999970245363
352,360,119653,6,0,P|288:332|199:350,1,129.999994049073,2|0,0:0|0:0,0:0:0:0:
150,366,119896,1,0,0:0:0:0:
113,352,119977,1,10,0:0:0:0:
189,245,120139,2,0,P|199:175|159:94,1,129.999994049073,0|2,0:0|0:0,0:0:0:0:
131,51,120382,1,0,0:0:0:0:
136,12,120463,1,0,0:0:0:0:
69,110,120626,5,10,0:0:0:0:
103,132,120707,1,0,0:0:0:0:
143,135,120788,1,0,0:0:0:0:
180,120,120869,1,0,0:0:0:0:
208,91,120950,6,0,P|268:67|332:69,1,129.999994049073,2|0,0:0|0:0,0:0:0:0:
377,173,121193,1,0,0:0:0:0:
343,154,121274,2,0,P|311:147|279:147,1,64.9999970245363,10|0,0:0|0:0,0:0:0:0:
228,225,121437,2,0,P|260:232|292:232,1,64.9999970245363,0|0,0:0|0:0,0:0:0:0:
418,263,121599,5,2,0:0:0:0:
374,293,121680,1,0,0:0:0:0:
379,347,121761,1,0,0:0:0:0:
428,370,121842,1,0,0:0:0:0:
472,338,121923,6,0,P|378:347|420:263,1,227.499989585877
424,317,122247,6,0,L|271:328,1,129.999994049073,2|0,0:0|0:0,0:0:0:0:
190,359,122491,2,0,L|256:220,1,129.999994049073
270,135,122734,2,0,L|356:262,1,129.999994049073,0|2,0:0|0:0,0:0:0:0:
294,326,122977,2,0,L|424:317,1,129.999994049073
431,125,123220,2,0,L|366:129,1,64.9999970245363,10|0,0:0|0:0,0:0:0:0:
270,135,123383,2,0,L|205:139,1,64.9999970245363,0|0,0:0|0:0,0:0:0:0:
25,232,123545,6,0,P|82:201|114:145,1,129.999994049073,2|0,0:0|0:0,0:0:0:0:
175,20,123788,2,0,P|174:88|224:154,1,129.999994049073
284,255,124031,2,0,P|225:220|143:230,1,129.999994049073,0|2,0:0|0:0,0:0:0:0:
114,146,124274,2,0,P|82:202|24:232,1,129.999994049073
27,330,124518,5,10,0:0:0:0:
62,309,124599,1,0,0:0:0:0:
101,300,124680,1,0,0:0:0:0:
141,303,124761,1,0,0:0:0:0:
179,319,124842,6,0,P|237:353|319:343,1,129.999994049073,2|0,0:0|0:0,0:0:0:0:
421,201,125085,1,0,0:0:0:0:
382,211,125166,2,0,P|327:244|263:244,1,129.999994049073,10|0,0:0|0:0,0:0:0:0:
153,158,125410,1,0,0:0:0:0:
114,145,125491,2,0,L|18:158,2,64.9999970245363,2|0|0,0:0|0:0|0:0,0:0:0:0:
199,36,125734,1,0,0:0:0:0:
238,49,125815,2,0,L|366:31,1,129.999994049073,10|0,0:0|0:0,0:0:0:0:
482,101,126058,5,0,0:0:0:0:
462,104,126139,2,0,L|397:112,1,64.9999970245363,2|0,0:0|0:0,0:0:0:0:
461,221,126301,5,0,0:0:0:0:
442,212,126382,2,0,L|381:187,1,64.9999970245363,2|0,0:0|0:0,0:0:0:0:
384,313,126545,5,0,0:0:0:0:
371,296,126626,2,0,L|331:244,1,64.9999970245363,2|0,0:0|0:0,0:0:0:0:
270,355,126788,5,0,0:0:0:0:
267,333,126869,2,0,L|258:268,1,64.9999970245363,2|0,0:0|0:0,0:0:0:0:
49,231,127031,5,0,0:0:0:0:
31,272,127112,1,2,0:0:0:0:
43,315,127193,1,2,0:0:0:0:
79,342,127274,1,2,0:0:0:0:
123,341,127355,1,2,0:0:0:0:
159,314,127437,6,0,B|146:265|146:265|169:182,1,129.999994049073,14|0,0:0|0:0,0:0:0:0:
194,108,127680,1,0,0:0:0:0:
171,76,127761,1,10,0:0:0:0:
302,116,127923,2,0,L|225:11,1,129.999994049073,0|10,0:0|0:0,0:0:0:0:
171,76,128166,1,0,0:0:0:0:
194,108,128247,1,0,0:0:0:0:
367,203,128410,2,0,L|432:190,1,64.9999970245363,10|0,0:0|0:0,0:0:0:0:
458,80,128572,2,0,L|394:92,1,64.9999970245363,0|0,0:0|0:0,0:0:0:0:
269,206,128734,6,0,B|282:255|282:255|259:338,1,129.999994049073,10|0,0:0|0:0,0:0:0:0:
179,307,128977,1,0,0:0:0:0:
190,269,129058,1,10,0:0:0:0:
82,350,129220,2,0,B|116:224,1,129.999994049073,0|10,0:0|0:0,0:0:0:0:
190,269,129464,1,0,0:0:0:0:
179,307,129545,1,0,0:0:0:0:
18,133,129707,2,0,B|81:150,1,64.9999970245363,10|0,0:0|0:0,0:0:0:0:
94,24,129869,2,0,B|126:80,1,64.9999970245363,0|0,0:0|0:0,0:0:0:0:
208,86,130031,6,0,B|277:46|277:46|302:3,1,129.999994049073,10|0,0:0|0:0,0:0:0:0:
359,65,130274,1,0,0:0:0:0:
340,99,130356,1,10,0:0:0:0:
488,8,130518,2,0,B|422:120,1,129.999994049073,0|10,0:0|0:0,0:0:0:0:
340,99,130761,1,0,0:0:0:0:
359,65,130843,1,0,0:0:0:0:
446,209,131004,5,10,0:0:0:0:
405,206,131085,1,0,0:0:0:0:
364,204,131166,1,0,0:0:0:0:
324,201,131247,1,0,0:0:0:0:
283,199,131329,6,0,P|206:195|148:253,1,129.999994049073,10|0,0:0|0:0,0:0:0:0:
146,319,131572,1,0,0:0:0:0:
185,320,131653,2,0,P|215:309|239:287,1,64.9999970245363,10|0,0:0|0:0,0:0:0:0:
71,255,131815,2,0,P|40:266|17:288,1,64.9999970245363
0,103,131977,5,10,0:0:0:0:
54,67,132058,1,0,0:0:0:0:
112,72,132139,1,0,0:0:0:0:
153,103,132220,1,0,0:0:0:0:
193,123,132301,1,10,0:0:0:0:
232,125,132383,1,0,0:0:0:0:
263,116,132464,2,0,P|292:102|316:80,1,64.9999970245363,0|0,0:0|0:0,0:0:0:0:
406,33,132626,5,10,0:0:0:0:
409,65,132707,1,0,0:0:0:0:
413,97,132788,1,8,0:0:0:0:
417,129,132869,1,0,0:0:0:0:
449,170,132950,5,10,0:0:0:0:
446,192,133031,1,0,0:0:0:0:
443,215,133112,1,8,0:0:0:0:
441,237,133193,1,0,0:0:0:0:
465,282,133274,5,10,0:0:0:0:
416,285,133355,1,0,0:0:0:0:
367,288,133436,1,8,0:0:0:0:
319,291,133517,1,0,0:0:0:0:
270,295,133599,6,0,L|205:299,1,64.9999970245363,10|0,0:0|0:0,0:0:0:0:
190,160,133761,2,0,L|147:209,1,64.9999970245363,8|0,0:0|0:0,0:0:0:0:
58,348,133923,6,0,L|48:218,1,129.999994049073,10|8,0:0|0:0,0:0:0:0:
42,134,134166,1,0,0:0:0:0:
7,115,134247,1,10,0:0:0:0:
132,33,134410,2,0,L|267:16,1,129.999994049073,8|10,0:0|0:0,0:0:0:0:
397,116,134653,2,0,L|262:99,1,129.999994049073,0|0,0:0|0:0,0:0:0:0:
124,72,134896,2,0,L|191:63,1,64.9999970245363,10|0,0:0|0:0,0:0:0:0:
405,155,135058,2,0,L|337:146,1,64.9999970245363,8|0,0:0|0:0,0:0:0:0:
190,160,135220,6,0,L|125:168,2,64.9999970245363,0|0|0,1:0|1:0|1:0,0:0:0:0:
182,245,135464,2,0,L|117:253,2,64.9999970245363,0|0|0,1:0|1:0|1:0,0:0:0:0:
174,330,135707,2,0,L|109:338,1,64.9999970245363,0|0,1:0|1:0,0:0:0:0:
331,304,135869,6,0,P|362:309|395:307,1,64.9999970245363,0|0,1:0|1:0,0:0:0:0:
511,187,136031,2,0,P|505:218|491:248,1,64.9999970245363,0|0,1:0|1:0,0:0:0:0:
272,213,136193,2,0,P|303:218|336:216,1,64.9999970245363,0|0,1:0|1:0,0:0:0:0:
451,95,136355,2,0,P|445:126|431:156,1,64.9999970245363,0|0,1:0|1:0,0:0:0:0:
140,164,136518,5,6,1:2:0:0:
128,157,136599,1,0,1:0:0:0:
109,152,136680,1,0,1:0:0:0:
83,154,136761,1,0,1:0:0:0:
55,171,136842,1,0,1:0:0:0:
36,205,136923,1,0,1:0:0:0:
38,250,137004,1,0,1:0:0:0:
73,288,137085,1,0,1:0:0:0:
131,288,137166,1,0,1:0:0:0:
183,249,137247,1,0,1:0:0:0:
231,204,137329,6,0,P|262:197|294:199,1,64.9999970245363,0|0,1:0|1:0,1:0:0:0:
405,333,137491,2,0,P|382:309|368:280,1,64.9999970245363,0|0,1:0|1:0,1:0:0:0:
429,118,137653,2,0,P|419:149|401:176,1,64.9999970245363,0|0,1:0|1:0,1:0:0:0:
274,329,137815,6,0,L|143:320,1,129.999994049073,6|0,0:0|0:0,0:0:0:0:
66,313,138058,1,0,0:0:0:0:
46,310,138139,1,10,0:0:0:0:
79,120,138301,1,0,0:0:0:0:
241,237,138464,2,0,L|110:228,1,129.999994049073,2|0,0:0|0:0,0:0:0:0:
33,222,138707,1,0,0:0:0:0:
13,219,138788,1,10,0:0:0:0:
38,37,138950,1,0,0:0:0:0:
220,115,139112,6,0,B|265:135|265:135|347:120,1,129.999994049073,2|0,0:0|0:0,0:0:0:0:
431,19,139437,1,10,0:0:0:0:
431,190,139599,2,0,P|383:225|313:229,1,129.999994049073,0|2,0:0|0:0,0:0:0:0:
123,270,139923,2,0,P|187:273|239:309,1,129.999994049073,0|10,0:0|0:0,0:0:0:0:
18,352,140247,1,0,0:0:0:0:
113,140,140410,6,0,L|125:295,1,129.999994049073,2|0,0:0|0:0,0:0:0:0:
129,347,140653,1,0,0:0:0:0:
131,366,140734,1,10,0:0:0:0:
17,176,140896,1,0,0:0:0:0:
207,104,141058,2,0,L|219:259,1,129.999994049073,2|0,0:0|0:0,0:0:0:0:
222,311,141301,1,0,0:0:0:0:
224,330,141382,1,10,0:0:0:0:
113,140,141545,1,0,0:0:0:0:
383,180,141707,6,0,B|409:141|409:141|402:58,1,129.999994049073,2|0,0:0|0:0,0:0:0:0:
468,249,142031,1,10,0:0:0:0:
281,238,142193,2,0,B|216:233,1,64.9999970245363
298,111,142356,5,2,0:0:0:0:
266,77,142437,1,0,0:0:0:0:
224,65,142518,1,0,0:0:0:0:
183,74,142599,1,0,0:0:0:0:
151,103,142680,1,10,0:0:0:0:
137,143,142761,1,0,0:0:0:0:
145,186,142842,1,0,0:0:0:0:
173,218,142923,1,0,0:0:0:0:
216,233,143004,5,2,0:0:0:0:
298,111,143166,1,0,0:0:0:0:
289,297,143329,2,0,P|234:329|169:319,1,129.999994049073,10|0,0:0|0:0,0:0:0:0:
137,143,143653,2,0,P|192:174|216:233,1,129.999994049073,2|0,0:0|0:0,0:0:0:0:
80,352,143977,2,0,P|79:288|120:236,1,129.999994049073,10|0,0:0|0:0,0:0:0:0:
289,297,144220,1,0,0:0:0:0:
319,321,144301,6,0,L|475:306,1,129.999994049073,2|0,0:0|0:0,0:0:0:0:
483,167,144626,2,0,L|353:179,1,129.999994049073,10|0,0:0|0:0,0:0:0:0:
192,65,144950,2,0,P|132:46|73:71,1,129.999994049073,2|0,0:0|0:0,0:0:0:0:
0,207,145274,1,10,0:0:0:0:
216,233,145437,1,0,0:0:0:0:
181,252,145518,1,0,0:0:0:0:
147,272,145599,6,0,L|136:142,1,129.999994049073,2|0,0:0|0:0,0:0:0:0:
4,246,145923,2,0,L|15:376,1,129.999994049073,10|0,0:0|0:0,0:0:0:0:
272,267,146247,2,0,P|208:254|147:272,1,129.999994049073,2|0,0:0|0:0,0:0:0:0:
351,360,146572,2,0,P|414:372|475:354,1,129.999994049073,10|0,0:0|0:0,0:0:0:0:
485,214,146815,5,0,0:0:0:0:
471,228,146896,2,0,P|441:240|409:245,1,64.9999970245363,2|0,0:0|0:0,0:0:0:0:
420,113,147058,5,0,0:0:0:0:
414,132,147139,2,0,P|393:157|368:177,1,64.9999970245363,2|0,0:0|0:0,0:0:0:0:
311,58,147301,5,0,0:0:0:0:
316,77,147382,2,0,P|311:109|299:139,1,64.9999970245363,2|0,0:0|0:0,0:0:0:0:
190,64,147545,5,0,0:0:0:0:
204,78,147626,2,0,P|215:108|220:140,1,64.9999970245363,2|0,0:0|0:0,0:0:0:0:
170,254,147788,5,0,0:0:0:0:
143,290,147869,1,2,0:0:0:0:
146,334,147950,1,2,0:0:0:0:
176,368,148031,1,2,0:0:0:0:
219,376,148112,1,2,0:0:0:0:
252,356,148193,6,0,B|258:226,1,129.999994049073,6|0,0:0|0:0,0:0:0:0:
262,147,148437,1,0,0:0:0:0:
263,127,148518,1,10,0:0:0:0:
357,204,148680,1,0,0:0:0:0:
463,53,148842,2,0,B|456:182,1,129.999994049073,2|0,0:0|0:0,0:0:0:0:
453,262,149086,1,0,0:0:0:0:
452,282,149167,1,10,0:0:0:0:
357,204,149329,1,0,0:0:0:0:
219,296,149491,6,0,B|174:276|174:276|92:291,1,129.999994049073,2|0,0:0|0:0,0:0:0:0:
0,384,149816,1,10,0:0:0:0:
8,221,149978,2,0,P|56:186|126:182,1,129.999994049073,0|2,0:0|0:0,0:0:0:0:
319,108,150302,2,0,P|255:105|203:69,1,129.999994049073,0|10,0:0|0:0,0:0:0:0:
424,26,150626,1,0,0:0:0:0:
452,204,150788,6,0,L|311:197,1,129.999994049073,2|0,0:0|0:0,0:0:0:0:
244,193,151031,1,0,0:0:0:0:
224,191,151112,1,10,0:0:0:0:
304,287,151274,1,0,0:0:0:0:
157,371,151437,2,0,L|298:378,1,129.999994049073,2|0,0:0|0:0,0:0:0:0:
365,382,151680,1,0,0:0:0:0:
385,384,151761,1,10,0:0:0:0:
304,287,151923,1,0,0:0:0:0:
452,204,152085,6,0,B|472:159|472:159|457:77,1,129.999994049073,2|0,0:0|0:0,0:0:0:0:
346,0,152410,1,10,0:0:0:0:
287,150,152572,2,0,B|350:138,1,64.9999970245363,0|0,0:0|0:0,0:0:0:0:
217,41,152734,5,2,0:0:0:0:
172,15,152815,1,0,0:0:0:0:
122,23,152896,1,0,0:0:0:0:
87,61,152977,1,0,0:0:0:0:
84,112,153058,1,10,0:0:0:0:
114,153,153139,1,0,0:0:0:0:
144,195,153220,2,0,P|152:226|152:258,1,64.9999970245363,0|0,0:0|0:0,0:0:0:0:
88,384,153383,5,2,0:0:0:0:
53,238,153545,1,0,0:0:0:0:
219,356,153707,1,10,0:0:0:0:
248,178,153869,1,0,0:0:0:0:
358,366,154031,2,0,P|421:376|477:347,1,129.999994049073,2|0,0:0|0:0,0:0:0:0:
336,151,154356,1,10,0:0:0:0:
306,293,154518,1,0,0:0:0:0:
429,168,154680,5,2,0:0:0:0:
248,102,154842,1,0,0:0:0:0:
458,39,155004,1,10,0:0:0:0:
345,198,155166,1,0,0:0:0:0:
153,6,155329,2,0,L|149:135,1,129.999994049073,2|0,0:0|0:0,0:0:0:0:
72,292,155653,1,10,0:0:0:0:
219,216,155815,1,0,0:0:0:0:
246,243,155896,1,0,0:0:0:0:
273,270,155977,6,0,L|430:261,1,129.999994049073,2|0,0:0|0:0,0:0:0:0:
271,121,156301,2,0,P|207:109|149:135,1,129.999994049073,10|0,0:0|0:0,0:0:0:0:
85,308,156626,6,0,L|74:372,1,64.9999970245363,2|0,0:0|0:0,0:0:0:0:
53,157,156788,2,0,L|42:221,1,64.9999970245363,0|0,0:0|0:0,0:0:0:0:
21,6,156950,2,0,L|10:70,3,64.9999970245363,10|0|0|0,0:0|0:0|0:0|0:0,0:0:0:0:
116,82,157274,6,0,L|280:70,1,165.000005035401,2|0,0:0|0:0,0:0:0:0:
418,163,157599,6,0,L|216:148,1,194.999991073609,2|0,0:0|0:0,0:0:0:0:
53,244,157923,6,0,L|305:226,1,225.000008583069,2|0,0:0|0:0,0:0:0:0:
446,342,158247,5,8,0:0:0:0:
446,342,158572,6,0,L|404:376,3,55.0000016784668,10|0|0|0,0:0|0:0|0:0|0:0,0:0:0:0:
381,282,158896,2,0,L|327:276,3,55.0000016784668,10|0|0|0,0:0|0:0|0:0|0:0,0:0:0:0:
377,193,159220,2,0,L|343:151,3,55.0000016784668,10|0|0|0,0:0|0:0|0:0|0:0,0:0:0:0:
437,128,159545,2,0,L|442:74,3,55.0000016784668,10|0|0|0,0:0|0:0|0:0|0:0,0:0:0:0:
337,50,159869,5,10,0:0:0:0:
312,56,159950,1,0,0:0:0:0:
287,62,160031,1,0,0:0:0:0:
262,68,160112,1,0,0:0:0:0:
237,74,160193,2,0,L|182:66,3,55.0000016784668,10|0|0|0,0:0|0:0|0:0|0:0,0:0:0:0:
194,176,160518,5,10,0:0:0:0:
200,201,160599,1,0,0:0:0:0:
206,226,160680,1,0,0:0:0:0:
212,251,160761,1,0,0:0:0:0:
218,276,160842,2,0,L|210:330,3,55.0000016784668,10|0|0|0,0:0|0:0|0:0|0:0,0:0:0:0:
91,327,161166,5,10,0:0:0:0:
85,302,161247,1,0,0:0:0:0:
89,279,161328,1,0,0:0:0:0:
99,257,161409,1,0,0:0:0:0:
125,233,161491,5,10,0:0:0:0:
117,203,161572,1,0,0:0:0:0:
110,173,161653,1,0,0:0:0:0:
103,143,161734,1,0,0:0:0:0:
74,103,161815,5,10,0:0:0:0:
113,101,161896,1,0,0:0:0:0:
153,99,161977,1,0,0:0:0:0:
193,98,162058,1,0,0:0:0:0:
233,95,162139,2,0,L|279:66,1,55.0000016784668,10|0,0:0|0:0,0:0:0:0:
444,66,162301,5,0,0:0:0:0:
473,94,162382,1,0,0:0:0:0:
486,134,162464,1,10,0:0:0:0:
475,173,162545,1,0,0:0:0:0:
445,203,162626,2,0,L|374:206,1,55.0000016784668
233,95,162788,2,0,L|271:154,1,55.0000016784668,10|0,0:0|0:0,0:0:0:0:
269,282,162950,1,0,0:0:0:0:
269,282,163031,1,0,0:0:0:0:
269,282,163112,5,10,0:0:0:0:
246,321,163193,1,0,0:0:0:0:
206,346,163275,1,0,0:0:0:0:
158,346,163356,1,0,0:0:0:0:
116,324,163437,1,10,0:0:0:0:
91,283,163518,1,0,0:0:0:0:
94,235,163599,2,0,P|106:205|129:183,1,55.0000016784668,10|0,0:0|0:0,0:0:0:0:
323,68,163761,6,0,L|160:66,1,129.999994049073,10|0,0:0|0:0,0:0:0:0:
115,65,164004,1,0,0:0:0:0:
101,28,164085,1,10,0:0:0:0:
178,262,164247,1,10,0:0:0:0:
478,158,164572,6,0,P|482:244|414:203,1,200,10|0,0:0|0:0,0:0:0:0:
403,116,165058,5,10,0:0:0:0:
115,84,165220,1,10,0:0:0:0:
382,134,165383,1,10,0:0:0:0:
94,102,165545,2,0,L|191:80,1,100,10|0,0:0|0:0,0:0:0:0:
406,277,165869,6,0,P|311:256|237:317,1,200,2|0,0:0|0:0,0:0:0:0:
222,341,166356,6,0,L|232:232,1,110.000003356934,6|0,0:0|0:0,0:0:0:0:
324,64,166680,2,0,P|330:117|306:166,1,110.000003356934,10|0,0:0|0:0,0:0:0:0:
153,204,167004,1,2,0:0:0:0:
234,99,167166,1,0,0:0:0:0:
339,266,167329,1,10,0:0:0:0:
454,71,167491,6,0,P|350:72|306:168,1,220.000006713867,0|0,0:0|0:0,0:0:0:0:
510,169,167977,2,0,L|401:155,1,110.000003356934,10|0,0:0|0:0,0:0:0:0:
339,266,168301,1,2,0:0:0:0:
412,131,168464,1,0,0:0:0:0:
443,294,168626,1,10,0:0:0:0:
306,167,168788,1,0,0:0:0:0:
157,314,168950,6,0,P|102:310|58:279,1,110.000003356934,2|0,0:0|0:0,0:0:0:0:
237,249,169274,2,0,L|248:362,1,110.000003356934,10|0,0:0|0:0,0:0:0:0:
322,138,169599,1,2,0:0:0:0:
140,202,169761,1,0,0:0:0:0:
339,266,169923,1,10,0:0:0:0:
353,45,170085,6,0,P|294:44|236:92,1,110.000003356934,0|2,0:0|0:0,0:0:0:0:
237,249,170410,1,0,0:0:0:0:
322,138,170572,1,10,0:0:0:0:
369,273,170734,1,0,0:0:0:0:
163,338,170896,2,0,L|84:341,1,55.0000016784668,2|0,0:0|0:0,0:0:0:0:
149,257,171058,1,0,0:0:0:0:
146,239,171112,1,0,0:0:0:0:
143,221,171166,1,0,0:0:0:0:
140,202,171220,1,10,0:0:0:0:
247,281,171383,1,0,0:0:0:0:
340,113,171545,6,0,L|470:103,1,110.000003356934,2|0,0:0|0:0,0:0:0:0:
263,173,171869,2,0,P|242:122|251:69,1,110.000003356934,10|0,0:0|0:0,0:0:0:0:
338,252,172193,1,2,0:0:0:0:
144,230,172356,1,0,0:0:0:0:
252,309,172518,1,10,0:0:0:0:
158,132,172680,6,0,P|63:175|60:279,1,220.000006713867,0|0,0:0|0:0,0:0:0:0:
171,93,173166,2,0,P|116:91|66:114,1,110.000003356934,10|0,0:0|0:0,0:0:0:0:
144,230,173491,1,2,0:0:0:0:
304,129,173653,1,0,0:0:0:0:
279,251,173815,1,10,0:0:0:0:
183,53,173977,1,0,0:0:0:0:
408,2,174139,6,0,P|419:55|402:108,1,110.000003356934,2|0,0:0|0:0,0:0:0:0:
213,52,174464,2,0,L|322:49,1,110.000003356934,10|0,0:0|0:0,0:0:0:0:
279,251,174788,1,2,0:0:0:0:
168,138,174950,1,0,0:0:0:0:
339,159,175112,1,10,0:0:0:0:
108,230,175274,1,0,0:0:0:0:
307,355,175437,6,0,B|366:326|366:326|507:351,1,209.999993591309,2|0,0:0|0:0,0:0:0:0:
480,263,175761,2,0,B|273:225,1,209.999993591309,2|0,0:0|0:0,0:0:0:0:
176,209,176085,2,0,P|247:133|341:161,1,209.999993591309,2|0,0:0|0:0,0:0:0:0:
181,254,176410,6,0,B|51:230,1,100,8|0,0:0|0:0,0:0:0:0:
28,57,176734,6,0,P|82:63|132:42,1,110.000003356934,14|0,0:0|0:0,0:0:0:0:
343,49,177058,2,0,L|338:183,1,110.000003356934,10|0,0:0|0:0,0:0:0:0:
154,261,177383,1,10,0:0:0:0:
213,117,177545,1,0,0:0:0:0:
312,311,177707,1,10,0:0:0:0:
339,159,177869,1,0,0:0:0:0:
511,285,178031,6,0,P|457:286|408:258,1,110.000003356934,10|0,0:0|0:0,0:0:0:0:
309,60,178356,2,0,P|363:59|412:87,1,110.000003356934,10|0,0:0|0:0,0:0:0:0:
259,194,178680,1,10,0:0:0:0:
153,2,178842,1,0,0:0:0:0:
119,160,179004,1,10,0:0:0:0:
282,73,179166,1,0,0:0:0:0:
37,107,179329,6,0,P|21:160|36:212,1,110.000003356934,10|0,0:0|0:0,0:0:0:0:
229,163,179653,2,0,L|120:160,1,110.000003356934,10|0,0:0|0:0,0:0:0:0:
316,291,179977,1,10,0:0:0:0:
299,99,180139,1,0,0:0:0:0:
137,195,180301,1,10,0:0:0:0:
332,85,180464,1,0,0:0:0:0:
326,313,180626,6,0,L|312:191,1,110.000003356934,10|0,0:0|0:0,0:0:0:0:
365,72,180950,1,10,0:0:0:0:
220,220,181112,1,0,0:0:0:0:
398,188,181274,2,0,L|452:179,1,55.0000016784668,10|0,0:0|0:0,0:0:0:0:
413,275,181437,1,0,0:0:0:0:
416,294,181491,1,0,0:0:0:0:
419,312,181545,1,0,0:0:0:0:
422,330,181599,1,10,0:0:0:0:
313,203,181761,1,0,0:0:0:0:
136,364,181923,5,10,1:2:0:0:
220,220,182085,1,8,1:2:0:0:
44,130,182247,2,0,L|52:240,1,110.000003356934,10|8,1:2|1:2,0:0:0:0:
129,10,182572,1,10,1:2:0:0:
228,168,182734,1,8,1:2:0:0:
360,43,182896,1,10,1:2:0:0:
405,241,183058,1,8,1:2:0:0:
214,141,183220,6,0,L|324:149,1,110.000003356934,10|8,1:2|1:2,0:0:0:0:
495,345,183545,2,0,L|385:353,1,110.000003356934,10|8,1:2|1:2,0:0:0:0:
267,249,183869,1,10,1:2:0:0:
486,236,184031,1,8,1:2:0:0:
314,131,184193,1,10,1:2:0:0:
376,335,184356,1,8,1:2:0:0:
167,309,184518,6,0,L|127:305,3,40,2|0|0|0,1:2|1:1|1:1|1:1,1:0:0:0:
267,249,184842,2,0,L|307:244,3,40,2|0|0|0,1:2|1:1|1:1|1:1,1:0:0:0:
161,211,185166,6,0,L|153:149,1,55.0000016784668,2|0,1:2|1:1,1:0:0:0:
224,0,185329,2,0,L|230:54,1,55.0000016784668,0|0,1:1|1:1,1:0:0:0:
243,143,185491,2,0,L|298:137,1,55.0000016784668,2|0,1:2|1:1,1:0:0:0:
141,67,185653,2,0,L|87:74,1,55.0000016784668,0|0,1:1|1:1,1:0:0:0:
55,253,185815,6,0,L|157:240,1,89.9999972534181,2|0,1:2|1:0,0:0:0:0:
158,278,186139,5,0,1:1:0:0:
184,304,186220,1,0,1:1:0:0:
219,319,186301,1,0,1:1:0:0:
257,320,186382,1,0,1:1:0:0:
292,305,186464,6,0,P|315:297|340:294,1,50,0|0,1:1|1:1,0:0:0:0:
463,207,186626,2,0,P|442:221|426:240,1,50,0|0,1:1|1:0,0:0:0:0:
239,222,186788,2,0,P|262:214|287:209,1,50,0|0,1:1|1:1,0:0:0:0:
409,123,186950,2,0,P|388:137|372:156,1,50,0|0,1:1|1:0,0:0:0:0:
180,50,187112,6,0,P|100:50|57:116,1,165.000005035401,6|0,0:0|0:0,0:0:0:0:
83,151,187437,2,0,B|111:199|111:199|87:326,1,165.000005035401,10|0,0:0|0:0,0:0:0:0:
80,349,187761,1,2,0:0:0:0:
12,237,187923,1,0,0:0:0:0:
197,152,188085,1,10,0:0:0:0:
197,351,188247,6,0,B|238:346|238:346|267:350|267:350|307:346,1,110.000003356934,0|2,0:0|0:0,0:0:0:0:
483,244,188572,1,0,0:0:0:0:
336,131,188734,1,10,0:0:0:0:
311,228,188896,1,0,0:0:0:0:
433,50,189058,1,2,0:0:0:0:
458,147,189220,1,0,0:0:0:0:
255,59,189383,2,0,B|205:91|205:91|87:78,1,165.000005035401,10|0,0:0|0:0,0:0:0:0:
56,74,189707,5,2,0:0:0:0:
12,254,189869,2,0,L|50:247,1,27.5000008392334
74,312,190031,2,0,L|112:305,1,27.5000008392334,10|0,0:0|0:0,0:0:0:0:
137,371,190193,2,0,L|175:364,1,27.5000008392334
359,330,190356,6,0,L|250:347,1,110.000003356934,2|0,0:0|0:0,0:0:0:0:
379,158,190680,2,0,L|487:175,1,110.000003356934,10|0,0:0|0:0,0:0:0:0:
262,243,191004,5,2,0:0:0:0:
305,34,191166,1,0,0:0:0:0:
229,253,191329,1,10,0:0:0:0:
272,44,191491,1,0,0:0:0:0:
54,85,191653,5,2,0:0:0:0:
263,128,191815,1,0,0:0:0:0:
64,118,191978,1,10,0:0:0:0:
273,161,192140,1,0,0:0:0:0:
98,338,192301,5,2,0:0:0:0:
168,201,192464,1,0,0:0:0:0:
297,333,192626,2,0,P|302:243|234:283,1,194.999991073609,10|0,0:0|0:0,0:0:0:0:
302,355,192950,6,0,L|383:384,1,55.0000016784668,2|0,0:0|0:0,0:0:0:0:
500,266,193112,2,0,L|448:247,1,55.0000016784668,0|0,0:0|0:0,0:0:0:0:
274,148,193274,2,0,B|251:123|252:81|252:81|219:118|171:120,1,165.000005035401,10|0,0:0|0:0,0:0:0:0:
126,115,193599,5,2,0:0:0:0:
278,0,193761,1,0,0:0:0:0:
373,176,193923,2,0,P|427:173|471:142,1,110.000003356934,10|0,0:0|0:0,0:0:0:0:
274,148,194247,1,2,0:0:0:0:
198,288,194410,1,0,0:0:0:0:
207,319,194491,1,0,0:0:0:0:
216,350,194572,2,0,P|163:334|110:347,1,110.000003356934,10|0,0:0|0:0,0:0:0:0:
271,257,194896,6,0,P|324:241|377:254,1,110.000003356934,2|0,0:0|0:0,0:0:0:0:
439,384,195220,1,10,0:0:0:0:
490,200,195383,1,0,0:0:0:0:
326,355,195545,2,0,L|217:351,1,110.000003356934,2|0,0:0|0:0,0:0:0:0:
140,169,195869,1,10,0:0:0:0:
75,350,196032,1,0,0:0:0:0:
54,121,196193,5,2,0:0:0:0:
240,189,196356,1,0,0:0:0:0:
62,90,196518,5,10,0:0:0:0:
231,219,196681,1,0,0:0:0:0:
80,63,196842,5,2,0:0:0:0:
213,246,197005,1,0,0:0:0:0:
106,44,197166,5,8,0:0:0:0:
136,33,197247,1,0,0:0:0:0:
168,33,197328,1,0,0:0:0:0:
199,42,197409,1,0,0:0:0:0:
223,64,197491,6,0,B|268:90|268:90|397:66,1,165.000005035401,6|0,0:0|0:0,0:0:0:0:
422,61,197815,1,10,0:0:0:0:
400,258,197977,2,0,B|346:268,1,55.0000016784668
258,190,198139,2,0,B|366:169,1,110.000003356934,2|0,0:0|0:0,0:0:0:0:
419,291,198464,1,10,0:0:0:0:
204,271,198626,1,0,0:0:0:0:
204,271,198707,1,0,0:0:0:0:
204,271,198788,6,0,P|168:229|163:175,1,110.000003356934,2|0,0:0|0:0,0:0:0:0:
366,169,199112,2,0,B|258:190,1,110.000003356934,10|0,0:0|0:0,0:0:0:0:
88,222,199437,1,2,0:0:0:0:
108,48,199599,2,0,P|53:46|4:70,1,110.000003356934,0|10,0:0|0:0,0:0:0:0:
88,222,199923,1,0,0:0:0:0:
220,59,200085,5,2,0:0:0:0:
259,190,200247,1,0,0:0:0:0:
356,78,200410,5,10,0:0:0:0:
395,209,200572,1,0,0:0:0:0:
247,157,200734,5,2,0:0:0:0:
208,288,200896,1,0,0:0:0:0:
111,176,201058,5,10,0:0:0:0:
72,307,201221,1,0,0:0:0:0:
311,321,201383,5,2,0:0:0:0:
247,157,201545,1,0,0:0:0:0:
180,361,201707,5,10,0:0:0:0:
239,184,201869,1,0,0:0:0:0:
63,315,202031,5,2,0:0:0:0:
231,210,202193,1,0,0:0:0:0:
48,132,202356,5,10,0:0:0:0:
217,9,202518,2,0,P|276:16|316:58,1,110.000003356934,0|2,0:0|0:0,0:0:0:0:
385,169,202842,5,0,0:0:0:0:
454,55,203004,1,10,0:0:0:0:
237,94,203166,1,0,0:0:0:0:
344,271,203329,2,0,L|453:266,1,110.000003356934,2|0,0:0|0:0,0:0:0:0:
299,157,203653,5,10,0:0:0:0:
82,196,203815,1,0,0:0:0:0:
189,373,203978,2,0,L|298:368,1,110.000003356934,2|0,0:0|0:0,0:0:0:0:
144,259,204301,1,10,0:0:0:0:
44,373,204464,1,0,0:0:0:0:
78,118,204626,5,2,0:0:0:0:
238,247,204788,1,0,0:0:0:0:
48,273,204950,1,10,0:0:0:0:
298,156,205112,2,0,P|335:197|345:250,1,110.000003356934,0|10,0:0|0:0,0:0:0:0:
172,144,205437,5,0,0:0:0:0:
415,132,205599,1,10,0:0:0:0:
238,247,205761,1,0,0:0:0:0:
348,29,205923,1,10,0:0:0:0:
360,241,206085,1,0,0:0:0:0:
225,35,206247,1,10,0:0:0:0:
415,132,206410,1,0,0:0:0:0:
148,147,206572,5,2,1:2:0:0:
275,332,206734,1,0,1:1:0:0:
293,138,206896,1,2,1:2:0:0:
130,341,207058,1,0,1:1:0:0:
55,85,207220,5,2,1:2:0:0:
83,55,207301,1,0,1:0:0:0:
120,37,207383,1,0,1:0:0:0:
161,34,207464,1,0,1:0:0:0:
201,47,207545,2,0,P|279:72|364:34,1,165.000005035401,0|0,1:0|0:0,0:0:0:0:
372,28,207869,6,0,L|377:135,1,80,6|0,0:0|0:0,0:0:0:0:
443,213,208193,2,0,L|434:174,1,40,0|0,0:0|0:0,0:0:0:0:
346,277,208356,2,0,L|351:238,1,40,0|0,0:0|0:0,0:0:0:0:
450,314,208518,6,0,L|490:312,2,40,0|0|0,0:0|0:0|0:0,0:0:0:0:
251,323,208842,2,0,L|212:324,1,40,0|0,0:0|0:0,0:0:0:0:
133,327,209004,2,0,L|94:328,1,40,0|0,0:0|0:0,0:0:0:0:
15,331,209166,5,0,0:0:0:0:
50,240,209329,1,0,0:0:0:0:
85,149,209491,1,0,0:0:0:0:
172,207,209653,6,0,L|212:205,2,40,0|0|0,0:0|0:0|0:0,0:0:0:0:
213,92,209977,2,0,L|243:118,1,40,0|0,0:0|0:0,0:0:0:0:
323,40,210139,2,0,L|325:80,3,40,0|0|0|0,0:0|0:0|0:0|0:0,0:0:0:0:
412,195,210464,6,0,L|333:198,1,80,0|0,0:0|0:0,0:0:0:0:
322,216,210707,1,0,0:0:0:0:
312,233,210788,1,0,0:0:0:0:
152,240,210950,6,0,L|341:231,1,160,8|0,0:0|0:0,0:0:0:0:
486,225,211437,2,0,L|496:242,6,20
415,100,211761,5,0,0:0:0:0:
315,137,211923,1,0,0:0:0:0:
295,136,212004,1,0,0:0:0:0:
276,135,212085,2,0,L|256:101,1,40,0|0,0:0|0:0,0:0:0:0:
160,204,212247,2,0,L|179:170,1,40,0|0,0:0|0:0,0:0:0:0:
283,299,212410,5,0,0:0:0:0:
244,300,212491,1,0,0:0:0:0:
204,302,212572,1,0,0:0:0:0:
164,304,212653,1,0,0:0:0:0:
123,309,212734,6,0,P|120:328|122:348,1,40,8|0,0:0|0:0,0:0:0:0:
328,227,212896,6,0,P|293:214|249:220,1,75.0000028610231
386,384,213058,6,0,L|397:274,1,110.000003356934,6|0,0:0|0:0,0:0:0:0:
168,113,213383,2,0,L|179:223,1,110.000003356934,10|0,0:0|0:0,0:0:0:0:
474,173,213707,2,0,P|426:148|371:149,1,110.000003356934,2|0,0:0|0:0,0:0:0:0:
283,299,214031,1,10,0:0:0:0:
79,248,214193,1,0,0:0:0:0:
53,241,214274,1,0,0:0:0:0:
26,234,214356,5,2,0:0:0:0:
116,352,214518,1,0,0:0:0:0:
195,191,214680,1,10,0:0:0:0:
304,328,214842,2,0,L|463:318,1,110.000003356934,0|2,0:0|0:0,0:0:0:0:
247,92,215166,2,0,P|193:79|141:94,1,110.000003356934,0|10,0:0|0:0,0:0:0:0:
249,258,215491,1,0,0:0:0:0:
60,304,215653,6,0,L|51:194,1,110.000003356934,2|0,0:0|0:0,0:0:0:0:
163,304,215977,1,10,0:0:0:0:
49,167,216139,1,0,0:0:0:0:
182,329,216301,6,0,L|192:219,1,110.000003356934,2|0,0:0|0:0,0:0:0:0:
62,334,216625,1,10,0:0:0:0:
195,191,216787,1,0,0:0:0:0:
308,333,216950,6,0,P|336:334|362:343,1,55.0000016784668,2|0,0:0|0:0,0:0:0:0:
486,265,217112,2,0,P|459:263|433:254,1,55.0000016784668,0|0,0:0|0:0,0:0:0:0:
285,144,217274,6,0,L|294:198,1,55.0000016784668,10|0,0:0|0:0,0:0:0:0:
261,130,217437,2,0,L|270:184,1,55.0000016784668,0|0,0:0|0:0,0:0:0:0:
435,65,217599,6,0,L|427:119,1,55.0000016784668,2|0,0:0|0:0,0:0:0:0:
459,51,217762,2,0,L|451:105,1,55.0000016784668,0|0,0:0|0:0,0:0:0:0:
433,253,217923,5,10,0:0:0:0:
334,59,218085,1,0,0:0:0:0:
167,325,218247,5,2,1:2:0:0:
104,138,218410,1,0,1:0:0:0:
132,142,218491,1,0,1:0:0:0:
160,147,218572,1,2,1:2:0:0:
0,198,218734,1,0,1:0:0:0:
90,49,218896,5,2,1:2:0:0:
124,53,218977,1,0,1:0:0:0:
158,59,219058,1,0,1:0:0:0:
191,64,219139,1,0,1:0:0:0:
225,70,219220,2,0,L|334:58,1,110.000003356934,2|0,1:2|1:0,0:0:0:0:
512,175,219545,6,0,L|393:162,1,120,2|0,1:2|0:0,0:0:0:0:
414,195,219869,5,0,1:0:0:0:
415,234,219950,1,0,1:0:0:0:
395,268,220031,1,0,1:0:0:0:
360,287,220112,1,0,1:0:0:0:
320,285,220193,1,0,1:0:0:0:
288,263,220274,1,0,1:0:0:0:
271,228,220356,2,0,P|268:208|269:188,1,40,0|0,1:0|1:0,0:0:0:0:
194,48,220518,6,0,P|118:33|56:90,1,160,0|4,1:0|0:0,0:0:0:0:
143,54,231220,6,0,P|209:12|286:25,1,160,6|2,1:2|1:2,0:0:0:0:
364,104,231707,1,0,0:0:0:0:
507,133,231869,2,0,P|440:91|363:104,1,160,2|2,1:2|1:2,0:0:0:0:
288,184,232356,1,0,0:0:0:0:
417,284,232518,6,0,L|419:204,1,80,2|0,1:2|0:0,0:0:0:0:
270,203,232842,1,2,1:2:0:0:
223,308,233004,2,0,P|183:313|141:303,1,80,0|2,0:0|1:2,0:0:0:0:
33,217,233329,2,0,P|72:211|114:221,1,80,0|2,0:0|1:2,0:0:0:0:
158,334,233653,1,0,0:0:0:0:
270,203,233815,6,0,B|110:220,1,160,2|2,1:2|1:2,0:0:0:0:
28,136,234301,1,0,0:0:0:0:
176,86,234464,2,0,B|335:103,1,160,2|2,1:2|1:2,0:0:0:0:
417,178,234950,1,0,0:0:0:0:
319,305,235112,6,0,P|311:266|322:228,1,80,2|0,1:2|0:0,0:0:0:0:
439,165,235437,1,2,1:2:0:0:
314,82,235599,2,0,B|234:73,1,80,0|2,0:0|1:2,0:0:0:0:
118,185,235923,2,0,B|197:176,1,80,0|2,0:0|1:2,0:0:0:0:
306,217,236247,1,0,0:0:0:0:
406,75,236410,5,4,0:0:0:0:
412,102,237058,5,0,0:0:0:0:
414,109,237139,1,0,0:0:0:0:
415,116,237220,1,0,0:0:0:0:
418,124,237301,1,0,0:0:0:0:
419,131,237382,1,0,0:0:0:0:
421,138,237463,1,0,0:0:0:0:
423,145,237544,1,0,0:0:0:0:
425,153,237625,1,0,0:0:0:0:
427,160,237707,5,0,0:0:0:0:
414,154,237788,1,0,0:0:0:0:
400,149,237869,1,0,0:0:0:0:
385,146,237950,1,0,0:0:0:0:
370,144,238031,1,0,0:0:0:0:
355,143,238112,1,0,0:0:0:0:
340,144,238193,1,0,0:0:0:0:
326,146,238274,1,0,0:0:0:0:
310,149,238356,5,0,0:0:0:0:
298,164,238437,1,0,0:0:0:0:
282,176,238518,1,0,0:0:0:0:
264,186,238599,1,0,0:0:0:0:
245,191,238680,1,0,0:0:0:0:
225,193,238761,1,0,0:0:0:0:
205,191,238842,5,0,0:0:0:0:
187,170,238923,1,0,0:0:0:0:
164,155,239004,1,0,0:0:0:0:
137,147,239085,1,0,0:0:0:0:
109,147,239166,1,0,0:0:0:0:
82,154,239247,1,0,0:0:0:0:
58,168,239328,1,0,0:0:0:0:
39,188,239409,1,0,0:0:0:0:
27,213,239490,1,0,0:0:0:0:
21,241,239571,1,0,0:0:0:0:
22,271,239653,5,0,0:0:0:0:
37,303,239734,1,0,0:0:0:0:
62,329,239815,1,0,0:0:0:0:
94,344,239896,1,0,0:0:0:0:
129,346,239977,1,0,0:0:0:0:
171,333,240058,1,0,0:0:0:0:
204,304,240139,1,0,0:0:0:0:
221,264,240220,1,0,0:0:0:0:
221,220,240301,5,0,0:0:0:0:
237,171,240382,1,0,0:0:0:0:
273,134,240463,1,0,0:0:0:0:
320,117,240544,1,0,0:0:0:0:
373,124,240625,1,0,0:0:0:0:
421,161,240707,1,0,0:0:0:0:
445,220,240788,1,0,0:0:0:0:
429,286,240869,1,0,0:0:0:0:
374,332,240950,6,0,P|333:321|283:319,1,80
124,259,241274,6,0,P|132:330|206:249,1,225.000008583069,2|0,0:0|0:0,0:0:0:0:
183,177,241599,6,0,L|344:171,1,129.999994049073,6|0,0:0|0:0,0:0:0:0:
390,169,241842,1,0,0:0:0:0:
409,168,241923,1,10,0:0:0:0:
303,83,242085,1,0,0:0:0:0:
331,267,242247,2,0,L|170:261,1,129.999994049073,2|0,0:0|0:0,0:0:0:0:
124,259,242490,1,0,0:0:0:0:
105,258,242571,1,10,0:0:0:0:
150,101,242734,1,0,0:0:0:0:
342,159,242896,6,0,B|363:119|363:119|347:9,1,129.999994049073,2|0,0:0|0:0,0:0:0:0:
217,145,243220,1,10,0:0:0:0:
378,256,243383,2,0,P|428:216|443:152,1,129.999994049073,0|2,0:0|0:0,0:0:0:0:
268,255,243707,2,0,P|217:294|202:358,1,129.999994049073,0|10,0:0|0:0,0:0:0:0:
363,359,244031,1,0,0:0:0:0:
217,145,244193,6,0,L|378:151,1,129.999994049073,2|0,0:0|0:0,0:0:0:0:
424,153,244436,1,0,0:0:0:0:
443,154,244517,1,10,0:0:0:0:
332,242,244679,1,0,0:0:0:0:
360,58,244841,2,0,L|199:64,1,129.999994049073,2|0,0:0|0:0,0:0:0:0:
153,66,245084,1,0,0:0:0:0:
134,67,245165,1,10,0:0:0:0:
221,244,245329,1,0,0:0:0:0:
14,225,245491,6,0,B|50:192|50:192|144:196,1,129.999994049073,2|0,0:0|0:0,0:0:0:0:
217,343,245815,1,10,0:0:0:0:
309,198,245977,2,0,L|311:133,1,64.9999970245363,0|0,0:0|0:0,0:0:0:0:
456,188,246139,5,2,0:0:0:0:
469,232,246220,1,0,0:0:0:0:
458,275,246301,1,0,0:0:0:0:
430,306,246382,1,0,0:0:0:0:
389,319,246463,1,10,0:0:0:0:
347,311,246544,1,0,0:0:0:0:
314,283,246625,1,0,0:0:0:0:
300,242,246706,1,0,0:0:0:0:
309,198,246787,5,2,0:0:0:0:
456,188,246950,1,0,0:0:0:0:
254,329,247112,2,0,P|196:329|131:369,1,129.999994049073,10|0,0:0|0:0,0:0:0:0:
45,279,247437,2,0,P|73:228|71:152,1,129.999994049073,2|0,0:0|0:0,0:0:0:0:
193,122,247761,2,0,P|221:172|289:208,1,129.999994049073,10|0,0:0|0:0,0:0:0:0:
417,135,248004,1,0,0:0:0:0:
436,101,248085,6,0,L|307:90,1,129.999994049073,2|0,0:0|0:0,0:0:0:0:
104,11,248410,2,0,L|233:22,1,129.999994049073,10|0,0:0|0:0,0:0:0:0:
32,102,248734,1,2,0:0:0:0:
195,144,248896,1,0,0:0:0:0:
72,261,249058,1,10,0:0:0:0:
279,194,249220,1,0,0:0:0:0:
315,182,249301,1,0,0:0:0:0:
352,169,249383,6,0,L|209:147,1,129.999994049073,2|0,0:0|0:0,0:0:0:0:
241,336,249707,2,0,L|369:316,1,129.999994049073,10|0,0:0|0:0,0:0:0:0:
418,95,250031,2,0,P|359:70|297:86,1,129.999994049073,2|0,0:0|0:0,0:0:0:0:
52,211,250356,2,0,P|110:236|172:220,1,129.999994049073,10|0,0:0|0:0,0:0:0:0:
118,137,250599,5,0,0:0:0:0:
98,133,250680,2,0,L|13:114,1,64.9999970245363,2|0,0:0|0:0,0:0:0:0:
268,187,250842,5,0,0:0:0:0:
288,183,250923,2,0,L|373:164,1,64.9999970245363,2|0,0:0|0:0,0:0:0:0:
147,30,251085,5,0,0:0:0:0:
127,26,251166,2,0,L|42:7,1,64.9999970245363,2|0,0:0|0:0,0:0:0:0:
316,83,251328,5,0,0:0:0:0:
336,79,251409,2,0,L|421:60,1,64.9999970245363,2|0,0:0|0:0,0:0:0:0:
455,228,251572,5,0,0:0:0:0:
473,269,251653,1,2,0:0:0:0:
461,312,251734,1,2,0:0:0:0:
425,339,251815,1,2,0:0:0:0:
381,338,251896,1,2,0:0:0:0:
350,305,251978,6,0,B|342:166,1,129.999994049073,6|0,0:0|0:0,0:0:0:0:
337,98,252220,1,0,0:0:0:0:
336,79,252301,1,10,0:0:0:0:
230,174,252464,1,0,0:0:0:0:
126,45,252626,2,0,B|118:184,1,129.999994049073,2|0,0:0|0:0,0:0:0:0:
111,252,252868,1,0,0:0:0:0:
110,271,252949,1,10,0:0:0:0:
4,175,253112,1,0,0:0:0:0:
209,289,253274,6,0,B|255:271|255:271|332:291,1,129.999994049073,2|0,0:0|0:0,0:0:0:0:
101,377,253599,1,10,0:0:0:0:
17,201,253761,2,0,P|42:141|94:104,1,129.999994049073,0|2,0:0|0:0,0:0:0:0:
281,23,254085,2,0,P|255:82|203:119,1,129.999994049073,0|10,0:0|0:0,0:0:0:0:
31,228,254409,1,0,0:0:0:0:
167,367,254572,6,0,B|306:359,1,129.999994049073,2|0,0:0|0:0,0:0:0:0:
374,354,254814,1,0,0:0:0:0:
393,353,254895,1,10,0:0:0:0:
298,247,255058,1,0,0:0:0:0:
427,143,255220,2,0,B|288:135,1,129.999994049073,2|0,0:0|0:0,0:0:0:0:
220,128,255464,1,0,0:0:0:0:
201,127,255545,1,10,0:0:0:0:
297,21,255706,1,0,0:0:0:0:
79,15,255869,6,0,B|103:63|103:63|82:136,1,129.999994049073,2|0,0:0|0:0,0:0:0:0:
29,268,256193,1,10,0:0:0:0:
205,257,256356,2,0,B|269:253,1,64.9999970245363,0|0,0:0|0:0,0:0:0:0:
174,347,256518,5,2,0:0:0:0:
135,321,256599,1,0,0:0:0:0:
113,281,256680,1,0,0:0:0:0:
113,235,256761,1,0,0:0:0:0:
134,194,256842,1,10,0:0:0:0:
172,168,256923,1,0,0:0:0:0:
218,163,257004,2,0,P|253:162|280:151,1,64.9999970245363,0|0,0:0|0:0,0:0:0:0:
326,22,257166,5,2,0:0:0:0:
422,191,257329,1,0,0:0:0:0:
429,61,257491,1,10,0:0:0:0:
321,236,257653,1,0,0:0:0:0:
232,70,257815,2,0,P|170:52|108:71,1,129.999994049073,2|0,0:0|0:0,0:0:0:0:
39,229,258139,1,10,0:0:0:0:
172,168,258301,1,0,0:0:0:0:
22,143,258464,5,2,0:0:0:0:
189,254,258626,1,0,0:0:0:0:
253,41,258788,1,10,0:0:0:0:
432,211,258950,2,0,P|381:249|315:245,1,129.999994049073,0|2,0:0|0:0,0:0:0:0:
146,188,259274,1,0,0:0:0:0:
259,335,259437,1,10,0:0:0:0:
353,159,259599,1,0,0:0:0:0:
326,132,259680,1,0,0:0:0:0:
299,105,259761,6,0,L|142:114,1,129.999994049073,2|0,0:0|0:0,0:0:0:0:
317,246,260085,2,0,P|380:250|432:212,1,129.999994049073,10|0,0:0|0:0,0:0:0:0:
397,88,260410,6,0,L|461:84,1,64.9999970245363,2|0,0:0|0:0,0:0:0:0:
229,63,260572,2,0,L|293:59,1,64.9999970245363,0|0,0:0|0:0,0:0:0:0:
61,38,260734,2,0,L|125:34,3,64.9999970245363,10|0|0|0,0:0|0:0|0:0|0:0,0:0:0:0:
114,127,261058,6,0,L|102:291,1,165.000005035401,2|0,0:0|0:0,0:0:0:0:
229,375,261383,6,0,L|214:173,1,194.999991073609,10|0,0:0|0:0,0:0:0:0:
337,29,261707,6,0,L|319:281,1,225.000008583069,2|0,0:0|0:0,0:0:0:0:
446,370,262031,5,8,0:0:0:0:
446,370,262356,6,0,L|494:329,3,55.0000016784668,14|0|0|0,0:0|0:0|0:0|0:0,0:0:0:0:
417,276,262680,2,0,L|405:213,3,55.0000016784668,10|0|0|0,0:0|0:0|0:0|0:0,0:0:0:0:
321,254,263004,2,0,L|261:232,3,55.0000016784668,10|0|0|0,0:0|0:0|0:0|0:0,0:0:0:0:
254,326,263329,2,0,L|206:367,3,55.0000016784668,10|0|0|0,0:0|0:0|0:0|0:0,0:0:0:0:
174,265,263653,5,10,0:0:0:0:
146,267,263734,1,0,0:0:0:0:
119,271,263815,1,0,0:0:0:0:
91,275,263896,1,0,0:0:0:0:
64,278,263977,2,0,L|10:264,3,55.0000016784668,10|0|0|0,0:0|0:0|0:0|0:0,0:0:0:0:
101,150,264301,5,10,0:0:0:0:
128,152,264382,1,0,0:0:0:0:
155,156,264463,1,0,0:0:0:0:
183,160,264544,1,0,0:0:0:0:
210,163,264625,2,0,L|263:149,3,55.0000016784668,10|0|0|0,0:0|0:0|0:0|0:0,0:0:0:0:
313,44,264950,5,10,0:0:0:0:
338,53,265031,1,0,0:0:0:0:
365,56,265112,1,0,0:0:0:0:
393,54,265193,1,0,0:0:0:0:
427,36,265274,5,10,0:0:0:0:
433,68,265356,1,0,0:0:0:0:
439,100,265437,1,0,0:0:0:0:
445,132,265518,1,0,0:0:0:0:
480,162,265599,5,10,0:0:0:0:
472,200,265681,1,0,0:0:0:0:
465,238,265762,1,0,0:0:0:0:
458,277,265843,1,0,0:0:0:0:
449,315,265923,2,0,L|388:311,1,55.0000016784668,10|0,0:0|0:0,0:0:0:0:
193,224,266085,5,0,0:0:0:0:
234,226,266166,1,0,0:0:0:0:
275,229,266247,1,10,0:0:0:0:
316,232,266328,1,0,0:0:0:0:
357,234,266410,2,0,L|387:188,1,55.0000016784668
257,52,266572,2,0,L|287:97,1,55.0000016784668,10|0,0:0|0:0,0:0:0:0:
193,224,266734,1,0,0:0:0:0:
193,224,266815,1,0,0:0:0:0:
193,224,266896,5,10,0:0:0:0:
152,247,266977,1,0,0:0:0:0:
105,249,267059,1,0,0:0:0:0:
64,225,267140,1,0,0:0:0:0:
39,184,267221,1,10,0:0:0:0:
39,137,267302,1,0,0:0:0:0:
64,97,267383,2,0,P|89:78|120:70,1,55.0000016784668,10|0,0:0|0:0,0:0:0:0:
225,144,267545,6,0,L|388:142,1,129.999994049073,10|0,0:0|0:0,0:0:0:0:
433,141,267788,1,0,0:0:0:0:
447,104,267869,1,10,0:0:0:0:
368,339,268031,1,10,0:0:0:0:
71,255,268356,6,0,B|130:235|196:244|196:244|163:227|138:197,1,200,10|0,0:0|0:0,0:0:0:0:
97,105,268842,5,10,0:0:0:0:
385,73,269004,1,10,0:0:0:0:
118,123,269167,1,10,0:0:0:0:
406,91,269329,2,0,L|309:69,1,100,10|0,0:0|0:0,0:0:0:0:
335,302,269653,6,0,P|449:283|460:167,1,250,2|0,0:0|0:0,0:0:0:0:
379,217,270139,6,0,L|236:222,1,129.999994049073,6|0,0:0|0:0,0:0:0:0:
170,223,270383,1,0,0:0:0:0:
149,189,270464,1,10,0:0:0:0:
0,235,270626,2,0,L|68:345,1,129.999994049073,0|2,0:0|0:0,0:0:0:0:
146,347,270869,1,0,0:0:0:0:
185,345,270950,1,0,0:0:0:0:
149,189,271112,2,0,L|84:191,1,64.9999970245363,10|0,0:0|0:0,0:0:0:0:
185,345,271274,2,0,L|249:342,1,64.9999970245363,0|0,0:0|0:0,0:0:0:0:
394,382,271437,6,0,L|374:240,1,129.999994049073,2|0,0:0|0:0,0:0:0:0:
363,174,271681,1,0,0:0:0:0:
326,159,271762,1,10,0:0:0:0:
344,6,271924,2,0,L|464:53,1,129.999994049073,0|2,0:0|0:0,0:0:0:0:
480,129,272167,1,0,0:0:0:0:
485,167,272248,1,0,0:0:0:0:
326,159,272410,2,0,L|316:94,1,64.9999970245363,10|0,0:0|0:0,0:0:0:0:
485,167,272572,2,0,L|494:231,1,64.9999970245363,0|0,0:0|0:0,0:0:0:0:
278,241,272734,6,0,P|236:192|238:128,1,129.999994049073,2|0,0:0|0:0,0:0:0:0:
233,51,272977,1,0,0:0:0:0:
207,21,273058,1,10,0:0:0:0:
68,40,273220,2,0,P|109:88|107:152,1,129.999994049073,0|2,0:0|0:0,0:0:0:0:
113,230,273463,1,0,0:0:0:0:
139,260,273544,1,0,0:0:0:0:
278,241,273707,5,10,0:0:0:0:
244,219,273788,1,0,0:0:0:0:
204,216,273869,1,0,0:0:0:0:
167,231,273950,1,0,0:0:0:0:
139,260,274031,6,0,P|79:284|15:282,1,129.999994049073,2|0,0:0|0:0,0:0:0:0:
75,372,274274,1,0,0:0:0:0:
104,357,274355,2,0,P|136:350|168:350,1,64.9999970245363,10|0,0:0|0:0,0:0:0:0:
320,322,274518,2,0,P|288:329|256:329,1,64.9999970245363,0|0,0:0|0:0,0:0:0:0:
441,154,274680,5,2,0:0:0:0:
494,193,274761,1,0,0:0:0:0:
500,252,274842,1,0,0:0:0:0:
468,293,274923,1,0,0:0:0:0:
422,298,275004,1,10,0:0:0:0:
388,277,275086,1,0,0:0:0:0:
371,249,275166,2,0,P|341:235|309:232,1,64.9999970245363,0|0,0:0|0:0,0:0:0:0:
167,241,275329,6,0,L|37:255,1,129.999994049073,2|0,0:0|0:0,0:0:0:0:
27,179,275572,2,0,L|156:164,1,129.999994049073,0|0,0:0|0:0,0:0:0:0:
284,102,275815,2,0,L|154:87,1,129.999994049073,0|2,0:0|0:0,0:0:0:0:
165,10,276058,2,0,L|294:24,1,129.999994049073
425,40,276301,2,0,L|417:105,1,64.9999970245363,10|0,0:0|0:0,0:0:0:0:
403,200,276464,2,0,L|395:265,1,64.9999970245363,0|0,0:0|0:0,0:0:0:0:
297,363,276626,6,0,L|283:234,1,129.999994049073,2|0,0:0|0:0,0:0:0:0:
206,244,276869,2,0,L|221:374,1,129.999994049073,0|0,0:0|0:0,0:0:0:0:
127,246,277112,2,0,L|141:116,1,129.999994049073,0|2,0:0|0:0,0:0:0:0:
64,105,277355,2,0,L|49:234,1,129.999994049073,0|0,0:0|0:0,0:0:0:0:
26,343,277599,1,10,0:0:0:0:
64,339,277680,1,0,0:0:0:0:
102,334,277761,2,0,L|179:323,1,64.9999970245363,0|0,0:0|0:0,0:0:0:0:
363,205,277923,6,0,B|306:231|306:231|174:212,1,194.999991073609,2|0,0:0|0:0,0:0:0:0:
136,206,278247,1,10,0:0:0:0:
264,13,278410,2,0,P|296:68|291:132,1,129.999994049073,0|2,0:0|0:0,0:0:0:0:
204,301,278734,1,0,0:0:0:0:
62,86,278896,2,0,L|209:94,1,129.999994049073,10|0,0:0|0:0,0:0:0:0:
376,128,279139,5,0,0:0:0:0:
356,129,279220,2,0,L|291:132,1,64.9999970245363,2|0,0:0|0:0,0:0:0:0:
137,257,279383,5,0,0:0:0:0:
157,256,279464,2,0,L|221:252,1,64.9999970245363,2|0,0:0|0:0,0:0:0:0:
191,73,279626,5,0,0:0:0:0:
192,93,279707,2,0,L|195:157,1,64.9999970245363,2|0,0:0|0:0,0:0:0:0:
321,311,279869,5,0,0:0:0:0:
320,291,279950,2,0,L|316:226,1,64.9999970245363,2|0,0:0|0:0,0:0:0:0:
456,30,280112,5,0,0:0:0:0:
453,36,280193,1,2,0:0:0:0:
450,42,280274,1,2,0:0:0:0:
447,48,280356,1,2,0:0:0:0:
444,54,280437,1,2,0:0:0:0:
441,60,280518,6,0,L|311:49,1,129.999994049073,14|0,0:0|0:0,0:0:0:0:
231,174,280842,2,0,L|360:163,1,129.999994049073,10|0,0:0|0:0,0:0:0:0:
140,235,281166,2,0,P|122:161|146:106,1,129.999994049073,10|0,0:0|0:0,0:0:0:0:
302,259,281491,2,0,P|320:333|296:388,1,129.999994049073,10|0,0:0|0:0,0:0:0:0:
116,356,281734,1,0,0:0:0:0:
87,330,281815,6,0,L|216:319,1,129.999994049073,10|0,0:0|0:0,0:0:0:0:
430,370,282139,2,0,L|301:381,1,129.999994049073,10|0,0:0|0:0,0:0:0:0:
157,226,282464,2,0,P|231:208|286:232,1,129.999994049073,10|0,0:0|0:0,0:0:0:0:
469,151,282788,2,0,P|395:169|340:145,1,129.999994049073,10|0,0:0|0:0,0:0:0:0:
252,42,283031,1,0,0:0:0:0:
231,9,283112,6,0,L|220:138,1,129.999994049073,10|0,0:0|0:0,0:0:0:0:
358,280,283437,2,0,L|347:151,1,129.999994049073,10|0,0:0|0:0,0:0:0:0:
137,209,283761,2,0,P|190:243|254:241,1,129.999994049073,10|0,0:0|0:0,0:0:0:0:
427,77,284085,2,0,P|373:42|309:44,1,129.999994049073,10|0,0:0|0:0,0:0:0:0:
78,105,284329,1,0,0:0:0:0:
46,83,284410,6,0,L|175:72,1,129.999994049073,10|0,0:0|0:0,0:0:0:0:
345,149,284734,2,0,L|216:160,1,129.999994049073,10|0,0:0|0:0,0:0:0:0:
27,233,285058,2,0,L|155:244,1,129.999994049073,10|0,0:0|0:0,0:0:0:0:
310,350,285382,2,0,L|181:338,1,129.999994049073,10|0,0:0|0:0,0:0:0:0:
136,156,285707,5,10,0:0:0:0:
72,345,285869,1,8,0:0:0:0:
263,245,286031,1,10,0:0:0:0:
71,108,286193,1,8,0:0:0:0:
236,322,286356,5,10,0:0:0:0:
300,133,286518,1,8,0:0:0:0:
109,233,286680,1,10,0:0:0:0:
301,370,286842,1,8,0:0:0:0:
408,90,287004,5,10,0:0:0:0:
464,321,287166,1,8,0:0:0:0:
245,182,287328,1,10,0:0:0:0:
489,38,287490,1,8,0:0:0:0:
269,277,287653,5,10,0:0:0:0:
213,44,287815,1,8,0:0:0:0:
432,184,287977,1,10,0:0:0:0:
187,327,288139,1,8,0:0:0:0:
71,141,288301,5,2,1:2:0:0:
106,158,288382,1,0,1:0:0:0:
145,168,288463,1,0,1:0:0:0:
184,168,288544,1,0,1:0:0:0:
223,159,288626,1,2,1:2:0:0:
258,141,288706,1,0,1:0:0:0:
288,115,288787,1,0,1:0:0:0:
311,84,288868,1,0,1:0:0:0:
317,44,288950,5,2,1:2:0:0:
282,76,289031,1,0,1:0:0:0:
269,123,289112,1,0,1:0:0:0:
281,169,289193,1,0,1:0:0:0:
315,203,289274,1,2,1:2:0:0:
362,215,289355,1,0,1:0:0:0:
408,201,289436,1,0,1:0:0:0:
440,166,289517,1,0,1:0:0:0:
449,121,289599,6,0,L|360:124,1,89.9999972534181,2|0,1:2|0:0,0:0:0:0:
229,242,289923,5,2,1:2:0:0:
252,242,290004,1,0,1:0:0:0:
275,243,290085,2,0,L|314:244,1,40,0|0,1:0|1:0,1:0:0:0:
461,367,290247,5,2,1:2:0:0:
425,367,290328,1,0,1:0:0:0:
390,368,290410,1,0,1:0:0:0:
355,368,290491,1,0,1:0:0:0:
320,368,290572,6,0,P|254:339|180:366,1,150,0|0,1:2|1:0,0:0:0:0:
160,380,290896,6,0,L|165:244,1,110.000003356934,6|0,0:0|0:0,0:0:0:0:
295,124,291220,2,0,P|302:179|272:237,1,110.000003356934,10|0,0:0|0:0,0:0:0:0:
216,35,291545,1,2,0:0:0:0:
405,130,291707,1,0,0:0:0:0:
209,165,291869,1,10,0:0:0:0:
393,36,292031,6,0,P|468:59|476:192,1,220.000006713867,0|0,0:0|0:0,0:0:0:0:
352,233,292518,2,0,P|298:224|248:243,1,110.000003356934,10|0,0:0|0:0,0:0:0:0:
433,295,292842,1,2,0:0:0:0:
295,124,293004,1,0,0:0:0:0:
309,318,293166,1,10,0:0:0:0:
434,152,293329,1,0,0:0:0:0:
224,62,293491,6,0,P|202:111|209:165,1,110.000003356934,2|0,0:0|0:0,0:0:0:0:
405,130,293815,2,0,L|295:124,1,110.000003356934,10|0,0:0|0:0,0:0:0:0:
152,237,294139,1,2,0:0:0:0:
104,98,294301,1,0,0:0:0:0:
95,309,294464,1,10,0:0:0:0:
319,171,294626,6,0,L|209:165,1,110.000003356934,0|2,0:0|0:0,0:0:0:0:
357,263,294950,1,0,0:0:0:0:
423,103,295112,1,10,0:0:0:0:
347,291,295274,1,0,0:0:0:0:
211,86,295437,2,0,L|265:88,1,55.0000016784668,2|0,0:0|0:0,0:0:0:0:
209,165,295599,1,0,0:0:0:0:
208,183,295653,1,0,0:0:0:0:
207,201,295707,1,0,0:0:0:0:
206,219,295761,1,10,0:0:0:0:
141,43,295923,1,0,0:0:0:0:
375,94,296085,6,0,L|265:88,1,110.000003356934,2|0,0:0|0:0,0:0:0:0:
109,193,296410,2,0,P|155:164|209:165,1,110.000003356934,10|0,0:0|0:0,0:0:0:0:
67,290,296734,1,2,0:0:0:0:
62,106,296896,1,0,0:0:0:0:
180,256,297058,1,10,0:0:0:0:
5,334,297220,6,0,B|156:325|156:325|76:293,1,220.000006713867,0|0,0:0|0:0,0:0:0:0:
0,368,297707,2,0,L|151:359,1,110.000003356934,10|0,0:0|0:0,0:0:0:0:
208,230,298031,1,2,0:0:0:0:
272,382,298193,1,0,0:0:0:0:
109,361,298356,1,10,0:0:0:0:
314,294,298518,1,0,0:0:0:0:
154,150,298680,6,0,P|120:192|115:246,1,110.000003356934,2|0,0:0|0:0,0:0:0:0:
266,136,299004,2,0,L|259:26,1,110.000003356934,10|0,0:0|0:0,0:0:0:0:
360,203,299329,1,2,0:0:0:0:
208,230,299491,1,0,0:0:0:0:
366,60,299653,1,10,0:0:0:0:
437,272,299815,1,0,0:0:0:0:
198,344,299977,6,0,P|246:245|317:277,1,209.999993591309,2|0,0:0|0:0,0:0:0:0:
287,374,300301,2,0,L|57:362,1,209.999993591309,2|0,0:0|0:0,0:0:0:0:
4,278,300626,2,0,B|63:232|63:232|70:97,1,209.999993591309,2|0,0:0|0:0,0:0:0:0:
184,255,300950,6,0,P|135:264|89:247,1,100,8|0,0:0|0:0,0:0:0:0:
223,54,301274,6,0,L|228:163,1,110.000003356934,6|0,0:0|0:0,0:0:0:0:
455,263,301599,2,0,P|425:217|375:195,1,110.000003356934,10|0,0:0|0:0,0:0:0:0:
287,374,301923,1,2,0:0:0:0:
245,187,302085,1,0,0:0:0:0:
364,289,302247,1,10,0:0:0:0:
152,355,302410,6,0,B|160:197|160:197|183:254,1,220.000006713867
172,104,302896,2,0,P|118:112|78:149,1,110.000003356934,10|0,0:0|0:0,0:0:0:0:
183,254,303220,1,2,0:0:0:0:
259,82,303383,1,0,0:0:0:0:
311,217,303545,1,10,0:0:0:0:
387,45,303707,1,0,0:0:0:0:
512,262,303869,6,0,P|461:281|408:270,1,110.000003356934,2|0,0:0|0:0,0:0:0:0:
251,174,304193,2,0,L|394:161,1,110.000003356934,10|0,0:0|0:0,0:0:0:0:
318,298,304518,1,2,0:0:0:0:
453,187,304680,1,0,0:0:0:0:
299,72,304842,1,10,0:0:0:0:
512,103,305004,6,0,P|528:51|511:0,1,110.000003356934,0|2,0:0|0:0,0:0:0:0:
283,45,305329,1,0,0:0:0:0:
353,188,305491,1,10,0:0:0:0:
433,53,305653,1,0,0:0:0:0:
243,185,305815,2,0,L|188:183,1,55.0000016784668,2|0,0:0|0:0,0:0:0:0:
248,271,305977,1,0,0:0:0:0:
250,289,306031,1,0,0:0:0:0:
251,307,306085,1,0,0:0:0:0:
252,325,306139,1,10,0:0:0:0:
353,188,306301,1,0,0:0:0:0:
142,97,306464,6,0,L|251:94,1,110.000003356934,2|0,0:0|0:0,0:0:0:0:
63,150,306788,2,0,P|45:98|62:47,1,110.000003356934,10|0,0:0|0:0,0:0:0:0:
243,185,307112,1,2,0:0:0:0:
142,97,307274,1,0,0:0:0:0:
185,273,307437,1,10,0:0:0:0:
324,102,307599,6,0,P|230:90|264:192,1,220.000006713867,0|0,0:0|0:0,0:0:0:0:
356,79,308085,2,0,P|313:46|248:46,1,110.000003356934,10|0,0:0|0:0,0:0:0:0:
370,214,308410,1,2,0:0:0:0:
475,120,308572,1,0,0:0:0:0:
396,305,308734,1,10,0:0:0:0:
242,184,308896,1,0,0:0:0:0:
145,376,309058,6,0,P|200:365|237:326,1,110.000003356934,2|0,0:0|0:0,0:0:0:0:
13,274,309383,2,0,L|4:397,1,110.000003356934,10|0,0:0|0:0,0:0:0:0:
154,281,309707,1,2,0:0:0:0:
30,126,309869,1,0,0:0:0:0:
36,248,310031,1,10,0:0:0:0:
145,83,310193,1,0,0:0:0:0:
272,302,310356,6,0,L|406:289,1,134.999995880127,2|0,0:0|0:0,0:0:0:0:
469,212,310680,1,0,0:0:0:0:
425,372,310842,1,0,0:0:0:0:
331,193,311004,2,0,L|325:138,1,55.0000016784668
249,202,311166,1,0,0:0:0:0:
230,203,311220,1,0,0:0:0:0:
212,205,311274,1,0,0:0:0:0:
194,207,311328,1,0,0:0:0:0:
55,114,311491,2,0,L|109:108,1,55.0000016784668
25,279,311653,5,6,0:0:0:0:
256,192,311815,12,0,320410,0:0:0:0:
184,152,320734,6,0,L|180:117,1,34.9999989318848,2|0,0:0|0:0,0:0:0:0:
195,141,321058,2,0,L|192:107,1,34.9999989318848,2|0,0:0|0:0,0:0:0:0:
206,130,321383,6,0,L|199:60,3,69.9999978637696,2|0|0|0,0:0|0:0|0:0|0:0,0:0:0:0:
216,46,322031,6,0,L|225:136,1,89.9999972534181,14|0,0:0|0:0,0:0:0:0:
365,278,322356,2,0,L|372:189,1,89.9999972534181,10|0,0:0|0:0,0:0:0:0:
180,238,322680,2,0,P|224:246|268:238,1,89.9999972534181,10|0,0:0|0:0,0:0:0:0:
418,87,323004,2,0,P|373:78|329:86,1,89.9999972534181,10|0,0:0|0:0,0:0:0:0:
135,129,323329,6,0,L|224:136,1,89.9999972534181,10|0,0:0|0:0,0:0:0:0:
176,331,323653,2,0,L|87:338,1,89.9999972534181,10|0,0:0|0:0,0:0:0:0:
142,205,323977,1,10,0:0:0:0:
268,238,324139,1,0,0:0:0:0:
188,349,324301,2,0,L|99:356,1,89.9999972534181,10|0,0:0|0:0,0:0:0:0:
356,279,324626,6,0,P|371:320|371:365,1,89.9999972534181,10|0,0:0|0:0,0:0:0:0:
241,224,324950,2,0,P|225:182|225:137,1,89.9999972534181,10|0,0:0|0:0,0:0:0:0:
420,167,325274,2,0,L|331:164,1,89.9999972534181,10|0,0:0|0:0,0:0:0:0:
170,51,325599,2,0,L|259:47,1,89.9999972534181,10|0,0:0|0:0,0:0:0:0:
456,57,325923,6,0,P|414:72|369:72,1,89.9999972534181,10|0,0:0|0:0,0:0:0:0:
244,179,326247,2,0,P|285:163|330:163,1,89.9999972534181,10|0,0:0|0:0,0:0:0:0:
460,242,326572,1,10,0:0:0:0:
434,348,326734,1,0,0:0:0:0:
329,379,326896,1,10,0:0:0:0:
249,304,327058,1,0,0:0:0:0:
294,183,327220,5,10,0:0:0:0:
142,234,327382,1,8,0:0:0:0:
229,95,327544,1,10,0:0:0:0:
339,248,327706,1,8,0:0:0:0:
192,95,327869,5,10,0:0:0:0:
344,44,328031,1,8,0:0:0:0:
257,183,328193,1,10,0:0:0:0:
147,30,328355,1,8,0:0:0:0:
151,205,328518,5,10,0:0:0:0:
318,148,328680,1,8,0:0:0:0:
222,301,328842,1,10,0:0:0:0:
101,133,329004,1,8,0:0:0:0:
263,301,329167,5,10,0:0:0:0:
95,357,329329,1,8,0:0:0:0:
191,205,329491,1,10,0:0:0:0:
312,373,329653,1,8,0:0:0:0:
437,220,329815,6,0,L|423:158,3,44.999998626709,2|0|0|0,1:2|1:0|1:0|1:0,1:0:0:0:
362,216,330139,2,0,L|333:160,3,44.999998626709,2|0|0|0,1:2|1:0|1:0|1:0,1:0:0:0:
289,231,330464,2,0,L|246:184,3,44.999998626709,2|0|0|0,1:2|1:0|1:0|1:0,1:0:0:0:
224,265,330788,2,0,L|170:231,3,44.999998626709,2|0|0|0,1:2|1:0|1:0|1:0,1:0:0:0:
91,231,331112,5,2,1:2:0:0:
97,86,331274,1,0,1:0:0:0:
124,55,331355,1,0,1:0:0:0:
163,53,331436,1,0,1:0:0:0:
196,75,331517,1,0,1:0:0:0:
206,114,331598,1,0,1:0:0:0:
187,149,331679,1,0,1:0:0:0:
150,163,331761,5,2,0:0:0:0:
76,251,331924,1,2,0:0:0:0:
137,348,332086,1,2,0:0:0:0:
249,321,332248,1,2,0:0:0:0:
346,381,332410,1,2,0:0:0:0:
256,192,332491,12,0,335004,0:0:0:0:
