osu file format v14

[General]
AudioFilename: audio.mp3
AudioLeadIn: 0
PreviewTime: 62969
Countdown: 0
SampleSet: Soft
StackLeniency: 0.7
Mode: 0
LetterboxInBreaks: 0
WidescreenStoryboard: 1

[Editor]
Bookmarks: 27995,63521,96364,126679,155420,173149,173314,173480,173646,173811,173963,174115,174191,174348,174430,174507,174739,174903,175068,175233,175464,175542,175634,175820,176005,176098,176341,176499,176657,176815,176973,177131,177368,177537,177680,177920,178079,178237,178474,178631,178789,178947,179105,179342,179499,179657,179894,180052,180289,180447,180605,180763,180921,181078,181315,181473,181631,181789,181947,182105,182263,182421,182578,194578,224894,229947,244947
DistanceSpacing: 0.2
BeatDivisor: 4
GridSize: 16
TimelineZoom: 1.94

[Metadata]
Title:Rising Hope
TitleUnicode:Rising Hope
Artist:LiSA
ArtistUnicode:LiSA
Creator:Hinae
Version:OneHina's Insane
Source:魔法科高校の劣等生
Tags:Mahouka Koukou no Rettousei The irregular at Magic High School anime opening 1 full japanese rock jrock j-rock 織部里沙 Risa Oribe 司波深雪 Shiba Miyuki 司波達也 Shiba Tatsuya oniisama onii-sama onii sama Onegai Flame Haze
BeatmapID:3527008
BeatmapSetID:1711383

[Difficulty]
HPDrainRate:5
CircleSize:4
OverallDifficulty:7.5
ApproachRate:9
SliderMultiplier:1.7
SliderTickRate:1

[Events]
//Background and Video events
0,0,"cropped-1920-1080-551175.jpg",0,0
//Break Periods
2,126879,130342
2,136985,140132
2,173349,182294
2,225094,229347
//Storyboard Layer 0 (Background)
//Storyboard Layer 1 (Fail)
//Storyboard Layer 2 (Pass)
//Storyboard Layer 3 (Foreground)
//Storyboard Layer 4 (Overlay)
//Storyboard Sound Samples

[TimingPoints]
364,315.789473684211,4,2,1,30,1,0
364,-142.857142857143,4,2,1,30,0,0
2890,-142.857142857143,4,2,1,40,0,0
3995,-142.857142857143,4,2,1,50,0,0
5416,-83.3333333333333,4,2,1,50,0,0
6206,-100,4,2,1,50,0,0
12995,-83.3333333333333,4,2,1,70,0,0
18048,-125,4,2,1,40,0,0
23100,-100,4,2,1,45,0,0
24206,-100,4,2,1,46,0,0
24521,-100,4,2,1,47,0,0
24837,-100,4,2,1,48,0,0
25153,-100,4,2,1,49,0,0
25469,-100,4,2,1,50,0,0
25785,-100,4,2,1,51,0,0
26100,-100,4,2,1,52,0,0
26416,-100,4,2,1,53,0,0
27521,-100,4,2,1,50,0,0
27995,-117.647058823529,4,2,1,60,0,0
37627,-133.333333333333,4,2,1,45,0,0
38258,-133.333333333333,4,2,1,60,0,0
38890,-117.647058823529,4,2,1,60,0,0
43311,-133.333333333333,4,2,1,60,0,0
43627,-117.647058823529,4,2,1,60,0,0
48364,-142.857142857143,4,2,1,40,0,0
52785,-142.857142857143,4,2,1,60,0,0
53416,-117.647058823529,4,2,1,50,0,0
57206,-100,4,2,1,60,0,0
57837,-100,4,2,1,70,0,0
58469,-100,4,2,1,30,0,0
59258,-133.333333333333,4,2,1,30,0,0
59890,-133.333333333333,4,2,1,40,0,0
60521,-133.333333333333,4,2,1,50,0,0
60679,-133.333333333333,4,2,1,60,0,0
60995,-111.111111111111,4,2,1,70,0,0
63521,-76.9230769230769,4,2,1,80,0,1
64785,-86.9565217391304,4,2,1,80,0,1
66048,-76.9230769230769,4,2,1,80,0,1
67311,-86.9565217391304,4,2,1,80,0,1
68574,-76.9230769230769,4,2,1,80,0,1
70469,-90.9090909090909,4,2,1,80,0,1
70942,-76.9230769230769,4,2,1,80,0,1
74890,-86.9565217391304,4,2,1,80,0,1
76153,-76.9230769230769,4,2,1,80,0,1
77416,-86.9565217391304,4,2,1,80,0,1
78364,-76.9230769230769,4,2,1,80,0,1
80574,-86.9565217391304,4,2,1,80,0,1
81048,-76.9230769230769,4,2,1,80,0,1
81521,-86.9565217391304,4,2,1,80,0,1
83732,-76.9230769230769,4,2,1,80,0,1
90048,-100,4,2,1,80,0,0
91311,-100,4,2,1,50,0,0
95732,-83.3333333333333,4,2,1,50,0,0
96364,-100,4,2,1,70,0,0
106469,-117.647058823529,4,2,1,50,0,0
114048,-133.333333333333,4,2,1,50,0,0
115311,-111.111111111111,4,2,1,50,0,0
116416,-100,4,2,1,60,0,0
124153,-83.3333333333333,4,2,1,70,0,0
126758,-83.3333333333333,4,2,1,40,0,0
130942,-133.333333333333,4,2,1,50,0,0
131732,-86.9565217391304,4,2,1,60,0,0
135521,-86.9565217391304,4,2,1,70,0,0
136153,-86.9565217391304,4,2,1,65,0,0
136469,-86.9565217391304,4,2,1,60,0,0
137416,-86.9565217391304,4,2,1,40,0,0
140732,-86.9565217391304,4,2,1,50,0,0
141206,315.789473684211,4,2,1,50,1,0
144363,-100,4,2,1,60,0,0
145627,315.789473684211,4,2,1,70,1,0
145627,-90.9090909090909,4,2,1,70,0,0
147837,315.789473684211,4,2,1,70,1,0
147837,-83.3333333333333,4,2,1,70,0,0
148468,-100,4,2,1,70,0,0
150047,315.789473684211,4,2,1,70,1,0
150047,-83.3333333333333,4,2,1,70,0,0
150362,-100,4,2,1,70,0,0
152257,-100,4,2,1,80,0,0
153204,348.837209302325,4,2,1,80,1,0
153531,317.460317460318,4,2,1,80,1,0
154007,314.13612565445,4,2,1,80,1,0
154007,-153.846153846154,4,2,1,80,0,0
155420,315.789473684211,4,2,1,50,1,0
155420,-133.333333333333,4,2,1,50,0,0
160472,-111.111111111111,4,2,1,60,0,0
162998,-133.333333333333,4,2,1,60,0,0
164262,-100,4,2,1,60,0,0
165525,-100,4,2,1,30,0,0
166314,-133.333333333333,4,2,1,30,0,0
166946,-133.333333333333,4,2,1,40,0,0
167577,-100,4,2,1,50,0,0
168051,-100,4,2,1,60,0,0
171683,335.195530726257,4,2,1,60,1,0
172019,342.857142857143,4,2,1,60,1,0
172190,303.030303030303,4,2,1,65,1,0
172340,300,4,2,1,70,1,0
172490,329.67032967033,4,2,1,75,1,0
173149,331.491712707183,4,2,1,40,1,0
173811,304.182509505704,4,2,1,40,1,0
174266,329.67032967033,4,2,1,40,1,0
174430,309.278350515464,4,2,1,40,1,0
174739,329.67032967033,4,2,1,40,1,0
175233,309.278350515464,4,2,1,40,1,0
175542,370.942812982999,4,2,1,40,1,0
176098,329.67032967033,4,2,1,40,1,0
176262,316.122233930453,4,2,1,40,1,0
176736,329.67032967033,4,2,1,40,1,0
177395,285.714285714286,4,2,1,40,1,0
177680,321.285140562249,4,2,1,40,1,0
178001,315.789473684211,4,2,1,40,1,0
178474,315.789473684211,4,2,1,40,1,0
179421,315.789473684211,4,2,1,40,1,0
182894,-200,4,2,1,40,0,0
183210,-86.9565217391304,4,2,1,50,0,0
183526,-125,4,2,1,50,0,0
184473,-86.9565217391304,4,2,1,50,0,0
184947,-125,4,2,1,50,0,0
185421,-111.111111111111,4,2,1,50,0,0
185736,-100,4,2,1,50,0,0
188263,-181.818181818181,4,2,1,50,0,0
189526,-100,4,2,1,30,0,0
191736,-100,4,2,1,30,0,0
192052,-86.9565217391304,4,2,1,65,0,0
194578,-76.9230769230769,4,2,1,80,0,1
195210,-83.3333333333333,4,2,1,80,0,1
199473,-76.9230769230769,4,2,1,80,0,1
199947,-83.3333333333333,4,2,1,80,0,1
200736,-71.4285714285714,4,2,1,80,0,1
201210,-76.9230769230769,4,2,1,80,0,1
201684,-83.3333333333333,4,2,1,80,0,1
202157,-76.9230769230769,4,2,1,80,0,1
202473,-83.3333333333333,4,2,1,80,0,1
204684,-100,4,2,1,80,0,1
204999,-76.9230769230769,4,2,1,80,0,1
205315,-100,4,2,1,80,0,1
205631,-76.9230769230769,4,2,1,80,0,1
205947,-90.9090909090909,4,2,1,80,0,1
207210,-90.9090909090909,4,2,1,80,0,1
209421,-76.9230769230769,4,2,1,80,0,1
210052,-90.9090909090909,4,2,1,80,0,1
212263,-100,4,2,1,80,0,1
216526,-83.3333333333333,4,2,1,80,0,1
223631,-100,4,2,1,80,0,0
224894,-100,4,2,1,50,0,0
229947,-161.290322580645,4,2,1,50,0,0
230578,-121.951219512195,4,2,1,50,0,0
232473,-108.695652173913,4,2,1,50,0,0
234368,-161.290322580645,4,2,1,50,0,0
234999,-83.3333333333333,4,2,1,70,0,0
242578,-100,4,2,1,80,0,0

[Colours]
Combo1 : 255,255,128
Combo2 : 14,177,140
Combo3 : 71,239,172
Combo4 : 0,115,170
Combo5 : 128,128,255
Combo6 : 226,65,65
Combo7 : 192,192,192

[HitObjects]
489,320,364,5,2,0:0:0:0:
481,384,522,2,0,P|489:353|496:326,1,59.4999981842042,2|2,0:0|0:0,0:0:0:0:
433,227,837,6,0,P|377:216|335:267,1,118.999996368408,2|2,0:0|0:0,0:0:0:0:
432,219,1311,2,0,P|375:210|331:260,1,118.999996368408,2|2,0:0|0:0,0:0:0:0:
290,329,1785,2,0,P|241:295|184:279,1,118.999996368408,2|2,0:0|0:0,0:0:0:0:
260,203,2258,1,2,0:0:0:0:
204,89,2574,5,2,0:0:0:0:
205,79,2732,1,2,0:0:0:0:
140,35,2890,1,2,0:0:0:0:
105,116,3048,2,0,P|111:136|124:190,2,59.4999981842042,2|2|2,0:0|0:0|0:0,0:0:0:0:
9,76,3521,6,0,P|32:162|43:213,1,118.999996368408,2|2,0:0|0:0,0:0:0:0:
11,63,3995,2,0,P|34:149|45:200,1,118.999996368408,2|0,0:0|0:0,0:0:0:0:
118,253,4469,6,0,L|154:241,3,29.7499990921021,2|2|2|2,1:2|1:2|1:2|1:2,0:0:0:0:
57,303,4785,2,0,L|21:291,3,29.7499990921021,2|2|2|2,0:0|0:0|0:0|0:0,0:0:0:0:
381,363,5416,5,8,0:0:0:0:
237,254,5574,1,8,0:0:0:0:
237,254,5653,1,8,0:0:0:0:
237,254,5732,2,0,P|237:281|250:303,1,50.9999984436036,8|0,0:0|0:0,0:0:0:0:
308,356,5890,2,0,P|367:326|456:317,1,152.999995330811,2|0,1:2|0:0,0:0:0:0:
469,307,6206,2,0,P|481:242|447:215,1,85,2|0,1:2|0:0,0:0:0:0:
383,146,6521,1,10,0:2:0:0:
383,146,7942,5,6,1:2:0:0:
242,57,10311,6,0,L|235:20,3,28.3333333333333,2|2|2|2,0:0|0:0|0:0|1:2,0:0:0:0:
418,103,12364,5,2,0:0:0:0:
410,115,12521,2,0,L|422:155,1,42.5,0|0,1:0|1:0,0:0:0:0:
492,77,12679,2,0,P|438:21|389:26,1,127.5,8|0,0:0|0:0,0:0:0:0:
314,84,12995,6,0,P|333:138|349:198,1,101.999996887207,6|0,1:2|0:0,0:0:0:0:
461,287,13311,2,0,P|500:232|488:193,1,101.999996887207,10|0,0:0|0:0,0:0:0:0:
338,300,13627,1,2,1:2:0:0:
338,300,13785,1,2,0:0:0:0:
423,372,13942,1,10,0:0:0:0:
346,214,14100,6,0,B|289:186|252:246|252:251|254:255|233:309|158:291,1,203.999993774414,2|2,0:0|0:0,0:0:0:0:
71,369,14574,2,0,P|46:295|29:258,1,101.999996887207,10|0,0:0|0:0,0:0:0:0:
90,163,14890,2,0,B|128:199|128:199|112:247,1,101.999996887207,2|2,1:2|0:0,0:0:0:0:
5,167,15206,1,10,0:0:0:0:
5,167,15364,1,2,0:0:0:0:
59,37,15521,6,0,P|109:52|161:79,1,101.999996887207,2|0,1:2|0:0,0:0:0:0:
299,93,15837,2,0,B|326:51|326:51|303:-5,1,101.999996887207,10|0,0:0|0:0,0:0:0:0:
216,143,16153,1,2,1:2:0:0:
216,143,16311,1,2,0:0:0:0:
332,186,16469,1,10,0:0:0:0:
208,256,16627,6,0,P|296:221|414:201,1,203.999993774414,2|2,0:0|0:0,0:0:0:0:
437,61,17100,1,10,0:0:0:0:
439,68,17258,1,2,0:0:0:0:
512,169,17416,6,0,P|494:212|484:272,1,101.999996887207,10|8,0:0|0:0,0:0:0:0:
484,266,17653,1,8,0:0:0:0:
484,266,17732,2,0,L|427:283,1,50.9999984436036,8|8,0:0|0:0,0:0:0:0:
385,359,17890,1,8,0:0:0:0:
363,355,17969,1,8,0:0:0:0:
338,351,18048,6,0,B|261:334|192:325,1,136,6|0,1:2|0:0,0:0:0:0:
178,250,18521,1,2,0:0:0:0:
125,356,18679,2,0,P|116:295|184:254,1,136,2|0,0:0|0:0,0:0:0:0:
244,184,19153,1,2,0:0:0:0:
244,184,19311,2,0,P|226:111|212:44,1,136,2|2,0:0|0:0,0:0:0:0:
111,20,19785,2,0,P|119:56|127:89,2,68,2|0|2,0:0|0:0|0:0,0:0:0:0:
101,17,20258,1,0,0:0:0:0:
93,156,20416,5,2,1:2:0:0:
214,40,20574,1,2,1:2:0:0:
327,148,20890,5,2,0:0:0:0:
372,93,21048,2,0,L|453:74,1,68,2|0,0:0|0:0,0:0:0:0:
300,7,21364,1,2,0:0:0:0:
300,7,21521,2,0,P|292:53|308:84,1,68,0|2,0:0|0:0,0:0:0:0:
404,172,21837,6,0,P|336:181|272:204,1,136
266,196,22311,1,2,0:0:0:0:
207,266,22469,2,0,P|201:294|219:329,1,68,2|0,0:0|1:0,0:0:0:0:
235,333,22706,1,0,1:0:0:0:
233,333,22785,1,8,0:0:0:0:
60,348,23100,6,0,P|40:283|20:222,1,127.5,6|0,1:2|0:0,0:0:0:0:
11,193,23416,1,2,1:2:0:0:
11,193,23574,1,0,0:0:0:0:
147,130,23732,2,0,P|136:177|129:227,1,85,2|0,1:2|0:0,0:0:0:0:
0,61,24048,6,0,P|41:54|83:44,1,85,2|2,1:2|1:2,0:0:0:0:
91,36,24285,1,8,0:0:0:0:
91,32,24364,1,8,0:0:0:0:
160,126,24521,2,0,L|211:111,1,42.5,2|8,1:2|0:0,0:0:0:0:
209,102,24679,1,10,0:0:0:0:
337,24,24837,5,2,1:2:0:0:
341,31,24916,1,8,0:0:0:0:
345,39,24995,2,0,P|350:79|320:117,1,85,8|2,0:0|1:2,0:0:0:0:
326,114,25232,1,8,0:0:0:0:
326,114,25311,1,10,0:0:0:0:
411,221,25469,5,2,1:2:0:0:
419,223,25548,1,8,0:0:0:0:
427,225,25627,1,10,0:0:0:0:
490,143,25785,5,2,1:2:0:0:
472,147,25864,1,8,0:0:0:0:
456,154,25943,1,10,0:0:0:0:
357,268,26100,5,2,1:2:0:0:
339,272,26179,1,8,0:0:0:0:
323,279,26258,1,10,0:0:0:0:
270,370,26416,6,0,L|258:329,1,42.5,8|8,0:0|0:0,0:0:0:0:
190,210,26574,1,10,0:0:0:0:
177,228,26653,1,8,0:0:0:0:
182,249,26732,1,14,0:0:0:0:
87,19,27679,5,2,1:2:0:0:
161,73,27837,1,10,0:0:0:0:
57,150,27995,6,0,P|46:215|27:315,1,144.500002756119,6|0,1:2|1:2,0:0:0:0:
153,374,28469,2,0,P|159:333|126:305,1,72.2500013780594,8|2,0:0|0:0,0:0:0:0:
227,222,28785,2,0,P|262:238|314:262,2,72.2500013780594,2|0|8,1:2|1:2|0:0,0:0:0:0:
353,370,29258,5,2,0:0:0:0:
409,322,29416,2,0,P|442:285|403:198,1,144.500002756119,2|10,1:2|0:0,0:0:0:0:
245,152,29890,2,0,P|239:189|222:241,1,72.2500013780594,2|0,0:0|1:0,0:0:0:0:
383,106,30206,2,0,P|388:142|406:195,1,72.2500013780594,2|8,1:2|0:0,0:0:0:0:
258,33,30521,5,2,0:0:0:0:
258,33,30679,2,0,B|177:14|202:100|97:59,1,144.500002756119,2|8,1:2|0:0,0:0:0:0:
28,141,31153,2,0,P|35:183|42:236,1,72.2500013780594,2|0,0:0|1:0,0:0:0:0:
157,266,31469,2,0,B|181:233|181:233|155:185,1,72.2500013780594,2|8,1:2|0:0,0:0:0:0:
20,334,31785,6,0,P|65:346|176:388,1,144.500002756119,2|2,0:0|1:2,0:0:0:0:
281,329,32258,2,0,P|268:293|261:229,1,72.2500013780594,8|2,0:0|0:0,0:0:0:0:
354,161,32574,1,2,1:2:0:0:
354,161,32732,1,0,1:0:0:0:
409,265,32890,1,8,0:0:0:0:
261,259,33048,1,8,0:0:0:0:
251,263,33127,1,8,0:0:0:0:
240,266,33206,6,0,B|204:279|204:279|188:307|188:307|133:320,1,108.375002067089,6|0,1:2|0:0,0:0:0:0:
104,374,33521,2,0,P|116:310|135:209,1,144.500002756119,14|2,0:0|1:2,0:0:0:0:
62,100,33995,1,0,1:0:0:0:
13,158,34153,2,0,P|3:191|33:228,1,72.2500013780594,10|0,0:0|0:0,0:0:0:0:
182,100,34469,6,0,P|169:66|167:5,2,72.2500013780594,2|2|10,1:2|1:2|0:0,0:0:0:0:
275,191,34942,2,0,B|197:196|224:265|122:255,1,144.500002756119,2|2,0:0|1:2,0:0:0:0:
322,93,35416,1,8,0:0:0:0:
322,93,35574,1,2,0:0:0:0:
402,199,35732,6,0,P|394:240|381:295,1,72.2500013780594,6|0,1:2|1:0,0:0:0:0:
380,294,35969,1,8,0:0:0:0:
377,309,36048,1,10,0:0:0:0:
491,222,36206,1,2,1:2:0:0:
496,208,36285,1,8,0:0:0:0:
490,194,36364,1,8,0:0:0:0:
356,83,36521,2,0,P|329:90|305:99,1,36.1250006890297,2|8,1:2|0:0,0:0:0:0:
253,116,36679,1,8,0:0:0:0:
253,116,36837,1,2,1:2:0:0:
402,199,36995,5,10,0:0:0:0:
454,55,37153,1,10,0:0:0:0:
305,199,37311,1,10,0:0:0:0:
305,199,37627,6,0,P|316:249|336:348,1,127.500004863739,2|2,0:0|0:0,0:0:0:0:
137,378,38258,6,0,P|149:306|169:173,1,191.250007295609,4|0,1:2|1:0,0:0:0:0:
108,74,38890,1,8,0:0:0:0:
24,159,39048,2,0,B|79:144|79:144|91:112|91:112|152:96,1,144.500002756119,2|0,1:2|0:0,0:0:0:0:
236,209,39521,1,2,1:2:0:0:
236,209,39679,2,0,P|200:195|155:186,1,72.2500013780594,8|0,0:0|0:0,0:0:0:0:
79,334,39995,1,2,1:2:0:0:
79,334,40153,2,0,P|119:324|207:312,1,108.375002067089,10|0,0:0|0:0,0:0:0:0:
213,325,40469,2,0,P|235:350|203:395,1,72.2500013780594,2|2,0:0|0:0,0:0:0:0:
367,306,40785,6,0,P|359:270|347:221,1,72.2500013780594,6|0,1:2|0:0,0:0:0:0:
492,129,41100,2,0,P|484:177|475:262,1,108.375002067089,2|0,0:0|0:0,0:0:0:0:
474,262,41416,1,8,0:0:0:0:
382,171,41574,2,0,P|333:158|276:233,1,144.500002756119,2|2,1:2|0:0,0:0:0:0:
424,376,42048,6,0,P|457:365|516:353,1,72.2500013780594,2|10,1:2|0:2,0:0:0:0:
375,242,42364,2,0,P|338:234|291:223,1,72.2500013780594,2|2,1:2|1:2,0:0:0:0:
290,223,42600,1,10,0:0:0:0:
275,220,42679,1,10,0:0:0:0:
442,146,42837,1,10,0:0:0:0:
494,297,42995,1,10,0:0:0:0:
494,297,43153,1,10,0:0:0:0:
341,149,43311,6,0,P|351:93|361:34,1,95.6250036478044,6|0,1:2|0:0,0:0:0:0:
363,22,43627,2,0,B|311:9|311:9|277:27|277:27|223:15,1,144.500002756119,0|8,0:0|0:0,0:0:0:0:
151,128,44100,1,2,1:2:0:0:
161,125,44179,1,2,0:0:0:0:
171,123,44258,1,2,0:0:0:0:
81,29,44416,1,2,0:0:0:0:
3,166,44574,5,2,1:2:0:0:
3,166,44732,2,0,P|41:175|100:194,1,72.2500013780594,8|0,0:0|0:0,0:0:0:0:
154,287,45048,1,2,1:2:0:0:
30,375,45206,2,0,P|43:315|58:249,2,108.375002067089,10|2|2,0:0|0:0|0:0,0:0:0:0:
224,303,45837,6,0,P|191:292|142:284,1,72.2500013780594,4|2,1:2|0:0,0:0:0:0:
260,203,46153,1,2,0:0:0:0:
260,203,46311,2,0,P|296:201|345:186,1,72.2500013780594,2|8,1:2|0:0,0:0:0:0:
464,280,46627,2,0,P|479:312|449:350,1,72.2500013780594,2|0,1:2|0:0,0:0:0:0:
375,383,46942,6,0,P|368:333|350:215,1,144.500002756119,2|10,0:0|0:0,0:0:0:0:
480,95,47416,2,0,P|476:134|469:184,1,72.2500013780594,2|2,1:2|1:2,0:0:0:0:
470,184,47653,1,10,0:2:0:0:
468,201,47732,1,10,0:2:0:0:
372,128,47890,1,8,1:3:0:0:
292,206,48048,1,8,1:3:0:0:
209,161,48206,1,8,1:3:0:0:
128,271,48364,6,0,P|116:215|89:135,1,118.999996368408,4|0,1:2|0:0,0:0:0:0:
49,85,48837,1,2,0:0:0:0:
49,85,48995,2,0,P|14:109|12:205,1,118.999996368408,2|0,0:0|0:0,0:0:0:0:
50,244,49469,1,2,0:0:0:0:
155,180,49627,6,0,P|146:140|139:96,1,59.4999981842042,2|0,0:0|0:0,0:0:0:0:
239,234,49942,2,0,P|210:256|174:289,1,59.4999981842042,2|0,0:0|0:0,0:0:0:0:
252,141,50258,2,0,P|300:152|388:174,1,118.999996368408,2|2,0:0|0:0,0:0:0:0:
418,274,50732,5,0,1:0:0:0:
418,274,50890,2,0,P|381:281|285:296,1,118.999996368408,2|0,1:2|0:0,0:0:0:0:
236,361,51364,1,2,0:0:0:0:
236,361,51521,2,0,P|200:318|226:238,1,118.999996368408,2|0,0:0|0:0,0:0:0:0:
244,170,51995,1,2,0:0:0:0:
127,120,52153,6,0,P|135:152|144:190,1,59.4999981842042,2|0,0:0|0:0,0:0:0:0:
35,239,52469,2,0,P|43:207|52:169,1,59.4999981842042,2|0,0:0|0:0,0:0:0:0:
123,307,52785,5,8,0:0:0:0:
134,318,52890,2,0,P|152:327|185:325,1,39.6666654561361,8|8,0:0|1:3,0:0:0:0:
253,209,53100,5,8,1:3:0:0:
237,213,53205,2,0,P|220:224|205:253,1,39.6666654561361,8|8,1:3|1:3,0:0:0:0:
335,360,53416,6,0,P|348:307|374:208,1,144.500002756119,6|0,1:2|0:0,0:0:0:0:
358,55,53890,1,2,1:2:0:0:
461,108,54048,2,0,P|421:121|302:157,1,144.500002756119,14|0,0:0|0:0,0:0:0:0:
257,97,54521,1,2,0:0:0:0:
161,167,54679,6,0,P|171:209|181:253,1,72.2500013780594,2|8,1:2|0:0,0:0:0:0:
281,322,54995,2,0,P|291:280|301:236,1,72.2500013780594,2|0,0:0|1:0,0:0:0:0:
171,314,55311,2,0,B|119:332|119:332|104:370|104:370|25:392,1,144.500002756119,10|10,0:0|0:0,0:0:0:0:
0,209,55942,6,0,P|15:148|41:35,1,144.500002756119,6|0,1:2|1:2,0:0:0:0:
132,18,56416,1,2,0:0:0:0:
200,113,56574,2,0,P|167:121|118:140,1,72.2500013780594,2|0,1:2|0:0,0:0:0:0:
33,68,56890,2,0,B|13:34|13:34|41:-9,1,72.2500013780594,0|0,1:2|0:0,0:0:0:0:
131,134,57206,6,0,P|119:178|110:239,1,85,2|0,1:2|1:2,0:0:0:0:
254,325,57521,2,0,P|246:283|235:242,1,85,2|0,1:2|1:2,0:0:0:0:
317,70,57837,1,10,0:0:0:0:
361,240,57995,1,8,0:0:0:0:
235,146,58153,1,10,0:0:0:0:
421,80,58311,1,8,0:0:0:0:
450,80,59258,6,0,P|439:117|432:160,1,63.7500024318696,2|2,0:0|0:0,0:0:0:0:
336,48,59574,1,2,0:0:0:0:
336,48,59890,6,0,P|347:85|354:128,1,63.7500024318696,2|2,0:0|0:0,0:0:0:0:
508,16,60206,1,2,0:0:0:0:
508,16,60521,5,2,0:0:0:0:
450,80,60679,2,0,P|431:74|408:68,1,31.8750012159348,8|8,0:0|1:3,0:0:0:0:
258,35,60837,1,8,1:3:0:0:
254,50,60916,1,8,1:3:0:0:
260,64,60995,5,14,0:0:0:0:
341,213,61153,2,0,P|350:163|365:110,1,76.4999976654053,2|0,1:2|1:2,0:0:0:0:
219,280,61469,2,0,P|273:298|390:344,1,152.999995330811,14|10,0:0|0:0,0:0:0:0:
250,193,61942,1,2,1:2:0:0:
151,350,62100,6,0,P|125:311|180:206,1,152.999995330811,14|0,0:0|1:0,0:0:0:0:
261,100,62574,1,10,0:0:0:0:
307,275,62732,1,10,0:0:0:0:
146,138,62890,1,10,0:0:0:0:
392,31,63521,6,0,B|451:4|451:4|415:100,1,165.749992412568,6|0,1:2|0:0,0:0:0:0:
424,110,63837,1,8,0:0:0:0:
402,235,63995,1,2,0:0:0:0:
402,235,64074,1,2,0:0:0:0:
402,235,64153,2,0,P|440:202|502:186,1,110.499994941712,2|0,1:2|1:0,0:0:0:0:
340,87,64469,2,0,P|315:145|341:190,1,110.499994941712,8|2,0:0|0:0,0:0:0:0:
366,325,64785,6,0,P|328:292|278:279,1,97.7500018644333,2|0,1:2|1:0,0:0:0:0:
171,371,65100,1,10,0:0:0:0:
188,214,65258,2,0,P|199:263|214:312,1,97.7500018644333,2|0,0:0|1:0,0:0:0:0:
107,277,65574,1,2,1:2:0:0:
107,277,65653,1,2,0:0:0:0:
107,277,65732,2,0,L|13:314,1,97.7500018644333,10|2,0:0|0:0,0:0:0:0:
25,180,66048,6,0,B|80:154|80:154|94:102|94:102|148:81,1,165.749992412568,4|0,1:2|0:0,0:0:0:0:
152,89,66364,1,8,0:0:0:0:
215,5,66521,1,2,0:0:0:0:
215,5,66600,1,2,0:0:0:0:
215,5,66679,2,0,P|229:56|250:117,1,110.499994941712,2|0,1:2|1:0,0:0:0:0:
351,220,66995,2,0,P|361:182|308:117,1,110.499994941712,8|2,0:0|0:0,0:0:0:0:
188,216,67311,6,0,P|233:199|280:185,1,97.7500018644333,2|0,1:2|1:0,0:0:0:0:
362,301,67627,1,10,0:0:0:0:
295,373,67785,2,0,P|281:326|263:280,1,97.7500018644333,2|0,0:0|1:0,0:0:0:0:
185,367,68100,1,2,1:2:0:0:
189,365,68179,1,2,0:0:0:0:
194,364,68258,1,10,0:2:0:0:
103,333,68416,1,2,0:0:0:0:
148,197,68574,6,0,L|102:27,1,165.749992412568,4|0,1:2|0:0,0:0:0:0:
111,26,68890,2,0,P|151:-5|214:21,1,110.499994941712,10|0,0:0|0:0,0:0:0:0:
340,117,69206,2,0,P|288:126|233:144,1,110.499994941712,2|0,1:2|1:0,0:0:0:0:
308,2,69521,1,10,0:0:0:0:
308,2,69679,1,2,0:0:0:0:
415,67,69837,6,0,B|441:117|441:117|413:167,1,110.499994941712,2|0,1:2|1:0,0:0:0:0:
321,235,70153,2,0,B|385:252|385:252|406:295|406:295|478:317,1,165.749992412568,10|0,0:0|0:0,0:0:0:0:
473,313,70469,2,0,P|501:273|487:226,1,93.5000028533936,2|2,1:2|1:2,0:0:0:0:
333,334,70785,1,10,0:0:0:0:
341,162,70942,6,0,B|265:147|265:147|263:145|263:145|171:127,1,165.749992412568,6|0,1:2|0:0,0:0:0:0:
176,117,71258,1,2,1:2:0:0:
52,61,71416,2,0,P|84:4|137:13,1,110.499994941712,10|0,0:0|1:0,0:0:0:0:
130,15,71653,1,0,1:0:0:0:
130,15,71732,1,10,0:0:0:0:
63,163,71890,1,2,1:2:0:0:
206,223,72048,5,10,0:0:0:0:
206,223,72127,1,10,0:0:0:0:
206,223,72206,2,0,L|171:101,1,110.499994941712,6|0,1:2|0:0,0:0:0:0:
282,164,72521,1,2,1:2:0:0:
146,261,72679,6,0,B|195:247|218:283|219:286|219:288|241:336|296:323,1,165.749992412568,10|0,0:0|0:0,0:0:0:0:
293,315,72995,1,8,0:0:0:0:
136,346,73153,1,0,1:2:0:0:
132,359,73311,1,10,0:0:0:0:
0,200,73469,5,10,0:0:0:0:
0,200,73548,1,10,0:0:0:0:
0,200,73627,2,0,B|33:149|33:149|144:183,1,165.749992412568,6|0,1:2|0:0,0:0:0:0:
141,173,73942,1,14,0:0:0:0:
184,79,74100,1,2,0:0:0:0:
184,79,74179,1,2,0:0:0:0:
184,79,74258,2,0,B|140:40|140:40|84:61,1,110.499994941712,2|0,1:2|1:0,0:0:0:0:
216,233,74574,2,0,P|235:175|258:116,1,110.499994941712,8|2,0:0|0:0,0:0:0:0:
373,15,74890,6,0,P|403:83|371:119,1,97.7500018644333,2|0,1:2|1:0,0:0:0:0:
316,90,75206,1,10,0:0:0:0:
455,165,75364,2,0,P|408:179|362:196,1,97.7500018644333,2|0,0:0|1:0,0:0:0:0:
303,322,75679,1,2,1:2:0:0:
301,316,75758,1,2,0:0:0:0:
299,311,75837,1,10,0:0:0:0:
389,375,75995,1,2,0:0:0:0:
296,233,76153,6,0,B|249:222|225:268|225:271|226:273|209:315|162:310,1,165.749992412568,4|0,1:2|0:0,0:0:0:0:
154,303,76469,1,8,0:0:0:0:
18,208,76627,1,2,0:0:0:0:
18,208,76706,1,2,0:0:0:0:
18,208,76785,2,0,P|87:206|120:243,1,110.499994941712,2|0,1:2|1:0,0:0:0:0:
89,378,77100,2,0,P|64:305|50:272,1,110.499994941712,8|2,0:0|0:0,0:0:0:0:
136,143,77416,6,0,P|201:165|231:178,1,97.7500018644333,2|0,1:2|1:0,0:0:0:0:
327,71,77732,1,10,0:0:0:0:
274,12,77890,2,0,P|254:34|257:105,1,97.7500018644333,2|0,0:0|1:0,0:0:0:0:
361,151,78206,5,2,1:2:0:0:
481,72,78364,2,0,P|453:153|428:242,1,165.749992412568,12|2,0:0|0:0,0:0:0:0:
436,239,78679,1,6,1:2:0:0:
274,287,78837,1,2,0:0:0:0:
342,381,78995,6,0,P|369:335|355:284,1,110.499994941712,10|2,0:0|0:0,0:0:0:0:
245,372,79311,2,0,P|196:346|142:333,1,110.499994941712,2|0,1:2|1:0,0:0:0:0:
62,256,79627,1,10,0:0:0:0:
62,256,79785,1,2,0:0:0:0:
47,354,79942,6,0,P|25:316|59:253,1,110.499994941712,2|2,1:2|1:2,0:0:0:0:
192,164,80258,1,10,0:0:0:0:
116,199,80416,1,2,0:0:0:0:
21,55,80574,2,0,P|40:97|51:148,1,97.7500018644333,0|0,1:2|1:0,0:0:0:0:
147,39,80890,5,8,0:0:0:0:
147,39,80969,1,8,0:0:0:0:
147,39,81048,2,0,B|219:63|219:63|239:136|239:136|319:168,1,220.999989883423,4|2,1:2|1:2,0:0:0:0:
387,97,81521,2,0,B|416:59|416:59|395:0,1,97.7500018644333,10|0,0:0|0:0,0:0:0:0:
308,51,81837,1,2,1:2:0:0:
308,51,81995,1,0,1:2:0:0:
405,172,82153,6,0,P|387:212|370:269,1,97.7500018644333,10|2,0:0|0:0,0:0:0:0:
314,375,82469,2,0,P|354:357|411:340,1,97.7500018644333,2|0,1:2|1:2,0:0:0:0:
282,274,82785,2,0,P|242:256|185:239,1,97.7500018644333,10|0,0:0|0:0,0:0:0:0:
77,365,83100,6,0,B|44:330|44:330|71:271,1,97.7500018644333,2|2,1:2|0:0,0:0:0:0:
71,281,83337,1,8,0:0:0:0:
71,281,83416,1,10,0:0:0:0:
140,157,83574,1,0,1:0:0:0:
36,162,83732,6,0,P|87:185|146:150,1,110.499994941712,14|0,0:0|0:0,0:0:0:0:
242,67,84048,2,0,P|192:47|143:70,1,110.499994941712,8|0,0:0|0:0,0:0:0:0:
270,160,84364,5,8,0:0:0:0:
364,38,84521,1,0,1:0:0:0:
405,192,84679,1,10,0:0:0:0:
349,121,84837,1,0,1:0:0:0:
475,231,84995,6,0,B|496:182|496:182|456:117,1,110.499994941712,10|0,0:0|0:0,0:0:0:0:
332,240,85311,2,0,B|310:288|310:288|350:353,1,110.499994941712,10|0,0:0|0:0,0:0:0:0:
442,384,85627,5,10,0:0:0:0:
409,283,85785,1,0,1:0:0:0:
507,301,85942,5,10,0:0:0:0:
343,363,86100,1,0,1:0:0:0:
263,208,86258,6,0,P|212:197|135:177,1,110.499994941712,10|0,0:0|0:0,0:0:0:0:
62,336,86574,2,0,P|115:322|169:310,1,110.499994941712,10|0,0:0|0:0,0:0:0:0:
98,136,86890,2,0,P|86:213|118:244,1,110.499994941712,10|0,0:0|1:0,0:0:0:0:
242,343,87206,5,10,0:0:0:0:
242,343,87364,2,0,B|253:275|215:245|210:250|205:250|132:206|203:113,1,220.999989883423,6|2,1:2|1:2,0:0:0:0:
233,19,87837,1,10,0:0:0:0:
83,53,87995,1,2,0:0:0:0:
141,106,88153,2,0,P|196:118|255:137,1,110.499994941712,0|0,1:2|1:0,0:0:0:0:
314,189,88390,1,8,0:0:0:0:
314,189,88469,2,0,P|358:137|352:97,1,110.499994941712,8|8,0:0|1:3,0:0:0:0:
324,30,88706,5,8,1:3:0:0:
324,30,88785,2,0,L|387:16,3,55.2499974708558,10|10|10|10,0:0|0:0|0:0|0:0,0:0:0:0:
482,23,89100,1,10,0:0:0:0:
482,23,89258,2,0,L|452:144,1,110.499994941712,2|0,1:2|0:0,0:0:0:0:
507,271,89574,2,0,P|487:232|426:218,1,110.499994941712,2|0,1:2|0:0,0:0:0:0:
370,290,89890,1,10,0:0:0:0:
56,2,91311,6,0,P|99:78|114:181,1,170,14|0,0:0|1:2,0:0:0:0:
0,264,91785,1,2,1:2:0:0:
60,189,91942,1,10,0:0:0:0:
60,189,92100,2,0,B|111:175|137:224|136:228|135:232|150:270|204:267,1,170,2|0,1:2|1:2,0:0:0:0:
287,228,92574,5,10,0:0:0:0:
228,355,92732,2,0,P|297:312|282:230,1,170,2|0,1:2|1:2,0:0:0:0:
211,164,93206,2,0,L|232:101,1,42.5,10|0,0:0|0:0,0:0:0:0:
177,48,93364,2,0,B|244:2|244:2|293:76,1,170,6|0,1:2|1:2,0:0:0:0:
300,92,93758,1,0,1:2:0:0:
300,92,93837,6,0,P|350:101|397:113,1,85,14|0,0:0|0:0,0:0:0:0:
490,29,94153,2,0,P|440:20|393:8,1,85,2|0,1:2|0:0,0:0:0:0:
467,113,94469,5,2,1:2:0:0:
467,113,94627,1,2,0:0:0:0:
375,204,94785,1,2,1:2:0:0:
375,204,94942,1,2,0:0:0:0:
438,313,95100,6,0,P|453:256|476:198,1,85,10|2,0:0|1:2,0:0:0:0:
273,176,95416,2,0,P|287:216|297:258,1,85,10|0,0:0|1:2,0:0:0:0:
333,379,95732,2,0,P|239:322|188:327,1,152.999995330811,10|10,0:2|0:2,0:0:0:0:
187,340,96048,1,10,0:2:0:0:
50,258,96206,1,10,0:2:0:0:
50,258,96285,1,10,0:2:0:0:
50,258,96364,6,0,P|63:211|64:165,1,85,6|0,1:2|0:0,0:0:0:0:
180,131,96679,2,0,B|208:166|208:166|186:212,1,85,10|0,0:0|0:0,0:0:0:0:
63,86,96995,1,2,1:2:0:0:
63,86,97153,1,2,0:0:0:0:
159,30,97311,1,10,0:0:0:0:
143,179,97469,6,0,B|97:158|57:204|73:220|40:260|-10:235,1,170,2|2,0:0|0:0,0:0:0:0:
135,271,97942,2,0,P|179:280|246:302,1,85,10|0,0:0|0:0,0:0:0:0:
287,217,98258,2,0,P|301:172|256:134,1,85,2|2,1:2|0:0,0:0:0:0:
362,73,98574,1,10,0:0:0:0:
362,73,98732,1,2,0:0:0:0:
460,152,98890,6,0,P|412:158|356:175,1,85,2|0,1:2|0:0,0:0:0:0:
287,217,99206,2,0,P|273:262|318:300,1,85,10|0,0:0|0:0,0:0:0:0:
367,353,99521,1,2,1:2:0:0:
367,353,99679,1,2,0:0:0:0:
455,209,99837,1,10,0:0:0:0:
508,338,99995,6,0,B|446:320|446:320|428:279|428:279|355:260,1,170,14|2,0:0|0:0,0:0:0:0:
287,159,100469,2,0,P|330:158|386:137,1,85,10|2,0:0|0:0,0:0:0:0:
245,254,100785,1,10,0:0:0:0:
164,172,100942,1,0,1:2:0:0:
157,156,101021,1,8,0:0:0:0:
165,141,101100,1,8,0:3:0:0:
59,199,101258,2,0,P|62:229|67:271,1,42.5,8|8,0:0|0:0,0:0:0:0:
80,321,101416,6,0,P|134:308|190:304,1,85,6|0,1:2|0:0,0:0:0:0:
309,216,101732,2,0,P|325:254|306:311,1,85,10|0,0:0|0:0,0:0:0:0:
240,360,102048,1,2,1:2:0:0:
240,360,102206,1,2,0:0:0:0:
178,233,102364,1,10,0:0:0:0:
288,274,102521,6,0,B|379:236|379:236|419:258|403:310,1,170,2|2,0:0|0:0,0:0:0:0:
504,204,102995,2,0,P|506:161|520:93,1,85,10|0,0:0|0:0,0:0:0:0:
381,73,103311,2,0,P|393:125|396:173,1,85,2|2,1:2|0:0,0:0:0:0:
497,36,103627,1,10,0:0:0:0:
497,36,103785,1,2,0:0:0:0:
395,156,103942,6,0,P|346:146|284:144,1,85,2|0,1:2|0:0,0:0:0:0:
211,190,104258,2,0,B|187:234|187:234|222:274,1,85,10|0,0:0|0:0,0:0:0:0:
311,143,104574,1,2,1:2:0:0:
311,143,104732,1,2,0:0:0:0:
210,82,104890,1,10,0:0:0:0:
292,226,105048,6,0,P|354:212|476:200,1,170,14|10,0:0|0:0,0:0:0:0:
488,338,105521,2,0,P|448:330|389:322,1,85,10|10,0:0|1:3,0:0:0:0:
268,383,105837,1,10,1:3:0:0:
217,314,105995,1,10,1:3:0:0:
319,224,106153,2,0,P|306:265|299:312,1,85,10|2,0:0|0:0,0:0:0:0:
170,163,106469,6,0,P|125:149|71:203,1,108.375002067089,6|0,1:2|0:0,0:0:0:0:
66,203,106785,2,0,P|80:241|89:290,1,72.2500013780594,2|0,1:2|1:2,0:0:0:0:
180,333,107100,1,10,0:0:0:0:
180,333,107258,2,0,P|188:293|202:255,1,72.2500013780594,2|0,1:2|0:0,0:0:0:0:
294,222,107574,6,0,P|329:239|370:244,2,72.2500013780594,2|8|2,1:2|0:0|1:2,0:0:0:0:
361,344,108048,2,0,P|396:327|437:322,1,72.2500013780594,2|2,0:0|1:2,0:0:0:0:
496,237,108364,1,10,0:0:0:0:
496,237,108521,1,2,1:2:0:0:
415,180,108679,2,0,P|403:205|422:275,1,72.2500013780594,2|0,0:0|1:2,0:0:0:0:
503,101,108995,6,0,P|466:94|406:62,1,72.2500013780594,14|2,0:0|0:0,0:0:0:0:
345,26,109311,1,0,1:2:0:0:
345,26,109469,1,2,1:2:0:0:
282,132,109627,2,0,P|319:121|373:120,1,72.2500013780594,10|0,0:0|1:2,0:0:0:0:
206,41,109942,2,0,P|178:71|179:108,1,72.2500013780594,2|0,0:0|1:2,0:0:0:0:
100,197,110258,5,10,0:0:0:0:
100,197,110416,1,2,1:2:0:0:
9,76,110574,2,0,P|42:90|83:95,1,72.2500013780594,2|2,0:0|1:2,0:0:0:0:
92,98,110811,1,2,1:2:0:0:
106,99,110890,1,10,0:0:0:0:
192,176,111048,1,2,1:2:0:0:
100,197,111206,1,10,1:3:0:0:
192,87,111364,1,10,1:3:0:0:
269,224,111521,5,14,0:0:0:0:
269,224,111679,2,0,P|250:286|230:385,1,144.500002756119,2|0,0:0|1:2,0:0:0:0:
356,202,112153,1,10,0:0:0:0:
356,202,112311,2,0,P|321:154|217:160,1,144.500002756119,2|0,1:2|1:2,0:0:0:0:
379,30,112785,2,0,P|385:73|401:122,1,72.2500013780594,10|2,0:0|1:2,0:0:0:0:
259,39,113100,2,0,B|204:53|204:53|185:92|185:92|113:109,1,144.500002756119,2|8,0:0|0:0,0:0:0:0:
47,32,113574,2,0,P|66:6|123:17,1,72.2500013780594,2|8,1:2|0:0,0:0:0:0:
29,120,113890,1,2,0:0:0:0:
141,102,114048,6,0,P|124:153|105:254,1,127.500004863739,14|2,0:0|1:2,0:0:0:0:
23,294,114521,1,2,0:0:0:0:
23,294,114679,2,0,P|21:262|6:217,1,63.7500024318696,10|0,0:0|1:2,0:0:0:0:
143,339,114995,2,0,P|111:352|74:377,1,63.7500024318696,10|0,0:0|1:2,0:0:0:0:
207,244,115311,5,10,0:0:0:0:
258,350,115469,1,10,0:0:0:0:
117,254,115627,2,0,P|127:214|134:151,1,76.4999976654053,10|2,0:0|1:2,0:0:0:0:
237,107,115942,2,0,P|260:116|285:120,1,38.2499988327027,10|2,0:0|1:2,0:0:0:0:
324,189,116100,2,0,P|347:180|372:176,1,38.2499988327027,10|10,0:0|0:0,0:0:0:0:
426,109,116258,1,10,0:0:0:0:
436,113,116337,1,10,0:0:0:0:
445,118,116416,6,0,P|495:144|474:245,1,170,6|0,1:2|1:2,0:0:0:0:
342,260,116890,2,0,P|352:219|364:140,1,85,10|2,0:0|0:0,0:0:0:0:
440,340,117206,2,0,P|393:343|254:380,1,170,2|10,1:2|0:0,0:0:0:0:
230,273,117679,1,2,0:0:0:0:
330,186,117837,6,0,P|353:219|334:267,1,85,2|2,1:2|0:0,0:0:0:0:
219,174,118153,2,0,P|235:131|242:75,1,85,10|2,0:0|0:0,0:0:0:0:
357,32,118469,1,2,1:2:0:0:
357,32,118627,2,0,P|363:75|387:138,1,85,2|8,0:0|0:0,0:0:0:0:
248,15,118942,1,2,0:0:0:0:
248,15,119021,1,2,0:0:0:0:
248,15,119100,6,0,P|205:30|139:35,1,85,2|2,1:2|0:0,0:0:0:0:
129,124,119416,2,0,P|170:130|210:144,1,85,10|2,0:0|0:0,0:0:0:0:
73,40,119732,1,2,1:2:0:0:
73,40,119890,1,2,0:0:0:0:
15,129,120048,2,0,P|26:183|33:233,1,85,10|2,0:0|0:0,0:0:0:0:
146,75,120364,5,2,1:2:0:0:
1,10,120521,1,2,0:0:0:0:
106,170,120679,2,0,P|143:158|209:161,1,85,10|2,0:0|0:0,0:0:0:0:
280,86,120995,1,2,1:2:0:0:
336,175,121153,1,0,1:2:0:0:
439,107,121311,1,8,0:0:0:0:
439,107,121390,1,8,0:0:0:0:
439,107,121469,6,0,B|485:74|485:74|457:207,1,170,4|2,1:2|0:0,0:0:0:0:
459,302,121942,2,0,P|495:308|528:266,1,85,10|2,0:0|0:0,0:0:0:0:
363,239,122258,2,0,B|303:222|303:222|265:258|265:258|192:238,1,170,2|10,1:2|0:0,0:0:0:0:
148,153,122732,1,2,0:0:0:0:
250,104,122890,6,0,P|270:152|202:246,1,170,2|10,1:2|0:0,0:0:0:0:
114,62,123364,1,2,0:0:0:0:
114,62,123521,2,0,P|152:56|219:31,1,85,2|2,1:2|0:0,0:0:0:0:
68,176,123837,1,14,0:0:0:0:
17,106,123995,1,2,0:0:0:0:
166,169,124153,6,0,P|148:222|136:301,1,101.999996887207,12|2,0:0|0:0,0:0:0:0:
35,357,124469,2,0,P|24:307|8:258,1,101.999996887207,10|2,0:0|0:0,0:0:0:0:
138,366,124785,1,8,0:0:0:0:
235,239,124942,1,2,0:0:0:0:
235,239,125021,1,2,0:0:0:0:
235,239,125100,2,0,P|185:263|131:267,1,101.999996887207,8|2,0:0|0:0,0:0:0:0:
297,339,125416,6,0,P|347:344|392:367,1,101.999996887207,8|0,0:0|1:2,0:0:0:0:
405,376,125653,1,8,0:0:0:0:
418,384,125732,1,8,0:0:0:0:
474,305,125890,2,0,P|469:282|465:236,1,50.9999984436036,8|8,1:3|1:3,0:0:0:0:
378,191,126048,6,0,P|375:216|369:241,3,50.9999984436036,8|8|8|8,1:3|1:3|1:3|1:3,0:0:0:0:
445,130,126364,1,10,1:3:0:0:
432,115,126442,1,10,1:3:0:0:
416,105,126521,1,10,1:3:0:0:
399,101,126600,1,10,1:3:0:0:
381,101,126679,1,6,1:2:0:0:
386,110,130942,5,8,1:3:0:0:
386,110,131021,1,8,1:3:0:0:
386,110,131100,1,8,1:3:0:0:
469,41,131258,1,0,1:2:0:0:
501,149,131416,6,0,P|483:205|474:249,1,95.6250036478044,8|0,0:0|0:0,0:0:0:0:
470,266,131732,6,0,P|426:237|372:253,1,97.7500018644333,14|0,0:0|0:0,0:0:0:0:
272,364,132048,1,2,1:2:0:0:
272,364,132206,1,0,0:0:0:0:
307,288,132364,2,0,P|294:244|276:187,1,97.7500018644333,2|0,1:2|0:0,0:0:0:0:
178,161,132679,2,0,P|166:218|200:252,1,97.7500018644333,2|0,1:2|1:2,0:0:0:0:
188,246,132916,1,8,0:0:0:0:
188,246,132995,1,10,0:0:0:0:
289,119,133153,5,2,0:0:0:0:
231,68,133311,2,0,P|181:55|126:40,1,97.7500018644333,10|2,0:0|1:2,0:0:0:0:
132,49,133548,1,8,0:0:0:0:
127,56,133627,1,8,0:0:0:0:
7,151,133785,1,2,0:0:0:0:
34,52,133942,1,6,1:2:0:0:
90,223,134100,5,10,0:0:0:0:
90,223,134179,1,8,0:0:0:0:
90,223,134258,2,0,P|63:297|53:330,1,97.7500018644333,6|0,1:2|0:0,0:0:0:0:
136,371,134574,1,2,1:2:0:0:
136,371,134732,1,2,0:0:0:0:
259,327,134890,6,0,P|213:309|166:294,1,97.7500018644333,2|0,1:2|0:0,0:0:0:0:
260,183,135206,2,0,P|305:165|352:150,1,97.7500018644333,2|2,1:2|1:2,0:0:0:0:
462,325,135521,5,2,1:2:0:0:
462,325,135679,1,10,0:0:0:0:
337,257,135837,1,10,0:0:0:0:
337,257,135995,1,10,0:0:0:0:
502,182,136153,5,2,1:2:0:0:
379,346,136311,1,2,1:2:0:0:
352,150,136469,1,10,1:3:0:0:
352,150,136627,1,10,1:3:0:0:
419,245,136785,5,6,1:2:0:0:
432,18,140732,5,0,1:2:0:0:
312,97,140890,1,8,1:3:0:0:
433,24,141206,6,0,P|411:106|390:195,1,170,6|2,1:2|1:2,0:0:0:0:
505,277,141679,1,0,0:0:0:0:
457,212,141837,2,0,B|405:225|405:225|380:296|380:296|322:311,1,170,2|2,1:2|1:2,0:0:0:0:
242,370,142311,1,0,0:0:0:0:
146,317,142469,6,0,P|126:234|104:152,1,170,2|2,1:2|1:2,0:0:0:0:
26,87,142942,1,0,0:0:0:0:
19,176,143100,2,0,P|15:120|40:92,1,85,2|0,1:2|0:0,0:0:0:0:
106,19,143416,2,0,P|157:31|213:42,1,85,2|0,1:2|0:0,0:0:0:0:
260,97,143732,6,0,P|331:77|398:60,1,127.5,2|0,1:2|0:0,0:0:0:0:
402,70,144048,2,0,P|422:105|410:145,1,85,2|2,1:2|0:0,0:0:0:0:
346,202,144363,6,0,P|326:237|338:277,1,85,8|0,0:0|1:2,0:0:0:0:
348,284,144600,1,8,0:0:0:0:
348,284,144679,1,8,0:0:0:0:
467,366,144837,5,0,1:2:0:0:
467,366,144916,1,0,1:2:0:0:
467,366,144995,2,0,L|486:314,3,42.5,8|0|0|0,0:0|1:2|1:2|1:2,0:0:0:0:
492,234,145311,1,8,1:3:0:0:
476,240,145390,1,8,1:3:0:0:
459,244,145469,1,8,1:3:0:0:
350,367,145627,6,0,P|282:336|190:319,1,140.25000428009,6|0,1:2|0:0,0:0:0:0:
213,311,145942,1,10,0:0:0:0:
118,347,146100,2,0,P|94:320|108:257,1,93.5000028533936,2|2,0:0|1:2,0:0:0:0:
160,214,146416,1,2,1:2:0:0:
160,214,146574,2,0,P|184:187|170:124,1,93.5000028533936,10|0,0:0|0:0,0:0:0:0:
52,46,146890,1,2,1:2:0:0:
52,46,147048,1,2,1:2:0:0:
80,146,147205,5,10,0:0:0:0:
161,26,147363,1,2,1:2:0:0:
236,76,147521,2,0,L|373:103,1,140.25000428009,10|0,0:0|0:0,0:0:0:0:
431,52,147837,6,0,B|489:26|489:26|471:75|452:140,1,152.999995330811,6|0,1:2|0:0,0:0:0:0:
468,118,148152,1,8,0:0:0:0:
401,203,148310,1,0,0:0:0:0:
480,279,148468,5,2,1:2:0:0:
480,279,148626,2,0,P|491:232|503:192,1,85,2|8,1:2|0:0,0:0:0:0:
402,291,148942,1,2,0:0:0:0:
354,191,149100,5,2,1:2:0:0:
278,259,149258,1,2,0:0:0:0:
281,271,149337,1,2,0:0:0:0:
283,283,149415,2,0,L|296:338,3,42.5,2|2|2|10,1:2|0:0|1:2|0:0,0:0:0:0:
301,357,149731,1,10,0:0:0:0:
164,377,149889,1,10,0:0:0:0:
164,377,149968,1,10,0:0:0:0:
164,377,150047,6,0,B|202:345|202:345|180:234,1,152.999995330811,6|0,1:2|0:0,0:0:0:0:
190,243,150362,2,0,L|171:150,1,85,8|2,0:0|0:0,0:0:0:0:
57,45,150678,6,0,P|29:93|40:125,1,85,2|0,1:2|1:2,0:0:0:0:
172,159,150994,2,0,P|144:110|111:104,1,85,10|2,0:0|0:0,0:0:0:0:
17,204,151310,2,0,P|72:204|94:178,1,85,2|2,1:2|1:2,0:0:0:0:
185,26,151625,6,0,L|226:34,3,42.5,10|2|2|2,0:0|0:0|1:2|0:0,0:0:0:0:
262,105,151941,1,10,0:0:0:0:
269,105,152020,1,2,0:0:0:0:
277,107,152099,1,2,0:0:0:0:
353,48,152257,6,0,P|402:58|448:72,1,85,10|10,0:0|0:0,0:0:0:0:
501,138,152494,5,0,0:0:0:0:
499,146,152573,1,2,1:2:0:0:
496,154,152652,1,10,1:3:0:0:
493,162,152731,6,0,L|480:202,5,42.5,10|10|10|10|10|10,0:0|1:2|0:0|1:3|1:3|1:3,0:0:0:0:
420,256,153204,2,0,L|433:296,3,42.5,10|10|10|10,0:0|1:3|1:3|1:3,0:0:0:0:
481,364,153531,5,10,0:0:0:0:
349,313,153689,1,10,0:0:0:0:
408,183,153848,1,10,0:0:0:0:
346,318,154007,6,0,B|300:392|197:356|215:281|216:276|218:270|220:265|225:158|87:137|48:274|85:319|161:340,1,441.999979766847,6|0,1:2|0:0,0:0:0:0:
242,253,155420,6,0,P|298:238|386:215,1,127.500004863739,6|0,1:2|1:2,0:0:0:0:
174,204,155893,1,2,0:0:0:0:
174,204,156051,2,0,P|155:242|203:326,1,127.500004863739,2|0,1:2|1:2,0:0:0:0:
293,375,156525,1,2,0:0:0:0:
293,375,156683,6,0,P|283:334|274:283,1,63.7500024318696,2|0,1:2|0:0,0:0:0:0:
388,268,156998,2,0,P|378:309|368:359,1,63.7500024318696,2|0,1:2|0:0,0:0:0:0:
279,214,157314,2,0,P|319:202|366:188,1,63.7500024318696,2|0,1:2|0:0,0:0:0:0:
401,126,157630,2,0,P|360:114|311:101,1,63.7500024318696,2|0,1:2|0:0,0:0:0:0:
255,32,157946,6,0,P|221:70|241:164,1,127.500004863739,6|0,1:2|1:2,0:0:0:0:
108,195,158420,1,2,0:0:0:0:
108,195,158577,2,0,P|135:151|100:66,1,127.500004863739,2|0,1:2|1:2,0:0:0:0:
205,224,159051,1,2,0:0:0:0:
205,224,159209,6,0,P|241:233|295:248,1,63.7500024318696,2|0,1:2|0:0,0:0:0:0:
180,306,159525,2,0,P|144:315|94:329,1,63.7500024318696,2|0,1:2|0:0,0:0:0:0:
256,376,159841,1,2,1:2:0:0:
316,318,159998,1,0,1:2:0:0:
275,241,160156,1,10,0:0:0:0:
407,72,160472,6,0,P|395:124|367:237,1,152.999995330811,6|0,1:2|0:0,0:0:0:0:
446,327,160946,1,2,1:2:0:0:
446,327,161104,2,0,P|485:294|451:197,1,152.999995330811,10|0,0:0|0:0,0:0:0:0:
378,204,161577,1,2,0:0:0:0:
297,237,161735,6,0,P|337:226|393:220,1,76.4999976654053,2|8,1:2|0:0,0:0:0:0:
457,129,162051,2,0,P|419:123|382:113,1,76.4999976654053,2|0,1:2|1:0,0:0:0:0:
371,109,162288,1,8,0:0:0:0:
359,105,162367,1,10,0:0:0:0:
440,35,162525,1,8,1:3:0:0:
500,205,162683,2,0,P|488:249|479:299,1,76.4999976654053,10|0,0:0|0:0,0:0:0:0:
386,372,162998,6,0,P|352:358|312:355,1,63.7500024318696,6|0,1:2|0:0,0:0:0:0:
317,278,163314,2,0,P|277:288|245:322,1,63.7500024318696,0|2,1:2|0:0,0:0:0:0:
201,251,163630,2,0,P|179:284|175:327,1,63.7500024318696,2|0,1:2|0:0,0:0:0:0:
95,310,163946,2,0,P|100:347|117:382,1,63.7500024318696,0|0,1:2|0:0,0:0:0:0:
4,213,164262,6,0,P|48:202|108:189,1,85,2|0,1:2|1:2,0:0:0:0:
160,86,164577,2,0,P|116:75|56:62,1,85,2|0,1:2|1:2,0:0:0:0:
210,204,164893,1,10,0:0:0:0:
270,94,165051,1,8,0:0:0:0:
121,179,165209,1,10,0:0:0:0:
274,275,165367,1,8,0:0:0:0:
274,275,166314,6,0,P|263:238|256:195,1,63.7500024318696,2|2,0:0|0:0,0:0:0:0:
164,314,166630,1,2,0:0:0:0:
164,314,166946,6,0,P|175:277|182:234,1,63.7500024318696,2|2,0:0|0:0,0:0:0:0:
317,344,167262,1,2,0:0:0:0:
317,344,167577,5,2,0:0:0:0:
241,380,167735,2,0,P|241:355|229:316,1,42.5,8|8,0:0|1:3,0:0:0:0:
362,250,167893,1,8,1:3:0:0:
368,260,167972,1,8,1:3:0:0:
365,272,168051,5,14,0:0:0:0:
267,172,168209,2,0,P|309:164|365:142,1,85,2|2,1:2|1:2,0:0:0:0:
239,263,168525,2,0,B|191:250|191:250|177:216|177:216|107:203,1,127.5,14|0,0:0|0:0,0:0:0:0:
118,207,168841,1,10,0:0:0:0:
50,125,168998,1,8,0:0:0:0:
61,123,169077,1,8,0:0:0:0:
73,121,169156,1,8,0:0:0:0:
85,119,169235,1,8,0:0:0:0:
97,117,169314,6,0,P|124:111|149:106,1,42.5,6|0,1:2|1:2,0:0:0:0:
245,90,169472,1,10,0:0:0:0:
250,101,169551,1,8,0:0:0:0:
246,113,169630,2,0,P|253:146|259:182,1,42.5,10|8,0:0|0:0,0:0:0:0:
354,213,169788,2,0,P|361:158|379:59,1,127.5,14|2,0:0|0:0,0:0:0:0:
376,66,170104,2,0,B|418:56|418:56|462:99,1,85,10|10,0:0|0:0,0:0:0:0:
354,213,170420,6,0,B|302:201|271:242|293:261|251:306|181:275,1,170,6|10,1:2|0:0,0:0:0:0:
284,147,170893,1,10,0:0:0:0:
351,294,171051,2,0,P|393:286|451:276,1,85,6|0,1:2|0:0,0:0:0:0:
270,377,171367,1,10,0:0:0:0:
261,367,171446,1,10,0:0:0:0:
264,354,171525,2,0,L|255:293,1,42.5,10|10,0:0|0:0,0:0:0:0:
210,206,171683,6,0,B|122:186|122:186|106:239|78:277,1,170,6|0,1:2|1:2,0:0:0:0:
17,374,172190,1,10,0:0:0:0:
164,285,172340,1,10,0:0:0:0:
15,174,172490,1,10,0:0:0:0:
15,174,173149,5,6,1:2:0:0:
276,330,182894,6,0,P|244:319|215:313,1,63.75,2|0,0:0|0:0,0:0:0:0:
160,359,183210,6,0,P|76:310|109:223,1,195.500003728867,6|0,1:2|1:2,0:0:0:0:
194,154,183684,1,2,0:0:0:0:
109,126,183842,2,0,P|101:89|88:43,2,68,2|0|0,1:2|0:0|1:2,0:0:0:0:
180,233,184315,1,2,0:0:0:0:
180,233,184473,6,0,B|236:255|269:206|268:202|267:198|301:151|360:180,1,195.500003728867,2|2,1:2|1:2,0:0:0:0:
438,240,184947,1,2,0:0:0:0:
433,235,185105,2,0,L|453:166,1,68,0|2,1:2|0:0,0:0:0:0:
504,68,185421,2,0,P|480:34|427:41,1,76.4999976654053,0|2,1:2|0:0,0:0:0:0:
438,41,185657,5,8,0:0:0:0:
438,41,185736,2,0,B|354:59|354:59|350:57|350:57|257:76,1,170,8|0,0:0|1:2,0:0:0:0:
168,41,186210,1,2,0:0:0:0:
179,47,186368,2,0,P|198:82|185:135,1,85,2|0,1:2|0:0,0:0:0:0:
190,207,186684,2,0,P|161:234|106:235,1,85,0|2,1:2|0:0,0:0:0:0:
101,246,186921,5,8,0:0:0:0:
101,246,186999,2,0,P|67:225|51:172,1,85,10|0,0:0|0:0,0:0:0:0:
23,313,187315,6,0,P|69:323|116:344,1,85,2|2,1:2|0:0,0:0:0:0:
240,286,187631,1,8,0:0:0:0:
134,169,187789,1,10,0:0:0:0:
178,335,187947,1,10,0:0:0:0:
298,209,188105,1,2,1:2:0:0:
297,201,188263,5,0,0:0:0:0:
256,192,189526,12,0,191736,0:0:0:0:
405,359,192052,6,0,P|445:333|445:277,1,97.7500018644333,6|0,1:2|1:2,0:0:0:0:
442,281,192289,1,0,1:2:0:0:
442,281,192368,1,8,0:0:0:0:
323,236,192526,5,2,1:2:0:0:
364,171,192684,2,0,L|345:74,1,97.7500018644333,2|8,1:2|0:0,0:0:0:0:
352,68,192921,1,8,0:0:0:0:
352,68,192999,1,4,1:2:0:0:
247,24,193157,5,10,0:0:0:0:
247,24,193236,1,8,0:0:0:0:
247,24,193315,2,0,B|220:27|203:51|206:54|196:78|163:82,1,97.7500018644333,2|0,1:2|1:2,0:0:0:0:
163,77,193552,1,8,0:0:0:0:
163,77,193631,1,10,0:0:0:0:
82,7,193789,1,2,1:2:0:0:
47,111,193947,5,8,0:0:0:0:
47,111,194026,1,10,0:0:0:0:
47,111,194105,2,0,L|61:158,1,48.8750009322167,2|2,1:2|1:2,0:0:0:0:
130,190,194263,1,10,1:3:0:0:
24,260,194421,5,10,1:3:0:0:
24,260,194499,1,10,1:3:0:0:
24,260,194578,2,0,B|63:230|112:251|117:293|116:295|115:298|114:336|159:361|199:346,1,220.999989883423,6|12,1:2|0:0,0:0:0:0:
358,283,195052,1,2,0:0:0:0:
294,384,195210,2,0,P|281:333|262:264,1,101.999996887207,2|0,1:2|1:2,0:0:0:0:
363,179,195526,1,8,0:0:0:0:
458,299,195684,1,2,0:0:0:0:
458,299,195763,1,2,0:0:0:0:
458,299,195842,6,0,P|406:286|337:284,1,101.999996887207,2|0,1:2|1:2,0:0:0:0:
474,173,196157,1,10,0:0:0:0:
358,93,196315,2,0,B|333:139|333:139|371:190,1,101.999996887207,2|0,0:0|1:2,0:0:0:0:
475,35,196631,1,2,1:2:0:0:
464,33,196710,1,2,0:0:0:0:
454,30,196789,1,8,0:0:0:0:
358,93,196947,1,2,0:0:0:0:
248,28,197105,6,0,B|197:41|197:41|175:88|175:88|99:106,1,152.999995330811,4|0,1:2|0:0,0:0:0:0:
104,102,197421,2,0,P|86:86|112:17,1,101.999996887207,10|0,0:0|0:0,0:0:0:0:
258,114,197736,2,0,P|295:125|379:153,1,101.999996887207,2|0,1:2|1:2,0:0:0:0:
443,80,198052,1,10,0:0:0:0:
443,80,198210,1,0,0:0:0:0:
492,164,198368,6,0,P|504:221|450:251,1,101.999996887207,2|0,1:2|1:2,0:0:0:0:
501,370,198684,2,0,P|466:335|347:355,1,152.999995330811,10|0,0:0|0:0,0:0:0:0:
346,354,198999,1,2,1:2:0:0:
257,263,199157,1,2,1:2:0:0:
217,380,199315,1,10,0:0:0:0:
351,260,199473,6,0,P|340:198|323:88,1,165.749992412568,6|0,1:2|0:0,0:0:0:0:
316,71,199789,1,2,1:2:0:0:
165,17,199947,2,0,B|131:56|131:56|171:109,1,101.999996887207,10|2,0:0|1:2,0:0:0:0:
177,116,200184,1,2,0:0:0:0:
177,116,200263,1,10,0:0:0:0:
245,21,200421,1,2,1:2:0:0:
344,143,200578,5,8,0:0:0:0:
333,146,200657,1,8,0:0:0:0:
323,152,200736,2,0,B|273:167|273:167|255:218|255:218|183:238,1,178.499994552612,6|0,1:2|0:0,0:0:0:0:
166,244,201052,1,2,1:2:0:0:
45,200,201210,2,0,P|16:246|71:337,1,165.749992412568,10|0,0:0|0:0,0:0:0:0:
90,346,201526,1,8,0:0:0:0:
223,378,201684,1,0,1:2:0:0:
228,363,201763,1,0,1:2:0:0:
222,348,201842,2,0,L|231:283,1,50.9999984436036,10|10,0:0|0:0,0:0:0:0:
341,237,201999,5,10,0:0:0:0:
341,237,202078,1,10,0:0:0:0:
341,237,202157,2,0,B|361:224|394:227|424:262|419:269|413:275|435:304|468:307|497:295,1,165.749992412568,6|0,1:2|0:0,0:0:0:0:
509,288,202473,1,12,0:0:0:0:
441,158,202631,1,2,0:0:0:0:
441,158,202710,1,2,0:0:0:0:
441,158,202789,2,0,P|452:102|465:33,1,101.999996887207,2|0,1:2|1:2,0:0:0:0:
294,18,203105,2,0,B|266:68|266:68|312:120,1,101.999996887207,8|2,0:0|0:0,0:0:0:0:
341,237,203421,6,0,P|288:228|216:216,1,101.999996887207,2|0,1:2|1:2,0:0:0:0:
121,151,203736,1,10,0:0:0:0:
60,208,203894,2,0,P|46:251|101:295,1,101.999996887207,2|0,0:0|1:2,0:0:0:0:
210,199,204210,1,2,1:2:0:0:
210,199,204289,1,2,0:0:0:0:
210,199,204368,2,0,B|219:127|219:127|215:123|215:123|224:48,1,152.999995330811,14|0,0:0|0:0,0:0:0:0:
228,15,204684,6,0,B|270:-2|270:-2|317:32,1,85,0|2,1:2|1:2,0:0:0:0:
435,126,204999,2,0,B|350:100|350:100|331:147|302:178,1,165.749992412568,14|0,0:0|0:0,0:0:0:0:
291,188,205315,6,0,P|300:233|310:287,1,85,0|2,1:2|1:2,0:0:0:0:
196,375,205631,2,0,B|172:367|154:383|154:383|163:334|217:306|264:334,1,165.749992412568,14|0,0:0|0:0,0:0:0:0:
282,346,205947,6,0,P|331:358|397:375,1,93.5000028533936,2|0,1:2|1:2,0:0:0:0:
451,238,206263,1,10,0:0:0:0:
498,302,206421,2,0,P|510:338|467:382,1,93.5000028533936,2|0,0:0|1:2,0:0:0:0:
368,274,206736,2,0,P|361:226|350:168,1,93.5000028533936,2|8,1:2|0:0,0:0:0:0:
277,131,207052,1,2,0:0:0:0:
270,256,207210,5,6,1:2:0:0:
270,256,207368,1,2,0:0:0:0:
420,128,207526,2,0,P|466:141|540:161,1,93.5000028533936,10|2,0:0|0:0,0:0:0:0:
366,236,207842,2,0,P|320:249|246:269,1,93.5000028533936,2|0,1:2|1:0,0:0:0:0:
180,161,208157,1,10,0:0:0:0:
180,161,208315,1,2,0:0:0:0:
266,96,208473,6,0,B|293:132|293:132|270:193,1,93.5000028533936,2|2,1:2|1:2,0:0:0:0:
181,57,208789,1,10,0:0:0:0:
72,180,208947,2,0,P|136:188|266:222,1,187.000005706787,2|0,0:0|1:0,0:0:0:0:
332,348,209421,5,8,0:0:0:0:
338,340,209499,1,8,0:0:0:0:
336,329,209578,2,0,B|357:299|351:255|316:235|310:237|304:241|254:212|260:157|302:114,1,220.999989883423,6|0,1:2|1:2,0:0:0:0:
386,76,210052,2,0,P|402:114|354:164,1,93.5000028533936,10|0,0:0|0:0,0:0:0:0:
285,43,210368,1,2,1:2:0:0:
285,43,210526,1,0,1:2:0:0:
187,134,210684,6,0,P|244:144|297:159,1,93.5000028533936,10|0,0:0|0:0,0:0:0:0:
119,276,210999,2,0,P|99:221|85:168,1,93.5000028533936,2|0,1:2|1:2,0:0:0:0:
274,276,211315,2,0,P|254:330|240:383,1,93.5000028533936,10|0,0:0|0:0,0:0:0:0:
197,221,211631,1,2,1:2:0:0:
86,333,211789,1,0,1:2:0:0:
89,341,211868,1,8,0:0:0:0:
93,349,211947,2,0,P|135:361|185:316,1,93.5000028533936,10|0,0:0|1:2,0:0:0:0:
32,117,212263,6,0,P|24:188|4:314,1,170,14|8,0:0|0:0,0:0:0:0:
235,108,212894,1,8,0:0:0:0:
222,32,213052,1,0,1:2:0:0:
146,43,213210,1,10,0:0:0:0:
157,118,213368,1,0,1:2:0:0:
230,214,213526,6,0,P|285:224|370:246,1,127.5,10|0,0:0|0:0,0:0:0:0:
375,249,213842,2,0,P|401:208|376:168,1,85,10|0,0:0|0:0,0:0:0:0:
510,93,214157,2,0,P|494:146|486:190,1,85,10|0,0:0|1:2,0:0:0:0:
415,42,214473,1,10,0:0:0:0:
415,42,214631,1,0,1:2:0:0:
310,118,214789,6,0,B|266:129|266:129|247:160|247:160|183:176,1,127.5,10|0,0:0|0:0,0:0:0:0:
179,175,215105,2,0,P|147:149|168:97,1,85,10|0,0:0|0:0,0:0:0:0:
288,245,215421,1,10,0:0:0:0:
293,258,215578,1,0,1:2:0:0:
213,338,215736,1,10,0:0:0:0:
57,284,215894,6,0,P|110:294|237:322,1,170,6|2,1:2|1:2,0:0:0:0:
364,214,216368,1,10,0:0:0:0:
304,168,216526,2,0,P|278:211|306:270,1,101.999996887207,2|0,0:0|1:2,0:0:0:0:
433,380,216842,1,8,0:0:0:0:
434,369,216921,1,8,0:0:0:0:
436,358,216999,2,0,P|441:312|450:226,1,101.999996887207,8|8,0:0|1:3,0:0:0:0:
364,214,217236,5,8,1:3:0:0:
363,214,217315,2,0,B|347:239|347:239|364:274,3,50.9999984436036,10|10|10|10,0:0|0:0|0:0|0:0,0:0:0:0:
335,353,217631,1,10,0:0:0:0:
335,353,217789,2,0,P|287:341|211:327,1,101.999996887207,2|0,1:2|0:0,0:0:0:0:
143,245,218105,2,0,P|191:233|267:219,1,101.999996887207,2|0,1:2|0:0,0:0:0:0:
351,135,218421,1,12,0:0:0:0:
351,135,218736,5,2,1:2:0:0:
411,188,218894,2,0,P|427:217|394:275,1,101.999996887207,8|2,0:0|1:2,0:0:0:0:
278,203,219210,2,0,P|274:149|262:94,1,101.999996887207,8|2,0:0|0:0,0:0:0:0:
437,0,219526,1,8,0:0:0:0:
436,10,219605,1,8,0:0:0:0:
435,20,219684,1,8,0:0:0:0:
434,30,219763,1,8,0:0:0:0:
434,40,219842,6,0,B|409:19|366:21|336:62|344:69|351:80|325:124|269:124|231:85,1,203.999993774414,6|8,1:2|0:0,0:0:0:0:
94,36,220315,1,0,1:2:0:0:
191,9,220473,2,0,P|176:68|162:129,1,101.999996887207,10|0,0:0|1:2,0:0:0:0:
35,194,220789,2,0,P|6:166|31:103,1,101.999996887207,8|0,0:0|1:2,0:0:0:0:
144,246,221105,6,0,P|192:254|253:271,1,101.999996887207,10|0,0:0|1:2,0:0:0:0:
331,199,221421,1,8,0:0:0:0:
331,199,221578,1,0,1:2:0:0:
448,289,221736,2,0,B|474:242|474:242|429:175,1,101.999996887207,10|0,0:0|1:2,0:0:0:0:
314,98,222052,2,0,P|326:154|332:219,1,101.999996887207,8|2,0:0|0:0,0:0:0:0:
256,300,222368,5,10,0:0:0:0:
246,297,222447,1,8,1:3:0:0:
236,294,222526,2,0,L|153:274,3,50.9999984436036,8|8|8|8,1:3|1:3|1:3|1:3,0:0:0:0:
134,357,222842,5,10,0:0:0:0:
124,360,222921,1,8,1:3:0:0:
114,363,223000,2,0,L|31:383,3,50.9999984436036,8|8|8|8,1:3|1:3|1:3|1:3,0:0:0:0:
9,299,223315,5,10,0:0:0:0:
0,279,223393,1,10,0:0:0:0:
1,258,223472,1,10,0:0:0:0:
12,240,223551,1,10,0:0:0:0:
30,229,223630,1,10,0:0:0:0:
255,189,224894,5,6,1:2:0:0:
161,384,229947,6,0,P|176:361|170:323,1,52.6999979092408,2|0,1:2|0:0,0:0:0:0:
84,361,230263,2,0,P|84:334|99:313,1,52.6999979092408,2|0,1:2|0:0,0:0:0:0:
72,145,230578,6,0,P|93:173|93:212,1,69.7000010635376,2|0,1:2|0:0,0:0:0:0:
1,176,230894,2,0,P|2:210|23:237,1,69.7000010635376,2|0,1:2|0:0,0:0:0:0:
177,268,231210,5,2,1:2:0:0:
189,260,231368,1,0,0:0:0:0:
201,253,231526,1,2,1:2:0:0:
213,246,231684,1,0,0:0:0:0:
236,174,231842,5,2,1:2:0:0:
274,190,231999,1,0,0:0:0:0:
313,204,232157,1,2,1:2:0:0:
444,91,232315,5,0,1:2:0:0:
436,83,232394,1,8,0:0:0:0:
427,76,232473,2,0,P|389:107|389:147,1,78.199997374878,10|0,0:0|1:0,0:0:0:0:
380,146,232710,1,0,1:0:0:0:
380,146,232789,2,0,P|395:190|407:233,1,78.199997374878,2|0,1:2|0:0,0:0:0:0:
503,302,233105,2,0,B|514:269|514:269|490:233,1,78.199997374878,2|0,1:2|0:0,0:0:0:0:
381,305,233421,2,0,P|341:312|309:332,1,78.199997374878,2|0,1:2|1:0,0:0:0:0:
297,326,233657,5,0,1:0:0:0:
297,326,233736,1,2,1:2:0:0:
157,228,233894,1,0,1:2:0:0:
157,228,233973,1,0,1:2:0:0:
157,228,234052,2,0,L|141:277,1,39.099998687439,8|8,1:3|1:3,0:0:0:0:
77,325,234210,5,8,1:3:0:0:
60,298,234289,1,8,1:3:0:0:
82,282,234368,6,0,B|145:260|166:317|164:322|185:361|225:360,1,158.099993727722,10|0,0:0|0:0,0:0:0:0:
288,238,234999,6,0,P|311:195|281:142,1,101.999996887207,4|0,1:2|0:0,0:0:0:0:
186,87,235315,2,0,P|137:102|85:120,1,101.999996887207,10|0,0:0|0:0,0:0:0:0:
119,24,235631,1,2,1:2:0:0:
119,24,235789,1,2,0:0:0:0:
188,171,235947,1,8,0:0:0:0:
264,33,236105,6,0,B|322:48|322:48|345:108|345:108|442:136,1,203.999993774414,2|0,0:0|0:0,0:0:0:0:
505,69,236578,2,0,B|467:29|467:29|410:50,1,101.999996887207,10|0,0:0|0:0,0:0:0:0:
360,191,236894,2,0,P|378:239|398:302,1,101.999996887207,2|0,1:2|0:0,0:0:0:0:
496,211,237210,1,8,0:0:0:0:
496,211,237368,1,0,0:0:0:0:
487,365,237526,6,0,P|428:325|288:306,1,203.999993774414,2|10,1:2|0:0,0:0:0:0:
143,276,237999,1,0,0:0:0:0:
167,369,238157,2,0,P|126:311|154:259,1,101.999996887207,2|0,1:2|0:0,0:0:0:0:
253,381,238473,1,10,0:0:0:0:
261,172,238631,6,0,P|312:227|290:315,1,152.999995330811,12|0,0:0|0:0,0:0:0:0:
296,306,238947,1,2,1:2:0:0:
169,201,239105,2,0,P|151:153|125:95,1,101.999996887207,10|2,0:0|0:0,0:0:0:0:
315,0,239421,2,0,P|282:39|245:91,1,101.999996887207,2|10,1:2|0:0,0:0:0:0:
241,103,239657,1,8,0:0:0:0:
241,103,239736,1,10,0:0:0:0:
128,14,239894,1,10,0:0:0:0:
24,111,240052,5,10,0:0:0:0:
20,120,240131,1,10,0:0:0:0:
16,129,240210,1,10,0:0:0:0:
13,138,240289,1,10,0:0:0:0:
10,146,240368,6,0,P|36:209|58:273,1,101.999996887207,6|0,1:2|0:0,0:0:0:0:
163,384,240684,2,0,P|194:360|196:292,1,101.999996887207,2|2,1:2|0:0,0:0:0:0:
95,319,240999,1,2,1:2:0:0:
183,222,241157,6,0,B|245:201|272:255|271:260|270:264|286:334|344:327,1,203.999993774414,14|2,0:0|0:0,0:0:0:0:
473,239,241631,2,0,B|477:210|497:181|497:181|421:131|375:233,1,203.999993774414,10|2,0:0|1:2,0:0:0:0:
410,350,242105,1,2,1:2:0:0:
414,341,242184,1,10,0:0:0:0:
412,330,242263,1,10,0:0:0:0:
512,371,242421,1,2,1:2:0:0:
370,220,242578,6,0,L|336:119,1,85,14|0,0:0|1:2,0:0:0:0:
455,6,242894,1,10,0:0:0:0:
455,6,243052,1,0,1:2:0:0:
321,53,243210,1,10,0:0:0:0:
440,143,243368,1,2,1:2:0:0:
399,74,243526,1,10,0:0:0:0:
264,199,243684,6,0,P|185:162|94:135,1,170,6|2,1:2|1:2,0:0:0:0:
46,51,244157,5,10,0:0:0:0:
133,216,244315,1,10,0:0:0:0:
172,42,244473,1,10,0:0:0:0:
31,163,244631,1,10,0:0:0:0:
104,128,244789,5,10,0:0:0:0:
100,117,244947,1,10,0:0:0:0:
