osu file format v14

[General]
AudioFilename: audio.mp3
AudioLeadIn: 0
PreviewTime: 62969
Countdown: 0
SampleSet: Soft
StackLeniency: 0.4
Mode: 0
LetterboxInBreaks: 0
WidescreenStoryboard: 1

[Editor]
DistanceSpacing: 0.3
BeatDivisor: 4
GridSize: 8
TimelineZoom: 2.799999

[Metadata]
Title:Rising Hope
TitleUnicode:Rising Hope
Artist:LiSA
ArtistUnicode:LiSA
Creator:Hinae
Version:Hard
Source:魔法科高校の劣等生
Tags:Mahouka Koukou no Rettousei The irregular at Magic High School anime opening 1 full japanese rock jrock j-rock 織部里沙 Risa Oribe 司波深雪 Shiba Miyuki 司波達也 Shiba Tatsuya oniisama onii-sama onii sama Onegai Flame Haze
BeatmapID:3501372
BeatmapSetID:1711383

[Difficulty]
HPDrainRate:4
CircleSize:3.5
OverallDifficulty:6.5
ApproachRate:8
SliderMultiplier:1.4
SliderTickRate:1

[Events]
//Background and Video events
0,0,"cropped-1920-1080-551175.jpg",0,0
//Break Periods
2,8142,9336
2,10668,11389
2,126879,130192
2,136985,139982
2,173349,181947
2,225094,229197
//Storyboard Layer 0 (Background)
//Storyboard Layer 1 (Fail)
//Storyboard Layer 2 (Pass)
//Storyboard Layer 3 (Foreground)
//Storyboard Layer 4 (Overlay)
//Storyboard Sound Samples

[TimingPoints]
364,315.789473684211,4,2,1,30,1,0
364,-133.333333333333,4,2,1,30,0,0
2890,-133.333333333333,4,2,1,40,0,0
3995,-133.333333333333,4,2,1,50,0,0
5416,-117.647058823529,4,2,1,50,0,0
12995,-100,4,2,1,70,0,0
18048,-133.333333333333,4,2,1,40,0,0
23100,-117.647058823529,4,2,1,45,0,0
24206,-117.647058823529,4,2,1,46,0,0
24521,-117.647058823529,4,2,1,47,0,0
24837,-117.647058823529,4,2,1,48,0,0
25153,-117.647058823529,4,2,1,49,0,0
25469,-117.647058823529,4,2,1,50,0,0
25785,-117.647058823529,4,2,1,51,0,0
26100,-117.647058823529,4,2,1,52,0,0
26416,-117.647058823529,4,2,1,53,0,0
27521,-117.647058823529,4,2,1,50,0,0
27995,-100,4,2,1,60,0,0
37627,-133.333333333333,4,2,1,45,0,0
38258,-117.647058823529,4,2,1,60,0,0
48364,-153.846153846154,4,2,1,40,0,0
52785,-153.846153846154,4,2,1,60,0,0
53416,-117.647058823529,4,2,1,50,0,0
57206,-117.647058823529,4,2,1,60,0,0
57837,-117.647058823529,4,2,1,70,0,0
58469,-117.647058823529,4,2,1,30,0,0
59258,-153.846153846154,4,2,1,30,0,0
59890,-153.846153846154,4,2,1,40,0,0
60521,-100,4,2,1,50,0,0
60679,-100,4,2,1,60,0,0
60995,-100,4,2,1,70,0,0
63521,-90.9090909090909,4,2,1,80,0,1
90048,-100,4,2,1,80,0,0
91311,-117.647058823529,4,2,1,50,0,0
96364,-100,4,2,1,70,0,0
106469,-117.647058823529,4,2,1,50,0,0
115311,-111.111111111111,4,2,1,50,0,0
116416,-100,4,2,1,60,0,0
124153,-100,4,2,1,70,0,0
126758,-100,4,2,1,40,0,0
130942,-133.333333333333,4,2,1,50,0,0
131732,-117.647058823529,4,2,1,60,0,0
135521,-100,4,2,1,70,0,0
136153,-100,4,2,1,65,0,0
136469,-100,4,2,1,60,0,0
137416,-100,4,2,1,40,0,0
140732,-100,4,2,1,50,0,0
141206,315.789473684211,4,2,1,50,1,0
141206,-117.647058823529,4,2,1,50,0,0
144363,-117.647058823529,4,2,1,60,0,0
145627,315.789473684211,4,2,1,70,1,0
145627,-100,4,2,1,70,0,0
147837,315.789473684211,4,2,1,70,1,0
150047,315.789473684211,4,2,1,70,1,0
152257,-100,4,2,1,80,0,0
153204,348.837209302325,4,2,1,80,1,0
153531,317.460317460318,4,2,1,80,1,0
154007,314.13612565445,4,2,1,80,1,0
154007,-166.666666666667,4,2,1,80,0,0
155420,315.789473684211,4,2,1,50,1,0
155420,-133.333333333333,4,2,1,50,0,0
160472,-117.647058823529,4,2,1,60,0,0
165525,-117.647058823529,4,2,1,30,0,0
166314,-153.846153846154,4,2,1,30,0,0
166946,-153.846153846154,4,2,1,40,0,0
167577,-153.846153846154,4,2,1,50,0,0
167735,-100,4,2,1,50,0,0
168051,-100,4,2,1,60,0,0
171683,335.195530726257,4,2,1,60,1,0
172019,342.857142857143,4,2,1,60,1,0
172190,303.030303030303,4,2,1,65,1,0
172340,300,4,2,1,70,1,0
172490,329.67032967033,4,2,1,75,1,0
173149,331.491712707183,4,2,1,40,1,0
173811,304.182509505704,4,2,1,40,1,0
174266,329.67032967033,4,2,1,40,1,0
174430,309.278350515464,4,2,1,40,1,0
174739,329.67032967033,4,2,1,40,1,0
175233,309.278350515464,4,2,1,40,1,0
175542,370.942812982999,4,2,1,40,1,0
176098,329.67032967033,4,2,1,40,1,0
176262,316.122233930453,4,2,1,40,1,0
176736,329.67032967033,4,2,1,40,1,0
177395,285.714285714286,4,2,1,40,1,0
177680,321.285140562249,4,2,1,40,1,0
178001,315.789473684211,4,2,1,40,1,0
178474,315.789473684211,4,2,1,40,1,0
179421,315.789473684211,4,2,1,40,1,0
182736,-133.333333333333,4,2,1,40,0,0
183210,-117.647058823529,4,2,1,50,0,0
189526,-117.647058823529,4,2,1,30,0,0
191736,-117.647058823529,4,2,1,30,0,0
192052,-100,4,2,1,65,0,0
194578,-90.9090909090909,4,2,1,80,0,1
223631,-100,4,2,1,80,0,0
224894,-100,4,2,1,50,0,0
229947,-133.333333333333,4,2,1,50,0,0
234999,-100,4,2,1,70,0,0
242578,-100,4,2,1,80,0,0

[Colours]
Combo1 : 255,255,128
Combo2 : 14,177,140
Combo3 : 71,239,172
Combo4 : 0,115,170
Combo5 : 128,128,255
Combo6 : 226,65,65
Combo7 : 192,192,192

[HitObjects]
413,81,364,6,0,P|442:75|486:67,2,52.5000020027161,2|2|2,0:0|0:0|0:0,0:0:0:0:
337,43,837,2,0,P|322:84|348:144,1,105.000004005432,2|2,0:0|0:0,0:0:0:0:
399,202,1311,2,0,P|414:243|388:303,1,105.000004005432,2|2,0:0|0:0,0:0:0:0:
328,353,1785,2,0,P|299:350|214:341,1,105.000004005432,2|2,0:0|0:0,0:0:0:0:
148,379,2258,1,2,0:0:0:0:
35,253,2574,2,0,P|41:220|48:182,1,52.5000020027161,2|2,0:0|0:0,0:0:0:0:
62,118,2890,6,0,B|115:126|115:126|119:131|119:131|173:140,1,105.000004005432,2|2,0:0|0:0,0:0:0:0:
227,83,3364,1,2,0:0:0:0:
227,83,3521,2,0,P|265:57|338:77,1,105.000004005432,2|2,0:0|0:0,0:0:0:0:
382,122,3995,2,0,P|375:164|361:243,1,105.000004005432,2|0,0:0|0:0,0:0:0:0:
422,286,4469,2,0,P|429:320|438:359,1,52.5000020027161,2|2,1:2|1:2,0:0:0:0:
360,378,4785,1,2,0:0:0:0:
360,378,4942,1,2,0:0:0:0:
246,222,5416,6,0,P|239:186|230:142,1,59.5000011348725,8|8,0:0|0:0,0:0:0:0:
225,124,5653,1,8,0:0:0:0:
225,124,5732,1,8,0:0:0:0:
141,170,5890,2,0,P|134:210|119:293,1,119.000002269745,2|2,1:2|1:2,0:0:0:0:
290,372,6521,1,10,0:2:0:0:
495,25,7942,5,6,1:2:0:0:
247,349,10311,6,0,L|243:378,3,19.8333337116242,2|2|2|2,0:0|0:0|0:0|1:2,0:0:0:0:
74,26,12364,5,2,0:0:0:0:
12,98,12521,1,0,1:0:0:0:
6,115,12600,1,0,1:0:0:0:
15,130,12679,1,8,0:0:0:0:
180,54,12995,6,0,B|238:66|238:66|262:94|262:94|320:103,1,140,6|10,1:2|0:0,0:0:0:0:
386,58,13469,1,0,0:0:0:0:
386,58,13627,2,0,P|394:23|371:-15,2,70,2|2|10,1:2|0:0|0:0,0:0:0:0:
457,114,14100,2,0,P|450:156|434:268,1,140,2|2,0:0|0:0,0:0:0:0:
482,331,14574,1,10,0:0:0:0:
342,375,14890,2,0,P|305:367|256:356,1,70,2|2,1:2|0:0,0:0:0:0:
207,296,15206,2,0,P|170:304|121:315,1,70,10|2,0:0|0:0,0:0:0:0:
61,263,15521,6,0,B|69:213|69:213|46:184|46:184|59:106,1,140,2|10,1:2|0:0,0:0:0:0:
25,50,15995,1,0,0:0:0:0:
25,50,16153,2,0,B|63:39|63:39|104:59,1,70,2|2,1:2|0:0,0:0:0:0:
161,109,16469,1,10,0:0:0:0:
235,57,16627,2,0,P|292:66|394:79,1,140,2|2,0:0|0:0,0:0:0:0:
440,138,17100,2,0,P|452:171|423:218,1,70,10|2,0:0|0:0,0:0:0:0:
487,282,17416,1,10,0:0:0:0:
415,338,17574,1,8,0:0:0:0:
415,338,17653,1,8,0:0:0:0:
415,338,17732,2,0,L|359:329,3,35,8|8|8|8,0:0|0:0|0:0|0:0,0:0:0:0:
343,301,18048,6,0,B|263:312|290:373|204:378,1,157.500006008148,6|2,1:2|0:0,0:0:0:0:
140,323,18679,2,0,P|153:268|179:146,1,157.500006008148,2|2,0:0|0:0,0:0:0:0:
125,93,19311,2,0,P|86:100|3:114,1,105.000004005432,2|2,0:0|0:0,0:0:0:0:
99,200,19785,2,0,P|138:207|221:221,1,105.000004005432,2|2,0:0|0:0,0:0:0:0:
334,97,20416,5,2,1:2:0:0:
334,97,20574,2,0,P|374:91|458:82,1,105.000004005432,2|2,1:2|0:0,0:0:0:0:
500,148,21048,2,0,P|516:195|488:255,1,105.000004005432,2|2,0:0|0:0,0:0:0:0:
363,363,21679,2,0,B|316:358|316:358|310:363|310:363|259:357,2,105.000004005432,2|2|2,0:0|0:0|0:0,0:0:0:0:
432,306,22469,2,0,P|428:274|423:231,1,52.5000020027161,2|0,0:0|1:0,0:0:0:0:
421,214,22706,1,0,1:0:0:0:
421,214,22785,1,8,0:0:0:0:
481,77,23100,6,0,B|443:48|443:48|359:73,1,119.000002269745,6|2,1:2|1:2,0:0:0:0:
296,24,23574,1,0,0:0:0:0:
220,70,23732,2,0,P|226:109|234:153,1,59.5000011348725,2|0,1:2|0:0,0:0:0:0:
292,193,24048,1,2,1:2:0:0:
236,263,24206,1,2,1:2:0:0:
236,263,24285,1,8,0:0:0:0:
236,263,24364,6,0,P|197:254|169:249,1,59.5000011348725,8|2,0:0|1:2,0:0:0:0:
117,184,24679,1,10,0:0:0:0:
44,236,24837,2,0,B|55:295|55:295|51:304|51:304|65:375,1,119.000002269745,2|2,1:2|1:2,0:0:0:0:
147,384,25311,1,10,0:0:0:0:
147,384,25469,1,2,1:2:0:0:
210,322,25627,6,0,P|245:316|294:307,1,59.5000011348725,10|2,0:0|1:2,0:0:0:0:
342,361,25942,1,10,0:0:0:0:
406,299,26100,2,0,L|454:304,2,29.7500005674362,2|8|10,1:2|0:0|0:0,0:0:0:0:
351,227,26416,2,0,L|316:234,4,29.7500005674362,8|8|10|8|14,0:0|0:0|0:0|0:0|0:0,0:0:0:0:
41,38,27679,5,2,1:2:0:0:
41,38,27837,1,10,0:0:0:0:
109,98,27995,6,0,P|101:146|84:247,1,140,6|0,1:2|1:2,0:0:0:0:
141,299,28469,2,0,P|184:292|228:285,1,70,8|2,0:0|0:0,0:0:0:0:
261,220,28785,2,0,B|334:228|307:280|390:288,1,140,2|8,1:2|0:0,0:0:0:0:
444,233,29258,1,2,0:0:0:0:
444,233,29416,2,0,P|436:190|416:70,1,140,2|10,1:2|0:0,0:0:0:0:
360,34,29890,2,0,P|326:27|282:53,1,70,2|0,0:0|1:0,0:0:0:0:
233,99,30206,2,0,P|202:103|155:80,1,70,2|8,1:2|0:0,0:0:0:0:
114,23,30521,1,2,0:0:0:0:
46,72,30679,6,0,B|11:96|11:96|41:204,1,140,2|8,1:2|0:0,0:0:0:0:
95,250,31153,2,0,P|87:291|79:330,1,70,2|0,0:0|1:0,0:0:0:0:
141,378,31469,2,0,P|183:371|226:363,1,70,2|8,1:2|0:0,0:0:0:0:
259,297,31785,2,0,B|311:308|311:308|338:336|338:336|394:346,1,140,2|2,0:0|1:2,0:0:0:0:
449,289,32258,1,8,0:0:0:0:
449,289,32416,1,2,0:0:0:0:
399,212,32574,2,0,P|406:170|415:118,1,70,2|0,1:2|1:0,0:0:0:0:
452,53,32890,1,8,0:0:0:0:
368,78,33048,1,8,0:0:0:0:
368,78,33127,1,8,0:0:0:0:
368,78,33206,6,0,B|294:84|313:144|230:142,2,140,6|14|2,1:2|0:0|1:2,0:0:0:0:
441,123,33995,1,0,1:0:0:0:
388,188,34153,2,0,P|394:231|400:276,1,70,10|0,0:0|0:0,0:0:0:0:
442,328,34469,2,0,P|479:319|517:309,2,70,2|2|10,1:2|1:2|0:0,0:0:0:0:
371,374,34942,2,0,B|318:368|318:368|300:345|300:345|218:331,1,140,2|2,0:0|1:2,0:0:0:0:
164,365,35416,2,0,P|126:373|80:383,1,70,8|2,0:0|0:0,0:0:0:0:
23,335,35732,6,0,P|11:305|33:260,1,70,6|0,1:2|1:0,0:0:0:0:
53,242,35969,1,8,0:0:0:0:
53,242,36048,1,10,0:0:0:0:
128,178,36206,2,0,L|116:118,2,35,2|8|8,1:2|0:0|0:0,0:0:0:0:
213,226,36521,2,0,L|206:277,2,35,2|8|8,1:2|0:0|0:0,0:0:0:0:
300,176,36837,1,2,1:2:0:0:
300,176,36916,1,2,0:0:0:0:
300,176,36995,6,0,P|291:135|282:94,1,70,10|10,0:0|0:0,0:0:0:0:
325,22,37311,1,10,0:0:0:0:
325,22,37627,6,0,P|382:37|445:53,1,105.000004005432,2|2,0:0|0:0,0:0:0:0:
505,191,38258,6,0,B|433:189|471:239|374:243,1,119.000002269745,4|0,1:2|0:0,0:0:0:0:
331,193,38732,1,0,1:0:0:0:
271,251,38890,1,8,0:0:0:0:
271,251,39048,2,0,P|292:289|281:385,1,119.000002269745,2|0,1:2|0:0,0:0:0:0:
213,384,39521,5,2,1:2:0:0:
213,384,39679,2,0,P|174:377|130:368,1,59.5000011348725,8|0,0:0|0:0,0:0:0:0:
126,279,39995,1,2,1:2:0:0:
126,279,40153,2,0,P|165:286|259:303,1,119.000002269745,10|2,0:0|0:0,0:0:0:0:
387,216,40785,6,0,B|376:168|376:168|391:140|391:140|375:82,1,119.000002269745,6|2,1:2|0:0,0:0:0:0:
373,20,41258,1,0,1:0:0:0:
300,61,41416,1,8,0:0:0:0:
300,61,41574,2,0,P|248:52|167:38,1,119.000002269745,2|2,1:2|0:0,0:0:0:0:
117,92,42048,5,2,1:2:0:0:
117,92,42206,2,0,P|124:126|131:162,1,59.5000011348725,10|2,0:2|1:2,0:0:0:0:
85,224,42521,1,2,1:2:0:0:
85,224,42600,1,10,0:0:0:0:
85,224,42679,2,0,P|76:260|68:293,1,59.5000011348725,10|10,0:0|0:0,0:0:0:0:
131,339,42995,1,10,0:0:0:0:
194,284,43153,1,10,0:0:0:0:
266,325,43311,6,0,B|328:326|306:282|385:283,1,119.000002269745,6|0,1:2|0:0,0:0:0:0:
447,133,43942,2,0,P|477:139|516:146,2,59.5000011348725,8|2|2,0:0|1:2|0:0,0:0:0:0:
379,83,44416,1,2,0:0:0:0:
312,132,44574,5,2,1:2:0:0:
312,132,44732,2,0,B|282:153|282:153|300:241,1,119.000002269745,8|2,0:0|1:2,0:0:0:0:
237,291,45206,2,0,P|197:301|137:318,2,89.2500017023087,10|2|2,0:0|0:0|0:0,0:0:0:0:
316,341,45837,6,0,P|338:293|311:230,1,119.000002269745,4|2,1:2|0:0,0:0:0:0:
277,159,46311,2,0,P|244:165|201:173,1,59.5000011348725,2|8,1:2|0:0,0:0:0:0:
181,245,46627,2,0,P|149:239|107:230,1,59.5000011348725,2|0,1:2|0:0,0:0:0:0:
57,284,46942,2,0,P|42:251|71:168,1,119.000002269745,2|10,0:0|0:0,0:0:0:0:
13,107,47416,1,2,1:2:0:0:
84,61,47574,1,2,1:2:0:0:
84,61,47653,1,10,0:2:0:0:
84,61,47732,2,0,P|115:69|159:81,1,59.5000011348725,10|8,0:2|1:3,0:0:0:0:
201,134,48048,1,8,1:3:0:0:
270,87,48206,1,8,1:3:0:0:
250,6,48364,6,0,P|203:14|97:34,1,136.499993751526,4|2,1:2|0:0,0:0:0:0:
50,86,48995,2,0,B|64:137|64:137|45:173|45:173|62:232,1,136.499993751526,2|2,0:0|0:0,0:0:0:0:
127,265,49627,2,0,P|170:273|236:285,2,90.9999958343508,2|2|2,0:0|0:0|0:0,0:0:0:0:
268,165,50574,1,2,0:0:0:0:
337,225,50732,5,0,1:0:0:0:
337,225,50890,2,0,P|364:254|353:358,1,136.499993751526,2|2,1:2|0:0,0:0:0:0:
281,377,51521,2,0,P|237:371|135:358,1,136.499993751526,2|2,0:0|0:0,0:0:0:0:
86,295,52153,2,0,P|76:255|59:187,1,90.9999958343508,2|2,0:0|0:0,0:0:0:0:
156,59,52785,2,0,L|149:2,2,30.3333319447836,8|8|8,0:0|0:0|1:3,0:0:0:0:
193,102,53100,2,0,L|187:140,2,30.3333319447836,8|8|8,1:3|1:3|1:3,0:0:0:0:
239,63,53416,6,0,B|342:66|298:145|413:136,1,178.500003404617,6|2,1:2|1:2,0:0:0:0:
465,180,54048,2,0,P|450:237|433:316,1,119.000002269745,14|0,0:0|0:0,0:0:0:0:
399,369,54521,1,2,0:0:0:0:
344,306,54679,2,0,P|317:313|283:321,1,59.5000011348725,2|8,1:2|0:0,0:0:0:0:
212,360,54995,2,0,P|185:353|151:345,1,59.5000011348725,2|0,0:0|1:0,0:0:0:0:
89,292,55311,2,0,P|74:251|122:183,1,119.000002269745,10|10,0:0|0:0,0:0:0:0:
262,95,55942,6,0,P|253:143|236:234,1,119.000002269745,6|0,1:2|1:2,0:0:0:0:
306,271,56416,1,2,0:0:0:0:
306,271,56574,2,0,P|349:260|431:240,1,119.000002269745,2|0,1:2|1:2,0:0:0:0:
504,86,57206,2,0,P|472:84|435:80,1,59.5000011348725,2|0,1:2|1:2,0:0:0:0:
376,23,57521,2,0,P|344:25|307:29,1,59.5000011348725,2|0,1:2|1:2,0:0:0:0:
256,94,57837,2,0,P|217:88|172:80,1,59.5000011348725,10|8,0:0|0:0,0:0:0:0:
132,22,58153,1,10,0:0:0:0:
62,78,58311,1,8,0:0:0:0:
429,353,59258,6,0,L|481:348,2,45.4999979171754,2|2|2,0:0|0:0|0:0,0:0:0:0:
331,257,59890,2,0,L|279:252,2,45.4999979171754,2|2|2,0:0|0:0|0:0,0:0:0:0:
439,173,60521,1,2,0:0:0:0:
373,108,60679,2,0,L|379:63,3,35,8|8|8|8,0:0|1:3|1:3|1:3,0:0:0:0:
375,31,60995,6,0,P|338:37|296:45,1,70,14|2,0:0|1:2,0:0:0:0:
237,91,61311,1,0,1:2:0:0:
162,51,61469,1,14,0:0:0:0:
162,51,61785,2,0,P|120:62|70:73,1,70,10|2,0:0|1:2,0:0:0:0:
34,127,62100,6,0,P|10:156|48:256,1,140,14|0,0:0|1:0,0:0:0:0:
106,289,62574,1,10,0:0:0:0:
171,235,62732,1,10,0:0:0:0:
136,158,62890,1,10,0:0:0:0:
478,20,63521,6,0,P|472:62|456:180,1,154.000004699707,6|8,1:2|0:0,0:0:0:0:
504,252,63995,1,2,0:0:0:0:
427,304,64153,2,0,B|346:264|346:348|272:305,1,154.000004699707,2|8,1:2|0:0,0:0:0:0:
212,246,64627,1,2,0:0:0:0:
143,308,64785,2,0,P|150:349|158:395,1,77.0000023498536,2|0,1:2|1:0,0:0:0:0:
40,323,65100,1,10,0:0:0:0:
40,323,65258,2,0,P|44:270|47:219,1,77.0000023498536,2|0,0:0|1:0,0:0:0:0:
119,189,65574,2,0,P|158:194|206:200,1,77.0000023498536,2|10,1:2|0:0,0:0:0:0:
267,257,65890,1,2,0:0:0:0:
343,204,66048,6,0,B|332:151|332:151|358:113|358:113|347:44,1,154.000004699707,4|8,1:2|0:0,0:0:0:0:
276,3,66521,1,2,0:0:0:0:
203,60,66679,2,0,P|166:31|55:48,1,154.000004699707,2|8,1:2|0:0,0:0:0:0:
7,113,67153,1,2,0:0:0:0:
69,181,67311,2,0,P|59:224|46:272,1,77.0000023498536,2|0,1:2|1:0,0:0:0:0:
102,333,67627,1,10,0:0:0:0:
102,333,67785,2,0,P|145:322|197:309,1,77.0000023498536,2|0,0:0|1:0,0:0:0:0:
230,238,68100,2,0,P|269:244|332:253,1,77.0000023498536,2|10,1:2|0:2,0:0:0:0:
372,315,68416,1,2,0:0:0:0:
448,263,68574,6,0,P|441:208|426:92,2,154.000004699707,4|10|2,1:2|0:0|1:2,0:0:0:0:
372,315,69364,1,0,1:0:0:0:
299,256,69521,2,0,P|283:221|305:176,1,77.0000023498536,10|2,0:0|0:0,0:0:0:0:
234,115,69837,2,0,P|190:125|148:134,1,77.0000023498536,2|0,1:2|1:0,0:0:0:0:
98,60,70153,2,0,P|54:50|12:41,1,77.0000023498536,10|0,0:0|0:0,0:0:0:0:
4,134,70469,2,0,P|11:176|17:235,1,77.0000023498536,2|2,1:2|1:2,0:0:0:0:
23,302,70785,1,10,0:0:0:0:
100,252,70942,6,0,B|136:218|195:244|195:244|197:273|232:294,1,154.000004699707,6|2,1:2|1:2,0:0:0:0:
291,348,71416,2,0,P|338:341|384:333,1,77.0000023498536,10|0,0:0|1:0,0:0:0:0:
426,264,71732,2,0,P|437:226|416:186,1,77.0000023498536,10|2,0:0|1:2,0:0:0:0:
370,115,72048,5,10,0:0:0:0:
370,115,72127,1,10,0:0:0:0:
370,115,72206,2,0,B|308:107|308:107|280:128|280:128|224:120,1,154.000004699707,6|2,1:2|1:2,0:0:0:0:
166,47,72679,2,0,P|121:56|69:68,1,77.0000023498536,10|0,0:0|1:0,0:0:0:0:
26,130,72995,2,0,P|34:173|41:220,1,77.0000023498536,8|0,0:0|1:2,0:0:0:0:
97,278,73311,1,10,0:0:0:0:
168,218,73469,1,10,0:0:0:0:
168,218,73548,1,10,0:0:0:0:
168,218,73627,6,0,B|246:204|229:276|328:260,1,154.000004699707,6|14,1:2|0:0,0:0:0:0:
382,318,74100,1,2,0:0:0:0:
447,253,74258,2,0,B|470:199|419:150|419:150|417:184|388:203,1,154.000004699707,2|8,1:2|0:0,0:0:0:0:
330,132,74732,1,2,0:0:0:0:
385,57,74890,2,0,P|425:65|478:76,1,77.0000023498536,2|0,1:2|1:0,0:0:0:0:
501,155,75206,1,10,0:0:0:0:
501,155,75364,2,0,P|493:199|485:244,1,77.0000023498536,2|0,0:0|1:0,0:0:0:0:
418,292,75679,2,0,P|374:286|312:278,1,77.0000023498536,2|10,1:2|0:0,0:0:0:0:
265,228,75995,1,2,0:0:0:0:
192,285,76153,6,0,B|144:271|105:313|105:313|108:349|83:374,1,154.000004699707,4|8,1:2|0:0,0:0:0:0:
17,307,76627,1,2,0:0:0:0:
71,232,76785,2,0,B|55:175|55:175|77:142|77:142|61:76,1,154.000004699707,2|8,1:2|0:0,0:0:0:0:
132,26,77258,1,2,0:0:0:0:
206,80,77416,2,0,P|248:89|310:102,1,77.0000023498536,2|0,1:2|1:0,0:0:0:0:
346,30,77732,1,10,0:0:0:0:
346,30,77890,2,0,P|390:22|449:12,1,77.0000023498536,2|0,0:0|1:0,0:0:0:0:
489,80,78206,2,0,P|483:132|477:175,1,77.0000023498536,2|12,1:2|0:0,0:0:0:0:
417,225,78521,1,2,0:0:0:0:
336,179,78679,6,0,P|296:189|248:200,1,77.0000023498536,6|2,1:2|0:0,0:0:0:0:
201,268,78995,2,0,P|161:258|113:247,1,77.0000023498536,10|2,0:0|0:0,0:0:0:0:
53,307,79311,2,0,P|35:251|87:165,1,154.000004699707,2|10,1:2|0:0,0:0:0:0:
30,90,79785,1,2,0:0:0:0:
106,39,79942,2,0,P|148:48|201:58,1,77.0000023498536,2|2,1:2|1:2,0:0:0:0:
228,134,80258,2,0,P|270:125|323:115,1,77.0000023498536,10|2,0:0|0:0,0:0:0:0:
366,50,80574,1,0,1:2:0:0:
433,112,80732,2,0,L|426:164,3,38.5000011749268,0|8|8|8,1:0|0:0|0:0|0:0,0:0:0:0:
392,180,81048,6,0,P|399:234|415:355,1,154.000004699707,4|2,1:2|1:2,0:0:0:0:
329,373,81521,2,0,P|289:367|243:360,1,77.0000023498536,10|0,0:0|0:0,0:0:0:0:
185,297,81837,2,0,P|142:305|93:315,1,77.0000023498536,2|0,1:2|1:2,0:0:0:0:
35,254,82153,2,0,P|46:206|64:130,1,115.50000352478,10|0,0:0|0:0,0:0:0:0:
42,98,82469,2,0,P|64:136|192:132,2,154.000004699707,2|10|2,1:2|0:0|1:2,0:0:0:0:
132,64,83258,1,2,0:0:0:0:
132,64,83337,1,8,0:0:0:0:
132,64,83416,2,0,P|179:55|236:45,1,77.0000023498536,10|0,0:0|1:0,0:0:0:0:
275,113,83732,6,0,P|266:164|246:275,1,154.000004699707,14|8,0:0|0:0,0:0:0:0:
394,377,84364,2,0,P|433:373|489:367,1,77.0000023498536,8|0,0:0|1:0,0:0:0:0:
451,278,84679,2,0,P|412:282|356:288,1,77.0000023498536,10|0,0:0|1:0,0:0:0:0:
288,322,84995,6,0,B|209:309|219:380|125:356,1,154.000004699707,10|10,0:0|0:0,0:0:0:0:
19,221,85627,2,0,P|26:181|35:128,1,77.0000023498536,10|0,0:0|1:0,0:0:0:0:
124,155,85942,2,0,P|117:195|108:248,1,77.0000023498536,10|0,0:0|1:0,0:0:0:0:
179,293,86258,6,0,B|235:284|235:284|274:310|274:310|351:298,1,154.000004699707,10|10,0:0|0:0,0:0:0:0:
441,159,86890,2,0,P|436:117|431:65,1,77.0000023498536,10|0,0:0|1:0,0:0:0:0:
367,15,87206,1,10,0:0:0:0:
285,64,87364,2,0,B|243:38|187:55|187:55|171:82|141:103,1,154.000004699707,6|2,1:2|1:2,0:0:0:0:
82,34,87837,1,10,0:0:0:0:
12,95,87995,2,0,B|26:155|26:155|5:193|5:193|22:263,1,154.000004699707,2|0,0:0|1:0,0:0:0:0:
29,286,88390,1,8,0:0:0:0:
29,286,88469,1,8,0:0:0:0:
108,333,88627,1,8,1:3:0:0:
173,268,88785,6,0,L|182:216,4,38.5000011749268,10|10|10|10|10,0:0|0:0|0:0|0:0|0:0,0:0:0:0:
250,318,89258,2,0,B|337:307|304:245|395:244,1,154.000004699707,2|2,1:2|1:2,0:0:0:0:
470,83,89890,1,10,0:0:0:0:
48,28,91311,6,0,P|6:60|16:142,1,119.000002269745,14|0,0:0|1:2,0:0:0:0:
64,188,91785,1,2,1:2:0:0:
139,139,91942,1,10,0:0:0:0:
139,139,92100,2,0,P|187:152|275:175,1,119.000002269745,2|0,1:2|1:2,0:0:0:0:
308,241,92574,5,10,0:0:0:0:
308,241,92732,2,0,B|299:288|299:288|315:317|315:317|301:373,1,119.000002269745,2|0,1:2|1:2,0:0:0:0:
219,377,93206,1,10,0:0:0:0:
151,318,93364,2,0,P|103:331|26:354,1,119.000002269745,6|0,1:2|1:2,0:0:0:0:
2,268,93837,6,0,P|10:218|23:131,1,119.000002269745,14|2,0:0|1:2,0:0:0:0:
154,31,94469,2,0,P|192:38|231:45,1,59.5000011348725,2|2,1:2|0:0,0:0:0:0:
285,94,94785,1,2,1:2:0:0:
358,44,94942,1,2,0:0:0:0:
431,94,95100,6,0,P|425:135|419:171,1,59.5000011348725,10|2,0:0|1:2,0:0:0:0:
459,234,95416,2,0,P|424:204|341:207,1,119.000002269745,10|10,0:0|0:2,0:0:0:0:
281,254,95890,2,0,L|286:300,2,29.7500005674362,2|10|10,1:2|0:2|0:2,0:0:0:0:
208,200,96206,1,10,0:2:0:0:
208,200,96285,1,10,0:2:0:0:
208,200,96364,6,0,B|217:150|217:150|194:122|194:122|204:64,1,140,6|10,1:2|0:0,0:0:0:0:
137,16,96837,1,0,0:0:0:0:
137,16,96995,2,0,P|102:24|61:35,2,70,2|2|10,1:2|0:0|0:0,0:0:0:0:
202,69,97469,2,0,P|253:77|351:92,1,140,2|2,0:0|0:0,0:0:0:0:
405,37,97942,1,10,0:0:0:0:
494,179,98258,2,0,P|488:222|483:261,1,70,2|2,1:2|0:0,0:0:0:0:
404,274,98574,2,0,P|410:317|415:356,1,70,10|2,0:0|0:0,0:0:0:0:
338,382,98890,6,0,P|306:353|201:359,1,140,2|10,1:2|0:0,0:0:0:0:
158,286,99364,1,0,0:0:0:0:
158,286,99521,2,0,P|165:242|172:191,1,70,2|2,1:2|0:0,0:0:0:0:
224,153,99837,1,10,0:0:0:0:
169,89,99995,6,0,B|146:99|114:100|114:100|92:127|92:127|61:125|32:136,1,140,14|2,0:0|0:0,0:0:0:0:
6,207,100469,2,0,P|14:244|23:292,1,70,10|2,0:0|0:0,0:0:0:0:
76,338,100785,2,0,P|120:333|165:329,1,70,10|0,0:0|1:2,0:0:0:0:
202,268,101100,1,8,0:3:0:0:
281,319,101258,1,8,0:0:0:0:
281,319,101337,1,8,0:0:0:0:
281,319,101416,6,0,B|352:329|334:371|410:375,1,140,6|10,1:2|0:0,0:0:0:0:
469,318,101890,1,0,0:0:0:0:
469,318,102048,2,0,P|462:278|453:225,1,70,2|2,1:2|0:0,0:0:0:0:
499,175,102364,1,10,0:0:0:0:
431,126,102521,2,0,B|378:115|378:115|347:138|347:138|283:128,1,140,2|2,0:0|0:0,0:0:0:0:
241,70,102995,1,10,0:0:0:0:
92,149,103311,2,0,P|96:194|99:232,1,70,2|2,1:2|0:0,0:0:0:0:
24,259,103627,2,0,P|20:304|17:342,1,70,10|2,0:0|0:0,0:0:0:0:
86,378,103942,6,0,P|154:372|257:359,1,140,2|10,1:2|0:0,0:0:0:0:
269,291,104416,1,0,0:0:0:0:
269,291,104574,2,0,P|305:298|352:306,1,70,2|2,1:2|0:0,0:0:0:0:
401,359,104890,1,10,0:0:0:0:
459,298,105048,2,0,P|450:238|432:132,1,140,14|10,0:0|0:0,0:0:0:0:
481,88,105521,1,10,0:0:0:0:
417,32,105679,1,10,1:3:0:0:
348,80,105837,2,0,P|312:89|265:102,1,70,10|10,1:3|1:3,0:0:0:0:
213,45,106153,2,0,P|177:36|130:23,1,70,10|2,0:0|0:0,0:0:0:0:
75,75,106469,6,0,P|45:108|53:182,1,119.000002269745,6|2,1:2|1:2,0:0:0:0:
178,302,107100,1,10,0:0:0:0:
178,302,107258,2,0,P|216:294|252:289,1,59.5000011348725,2|0,1:2|0:0,0:0:0:0:
308,344,107574,2,0,P|358:352|452:364,1,119.000002269745,2|2,1:2|1:2,0:0:0:0:
488,297,108048,2,0,P|485:261|481:214,1,59.5000011348725,2|2,0:0|1:2,0:0:0:0:
420,172,108364,2,0,P|423:136|427:89,1,59.5000011348725,10|2,0:0|1:2,0:0:0:0:
362,48,108679,1,2,0:0:0:0:
201,125,108995,6,0,P|164:134|125:144,1,59.5000011348725,14|2,0:0|0:0,0:0:0:0:
87,68,109311,2,0,P|50:59|11:49,1,59.5000011348725,0|2,1:2|1:2,0:0:0:0:
2,139,109627,2,0,B|16:191|16:191|-1:220|-1:220|13:271,1,119.000002269745,10|2,0:0|0:0,0:0:0:0:
150,357,110258,2,0,P|185:353|232:348,1,59.5000011348725,10|2,0:0|1:2,0:0:0:0:
274,288,110574,2,0,P|312:295|345:300,1,59.5000011348725,2|2,0:0|1:2,0:0:0:0:
405,359,110890,1,10,0:0:0:0:
405,359,111048,1,2,1:2:0:0:
474,302,111206,2,0,P|468:264|461:218,1,59.5000011348725,10|10,1:3|1:3,0:0:0:0:
498,160,111521,5,14,0:0:0:0:
498,160,111679,2,0,P|467:192|388:188,1,119.000002269745,2|0,0:0|1:2,0:0:0:0:
325,137,112153,1,10,0:0:0:0:
325,137,112311,2,0,P|290:147|190:173,1,119.000002269745,2|0,1:2|1:2,0:0:0:0:
132,122,112785,2,0,P|137:90|145:40,1,59.5000011348725,10|2,0:0|1:2,0:0:0:0:
62,20,113100,2,0,P|51:75|35:158,1,119.000002269745,2|8,0:0|0:0,0:0:0:0:
94,207,113574,2,0,P|100:242|107:282,1,59.5000011348725,2|8,1:2|0:0,0:0:0:0:
35,323,113890,1,2,0:0:0:0:
109,371,114048,6,0,B|171:364|171:364|177:369|177:369|252:360,1,119.000002269745,14|2,0:0|1:2,0:0:0:0:
288,299,114521,1,2,0:0:0:0:
288,299,114679,2,0,P|327:306|364:313,1,59.5000011348725,10|0,0:0|1:2,0:0:0:0:
408,374,114995,2,0,P|447:367|484:360,1,59.5000011348725,10|0,0:0|1:2,0:0:0:0:
504,275,115311,6,0,P|499:238|493:184,1,62.9999980773926,10|10,0:0|0:0,0:0:0:0:
425,148,115627,2,0,P|430:111|436:57,1,62.9999980773926,10|2,0:0|1:2,0:0:0:0:
366,17,115942,1,10,0:0:0:0:
285,66,116100,2,0,L|230:59,3,31.4999990386963,10|10|10|10,0:0|0:0|0:0|0:0,0:0:0:0:
214,33,116416,6,0,B|162:40|162:40|141:69|141:69|81:82,1,140,6|0,1:2|1:2,0:0:0:0:
19,137,116890,2,0,P|26:175|34:224,1,70,10|2,0:0|0:0,0:0:0:0:
96,270,117206,2,0,P|148:235|234:250,1,140,2|10,1:2|0:0,0:0:0:0:
302,296,117679,1,2,0:0:0:0:
302,296,117837,2,0,P|297:334|289:391,1,70,2|2,1:2|0:0,0:0:0:0:
383,380,118153,2,0,P|388:342|396:285,1,70,10|2,0:0|0:0,0:0:0:0:
469,259,118469,1,2,1:2:0:0:
469,259,118627,2,0,P|433:228|342:230,1,140,2|2,0:0|0:0,0:0:0:0:
281,162,119100,6,0,P|292:122|305:73,1,70,2|2,1:2|0:0,0:0:0:0:
234,29,119416,1,10,0:0:0:0:
234,29,119574,1,2,0:0:0:0:
160,82,119732,2,0,P|125:74|72:62,1,70,2|2,1:2|0:0,0:0:0:0:
19,123,120048,1,10,0:0:0:0:
19,123,120206,1,2,0:0:0:0:
80,189,120364,6,0,P|90:223|72:263,1,70,2|2,1:2|0:0,0:0:0:0:
138,323,120679,2,0,P|177:318|237:308,1,70,10|2,0:0|0:0,0:0:0:0:
273,250,120995,1,2,1:2:0:0:
351,296,121153,2,0,L|403:302,3,35,0|8|8|8,1:2|0:0|0:0|0:0,0:0:0:0:
431,307,121469,6,0,P|450:269|394:179,1,140,4|2,1:2|0:0,0:0:0:0:
478,124,121942,2,0,P|484:87|492:39,1,70,10|2,0:0|0:0,0:0:0:0:
408,11,122258,2,0,B|330:11|348:66|252:62,1,140,2|10,1:2|0:0,0:0:0:0:
211,122,122732,1,2,0:0:0:0:
211,122,122890,2,0,P|174:116|67:100,1,140,2|10,1:2|0:0,0:0:0:0:
7,165,123364,1,2,0:0:0:0:
7,165,123521,2,0,P|12:207|15:258,1,70,2|2,1:2|0:0,0:0:0:0:
27,322,123837,1,14,0:0:0:0:
27,322,123995,1,2,0:0:0:0:
104,369,124153,6,0,P|151:337|255:359,1,140,12|10,0:0|0:0,0:0:0:0:
317,311,124627,2,0,P|362:314|407:316,1,70,2|8,0:0|0:0,0:0:0:0:
457,258,124942,1,2,0:0:0:0:
457,258,125100,1,8,0:0:0:0:
386,189,125258,6,0,P|395:150|404:100,1,70,2|8,0:0|0:0,0:0:0:0:
346,55,125574,2,0,L|338:5,2,35,0|8|8,1:2|0:0|0:0,0:0:0:0:
289,128,125890,1,8,1:3:0:0:
289,128,125969,1,8,1:3:0:0:
289,128,126048,2,0,L|241:120,3,35,8|8|8|8,1:3|1:3|1:3|1:3,0:0:0:0:
219,91,126364,2,0,L|176:95,3,35,10|10|10|10,1:3|1:3|1:3|1:3,0:0:0:0:
146,119,126679,5,6,1:2:0:0:
457,353,130942,5,8,1:3:0:0:
457,353,131021,1,8,1:3:0:0:
457,353,131100,2,0,P|452:321|447:280,1,52.5000020027161,8|0,1:3|1:2,0:0:0:0:
439,217,131416,1,8,0:0:0:0:
439,217,131732,6,0,B|392:215|392:215|368:232|368:232|320:228,1,119.000002269745,14|2,0:0|1:2,0:0:0:0:
267,167,132206,1,0,0:0:0:0:
267,167,132364,2,0,P|232:178|191:191,1,59.5000011348725,2|0,1:2|0:0,0:0:0:0:
148,249,132679,1,2,1:2:0:0:
78,192,132837,1,0,1:2:0:0:
78,192,132916,1,8,0:0:0:0:
78,192,132995,6,0,P|84:151|88:119,2,59.5000011348725,10|2|10,0:0|0:0|0:0,0:0:0:0:
4,244,133469,2,0,P|10:295|20:380,1,119.000002269745,2|2,1:2|0:0,0:0:0:0:
105,379,133942,1,6,1:2:0:0:
105,379,134100,1,10,0:0:0:0:
166,314,134258,6,0,P|204:342|281:336,1,119.000002269745,6|2,1:2|1:2,0:0:0:0:
340,280,134732,1,2,0:0:0:0:
340,280,134890,2,0,P|335:248|325:202,1,59.5000011348725,2|0,1:2|0:0,0:0:0:0:
394,159,135206,2,0,P|430:166|470:175,1,59.5000011348725,2|2,1:2|1:2,0:0:0:0:
473,77,135521,6,0,P|437:70|387:61,1,70,2|10,1:2|0:0,0:0:0:0:
321,103,135837,2,0,P|280:109|238:115,1,70,10|10,0:0|0:0,0:0:0:0:
183,52,136153,2,0,P|143:45|88:35,1,70,2|2,1:2|1:2,0:0:0:0:
35,86,136469,1,10,1:3:0:0:
76,167,136627,1,10,1:3:0:0:
25,242,136785,5,6,1:2:0:0:
444,358,140732,5,0,1:2:0:0:
471,280,140890,1,8,1:3:0:0:
471,280,141206,6,0,P|465:227|457:148,1,119.000002269745,6|2,1:2|1:2,0:0:0:0:
322,45,141837,2,0,P|283:53|246:60,1,59.5000011348725,2|0,1:2|0:0,0:0:0:0:
194,114,142153,2,0,P|155:106|118:99,1,59.5000011348725,2|0,1:2|0:0,0:0:0:0:
62,49,142469,2,0,P|43:83|59:162,2,119.000002269745,2|2|2,1:2|1:2|1:2,0:0:0:0:
135,102,143258,1,0,0:0:0:0:
135,102,143416,2,0,P|168:109|212:118,1,59.5000011348725,2|0,1:2|0:0,0:0:0:0:
251,182,143732,6,0,P|242:216|230:257,1,59.5000011348725,2|2,1:2|0:0,0:0:0:0:
316,278,144048,2,0,P|325:244|337:203,1,59.5000011348725,2|2,1:2|0:0,0:0:0:0:
405,171,144363,1,8,0:0:0:0:
475,241,144521,1,0,1:2:0:0:
475,241,144600,1,8,0:0:0:0:
475,241,144679,2,0,P|482:279|487:309,1,59.5000011348725,8|0,0:0|1:2,0:0:0:0:
424,365,144995,2,0,L|382:360,3,29.7500005674362,8|0|0|0,0:0|1:2|1:2|1:2,0:0:0:0:
357,335,145311,2,0,L|315:340,3,29.7500005674362,8|8|8|8,1:3|1:3|1:3|1:3,0:0:0:0:
288,367,145627,6,0,P|231:362|124:356,1,140,6|10,1:2|0:0,0:0:0:0:
79,297,146100,1,2,0:0:0:0:
79,297,146258,2,0,P|88:254|97:198,1,70,2|2,1:2|1:2,0:0:0:0:
60,142,146574,2,0,P|86:180|183:182,1,140,10|2,0:0|1:2,0:0:0:0:
245,131,147048,1,2,1:2:0:0:
317,185,147205,2,0,P|321:233|323:274,1,70,10|2,0:0|1:2,0:0:0:0:
413,250,147521,2,0,P|409:202|407:161,1,70,10|2,0:0|0:0,0:0:0:0:
456,102,147837,6,0,B|402:85|402:85|369:104|369:104|311:89,1,140,6|8,1:2|0:0,0:0:0:0:
252,37,148310,1,0,0:0:0:0:
182,96,148468,2,0,P|141:107|101:120,1,70,2|2,1:2|1:2,0:0:0:0:
52,182,148784,2,0,P|61:224|69:268,1,70,8|2,0:0|0:0,0:0:0:0:
126,319,149100,6,0,P|167:311|209:304,1,70,2|2,1:2|0:0,0:0:0:0:
240,299,149337,1,2,0:0:0:0:
240,299,149415,1,2,1:2:0:0:
324,355,149573,1,2,1:2:0:0:
324,355,149652,1,10,0:0:0:0:
324,355,149731,2,0,L|377:364,3,35,10|10|10|10,0:0|0:0|0:0|0:0,0:0:0:0:
403,371,150047,6,0,B|405:344|394:315|394:315|410:286|410:286|399:254|399:220,1,140,6|8,1:2|0:0,0:0:0:0:
457,166,150520,1,2,0:0:0:0:
387,106,150678,2,0,P|338:116|221:140,1,140,2|10,1:2|0:0,0:0:0:0:
174,81,151152,1,2,0:0:0:0:
100,134,151310,2,0,P|92:171|110:211,1,70,2|2,1:2|1:2,0:0:0:0:
24,247,151625,2,0,P|32:284|14:324,1,70,10|2,0:0|1:2,0:0:0:0:
90,374,151941,2,0,P|135:367|185:358,1,70,10|2,0:0|0:0,0:0:0:0:
225,299,152257,1,10,0:0:0:0:
301,348,152415,1,10,0:0:0:0:
378,299,152573,6,0,L|386:248,3,35,2|10|10|10,1:2|1:3|0:0|1:2,0:0:0:0:
353,229,152889,2,0,L|345:178,3,35,10|10|10|10,0:0|1:3|1:3|1:3,0:0:0:0:
376,164,153204,2,0,P|414:170|463:178,1,70,10|10,0:0|1:3,0:0:0:0:
508,100,153531,1,10,0:0:0:0:
438,41,153689,1,10,0:0:0:0:
353,76,153848,1,10,0:0:0:0:
376,164,154007,6,0,B|200:191|286:325|103:345,1,335.999989746094,6|0,1:2|0:0,0:0:0:0:
41,280,155420,6,0,P|53:229|70:155,1,105.000004005432,6|0,1:2|1:2,0:0:0:0:
36,103,155893,1,2,0:0:0:0:
36,103,156051,2,0,P|71:97|137:141,1,105.000004005432,2|0,1:2|1:2,0:0:0:0:
182,195,156525,1,2,0:0:0:0:
243,137,156683,2,0,P|238:95|226:8,2,105.000004005432,2|2|2,1:2|1:2|1:2,0:0:0:0:
367,250,157630,1,2,1:2:0:0:
479,125,157946,6,0,B|439:118|439:118|406:136|406:136|367:127,1,105.000004005432,6|0,1:2|1:2,0:0:0:0:
326,71,158420,1,2,0:0:0:0:
326,71,158577,2,0,P|294:43|223:62,1,105.000004005432,2|0,1:2|1:2,0:0:0:0:
170,104,159051,1,2,0:0:0:0:
110,44,159209,2,0,P|78:52|47:60,1,52.5000020027161,2|0,1:2|0:0,0:0:0:0:
40,141,159525,2,0,P|72:133|103:125,1,52.5000020027161,2|0,1:2|0:0,0:0:0:0:
148,190,159841,2,0,P|140:229|132:266,1,52.5000020027161,2|0,1:2|1:2,0:0:0:0:
120,323,160156,1,10,0:0:0:0:
120,323,160472,6,0,P|165:355|283:294,1,178.500003404617,6|2,1:2|1:2,0:0:0:0:
325,252,161104,2,0,P|374:270|449:296,1,119.000002269745,10|0,0:0|0:0,0:0:0:0:
500,238,161577,1,2,0:0:0:0:
447,173,161735,2,0,P|441:153|465:111,1,59.5000011348725,2|8,1:2|0:0,0:0:0:0:
506,52,162051,1,2,1:2:0:0:
441,2,162209,1,0,1:0:0:0:
441,2,162288,1,8,0:0:0:0:
441,2,162367,2,0,P|404:12|371:22,1,59.5000011348725,10|8,0:0|1:3,0:0:0:0:
301,35,162683,1,10,0:0:0:0:
179,148,162998,6,0,P|141:141|53:128,1,119.000002269745,6|0,1:2|1:2,0:0:0:0:
18,202,163472,1,2,0:0:0:0:
18,202,163630,2,0,P|2:246|54:321,1,119.000002269745,2|0,1:2|1:2,0:0:0:0:
184,373,164262,2,0,P|224:368|263:362,1,59.5000011348725,2|0,1:2|1:2,0:0:0:0:
298,303,164577,2,0,P|290:269|279:220,1,59.5000011348725,2|0,1:2|1:2,0:0:0:0:
342,184,164893,2,0,P|380:195|419:206,1,59.5000011348725,10|8,0:0|0:0,0:0:0:0:
461,144,165209,1,10,0:0:0:0:
420,70,165367,1,8,0:0:0:0:
119,306,166314,6,0,P|125:343|130:371,2,45.4999979171754,2|2|2,0:0|0:0|0:0,0:0:0:0:
216,223,166946,2,0,P|222:186|227:158,2,45.4999979171754,2|2|2,0:0|0:0|0:0,0:0:0:0:
290,326,167577,1,2,0:0:0:0:
348,262,167735,2,0,L|393:275,3,35,8|8|8|8,0:0|1:3|1:3|1:3,0:0:0:0:
425,258,168051,6,0,P|419:221|410:171,1,70,14|2,0:0|1:2,0:0:0:0:
468,115,168367,1,2,1:2:0:0:
396,58,168525,2,0,P|355:92|266:84,1,140,14|10,0:0|0:0,0:0:0:0:
204,27,168998,2,0,L|155:39,3,35,8|8|8|8,0:0|0:0|0:0|0:0,0:0:0:0:
134,64,169314,6,0,P|95:59|42:54,1,70,6|10,1:2|0:0,0:0:0:0:
7,128,169630,1,10,0:0:0:0:
7,128,169709,1,8,0:0:0:0:
7,128,169788,2,0,B|25:181|25:181|6:218|6:218|30:285,1,140,14|10,0:0|0:0,0:0:0:0:
76,330,170262,1,10,0:0:0:0:
149,276,170420,6,0,B|184:247|184:247|226:257|281:318,1,140,6|10,1:2|0:0,0:0:0:0:
327,361,170893,1,10,0:0:0:0:
400,307,171051,2,0,P|393:251|388:214,1,70,6|0,1:2|0:0,0:0:0:0:
452,169,171367,2,0,L|457:116,3,35,10|10|10|10,0:0|0:0|0:0|0:0,0:0:0:0:
460,91,171683,6,0,B|388:67|393:146|313:109,1,140,6|0,1:2|1:2,0:0:0:0:
258,58,172190,1,10,0:0:0:0:
199,128,172340,1,10,0:0:0:0:
245,206,172490,1,10,0:0:0:0:
245,206,173149,5,6,1:2:0:0:
463,342,182736,5,2,0:0:0:0:
463,342,182894,2,0,P|425:338|363:331,1,78.7500030040742,2|0,0:0|0:0,0:0:0:0:
348,330,183210,6,0,P|329:296|384:224,1,119.000002269745,6|0,1:2|1:2,0:0:0:0:
438,181,183684,1,2,0:0:0:0:
438,181,183842,2,0,P|429:140|412:48,1,119.000002269745,2|0,1:2|1:2,0:0:0:0:
337,19,184315,1,2,0:0:0:0:
337,19,184473,2,0,B|294:34|294:34|272:60|272:60|222:71,1,119.000002269745,2|2,1:2|1:2,0:0:0:0:
158,19,184947,2,0,P|128:14|92:7,1,59.5000011348725,2|0,0:0|1:2,0:0:0:0:
34,70,185263,2,0,P|39:100|58:206,1,119.000002269745,2|2,0:0|0:0,0:0:0:0:
62,231,185657,1,8,0:0:0:0:
62,231,185736,6,0,P|96:206|181:216,1,119.000002269745,8|0,0:0|1:2,0:0:0:0:
254,178,186210,1,2,0:0:0:0:
321,236,186368,2,0,P|313:284|300:368,1,119.000002269745,2|0,1:2|1:2,0:0:0:0:
397,382,186842,1,2,0:0:0:0:
397,382,186921,1,8,0:0:0:0:
397,382,186999,6,0,P|434:374|475:366,1,59.5000011348725,10|0,0:0|0:0,0:0:0:0:
462,274,187315,2,0,P|425:282|384:290,1,59.5000011348725,2|2,1:2|0:0,0:0:0:0:
330,224,187631,2,0,P|336:189|343:137,1,59.5000011348725,8|10,0:0|0:0,0:0:0:0:
273,95,187947,1,10,0:0:0:0:
338,25,188105,1,2,1:2:0:0:
256,192,189526,12,0,191736,0:0:0:0:
62,53,192052,5,6,1:2:0:0:
5,124,192210,1,0,1:2:0:0:
5,124,192289,1,0,1:2:0:0:
5,124,192368,2,0,P|14:164|26:213,1,70,8|2,0:0|1:2,0:0:0:0:
87,255,192684,1,2,1:2:0:0:
152,191,192842,1,8,0:0:0:0:
152,191,192921,1,8,0:0:0:0:
152,191,192999,2,0,P|186:175|230:199,1,70,4|10,1:2|0:0,0:0:0:0:
284,244,193315,6,0,B|343:235|343:235|376:255|376:255|430:247,1,140,2|10,1:2|0:0,0:0:0:0:
471,174,193789,1,2,1:2:0:0:
471,174,193868,1,0,1:2:0:0:
471,174,193947,2,0,L|461:124,3,35,8|10|2|2,0:0|0:0|1:2|1:2,0:0:0:0:
482,97,194263,2,0,L|486:48,3,35,10|10|10|10,1:3|1:3|1:3|1:3,0:0:0:0:
457,20,194578,6,0,B|408:1|359:35|359:35|356:68|321:87,1,154.000004699707,6|12,1:2|0:0,0:0:0:0:
266,140,195052,1,2,0:0:0:0:
204,71,195210,2,0,P|151:85|44:111,1,154.000004699707,2|8,1:2|0:0,0:0:0:0:
3,185,195684,1,2,0:0:0:0:
59,258,195842,2,0,P|67:298|37:344,1,77.0000023498536,2|0,1:2|1:2,0:0:0:0:
129,381,196157,1,10,0:0:0:0:
129,381,196315,2,0,P|161:353|219:349,1,77.0000023498536,2|0,0:0|1:2,0:0:0:0:
252,273,196631,2,0,P|220:253|206:195,1,77.0000023498536,2|8,1:2|0:0,0:0:0:0:
153,140,196947,1,2,0:0:0:0:
220,77,197105,6,0,B|272:69|272:69|316:95|316:95|371:86,2,154.000004699707,4|10|2,1:2|0:0|1:2,0:0:0:0:
145,22,197894,1,0,1:2:0:0:
75,82,198052,2,0,P|69:122|59:178,1,77.0000023498536,10|0,0:0|0:0,0:0:0:0:
114,235,198368,2,0,P|166:226|224:214,1,77.0000023498536,2|0,1:2|1:2,0:0:0:0:
264,276,198684,2,0,P|316:285|374:297,1,77.0000023498536,10|0,0:0|0:0,0:0:0:0:
397,217,198999,1,2,1:2:0:0:
397,217,199157,1,2,1:2:0:0:
333,146,199315,1,10,0:0:0:0:
405,82,199473,6,0,P|364:47|256:62,1,154.000004699707,6|2,1:2|1:2,0:0:0:0:
200,100,199947,2,0,P|205:144|210:197,1,77.0000023498536,10|2,0:0|1:2,0:0:0:0:
275,240,200263,2,0,P|266:288|259:332,1,77.0000023498536,10|2,0:0|1:2,0:0:0:0:
185,368,200578,5,8,0:0:0:0:
185,368,200657,1,8,0:0:0:0:
185,368,200736,2,0,B|102:384|138:302|22:318,1,154.000004699707,6|2,1:2|1:2,0:0:0:0:
12,230,201210,2,0,P|19:182|26:126,1,77.0000023498536,10|0,0:0|1:2,0:0:0:0:
98,99,201526,2,0,P|146:110|206:125,1,77.0000023498536,8|0,0:0|1:2,0:0:0:0:
228,190,201842,1,10,0:0:0:0:
300,132,201999,1,10,0:0:0:0:
300,132,202078,1,10,0:0:0:0:
300,132,202157,6,0,P|279:91|321:29,1,115.50000352478,6|0,1:2|0:0,0:0:0:0:
340,15,202473,2,0,P|380:29|432:45,1,77.0000023498536,12|2,0:0|0:0,0:0:0:0:
471,112,202789,2,0,B|465:169|465:169|472:196|472:196|457:220|457:220|447:287,1,154.000004699707,2|8,1:2|0:0,0:0:0:0:
496,344,203263,1,2,0:0:0:0:
410,379,203421,2,0,P|368:369|317:355,1,77.0000023498536,2|0,1:2|1:2,0:0:0:0:
280,285,203736,1,10,0:0:0:0:
280,285,203894,2,0,P|232:295|177:306,1,77.0000023498536,2|0,0:0|1:2,0:0:0:0:
152,379,204210,1,2,1:2:0:0:
152,379,204289,1,2,0:0:0:0:
152,379,204368,2,0,P|109:348|35:362,1,115.50000352478,14|0,0:0|0:0,0:0:0:0:
8,375,204684,6,0,P|18:328|30:265,1,77.0000023498536,0|2,1:2|1:2,0:0:0:0:
6,173,204999,2,0,B|42:210|42:210|136:190,1,115.50000352478,14|0,0:0|0:0,0:0:0:0:
149,183,205315,2,0,P|141:142|131:88,1,77.0000023498536,0|2,1:2|1:2,0:0:0:0:
203,44,205631,2,0,P|241:82|321:66,1,115.50000352478,14|0,0:0|0:0,0:0:0:0:
339,56,205947,6,0,P|385:69|439:83,1,77.0000023498536,2|0,1:2|1:2,0:0:0:0:
496,128,206263,1,10,0:0:0:0:
496,128,206421,2,0,P|485:175|476:216,1,77.0000023498536,2|0,0:0|1:2,0:0:0:0:
408,263,206736,2,0,P|415:308|423:360,1,77.0000023498536,2|8,1:2|0:0,0:0:0:0:
337,382,207052,1,2,0:0:0:0:
264,325,207210,6,0,P|225:304|177:315,1,77.0000023498536,6|2,1:2|0:0,0:0:0:0:
117,359,207526,2,0,P|78:380|30:369,1,77.0000023498536,10|2,0:0|0:0,0:0:0:0:
2,295,207842,2,0,B|16:240|16:240|-2:206|-2:206|17:123,1,154.000004699707,2|10,1:2|0:0,0:0:0:0:
75,82,208315,1,2,0:0:0:0:
145,141,208473,2,0,P|195:134|255:126,1,77.0000023498536,2|2,1:2|1:2,0:0:0:0:
279,58,208789,1,10,0:0:0:0:
354,111,208947,2,0,P|398:138|385:250,1,154.000004699707,2|0,0:0|1:0,0:0:0:0:
334,296,209421,5,8,0:0:0:0:
334,296,209499,1,8,0:0:0:0:
334,296,209578,2,0,B|251:287|268:360|174:338,1,154.000004699707,6|0,1:2|1:2,0:0:0:0:
120,282,210052,2,0,P|130:232|142:171,1,77.0000023498536,10|0,0:0|0:0,0:0:0:0:
68,141,210368,2,0,P|58:91|46:30,1,77.0000023498536,2|0,1:2|1:2,0:0:0:0:
129,12,210684,2,0,P|150:41|253:33,1,115.50000352478,10|0,0:0|0:0,0:0:0:0:
263,27,210999,6,0,P|303:37|447:68,2,154.000004699707,2|10|2,1:2|0:0|1:2,0:0:0:0:
195,91,211789,1,0,1:2:0:0:
195,91,211868,1,8,0:0:0:0:
195,91,211947,2,0,P|175:128|201:168,1,77.0000023498536,10|0,0:0|1:2,0:0:0:0:
249,226,212263,6,0,B|307:217|307:217|345:242|345:242|407:228,1,154.000004699707,14|8,0:0|0:0,0:0:0:0:
498,78,212894,2,0,P|455:68|406:56,1,77.0000023498536,8|0,0:0|1:2,0:0:0:0:
398,150,213210,2,0,P|441:160|490:172,1,77.0000023498536,10|0,0:0|1:2,0:0:0:0:
492,258,213526,6,0,P|508:297|429:377,1,154.000004699707,10|10,0:0|0:0,0:0:0:0:
296,267,214157,2,0,P|307:221|318:178,1,77.0000023498536,10|0,0:0|1:2,0:0:0:0:
225,164,214473,2,0,P|214:210|203:253,1,77.0000023498536,10|0,0:0|1:2,0:0:0:0:
141,305,214789,6,0,B|70:288|73:370|-17:344,1,154.000004699707,10|10,0:0|0:0,0:0:0:0:
44,167,215421,2,0,P|88:177|132:188,1,77.0000023498536,10|0,0:0|1:2,0:0:0:0:
197,136,215736,1,10,0:0:0:0:
270,192,215894,6,0,B|310:227|310:227|270:323,1,154.000004699707,6|2,1:2|1:2,0:0:0:0:
342,380,216368,1,10,0:0:0:0:
416,324,216526,2,0,B|406:277|406:277|431:235|431:235|410:153,1,154.000004699707,2|8,0:0|0:0,0:0:0:0:
472,105,216999,1,8,0:0:0:0:
401,45,217157,1,8,1:3:0:0:
328,102,217315,2,0,L|277:95,4,38.5000011749268,10|10|10|10|10,0:0|0:0|0:0|0:0|0:0,0:0:0:0:
381,178,217789,6,0,P|370:223|340:338,1,154.000004699707,2|2,1:2|1:2,0:0:0:0:
210,196,218421,1,12,0:0:0:0:
325,52,218736,1,2,1:2:0:0:
325,52,218894,2,0,P|354:85|429:78,1,115.50000352478,8|0,0:0|0:0,0:0:0:0:
459,55,219210,2,0,P|446:106|435:152,1,77.0000023498536,8|2,0:0|0:0,0:0:0:0:
489,208,219526,2,0,L|497:253,3,38.5000011749268,8|8|8|8,0:0|0:0|0:0|0:0,0:0:0:0:
476,288,219842,6,0,B|401:282|405:347|330:329,1,154.000004699707,6|8,1:2|0:0,0:0:0:0:
275,257,220315,1,0,1:2:0:0:
194,302,220473,2,0,P|202:346|209:391,1,77.0000023498536,10|0,0:0|1:2,0:0:0:0:
114,381,220789,2,0,P|106:337|99:292,1,77.0000023498536,8|0,0:0|1:2,0:0:0:0:
140,221,221105,6,0,P|148:170|155:115,1,77.0000023498536,10|0,0:0|1:2,0:0:0:0:
66,106,221421,2,0,P|58:157|51:212,1,77.0000023498536,8|0,0:0|1:2,0:0:0:0:
140,221,221736,2,0,P|177:240|222:228,1,77.0000023498536,10|0,0:0|1:2,0:0:0:0:
287,182,222052,1,8,0:0:0:0:
364,232,222210,1,2,0:0:0:0:
438,177,222368,6,0,L|443:126,5,38.5000011749268,10|8|8|8|8|8,0:0|1:3|1:3|1:3|1:3|1:3,0:0:0:0:
466,99,222842,2,0,L|458:53,5,38.5000011749268,10|8|8|8|8|8,0:0|1:3|1:3|1:3|1:3|1:3,0:0:0:0:
425,29,223315,1,10,0:0:0:0:
409,31,223394,1,10,0:0:0:0:
394,34,223473,1,10,0:0:0:0:
379,38,223552,1,10,0:0:0:0:
365,41,223631,1,10,0:0:0:0:
33,354,224894,5,6,1:2:0:0:
478,30,229947,6,0,P|434:38|356:51,1,105.000004005432,2|2,1:2|1:2,0:0:0:0:
298,185,230578,2,0,P|254:177|176:164,1,105.000004005432,2|2,1:2|1:2,0:0:0:0:
53,95,231210,2,0,P|26:141|47:202,1,105.000004005432,2|2,1:2|1:2,0:0:0:0:
178,261,231842,2,0,P|205:215|184:154,1,105.000004005432,2|2,1:2|1:2,0:0:0:0:
247,103,232315,1,0,1:2:0:0:
247,103,232394,1,8,0:0:0:0:
247,103,232473,6,0,P|283:111|321:119,1,52.5000020027161,10|0,0:0|0:0,0:0:0:0:
360,56,232789,2,0,P|396:48|434:40,1,52.5000020027161,2|0,1:2|0:0,0:0:0:0:
472,103,233105,2,0,P|467:137|461:171,1,52.5000020027161,2|0,1:2|0:0,0:0:0:0:
510,231,233421,1,2,1:2:0:0:
510,231,233578,1,0,0:0:0:0:
450,290,233736,2,0,P|412:282|381:276,1,52.5000020027161,2|0,1:2|1:2,0:0:0:0:
338,220,234052,2,0,L|299:225,3,26.2500010013581,8|8|8|8,1:3|1:3|1:3|1:3,0:0:0:0:
280,251,234368,2,0,B|197:257|224:180|130:186,1,157.500006008148,10|0,0:0|0:0,0:0:0:0:
72,230,234999,6,0,P|79:277|91:369,2,140,4|10|2,1:2|0:0|1:2,0:0:0:0:
12,160,235789,2,0,P|21:113|30:63,1,70,2|8,0:0|0:0,0:0:0:0:
99,37,236105,1,0,0:0:0:0:
169,94,236263,2,0,P|210:87|254:80,1,70,2|0,1:2|0:0,0:0:0:0:
304,20,236578,2,0,P|345:27|389:34,1,70,10|0,0:0|0:0,0:0:0:0:
425,106,236894,2,0,P|445:148|392:234,1,140,2|8,1:2|0:0,0:0:0:0:
248,317,237526,6,0,P|257:264|276:153,1,140,2|10,1:2|0:0,0:0:0:0:
207,113,237999,1,0,0:0:0:0:
207,113,238157,2,0,P|168:124|123:139,1,70,2|0,1:2|0:0,0:0:0:0:
67,76,238473,1,10,0:0:0:0:
14,150,238631,6,0,P|-4:202|54:291,1,140,12|2,0:0|1:2,0:0:0:0:
99,335,239105,1,10,0:0:0:0:
99,335,239263,1,2,0:0:0:0:
172,280,239421,2,0,P|213:285|264:292,1,70,2|10,1:2|0:0,0:0:0:0:
311,346,239736,1,10,0:0:0:0:
382,289,239894,1,10,0:0:0:0:
382,289,239973,1,8,0:0:0:0:
382,289,240052,2,0,L|375:240,3,35,10|10|10|10,0:0|0:0|0:0|0:0,0:0:0:0:
406,219,240368,6,0,P|412:164|425:50,1,140,6|2,1:2|1:2,0:0:0:0:
349,22,240842,1,2,0:0:0:0:
349,22,240999,1,2,1:2:0:0:
280,82,241157,2,0,B|225:73|225:73|194:98|194:98|118:90,1,140,14|2,0:0|0:0,0:0:0:0:
69,136,241631,2,0,P|78:178|88:226,1,70,10|0,0:0|0:0,0:0:0:0:
21,271,241947,1,2,1:2:0:0:
85,349,242105,1,2,1:2:0:0:
85,349,242184,1,10,0:0:0:0:
85,349,242263,2,0,P|130:340|171:334,1,70,10|2,0:0|1:2,0:0:0:0:
219,273,242578,6,0,P|225:237|205:197,1,70,14|0,0:0|1:2,0:0:0:0:
276,140,242894,2,0,P|314:155|362:138,1,70,10|0,0:0|1:2,0:0:0:0:
402,219,243210,2,0,P|388:257|408:307,1,70,10|2,0:0|1:2,0:0:0:0:
330,352,243526,1,10,0:0:0:0:
263,290,243684,6,0,B|192:279|206:353|122:333,1,140,6|2,1:2|1:2,0:0:0:0:
64,281,244157,1,10,0:0:0:0:
64,281,244315,1,10,0:0:0:0:
113,204,244473,2,0,P|108:164|103:113,1,70,10|10,0:0|0:0,0:0:0:0:
34,75,244789,1,10,0:0:0:0:
99,11,244947,1,10,0:0:0:0:
171,63,245105,5,2,1:2:0:0:
