osu file format v14

[General]
AudioFilename: audio.mp3
AudioLeadIn: 0
PreviewTime: 62969
Countdown: 0
SampleSet: Soft
StackLeniency: 0.7
Mode: 0
LetterboxInBreaks: 0
WidescreenStoryboard: 1

[Editor]
DistanceSpacing: 0.3
BeatDivisor: 4
GridSize: 8
TimelineZoom: 2.799999

[Metadata]
Title:Rising Hope
TitleUnicode:Rising Hope
Artist:LiSA
ArtistUnicode:LiSA
Creator:Hinae
Version:Flame Haze's Extra
Source:魔法科高校の劣等生
Tags:Mahouka Koukou no Rettousei The irregular at Magic High School anime opening 1 full japanese rock jrock j-rock 織部里沙 Risa Oribe 司波深雪 Shiba Miyuki 司波達也 Shiba Tatsuya oniisama onii-sama onii sama Onegai Flame Haze
BeatmapID:3588595
BeatmapSetID:1711383

[Difficulty]
HPDrainRate:5.4
CircleSize:3.8
OverallDifficulty:8.7
ApproachRate:9.3
SliderMultiplier:1.8
SliderTickRate:1

[Events]
//Background and Video events
0,0,"cropped-1920-1080-551175.jpg",0,0
//Break Periods
2,8258,9757
2,10785,11732
2,127942,130311
2,188305,188972
2,225094,226709
2,227621,229157
//Storyboard Layer 0 (Background)
//Storyboard Layer 1 (Fail)
//Storyboard Layer 2 (Pass)
//Storyboard Layer 3 (Foreground)
//Storyboard Layer 4 (Overlay)
//Storyboard Sound Samples

[TimingPoints]
364,315.789473684211,4,2,1,30,1,0
364,-133.333333333333,4,2,1,30,0,0
2890,-128.205128205128,4,2,1,40,0,0
3995,-128.205128205128,4,2,1,50,0,0
4785,-100,4,2,1,50,0,0
4942,-90.9090909090909,4,2,1,50,0,0
5337,-111.111111111111,4,2,1,50,0,0
5416,-100,4,2,1,50,0,0
6127,-100,4,2,1,50,0,0
6206,-100,4,2,1,50,0,0
6442,-100,4,2,1,50,0,0
6521,-285.714285714282,4,2,1,50,0,0
10311,-100,4,2,1,50,0,0
12364,-66.6666666666667,4,2,1,50,0,0
12679,-90.9090909090909,4,2,1,50,0,0
12916,-90.9090909090909,4,2,1,50,0,0
12995,-95.2380952380952,4,2,1,70,0,0
18048,-133.333333333333,4,2,1,40,0,0
22785,-90.9090909090909,4,2,1,40,0,0
23021,-90.9090909090909,4,2,1,40,0,0
23100,-117.647058823529,4,2,1,45,0,0
24206,-117.647058823529,4,2,1,46,0,0
24521,-117.647058823529,4,2,1,47,0,0
24837,-117.647058823529,4,2,1,48,0,0
25153,-117.647058823529,4,2,1,49,0,0
25469,-117.647058823529,4,2,1,50,0,0
25785,-117.647058823529,4,2,1,51,0,0
26100,-117.647058823529,4,2,1,52,0,0
26416,-117.647058823529,4,2,1,53,0,0
26732,-222.222222222221,4,2,1,53,0,0
27521,-117.647058823529,4,2,1,50,0,0
27995,-100,4,2,1,60,0,0
37627,-222.222222222221,4,2,1,45,0,0
38258,-100,4,2,1,60,0,0
40785,-90.9090909090909,4,2,1,60,0,0
41100,-100,4,2,1,60,0,0
41574,-100,4,2,1,60,0,0
45206,-90.9090909090909,4,2,1,60,0,0
45679,-58.8235294117647,4,2,1,60,0,0
45837,-100,4,2,1,60,0,0
48364,-153.846153846153,4,2,1,40,0,0
52785,-153.846153846153,4,2,1,60,0,0
53416,-100,4,2,1,50,0,0
55942,-105.263157894737,4,2,1,50,0,0
57206,-117.647058823529,4,2,1,60,0,0
57837,-117.647058823529,4,2,1,70,0,0
58469,-117.647058823529,4,2,1,30,0,0
59890,-117.647058823529,4,2,1,40,0,0
60521,-117.647058823529,4,2,1,50,0,0
60679,-117.647058823529,4,2,1,60,0,0
60995,-100,4,2,1,70,0,0
62100,-83.3333333333333,4,2,1,70,0,0
62653,-83.3333333333333,4,2,1,70,0,0
62732,-83.3333333333333,4,2,1,70,0,0
62811,-83.3333333333333,4,2,1,70,0,0
62890,-83.3333333333333,4,2,1,70,0,0
63521,-85.4700854700855,4,2,1,80,0,1
83416,-133.333333333333,4,2,1,80,0,1
83653,-133.333333333333,4,2,1,80,0,1
83732,-83.3333333333333,4,2,1,80,0,1
90048,-100,4,2,1,80,0,0
91311,-117.647058823529,4,2,1,50,0,0
95732,-100,4,2,1,50,0,0
96364,-95.2380952380952,4,2,1,70,0,0
100469,-80,4,2,1,70,0,0
101416,-95.2380952380952,4,2,1,70,0,0
105048,-90.9090909090909,4,2,1,70,0,0
105364,-100,4,2,1,70,0,0
106153,-71.4285714285714,4,2,1,70,0,0
106469,-117.647058823529,4,2,1,50,0,0
109627,-105.263157894737,4,2,1,50,0,0
110258,-117.64705882353,4,2,1,50,0,0
112469,-95.2380952380956,4,2,1,50,0,0
113416,-117.647058823529,4,2,1,50,0,0
114048,-111.111111111111,4,2,1,50,0,0
115311,-100,4,2,1,50,0,0
116416,-100,4,2,1,60,0,0
123837,-83.3333333333333,4,2,1,60,0,0
124153,-100,4,2,1,70,0,0
125416,-100,4,2,1,70,0,0
126758,-100,4,2,1,40,0,0
130942,-117.647058823529,4,2,1,50,0,0
131179,-117.647058823529,4,2,1,50,0,0
131258,-117.647058823529,4,2,1,50,0,0
131337,-117.647058823529,4,2,1,50,0,0
131416,-181.818181818181,4,2,1,50,0,0
131732,-108.695652173913,4,2,1,60,0,0
134258,-103.092783505155,4,2,1,60,0,0
135521,-100,4,2,1,70,0,0
136153,-100,4,2,1,65,0,0
136469,-100,4,2,1,60,0,0
136785,-133.333333333333,4,2,1,60,0,0
137416,-133.333333333333,4,2,1,40,0,0
140258,-117.647058823529,4,2,1,40,0,0
140732,-153.846153846154,4,2,1,50,0,0
141206,315.789473684211,4,2,1,50,1,0
141206,-105.263157894737,4,2,1,50,0,0
144363,-100,4,2,1,60,0,0
145627,315.789473684211,4,2,1,70,1,0
145627,-83.3333333333333,4,2,1,70,0,0
146100,-90.9090909090909,4,2,1,70,0,0
146337,-90.9090909090909,4,2,1,70,0,0
146416,-90.9090909090909,4,2,1,70,0,0
146495,-90.9090909090909,4,2,1,70,0,0
146574,-90.9090909090909,4,2,1,70,0,0
147600,-90.9090909090909,4,2,1,70,0,0
147679,-90.9090909090909,4,2,1,70,0,0
147837,315.789473684211,4,2,1,70,1,0
147837,-83.3333333333333,4,2,1,70,0,0
148152,-90.9090909090909,4,2,1,70,0,0
148468,-100,4,2,1,70,0,0
150047,315.789473684211,4,2,1,70,1,0
150047,-90.9090909090909,4,2,1,70,0,0
152257,-100,4,2,1,80,0,0
153204,348.837209302325,4,2,1,80,1,0
153531,317.460317460318,4,2,1,80,1,0
154007,314.13612565445,4,2,1,80,1,0
154007,-142.857142857143,4,2,1,80,0,0
155420,315.789473684211,4,2,1,50,1,0
155420,-153.846153846154,4,2,1,50,0,0
159209,-138.888888888889,4,2,1,50,0,0
160472,-119.047619047619,4,2,1,60,0,0
162998,-181.818181818181,4,2,1,60,0,0
163630,-153.846153846153,4,2,1,60,0,0
165525,-133.333333333333,4,2,1,30,0,0
166946,-133.333333333333,4,2,1,40,0,0
167577,-111.111111111111,4,2,1,50,0,0
168051,-90.9090909090909,4,2,1,60,0,0
171683,335.195530726257,4,2,1,60,1,0
171683,-80,4,2,1,60,0,0
172019,342.857142857143,4,2,1,60,1,0
172190,303.030303030303,4,2,1,65,1,0
172265,-100,4,2,1,65,0,0
172340,300,4,2,1,70,1,0
172340,-100,4,2,1,70,0,0
172415,-100,4,2,1,70,0,0
172490,329.67032967033,4,2,1,75,1,0
172490,-100,4,2,1,75,0,0
173149,331.491712707183,4,2,1,40,1,0
173149,-166.666666666667,4,2,1,40,0,0
173811,304.182509505704,4,2,1,40,1,0
173811,-142.857142857143,4,2,1,40,0,0
174266,329.67032967033,4,2,1,40,1,0
174430,309.278350515464,4,2,1,40,1,0
174430,-153.846153846154,4,2,1,40,0,0
174739,329.67032967033,4,2,1,40,1,0
174903,-158.730158730159,4,2,1,40,0,0
175233,309.278350515464,4,2,1,40,1,0
175542,370.942812982999,4,2,1,40,1,0
175542,-166.666666666667,4,2,1,40,0,0
176098,329.67032967033,4,2,1,40,1,0
176262,316.122233930453,4,2,1,40,1,0
176262,-166.666666666667,4,2,1,40,0,0
176736,329.67032967033,4,2,1,40,1,0
176900,-153.846153846154,4,2,1,40,0,0
177395,285.714285714286,4,2,1,40,1,0
177395,-181.818181818182,4,2,1,40,0,0
177680,321.285140562249,4,2,1,40,1,0
177680,-153.846153846153,4,2,1,40,0,0
178001,315.789473684211,4,2,1,40,1,0
178474,315.789473684211,4,2,1,40,1,0
178474,-153.846153846154,4,2,1,40,0,0
179421,315.789473684211,4,2,1,40,1,0
179421,-153.846153846154,4,2,1,40,0,0
183210,-121.951219512195,4,2,1,50,0,0
187947,-100,4,2,1,50,0,0
188026,-100,4,2,1,50,0,0
188105,-100,4,2,1,50,0,0
188184,-100,4,2,1,50,0,0
188263,-285.714285714284,4,2,1,50,0,0
189526,-125,4,2,1,30,0,0
191736,-125,4,2,1,50,0,0
192052,-94.3396226415094,4,2,1,65,0,1
194578,-85.4700854700855,4,2,1,80,0,1
211947,-133.333333333333,4,2,1,80,0,1
212184,-133.333333333333,4,2,1,80,0,1
212263,-83.3333333333333,4,2,1,80,0,1
212499,-83.3333333333333,4,2,1,80,0,1
212578,-83.3333333333333,4,2,1,80,0,1
217789,-100,4,2,1,80,0,1
218421,-83.3333333333333,4,2,1,80,0,1
223631,-181.818181818182,4,2,1,80,0,0
224894,-100,4,2,1,50,0,0
229947,-133.333333333333,4,2,1,50,0,0
233736,-100,4,2,1,50,0,0
234368,-399.999999999997,4,2,1,50,0,0
234999,-95.2380952380952,4,2,1,70,0,0
238631,-81.9672131147541,4,2,1,70,0,0
238947,-90.0900900900901,4,2,1,70,0,0
240052,-105.263157894737,4,2,1,70,0,0
240368,-95.2380952380952,4,2,1,70,0,0
242578,-95.2380952380952,4,2,1,80,0,0
244552,-83.3333333333333,4,2,1,80,0,0
244631,-83.3333333333333,4,2,1,80,0,0
244710,-83.3333333333333,4,2,1,80,0,0
244789,-83.3333333333333,4,2,1,80,0,0
244868,-83.3333333333333,4,2,1,80,0,0
244947,-83.3333333333333,4,2,1,80,0,0
245026,-83.3333333333333,4,2,1,80,0,0
245105,-83.3333333333333,4,2,1,80,0,0

[Colours]
Combo1 : 255,255,128
Combo2 : 14,177,140
Combo3 : 71,239,172
Combo4 : 0,115,170
Combo5 : 128,128,255
Combo6 : 226,65,65
Combo7 : 192,192,192

[HitObjects]
114,11,364,5,2,0:0:0:0:
67,88,521,1,2,0:0:0:0:
119,206,679,1,2,0:0:0:0:
66,277,837,2,0,P|31:269|0:263,2,67.5000025749208,2|0|2,0:0|0:0|0:0,0:0:0:0:
148,349,1311,2,0,P|181:343|214:339,1,67.5000025749208,2|0,0:0|0:0,0:0:0:0:
290,262,1627,5,2,0:0:0:0:
339,376,1785,1,2,0:0:0:0:
290,262,1942,1,2,0:0:0:0:
343,170,2100,1,2,0:0:0:0:
285,50,2258,5,2,0:0:0:0:
225,169,2416,1,2,0:0:0:0:
280,122,2574,5,2,0:0:0:0:
228,6,2732,1,2,0:0:0:0:
35,32,2890,5,2,0:0:0:0:
136,110,3048,1,2,0:0:0:0:
57,140,3206,5,2,0:0:0:0:
210,84,3364,1,2,0:0:0:0:
305,202,3521,5,2,0:0:0:0:
379,221,3679,1,2,0:0:0:0:
454,246,3837,5,2,0:0:0:0:
342,290,3995,1,2,0:0:0:0:
391,353,4153,1,0,0:0:0:0:
379,221,4311,5,0,0:0:0:0:
304,359,4469,1,2,0:2:0:0:
204,265,4627,6,0,L|211:226,1,35.1000011782837,2|2,0:2|0:2,0:0:0:0:
165,335,4785,2,0,L|176:393,1,45,2|2,0:0|0:0,0:0:0:0:
117,266,4942,2,0,L|129:207,1,49.5000015106202,2|2,0:0|0:0,0:0:0:0:
251,41,5258,5,0,0:0:0:0:
379,157,5416,1,8,0:0:0:0:
424,154,5494,1,8,0:0:0:0:
461,129,5573,1,8,0:0:0:0:
480,89,5652,1,8,0:0:0:0:
476,44,5731,5,8,0:0:0:0:
374,0,5890,6,0,B|319:10|319:10|301:31|301:31|240:43,1,135,2|0,1:2|0:0,0:0:0:0:
168,215,6206,6,0,B|113:205|113:205|95:184|95:184|34:172,1,135,2|0,1:2|0:0,0:0:0:0:
0,108,6521,5,10,0:2:0:0:
476,366,7942,1,6,1:2:0:0:
33,196,10311,6,0,L|-4:203,3,30,2|2|2|2,0:0|0:0|0:0|1:2,0:0:0:0:
367,1,12364,6,0,L|434:12,1,67.5000025749208,2|0,0:0|0:0,0:0:0:0:
512,87,12521,2,0,L|445:97,1,67.5000025749208,0|0,1:0|1:0,0:0:0:0:
333,168,12679,6,0,P|405:165|444:224,1,148.50000453186,8|0,0:0|0:0,0:0:0:0:
404,291,12995,5,6,1:2:0:0:
404,291,13153,1,0,0:0:0:0:
269,120,13311,2,0,P|203:113|163:108,1,94.499997116089,10|0,0:0|0:0,0:0:0:0:
82,226,13627,5,2,1:2:0:0:
145,338,13785,1,2,0:0:0:0:
70,384,13942,5,10,0:0:0:0:
176,221,14100,1,2,0:0:0:0:
176,221,14179,1,0,0:0:0:0:
176,221,14258,2,0,P|235:230|281:236,1,94.499997116089,0|2,1:2|0:0,0:0:0:0:
404,372,14574,6,0,P|470:362|491:298,1,141.749995674133,10|0,0:0|0:0,0:0:0:0:
442,233,14890,6,0,L|376:242,1,47.2499985580445,2|0,1:2|0:0,0:0:0:0:
331,284,15048,1,2,0:0:0:0:
200,117,15206,2,0,L|246:124,1,47.2499985580445,10|0,0:0|0:0,0:0:0:0:
313,83,15364,1,2,0:0:0:0:
182,6,15521,6,0,P|114:21|103:97,1,141.749995674133,2|0,1:2|0:0,0:0:0:0:
50,145,15837,1,10,0:0:0:0:
50,145,15995,1,0,0:0:0:0:
135,259,16153,2,0,L|117:370,1,94.499997116089,2|2,1:2|0:0,0:0:0:0:
63,224,16469,5,10,0:0:0:0:
257,143,16627,2,0,P|325:154|339:233,1,141.749995674133,2|0,0:0|0:0,0:0:0:0:
296,273,16942,5,2,0:0:0:0:
141,101,17100,2,0,L|160:-9,1,94.499997116089,10|2,0:0|0:0,0:0:0:0:
288,281,17416,5,10,0:0:0:0:
251,302,17495,1,10,0:0:0:0:
210,286,17574,2,0,P|201:264|198:240,1,47.2499985580445,8|8,0:0|0:0,0:0:0:0:
127,93,17732,5,8,0:0:0:0:
70,78,17810,1,8,0:0:0:0:
19,104,17889,1,8,0:0:0:0:
0,157,17968,1,8,0:0:0:0:
22,212,18048,6,0,P|91:189|176:176,1,135.000005149842,6|0,1:2|0:0,0:0:0:0:
276,49,18521,1,2,0:0:0:0:
407,83,18679,2,0,P|337:60|252:47,1,135.000005149842,2|0,0:0|0:0,0:0:0:0:
71,70,19153,5,2,0:0:0:0:
177,37,19311,2,0,P|163:95|152:174,1,135.000005149842,2|2,0:0|0:0,0:0:0:0:
36,281,19785,2,0,P|68:274|102:270,1,67.5000025749208,2|0,0:0|0:0,0:0:0:0:
236,362,20100,2,0,P|204:355|170:351,1,67.5000025749208,2|0,0:0|0:0,0:0:0:0:
231,239,20416,5,2,1:2:0:0:
336,158,20574,2,0,P|349:216|360:295,1,135.000005149842,2|2,1:2|0:0,0:0:0:0:
440,174,21048,6,0,P|451:137|467:105,1,67.5000025749208,2|0,0:0|0:0,0:0:0:0:
340,8,21364,2,0,P|354:38|363:70,1,67.5000025749208,2|0,0:0|0:0,0:0:0:0:
269,194,21679,2,0,P|205:204|162:126,2,135.000005149842,2|2|2,0:0|0:0|0:0,0:0:0:0:
269,194,22469,1,2,0:0:0:0:
404,267,22627,5,0,1:0:0:0:
404,267,22706,1,0,1:0:0:0:
404,266,22785,2,0,P|474:263|510:324,1,148.50000453186,8|0,0:0|0:0,0:0:0:0:
463,384,23100,6,0,P|425:375|387:369,1,76.5000014591217,6|0,1:2|0:0,0:0:0:0:
269,194,23416,2,0,P|306:187|344:179,1,76.5000014591217,2|0,1:2|0:0,0:0:0:0:
259,301,23732,6,0,P|204:287|178:238,1,114.750002188683,2|0,1:2|0:0,0:0:0:0:
186,228,24048,1,2,1:2:0:0:
294,60,24206,5,2,1:2:0:0:
323,66,24285,1,8,0:0:0:0:
352,72,24364,1,8,0:0:0:0:
475,197,24521,5,2,1:2:0:0:
446,203,24600,1,8,0:0:0:0:
417,209,24679,1,10,0:0:0:0:
308,304,24837,5,2,1:2:0:0:
279,298,24916,1,8,0:0:0:0:
250,292,24995,1,8,0:0:0:0:
166,62,25153,6,0,P|126:92|119:106,1,38.2500007295609,2|8,1:2|0:0,0:0:0:0:
95,146,25311,1,10,0:0:0:0:
133,321,25469,6,0,P|159:278|161:263,1,38.2500007295609,2|8,1:2|0:0,0:0:0:0:
169,217,25627,1,10,0:0:0:0:
0,220,25785,5,2,1:2:0:0:
0,220,25864,1,8,0:0:0:0:
0,220,25943,2,0,L|84:233,1,76.5000014591217,10|2,0:0|1:2,0:0:0:0:
83,239,26179,1,8,0:0:0:0:
91,247,26258,1,10,0:0:0:0:
289,374,26416,5,8,0:0:0:0:
237,384,26494,1,8,0:0:0:0:
191,360,26573,1,10,0:0:0:0:
171,311,26652,1,8,0:0:0:0:
187,261,26731,1,14,0:0:0:0:
444,0,27521,5,0,1:2:0:0:
356,127,27679,1,2,1:2:0:0:
403,219,27837,1,10,0:0:0:0:
276,120,27995,6,0,P|301:66|425:87,1,180,6|0,1:2|1:2,0:0:0:0:
289,204,28469,1,8,0:0:0:0:
370,327,28627,1,2,0:0:0:0:
292,300,28785,5,2,1:2:0:0:
292,300,28942,1,0,1:2:0:0:
356,127,29100,1,8,0:0:0:0:
410,216,29258,5,2,0:0:0:0:
299,46,29416,2,0,P|254:54|210:59,1,90,2|0,1:2|1:0,0:0:0:0:
210,59,29732,1,10,0:0:0:0:
73,161,29890,6,0,P|117:166|161:174,1,90,2|0,0:0|1:0,0:0:0:0:
306,266,30206,2,0,P|261:271|217:279,1,90,2|8,1:2|0:0,0:0:0:0:
140,350,30521,1,2,0:0:0:0:
224,272,30679,6,0,P|308:272|334:352,1,180,2|8,1:2|0:0,0:0:0:0:
161,174,31153,2,0,P|117:166|72:161,1,90,2|0,0:0|1:0,0:0:0:0:
218,63,31469,2,0,P|262:54|306:49,1,90,2|8,1:2|0:0,0:0:0:0:
440,259,31785,5,2,0:0:0:0:
476,120,31942,1,2,1:2:0:0:
489,196,32100,5,2,1:2:0:0:
410,76,32258,1,8,0:0:0:0:
362,263,32416,5,2,0:0:0:0:
503,319,32574,1,2,1:2:0:0:
503,319,32732,1,0,1:0:0:0:
398,173,32890,1,8,0:0:0:0:
281,306,33048,5,8,0:0:0:0:
281,306,33127,1,8,0:0:0:0:
281,306,33206,6,0,P|301:345|399:346,1,135,6|0,1:2|0:0,0:0:0:0:
428,293,33521,1,14,0:0:0:0:
428,293,33679,1,0,0:0:0:0:
316,150,33837,2,0,P|264:142|207:131,1,90,2|0,1:2|1:0,0:0:0:0:
105,5,34153,2,0,P|113:58|118:108,1,90,10|0,0:0|0:0,0:0:0:0:
3,264,34469,5,2,1:2:0:0:
151,166,34627,1,2,1:2:0:0:
23,152,34785,1,10,0:0:0:0:
146,296,34942,2,0,P|189:284|233:277,1,90,2|0,0:0|1:0,0:0:0:0:
331,145,35258,5,2,1:2:0:0:
440,190,35416,2,0,P|381:176|312:168,1,90,8|2,0:0|0:0,0:0:0:0:
228,20,35732,5,6,1:2:0:0:
344,155,35890,1,0,1:0:0:0:
344,155,35969,1,8,0:0:0:0:
344,155,36048,1,10,0:0:0:0:
379,29,36206,6,0,L|316:38,1,45,2|8,1:2|0:0,0:0:0:0:
211,115,36364,2,0,P|195:164|227:210,1,90,8|2,0:0|1:2,0:0:0:0:
269,258,36600,1,8,0:0:0:0:
279,266,36679,2,0,P|292:307|275:346,1,90,8|2,0:0|1:2,0:0:0:0:
164,275,36995,5,10,0:0:0:0:
344,155,37153,1,10,0:0:0:0:
178,36,37311,1,10,0:0:0:0:
178,36,37627,6,0,P|211:44|235:49,1,40.4999987640381,2|0,0:0|0:0,0:0:0:0:
232,57,37942,6,0,P|212:52|192:47,1,40.4999987640381,2|2,0:0|0:0,0:0:0:0:
33,125,38258,6,0,B|76:112|76:112|147:129|138:197|100:224,1,180,4|0,1:2|0:0,0:0:0:0:
153,366,38732,1,0,1:0:0:0:
31,287,38890,1,8,0:0:0:0:
210,175,39048,2,0,B|280:184|280:184|305:224|305:224|388:235,1,180,2|0,1:2|0:0,0:0:0:0:
471,338,39521,5,2,1:2:0:0:
374,371,39679,2,0,P|411:331|456:328,1,90,8|0,0:0|0:0,0:0:0:0:
444,325,39995,1,2,1:2:0:0:
510,134,40153,6,0,P|466:139|421:146,1,90,10|0,0:0|1:0,0:0:0:0:
280,0,40469,1,2,0:0:0:0:
364,38,40627,1,2,0:0:0:0:
374,51,40706,1,2,0:0:0:0:
377,70,40785,6,0,P|327:126|256:112,1,148.50000453186,6|0,1:2|0:0,0:0:0:0:
198,49,41100,2,0,P|189:106|182:155,1,90,2|0,0:0|1:0,0:0:0:0:
34,242,41416,1,8,0:0:0:0:
119,381,41574,2,0,B|111:317|111:317|141:286|141:286|129:191,1,180,2|2,1:2|0:0,0:0:0:0:
11,24,42048,5,2,1:2:0:0:
115,93,42206,2,0,P|168:79|186:35,1,90,10|2,0:2|1:2,0:0:0:0:
28,105,42521,1,2,1:2:0:0:
21,121,42600,1,10,0:0:0:0:
26,138,42679,5,10,0:0:0:0:
108,295,42837,1,10,0:0:0:0:
15,263,42995,5,10,0:0:0:0:
122,87,43153,1,10,0:0:0:0:
246,254,43311,6,0,P|288:246|318:214,1,90,6|0,1:2|0:0,0:0:0:0:
121,310,43627,2,0,P|165:313|201:340,1,90,0|0,0:0|1:0,0:0:0:0:
278,327,43942,1,8,0:0:0:0:
164,210,44100,5,2,1:2:0:0:
318,100,44258,1,2,0:0:0:0:
141,5,44416,1,2,0:0:0:0:
192,102,44574,5,2,1:2:0:0:
338,0,44732,1,8,0:0:0:0:
338,0,44811,1,2,0:0:0:0:
338,0,44890,2,0,P|382:6|426:13,1,90,0|2,0:0|1:2,0:0:0:0:
496,130,45206,6,0,B|453:112|453:112|404:122|395:172|416:198,2,148.50000453186,10|2|2,0:0|0:0|0:0,0:0:0:0:
512,284,45837,5,4,1:2:0:0:
391,181,45995,2,0,P|346:188|302:195,1,90,2|2,0:0|0:0,0:0:0:0:
197,302,46311,2,0,P|200:345|232:375,1,90,2|8,1:2|0:0,0:0:0:0:
293,293,46627,5,2,1:2:0:0:
144,169,46785,1,0,0:0:0:0:
285,33,46942,1,2,0:0:0:0:
310,40,47021,1,2,0:0:0:0:
328,60,47100,2,0,P|331:103|303:137,1,90,0|10,1:2|0:0,0:0:0:0:
117,0,47416,6,0,P|161:7|206:13,1,90,2|2,1:2|1:2,0:0:0:0:
205,13,47653,1,10,0:2:0:0:
205,13,47732,5,10,0:2:0:0:
82,129,47890,1,8,1:3:0:0:
35,15,48048,5,8,1:3:0:0:
209,135,48206,1,8,1:3:0:0:
85,265,48364,6,0,P|46:260|7:187,1,116.999994644165,4|0,1:2|0:0,0:0:0:0:
85,265,48837,1,2,0:0:0:0:
221,377,48995,2,0,P|196:325|142:310,1,116.999994644165,2|0,0:0|0:0,0:0:0:0:
63,351,49469,1,2,0:0:0:0:
167,209,49627,6,0,P|196:232|235:239,1,58.4999973220826,2|0,0:0|0:0,0:0:0:0:
253,310,49942,2,0,P|283:287|322:281,1,58.4999973220826,2|0,0:0|0:0,0:0:0:0:
318,149,50258,2,0,P|294:178|287:217,1,58.4999973220826,2|0,0:0|0:0,0:0:0:0:
218,140,50574,1,2,0:0:0:0:
348,18,50732,5,0,1:0:0:0:
348,18,50890,2,0,B|417:22|393:68|475:62,1,116.999994644165,2|0,1:2|0:0,0:0:0:0:
512,154,51364,1,2,0:0:0:0:
512,154,51522,2,0,B|441:155|465:202|384:195,1,116.999994644165,2|0,0:0|0:0,0:0:0:0:
303,304,51995,5,2,0:0:0:0:
366,367,52153,2,0,P|377:322|387:300,1,58.4999973220826,2|0,0:0|0:0,0:0:0:0:
261,236,52469,2,0,P|250:191|240:169,1,58.4999973220826,2|0,0:0|0:0,0:0:0:0:
290,20,52785,5,8,0:0:0:0:
350,14,52890,5,8,0:0:0:0:
392,57,52995,5,8,1:3:0:0:
396,71,53100,5,8,1:3:0:0:
449,100,53205,5,8,1:3:0:0:
505,77,53310,5,8,1:3:0:0:
455,3,53416,6,0,P|424:59|415:188,1,180,6|0,1:2|0:0,0:0:0:0:
306,282,53890,1,2,1:2:0:0:
233,314,54048,2,0,B|293:292|331:329|313:336|347:378|417:348,1,180,14|0,0:0|0:0,0:0:0:0:
428,190,54521,5,2,0:0:0:0:
373,79,54679,2,0,P|345:124|361:170,1,90,2|8,1:2|0:0,0:0:0:0:
474,316,54995,2,0,P|502:271|486:225,1,90,2|0,0:0|1:0,0:0:0:0:
342,162,55311,5,10,0:0:0:0:
485,96,55469,1,0,1:0:0:0:
363,276,55627,2,0,P|310:266|251:257,1,90,10|2,0:0|0:0,0:0:0:0:
155,120,55942,6,0,B|109:115|76:140|76:140|109:93|175:108,1,170.999995433807,6|0,1:2|1:2,0:0:0:0:
238,39,56416,1,2,0:0:0:0:
311,190,56574,6,0,P|268:181|220:173,1,85.4999977169037,2|0,1:2|0:0,0:0:0:0:
95,315,56890,2,0,P|138:306|186:298,1,85.4999977169037,0|0,1:2|0:0,0:0:0:0:
100,223,57206,5,2,1:2:0:0:
35,383,57364,1,0,1:2:0:0:
102,323,57521,5,2,1:2:0:0:
25,167,57679,1,0,1:2:0:0:
101,5,57837,5,10,0:0:0:0:
161,125,57995,1,8,0:0:0:0:
46,74,58153,5,10,0:0:0:0:
227,3,58311,1,8,0:0:0:0:
46,74,58469,1,2,0:0:0:0:
46,74,59258,5,2,0:0:0:0:
101,127,59416,1,2,0:0:0:0:
180,118,59574,1,2,0:0:0:0:
180,118,59890,5,2,0:0:0:0:
239,69,60048,1,2,0:0:0:0:
316,91,60206,1,2,0:0:0:0:
316,91,60521,5,2,0:0:0:0:
426,187,60679,1,8,0:0:0:0:
478,178,60757,1,8,1:3:0:0:
512,138,60836,1,8,1:3:0:0:
512,86,60915,1,8,1:3:0:0:
478,46,60994,5,14,0:0:0:0:
326,180,61153,1,2,1:2:0:0:
489,179,61311,5,0,1:2:0:0:
319,6,61469,2,0,P|274:15|230:23,1,90,14|0,0:0|0:0,0:0:0:0:
21,174,61785,5,10,0:0:0:0:
129,69,61942,1,2,1:2:0:0:
186,273,62100,1,14,0:0:0:0:
193,280,62416,5,0,1:0:0:0:
99,217,62574,1,10,0:0:0:0:
90,337,62732,5,10,0:0:0:0:
287,243,62890,1,10,0:0:0:0:
512,301,63521,6,0,P|414:291|384:384,1,210.600000803375,6|8,1:2|0:0,0:0:0:0:
296,203,63995,1,2,0:0:0:0:
462,150,64153,2,0,P|452:201|445:253,1,105.300000401688,2|0,1:2|1:0,0:0:0:0:
322,69,64469,1,8,0:0:0:0:
446,36,64627,5,2,0:0:0:0:
289,208,64785,2,0,P|218:193|156:183,1,105.300000401688,2|0,1:2|1:0,0:0:0:0:
126,42,65100,1,10,0:0:0:0:
0,51,65258,2,0,P|51:39|103:30,1,105.300000401688,2|0,0:0|1:0,0:0:0:0:
295,215,65574,2,0,P|224:200|162:190,1,105.300000401688,2|10,1:2|0:0,0:0:0:0:
11,276,65890,5,2,0:0:0:0:
11,276,65969,1,2,0:0:0:0:
11,276,66048,2,0,B|55:257|103:288|85:301|118:328|183:307,1,157.950000602531,4|0,1:2|0:0,0:0:0:0:
170,322,66364,1,8,0:0:0:0:
72,172,66521,1,2,0:0:0:0:
219,28,66679,2,0,P|248:77|229:135,1,105.300000401688,2|0,1:2|1:0,0:0:0:0:
293,216,66995,5,8,0:0:0:0:
115,68,67153,1,2,0:0:0:0:
167,221,67311,2,0,P|219:210|279:200,1,105.300000401688,2|0,1:2|1:0,0:0:0:0:
426,0,67627,5,10,0:0:0:0:
359,77,67785,2,0,P|350:127|378:171,1,105.300000401688,2|0,0:0|1:0,0:0:0:0:
502,309,68100,2,0,P|450:298|390:288,1,105.300000401688,2|10,1:2|0:2,0:0:0:0:
269,201,68416,6,0,P|263:234|255:282,1,52.6500002008438,2|2,0:0|0:0,0:0:0:0:
198,384,68574,2,0,P|162:317|86:313,1,157.950000602531,4|0,1:2|0:0,0:0:0:0:
22,355,68890,5,10,0:0:0:0:
22,355,69048,1,0,0:0:0:0:
66,152,69206,5,2,1:2:0:0:
177,296,69364,1,0,1:0:0:0:
37,249,69521,5,10,0:0:0:0:
210,145,69679,1,2,0:0:0:0:
294,341,69837,6,0,P|249:314|198:307,1,105.300000401688,2|0,1:2|1:0,0:0:0:0:
423,85,70153,2,0,P|377:108|325:116,1,105.300000401688,10|0,0:0|0:0,0:0:0:0:
179,17,70469,1,2,1:2:0:0:
179,17,70627,1,2,1:2:0:0:
122,198,70785,1,10,0:0:0:0:
220,140,70942,6,0,B|293:116|332:157|307:165|359:209|428:177,1,210.600000803375,6|2,1:2|1:2,0:0:0:0:
457,0,71416,5,10,0:0:0:0:
325,116,71574,1,0,1:0:0:0:
496,186,71732,5,10,0:0:0:0:
309,16,71890,1,2,1:2:0:0:
227,241,72048,1,10,0:0:0:0:
227,241,72127,1,10,0:0:0:0:
227,241,72206,6,0,P|270:302|345:293,1,157.950000602531,6|0,1:2|0:0,0:0:0:0:
358,281,72521,5,2,1:2:0:0:
228,137,72679,2,0,P|176:144|129:168,1,105.300000401688,10|0,0:0|1:0,0:0:0:0:
32,358,72995,5,8,0:0:0:0:
32,358,73074,1,0,1:2:0:0:
32,358,73153,2,0,L|12:289,1,52.6500002008438,0|0,1:2|1:2,0:0:0:0:
52,133,73311,1,10,0:0:0:0:
47,184,73389,1,10,0:0:0:0:
73,229,73468,1,10,0:0:0:0:
120,250,73547,1,10,0:0:0:0:
171,239,73627,6,0,P|250:242|257:373,1,210.600000803375,6|14,1:2|0:0,0:0:0:0:
129,167,74100,1,2,0:0:0:0:
241,55,74258,2,0,P|292:67|344:76,1,105.300000401688,2|0,1:2|1:0,0:0:0:0:
446,227,74574,5,8,0:0:0:0:
512,118,74732,1,2,0:0:0:0:
344,196,74890,2,0,P|354:247|365:299,1,105.300000401688,2|0,1:2|1:0,0:0:0:0:
456,233,75206,5,10,0:0:0:0:
306,377,75364,2,0,P|261:341|260:266,1,105.300000401688,2|0,0:0|1:0,0:0:0:0:
192,112,75679,2,0,P|150:143|137:193,1,105.300000401688,2|10,1:2|0:0,0:0:0:0:
14,329,75995,1,2,0:0:0:0:
14,329,76074,1,2,0:0:0:0:
14,329,76153,6,0,B|85:301|124:342|99:350|151:394|220:362,1,210.600000803375,4|8,1:2|0:0,0:0:0:0:
344,202,76627,1,2,0:0:0:0:
418,280,76785,2,0,P|406:331|397:383,1,105.300000401688,2|0,1:2|1:0,0:0:0:0:
275,279,77100,5,8,0:0:0:0:
440,182,77258,1,2,0:0:0:0:
301,68,77416,2,0,P|262:110|269:162,1,105.300000401688,2|0,1:2|1:0,0:0:0:0:
418,61,77732,5,10,0:0:0:0:
257,162,77890,2,0,P|206:150|154:141,1,105.300000401688,2|0,0:0|1:0,0:0:0:0:
0,21,78206,2,0,P|51:9|103:0,1,105.300000401688,2|12,1:2|0:0,0:0:0:0:
50,124,78521,1,2,0:0:0:0:
182,248,78679,5,6,1:2:0:0:
248,77,78837,1,2,0:0:0:0:
147,138,78995,5,10,0:0:0:0:
257,331,79153,1,2,0:0:0:0:
78,286,79311,2,0,P|110:245|160:235,1,105.300000401688,2|0,1:2|1:0,0:0:0:0:
376,383,79627,6,0,P|325:367|273:359,1,105.300000401688,10|2,0:0|0:0,0:0:0:0:
216,172,79942,1,2,1:2:0:0:
366,243,80100,1,2,1:2:0:0:
444,52,80258,2,0,P|393:67|341:75,1,105.300000401688,10|2,0:0|0:0,0:0:0:0:
109,240,80574,6,0,L|130:127,1,105.300000401688,0|0,1:2|1:0,0:0:0:0:
147,63,80811,1,8,0:0:0:0:
151,48,80890,2,0,P|125:44|100:52,1,52.6500002008438,8|8,0:0|0:0,0:0:0:0:
23,138,81048,6,0,B|81:104|135:147|110:159|156:204|231:164,1,210.600000803375,4|2,1:2|1:2,0:0:0:0:
394,36,81521,2,0,P|334:23|292:-6,1,105.300000401688,10|0,0:0|0:0,0:0:0:0:
387,189,81837,2,0,P|433:165|494:159,1,105.300000401688,2|0,1:2|1:2,0:0:0:0:
310,112,82153,6,0,P|297:189|285:269,1,157.950000602531,10|2,0:0|0:0,0:0:0:0:
330,340,82469,1,2,1:2:0:0:
330,340,82627,1,0,1:2:0:0:
485,158,82785,2,0,P|434:164|387:189,1,105.300000401688,10|0,0:0|0:0,0:0:0:0:
229,358,83100,6,0,P|169:356|146:289,1,105.300000401688,2|2,1:2|0:0,0:0:0:0:
121,250,83337,1,8,0:0:0:0:
124,239,83416,6,0,B|132:200|132:200|142:189|142:189|154:129,1,101.250003862381,10|0,0:0|1:0,0:0:0:0:
205,92,83732,6,0,P|280:102|290:177,1,161.999995056153,14|0,0:0|0:0,0:0:0:0:
218,220,84048,5,8,0:0:0:0:
412,87,84206,1,0,0:0:0:0:
180,8,84364,1,8,0:0:0:0:
306,101,84521,1,0,1:0:0:0:
422,0,84679,6,0,P|368:10|315:18,1,107.999996704102,10|0,0:0|1:0,0:0:0:0:
114,206,84995,2,0,P|190:217|214:290,1,161.999995056153,10|0,0:0|0:0,0:0:0:0:
158,344,85311,6,0,P|106:330|53:319,1,107.999996704102,10|0,0:0|0:0,0:0:0:0:
125,202,85627,5,10,0:0:0:0:
4,384,85785,1,0,1:0:0:0:
226,293,85942,1,10,0:0:0:0:
33,148,86100,1,0,1:0:0:0:
154,0,86258,6,0,P|203:22|257:32,1,107.999996704102,10|0,0:0|0:0,0:0:0:0:
379,166,86574,2,0,P|326:177|278:200,1,107.999996704102,10|0,0:0|0:0,0:0:0:0:
234,118,86890,5,10,0:0:0:0:
398,263,87048,1,0,1:0:0:0:
474,69,87206,1,10,0:0:0:0:
310,303,87364,6,0,B|247:292|247:292|224:265|224:265|142:252,1,161.999995056153,6|0,1:2|0:0,0:0:0:0:
91,290,87679,1,2,1:2:0:0:
243,113,87837,1,10,0:0:0:0:
351,371,87995,2,0,P|414:369|444:318,1,107.999996704102,2|0,0:0|1:2,0:0:0:0:
512,185,88311,5,0,1:0:0:0:
512,185,88390,1,8,0:0:0:0:
512,185,88469,6,0,L|458:194,1,53.9999983520508,8|8,0:0|1:3,0:0:0:0:
300,304,88627,2,0,L|309:250,1,53.9999983520508,8|8,1:3|1:3,0:0:0:0:
238,17,88785,5,10,0:0:0:0:
185,12,88863,1,10,0:0:0:0:
142,43,88942,1,10,0:0:0:0:
132,95,89021,1,10,0:0:0:0:
159,140,89100,5,10,0:0:0:0:
398,49,89258,5,2,1:2:0:0:
417,42,89574,5,2,1:2:0:0:
147,147,89890,5,10,0:0:0:0:
508,380,91311,6,0,P|488:329|380:335,1,153.000002918243,14|0,0:0|1:2,0:0:0:0:
323,379,91785,1,2,1:2:0:0:
239,250,91942,1,10,0:0:0:0:
307,186,92100,6,0,P|344:191|383:198,2,76.5000014591217,2|0|0,1:2|0:0|1:2,0:0:0:0:
130,19,92574,1,10,0:0:0:0:
69,85,92732,2,0,P|105:148|178:146,1,153.000002918243,2|0,1:2|1:2,0:0:0:0:
83,223,93206,5,10,0:0:0:0:
234,51,93364,2,0,B|325:54|278:111|387:109,1,153.000002918243,6|0,1:2|1:2,0:0:0:0:
424,166,93758,5,0,1:2:0:0:
439,160,93837,6,0,P|462:131|463:93,1,76.5000014591217,14|0,0:0|0:0,0:0:0:0:
363,0,94153,5,2,1:2:0:0:
308,53,94311,1,0,0:0:0:0:
193,183,94469,5,2,1:2:0:0:
116,174,94627,1,2,0:0:0:0:
84,104,94785,1,2,1:2:0:0:
187,6,94942,5,2,0:0:0:0:
275,237,95100,2,0,P|271:256|267:275,2,38.2500007295609,10|2|2,0:0|0:0|1:2,0:0:0:0:
364,120,95416,2,0,P|374:194|382:248,1,114.750002188683,10|0,0:0|0:0,0:0:0:0:
453,295,95732,6,0,P|409:305|365:316,1,90,10|2,0:2|1:2,0:0:0:0:
302,361,95969,1,10,0:2:0:0:
292,368,96048,6,0,L|280:316,1,45,10|2,0:2|1:2,0:0:0:0:
193,187,96206,2,0,L|181:239,1,45,10|10,0:2|0:2,0:0:0:0:
151,366,96364,6,0,P|116:302|25:323,1,141.749995674133,6|0,1:2|0:0,0:0:0:0:
6,356,96679,1,10,0:0:0:0:
6,356,96837,1,0,0:0:0:0:
182,230,96995,2,0,P|228:239|279:251,1,94.499997116089,2|2,1:2|0:0,0:0:0:0:
363,178,97311,5,10,0:0:0:0:
281,27,97469,1,2,0:0:0:0:
281,27,97548,1,2,0:0:0:0:
281,27,97627,2,0,B|197:26|232:70|130:65,1,141.749995674133,0|2,1:2|0:0,0:0:0:0:
20,134,97942,6,0,P|89:134|117:212,1,141.749995674133,10|0,0:0|0:0,0:0:0:0:
138,269,98258,6,0,L|77:281,1,47.2499985580445,2|0,1:2|0:0,0:0:0:0:
28,243,98416,1,2,0:0:0:0:
147,65,98574,6,0,L|208:77,1,47.2499985580445,10|0,0:0|0:0,0:0:0:0:
246,129,98732,1,2,0:0:0:0:
328,273,98890,6,0,B|383:263|383:263|406:237|406:237|478:227,1,141.749995674133,2|0,1:2|0:0,0:0:0:0:
511,281,99206,2,0,P|495:324|450:334,1,94.499997116089,10|0,0:0|0:0,0:0:0:0:
327,172,99521,1,2,1:2:0:0:
243,368,99679,1,2,0:0:0:0:
267,382,99758,1,2,0:0:0:0:
294,380,99837,2,0,P|312:366|323:345,1,47.2499985580445,10|0,0:0|0:0,0:0:0:0:
207,170,99995,6,0,B|175:155|151:143|151:143|85:169|80:222|116:269,1,188.999994232178,14|2,0:0|0:0,0:0:0:0:
243,275,100469,1,10,0:0:0:0:
152,65,100627,1,2,0:0:0:0:
289,0,100785,5,10,0:0:0:0:
333,8,100864,1,10,0:0:0:0:
349,49,100942,2,0,P|335:99|329:121,1,56.25,0|8,1:2|0:0,0:0:0:0:
366,256,101100,5,8,0:3:0:0:
409,280,101178,1,0,1:0:0:0:
458,276,101257,1,8,0:0:0:0:
497,245,101336,1,8,0:0:0:0:
510,197,101416,6,0,P|446:180|406:153,1,94.499997116089,6|0,1:2|0:0,0:0:0:0:
257,379,101732,2,0,P|302:351|361:344,1,94.499997116089,10|0,0:0|0:0,0:0:0:0:
259,169,102048,1,2,1:2:0:0:
195,287,102206,1,2,0:0:0:0:
398,160,102364,1,10,0:0:0:0:
226,35,102521,1,2,0:0:0:0:
226,35,102600,1,2,0:0:0:0:
226,35,102679,6,0,B|166:45|166:45|144:72|144:72|76:85,1,141.749995674133,0|2,1:2|0:0,0:0:0:0:
50,144,102995,2,0,P|78:186|134:181,1,94.499997116089,10|0,0:0|0:0,0:0:0:0:
332,81,103311,2,0,P|377:86|400:126,1,94.499997116089,2|2,1:2|0:0,0:0:0:0:
213,224,103627,1,10,0:0:0:0:
338,75,103785,1,2,0:0:0:0:
420,358,103942,6,0,P|374:340|320:330,1,94.499997116089,2|0,1:2|0:0,0:0:0:0:
171,136,104258,2,0,P|217:126|261:109,1,94.499997116089,10|0,0:0|0:0,0:0:0:0:
204,229,104574,5,2,1:2:0:0:
97,69,104732,1,2,0:0:0:0:
163,0,104890,5,10,0:0:0:0:
10,196,105048,2,0,B|70:171|119:209|93:219|139:263|210:233,1,198.000006042481,14|10,0:0|0:0,0:0:0:0:
394,382,105521,5,10,0:0:0:0:
239,303,105679,1,10,1:3:0:0:
407,232,105837,5,10,1:3:0:0:
404,240,105995,1,10,1:3:0:0:
332,95,106153,1,10,0:0:0:0:
335,87,106311,1,2,0:0:0:0:
463,144,106469,6,0,P|424:147|387:156,1,76.5000014591217,6|0,1:2|0:0,0:0:0:0:
265,0,106785,2,0,P|255:37|252:75,1,76.5000014591217,2|0,1:2|1:2,0:0:0:0:
167,192,107100,1,10,0:0:0:0:
297,283,107258,2,0,P|306:245|309:207,1,76.5000014591217,2|0,1:2|0:0,0:0:0:0:
175,370,107574,6,0,P|212:360|250:356,1,76.5000014591217,2|8,1:2|0:0,0:0:0:0:
392,236,107890,1,2,1:2:0:0:
485,272,108048,2,0,P|448:260|410:255,1,76.5000014591217,2|2,0:0|1:2,0:0:0:0:
320,79,108364,1,10,0:0:0:0:
459,24,108521,1,2,1:2:0:0:
334,172,108679,2,0,P|296:166|259:155,1,76.5000014591217,2|0,0:0|1:2,0:0:0:0:
135,40,108995,5,14,0:0:0:0:
48,196,109153,1,2,0:0:0:0:
132,158,109311,5,0,1:2:0:0:
56,2,109469,1,2,1:2:0:0:
167,251,109627,6,0,P|212:241|262:233,1,85.4999977169037,10|0,0:0|1:2,0:0:0:0:
401,104,109942,2,0,P|356:94|306:86,1,85.4999977169037,2|0,0:0|1:2,0:0:0:0:
223,0,110258,5,10,0:0:0:0:
123,162,110416,1,2,1:2:0:0:
223,0,110574,1,2,0:0:0:0:
150,50,110732,2,0,P|154:68|159:86,1,38.2500007295609,2|2,1:2|1:2,0:0:0:0:
78,247,110890,5,10,0:0:0:0:
228,168,111048,1,2,1:2:0:0:
250,329,111206,5,10,1:3:0:0:
66,247,111364,1,10,1:3:0:0:
104,372,111521,5,14,0:0:0:0:
280,243,111679,2,0,P|316:253|354:257,1,76.5000014591217,2|0,0:0|1:2,0:0:0:0:
431,378,111995,6,0,P|416:347|413:318,1,38.2500007295609,0|0,1:2|0:0,0:0:0:0:
508,205,112153,1,10,0:0:0:0:
387,76,112311,2,0,P|372:107|369:136,1,38.2500007295609,2|0,1:2|0:0,0:0:0:0:
306,167,112469,6,0,P|285:125|291:74,1,94.499997116089,0|0,0:0|1:2,0:0:0:0:
390,192,112785,1,10,0:0:0:0:
207,135,112942,1,2,1:2:0:0:
288,332,113100,2,0,P|308:290|303:239,1,94.499997116089,2|0,0:0|1:2,0:0:0:0:
89,116,113416,5,8,0:0:0:0:
232,217,113574,1,2,1:2:0:0:
213,128,113732,5,8,0:0:0:0:
55,211,113890,1,2,0:0:0:0:
204,31,114048,6,0,B|264:41|264:41|291:70|291:70|377:82,1,161.999995056153,14|2,0:0|1:2,0:0:0:0:
460,216,114521,1,2,0:0:0:0:
333,211,114679,6,0,B|298:258|298:258|331:358,1,161.999995056153,10|10,0:0|0:0,0:0:0:0:
213,262,115153,1,0,1:2:0:0:
395,289,115311,5,10,0:0:0:0:
251,378,115469,1,10,0:0:0:0:
73,195,115627,5,10,0:0:0:0:
222,267,115785,1,2,1:2:0:0:
281,52,115942,5,10,0:0:0:0:
237,42,116020,1,2,1:2:0:0:
197,61,116099,1,10,0:0:0:0:
177,100,116178,1,10,0:0:0:0:
184,144,116258,2,0,P|217:160|245:176,1,45,10|10,0:0|0:0,0:0:0:0:
489,315,116416,6,0,B|439:293|402:331|402:331|384:374|320:366,1,180,6|0,1:2|1:2,0:0:0:0:
212,266,116890,1,10,0:0:0:0:
377,185,117048,1,2,0:0:0:0:
274,42,117206,6,0,L|227:36,2,45,2|2|2,1:2|0:0|0:0,0:0:0:0:
382,105,117521,2,0,P|426:97|475:89,1,90,10|2,0:0|0:0,0:0:0:0:
357,11,117837,5,2,1:2:0:0:
287,158,117995,1,2,0:0:0:0:
349,300,118153,5,10,0:0:0:0:
279,153,118311,1,2,0:0:0:0:
370,2,118469,5,2,1:2:0:0:
470,90,118627,2,0,P|426:97|382:105,1,90,2|8,0:0|0:0,0:0:0:0:
208,262,118942,5,2,0:0:0:0:
105,139,119100,1,2,1:2:0:0:
174,15,119258,1,2,0:0:0:0:
92,50,119416,5,10,0:0:0:0:
175,189,119574,1,2,0:0:0:0:
97,146,119732,5,2,1:2:0:0:
185,11,119890,1,2,0:0:0:0:
81,45,120048,5,10,0:0:0:0:
184,196,120206,1,2,0:0:0:0:
21,217,120364,5,2,1:2:0:0:
202,109,120521,1,2,0:0:0:0:
200,320,120679,5,10,0:0:0:0:
87,153,120837,1,2,0:0:0:0:
254,0,120995,6,0,L|238:42,1,45,2|0,1:2|0:0,0:0:0:0:
268,166,121153,6,0,L|252:208,1,45,0|8,1:2|0:0,0:0:0:0:
284,332,121311,5,8,0:0:0:0:
284,332,121390,1,8,0:0:0:0:
284,332,121469,6,0,B|334:310|371:348|371:348|389:391|453:383,1,180,4|2,1:2|0:0,0:0:0:0:
512,319,121942,1,10,0:0:0:0:
391,195,122100,1,2,0:0:0:0:
467,126,122258,2,0,P|489:129|511:134,2,45,2|2|2,1:2|0:0|0:0,0:0:0:0:
375,13,122574,2,0,P|331:20|287:28,1,90,10|2,0:0|0:0,0:0:0:0:
89,118,122890,6,0,P|146:126|230:140,1,135,2|0,1:2|0:0,0:0:0:0:
232,147,123206,1,10,0:0:0:0:
121,29,123364,1,2,0:0:0:0:
318,130,123521,5,2,1:2:0:0:
171,225,123679,1,2,0:0:0:0:
318,130,123837,2,0,B|349:126|383:136|383:136|350:111|305:115,1,107.999996704102,14|2,0:0|0:0,0:0:0:0:
115,21,124153,6,0,P|72:29|44:62,1,90,12|2,0:0|0:0,0:0:0:0:
179,231,124469,1,10,0:0:0:0:
121,111,124627,1,2,0:0:0:0:
111,120,124706,1,2,0:0:0:0:
108,133,124785,1,8,0:0:0:0:
48,317,124942,6,0,P|92:309|136:301,1,90,2|8,0:0|0:0,0:0:0:0:
270,166,125258,2,0,L|257:222,1,45,2|8,0:0|0:0,0:0:0:0:
330,378,125416,2,0,P|372:357|366:287,1,90,8|0,0:0|1:2,0:0:0:0:
464,181,125732,5,8,0:0:0:0:
456,175,125811,1,8,1:3:0:0:
449,168,125890,2,0,L|439:106,1,45,8|8,1:3|1:3,0:0:0:0:
318,0,126048,5,8,1:3:0:0:
326,6,126127,1,8,1:3:0:0:
333,13,126206,2,0,L|343:75,1,45,8|8,1:3|1:3,0:0:0:0:
263,171,126364,5,10,1:3:0:0:
211,185,126442,1,10,1:3:0:0:
162,166,126521,1,10,1:3:0:0:
134,120,126600,1,10,1:3:0:0:
140,68,126679,5,6,1:2:0:0:
450,254,130942,5,8,1:3:0:0:
452,263,131021,1,8,1:3:0:0:
454,274,131100,1,8,1:3:0:0:
374,372,131258,1,0,1:2:0:0:
433,170,131416,2,0,L|450:258,1,74.2500022659302,8|0,0:0|0:0,0:0:0:0:
512,274,131732,6,0,B|412:264|456:332|345:318,1,165.599994440918,14|2,0:0|1:2,0:0:0:0:
359,319,132206,1,0,0:0:0:0:
213,189,132364,2,0,P|261:179|307:169,1,82.7999972204591,2|0,1:2|0:0,0:0:0:0:
213,271,132679,1,2,1:2:0:0:
85,156,132837,1,0,1:2:0:0:
85,156,132916,1,8,0:0:0:0:
85,156,132995,6,0,P|64:202|71:235,1,82.7999972204591,10|2,0:0|0:0,0:0:0:0:
188,98,133311,2,0,P|209:52|202:19,1,82.7999972204591,10|2,0:0|1:2,0:0:0:0:
203,21,133548,1,8,0:0:0:0:
203,21,133627,1,8,0:0:0:0:
83,59,133785,5,2,0:0:0:0:
173,194,133942,1,6,1:2:0:0:
69,341,134100,2,0,L|60:301,1,41.3999986102295,10|8,0:0|0:0,0:0:0:0:
25,198,134258,6,0,P|63:267|157:260,1,174.600004129486,6|2,1:2|1:2,0:0:0:0:
218,373,134732,1,2,0:0:0:0:
406,295,134890,6,0,P|383:253|288:257,1,130.950003097115,2|0,1:2|0:0,0:0:0:0:
242,281,135206,1,2,1:2:0:0:
242,281,135364,1,2,1:2:0:0:
340,383,135521,5,2,1:2:0:0:
512,307,135679,1,10,0:0:0:0:
446,161,135837,5,10,0:0:0:0:
396,301,135995,1,10,0:0:0:0:
512,220,136153,5,2,1:2:0:0:
359,153,136311,1,2,1:2:0:0:
508,57,136469,5,10,1:3:0:0:
508,57,136627,1,10,1:3:0:0:
368,6,136785,6,0,P|317:14|223:28,2,135.000005149842,6|0|2,1:2|0:0|0:0,0:0:0:0:
512,137,137732,2,0,P|475:130|430:123,1,67.5000025749208
340,223,138048,5,2,0:0:0:0:
319,151,138206,1,0,0:0:0:0:
234,26,138364,5,0,0:0:0:0:
213,98,138522,1,0,0:0:0:0:
328,34,138679,1,2,0:0:0:0:
218,213,138995,1,2,0:0:0:0:
64,367,139311,6,0,P|98:311|163:305,1,135.000005149842,2|2,0:0|0:0,0:0:0:0:
22,153,139942,2,0,P|58:159|103:166,1,67.5000025749208,2|2,0:0|0:0,0:0:0:0:
251,14,140258,6,0,P|212:35|170:41,1,76.5000014591217,2|0,0:0|0:0,0:0:0:0:
324,227,140574,2,0,P|291:209|254:201,1,76.5000014591217,0|0,0:0|1:2,0:0:0:0:
392,0,140890,2,0,P|384:46|378:96,1,87.749995983124,8|0,1:3|0:0,0:0:0:0:
300,106,141206,6,0,B|400:86|362:163|472:138,2,170.999995433807,6|2|2,1:2|1:2|1:2,0:0:0:0:
174,248,142153,1,2,1:2:0:0:
256,193,142311,1,0,0:0:0:0:
131,96,142469,1,2,1:2:0:0:
127,112,142627,1,0,0:0:0:0:
96,223,142784,1,2,1:2:0:0:
93,239,142942,1,0,0:0:0:0:
0,377,143100,6,0,P|31:344|94:346,1,85.4999977169037,2|0,1:2|0:0,0:0:0:0:
174,248,143416,2,0,P|205:281|268:279,1,85.4999977169037,2|0,1:2|0:0,0:0:0:0:
353,384,143732,2,0,P|361:322|373:226,1,128.249996575356,2|0,1:2|0:0,0:0:0:0:
454,248,144048,6,0,P|395:230|378:171,1,128.249996575356,2|0,1:2|0:0,0:0:0:0:
393,158,144363,5,8,0:0:0:0:
512,0,144521,1,0,1:2:0:0:
512,0,144600,1,8,0:0:0:0:
512,0,144679,2,0,P|500:43|491:87,1,90,8|0,0:0|1:2,0:0:0:0:
473,161,144916,5,0,1:2:0:0:
473,161,144995,1,8,0:0:0:0:
456,119,145073,1,0,1:2:0:0:
420,91,145152,1,0,1:2:0:0:
374,91,145232,1,0,1:2:0:0:
335,115,145311,1,8,1:3:0:0:
295,135,145389,1,8,1:3:0:0:
250,133,145468,1,8,1:3:0:0:
212,106,145547,1,8,1:3:0:0:
202,52,145627,6,0,P|274:37|323:11,1,107.999996704102,6|0,1:2|0:0,0:0:0:0:
85,190,145942,2,0,P|161:200|188:273,1,161.999995056153,10|2,0:0|0:0,0:0:0:0:
133,322,146258,1,2,1:2:0:0:
18,147,146416,1,2,1:2:0:0:
198,279,146574,2,0,B|244:268|244:268|251:260|251:260|308:249,1,99.0000030212403,10|0,0:0|0:0,0:0:0:0:
408,93,146890,5,2,1:2:0:0:
363,193,147048,1,2,1:2:0:0:
509,134,147205,1,10,0:0:0:0:
336,27,147363,1,2,1:2:0:0:
414,102,147521,2,0,B|403:148|403:148|395:155|395:155|384:212,1,99.0000030212403,10|2,0:0|0:0,0:0:0:0:
478,384,147837,6,0,P|476:326|374:290,1,161.999995056153,6|0,1:2|0:0,0:0:0:0:
325,245,148152,2,0,P|285:290|230:289,1,99.0000030212403,8|0,0:0|0:0,0:0:0:0:
82,373,148468,5,2,1:2:0:0:
157,225,148626,1,2,1:2:0:0:
172,332,148784,5,8,0:0:0:0:
92,169,148942,1,2,0:0:0:0:
16,252,149100,5,2,1:2:0:0:
51,279,149178,1,0,0:0:0:0:
95,283,149257,1,2,0:0:0:0:
134,262,149337,1,2,0:0:0:0:
157,225,149415,1,2,1:2:0:0:
172,183,149494,1,0,0:0:0:0:
208,157,149572,1,2,1:2:0:0:
252,155,149651,1,10,0:0:0:0:
290,177,149731,6,0,P|284:211|280:242,1,45,10|10,0:0|0:0,0:0:0:0:
382,366,149889,2,0,P|388:332|392:301,1,45,10|10,0:0|0:0,0:0:0:0:
497,189,150047,6,0,P|425:157|438:61,1,148.50000453186,6|0,1:2|0:0,0:0:0:0:
462,37,150362,6,0,P|480:55|489:78,2,49.5000015106202,8|0|2,0:0|0:0|0:0,0:0:0:0:
267,84,150678,2,0,P|282:100|307:109,1,49.5000015106202,2|0,1:2|0:0,0:0:0:0:
321,105,150836,1,0,1:2:0:0:
271,0,150994,6,0,B|188:3|213:52|126:48,1,148.50000453186,10|0,0:0|0:0,0:0:0:0:
74,94,151310,1,2,1:2:0:0:
14,0,151468,1,2,1:2:0:0:
191,122,151625,1,10,0:0:0:0:
191,122,151704,1,2,0:0:0:0:
191,122,151783,2,0,L|180:171,1,49.5000015106202,2|2,1:2|0:0,0:0:0:0:
50,332,151941,5,10,0:0:0:0:
61,284,152019,1,2,0:0:0:0:
97,250,152098,1,2,0:0:0:0:
145,241,152177,1,2,0:0:0:0:
190,258,152257,6,0,L|205:315,1,45,10|0,0:0|0:0,0:0:0:0:
303,384,152415,2,0,L|317:327,1,45,10|0,0:0|0:0,0:0:0:0:
442,208,152573,5,2,1:2:0:0:
442,208,152652,1,10,1:3:0:0:
442,208,152731,2,0,L|375:221,1,45,10|10,0:0|1:2,0:0:0:0:
295,157,152889,5,10,0:0:0:0:
298,144,152968,1,10,1:3:0:0:
301,131,153047,2,0,L|319:57,1,45,10|10,1:3|1:3,0:0:0:0:
372,3,153204,5,10,0:0:0:0:
415,8,153291,1,10,1:3:0:0:
444,41,153378,1,10,1:3:0:0:
444,85,153465,1,10,1:3:0:0:
415,117,153531,5,10,0:0:0:0:
219,23,153689,1,10,0:0:0:0:
209,233,153848,1,10,0:0:0:0:
322,81,154007,5,6,1:2:0:0:
256,192,154085,12,0,155263,0:0:0:0:
35,371,155420,6,0,P|79:347|171:340,1,116.999994644165,6|0,1:2|1:2,0:0:0:0:
197,248,155893,1,2,0:0:0:0:
334,277,156051,2,0,P|276:269|224:242,1,116.999994644165,2|0,1:2|1:2,0:0:0:0:
334,369,156525,5,2,0:0:0:0:
334,368,156683,2,0,P|359:353|388:348,1,58.4999973220826,2|0,1:2|0:0,0:0:0:0:
478,284,156998,2,0,P|449:278|423:264,1,58.4999973220826,2|0,1:2|0:0,0:0:0:0:
397,131,157314,2,0,P|391:159|377:185,1,58.4999973220826,2|0,1:2|0:0,0:0:0:0:
471,98,157630,1,2,1:2:0:0:
311,235,157946,6,0,P|257:215|259:142,1,116.999994644165,6|0,1:2|1:2,0:0:0:0:
291,75,158420,1,2,0:0:0:0:
222,3,158577,2,0,P|202:57|129:55,1,116.999994644165,2|0,1:2|1:2,0:0:0:0:
22,212,159051,5,2,0:0:0:0:
93,143,159209,2,0,P|132:152|175:157,1,64.8000015820313,2|0,1:2|0:0,0:0:0:0:
223,268,159525,2,0,P|262:259|305:254,1,64.8000015820313,2|0,1:2|0:0,0:0:0:0:
447,149,159841,5,2,1:2:0:0:
329,66,159998,1,0,1:2:0:0:
481,40,160156,2,0,P|470:111|463:165,1,97.2000023730469,10|0,0:0|0:0,0:0:0:0:
476,241,160472,6,0,B|496:216|532:216|532:216|424:200|468:267|355:257,1,226.799993078613,6|2,1:2|1:2,0:0:0:0:
316,360,161104,2,0,B|231:370|258:313|174:326,1,151.199995385742,10|0,0:0|0:0,0:0:0:0:
86,193,161577,5,2,0:0:0:0:
206,246,161735,1,2,1:2:0:0:
70,369,161893,2,0,P|77:309|79:288,1,75.5999976928712,8|2,0:0|1:2,0:0:0:0:
190,161,162209,1,0,1:0:0:0:
190,161,162288,1,8,0:0:0:0:
190,161,162367,5,10,0:0:0:0:
66,92,162525,1,8,1:3:0:0:
18,161,162683,5,10,0:0:0:0:
184,81,162841,1,0,0:0:0:0:
11,0,162998,6,0,L|-2:57,1,49.5000015106202,6|0,1:2|0:0,0:0:0:0:
77,43,163314,2,0,L|64:100,1,49.5000015106202,0|2,1:2|0:0,0:0:0:0:
137,280,163630,6,0,L|123:217,1,58.4999973220826,2|0,1:2|0:0,0:0:0:0:
202,218,163946,2,0,L|188:155,1,58.4999973220826,0|0,1:2|0:0,0:0:0:0:
340,0,164262,5,2,1:2:0:0:
284,116,164420,1,0,1:2:0:0:
350,162,164577,5,2,1:2:0:0:
263,42,164735,1,0,1:2:0:0:
432,137,164893,5,10,0:0:0:0:
281,227,165051,1,8,0:0:0:0:
284,116,165209,5,10,0:0:0:0:
451,229,165367,1,8,0:0:0:0:
283,306,165525,5,2,0:0:0:0:
413,349,166314,5,2,0:0:0:0:
359,297,166472,1,2,0:0:0:0:
289,311,166630,1,2,0:0:0:0:
289,311,166946,5,2,0:0:0:0:
225,349,167104,1,2,0:0:0:0:
158,329,167262,1,2,0:0:0:0:
158,329,167577,5,2,0:0:0:0:
59,212,167735,1,8,0:0:0:0:
63,196,167814,1,8,1:3:0:0:
67,180,167893,1,8,1:3:0:0:
72,164,167972,1,8,1:3:0:0:
77,145,168051,5,14,0:0:0:0:
143,259,168209,1,2,1:2:0:0:
0,260,168367,1,2,1:2:0:0:
172,108,168525,2,0,B|215:115|215:115|226:124|226:124|267:131,1,99.0000030212403,14|0,0:0|0:0,0:0:0:0:
361,248,168841,6,0,L|351:186,1,49.5000015106202,10|0,0:0|1:2,0:0:0:0:
409,30,168998,1,8,0:0:0:0:
457,28,169076,1,8,0:0:0:0:
493,61,169155,1,8,0:0:0:0:
496,109,169235,1,8,0:0:0:0:
464,146,169313,5,6,1:2:0:0:
303,0,169472,2,0,L|293:62,1,49.5000015106202,10|8,0:0|0:0,0:0:0:0:
184,195,169630,1,10,0:0:0:0:
184,195,169709,1,8,0:0:0:0:
184,194,169788,6,0,P|114:182|91:115,1,148.50000453186,14|2,0:0|0:0,0:0:0:0:
105,105,170104,5,10,0:0:0:0:
221,266,170262,1,10,0:0:0:0:
379,113,170420,6,0,B|336:120|336:120|325:129|325:129|284:136,1,99.0000030212403,6|0,1:2|0:0,0:0:0:0:
120,268,170735,1,10,0:0:0:0:
203,80,170893,1,10,0:0:0:0:
336,233,171051,6,0,B|377:226|377:226|388:217|388:217|431:210,1,99.0000030212403,6|0,1:2|0:0,0:0:0:0:
324,384,171367,2,0,L|305:327,1,49.5000015106202,10|10,0:0|0:0,0:0:0:0:
236,219,171525,2,0,L|217:276,1,49.5000015106202,10|10,0:0|0:0,0:0:0:0:
34,340,171683,6,0,B|77:320|113:350|113:350|149:382|216:360,1,168.75,6|0,1:2|0:0,0:0:0:0:
205,371,172018,5,0,1:2:0:0:
346,225,172190,1,10,0:0:0:0:
420,384,172340,5,10,0:0:0:0:
230,212,172490,1,10,0:0:0:0:
512,0,173149,6,0,P|466:26|456:78,1,107.999996704102,6|0,1:2|0:0,0:0:0:0:
455,76,173646,1,2,0:0:0:0:
489,170,173811,2,0,P|465:132|379:132,1,125.999996154785,2|0,0:0|0:0,0:0:0:0:
279,25,174266,5,2,0:0:0:0:
279,25,174430,2,0,P|319:55|353:55,1,58.4999973220826,2|0,0:0|0:0,0:0:0:0:
389,125,174739,1,2,0:0:0:0:
329,277,174903,2,0,P|307:228|335:181,1,113.399996539307,2|2,0:0|0:0,0:0:0:0:
500,384,175542,6,0,P|451:359|399:350,1,107.999996704102,2|0,0:0|0:0,0:0:0:0:
329,277,176098,1,2,0:0:0:0:
329,277,176262,2,0,P|276:303|213:307,1,107.999996704102,2|0,0:0|0:0,0:0:0:0:
121,384,176736,5,2,0:0:0:0:
59,303,176900,2,0,B|70:250|70:250|81:240|81:240|92:184,1,116.999994644165,2|2,0:0|0:0,0:0:0:0:
87,115,177395,1,2,0:0:0:0:
87,115,177680,2,0,P|111:158|193:152,1,116.999994644165,2|2,0:0|0:0,0:0:0:0:
457,252,178474,5,2,0:0:0:0:
320,107,178789,1,2,0:0:0:0:
244,291,179105,1,2,0:0:0:0:
448,89,179421,5,2,0:0:0:0:
353,302,179736,1,2,0:0:0:0:
190,132,180052,1,2,0:0:0:0:
139,227,180368,5,2,0:0:0:0:
283,97,180526,2,0,L|352:109,2,58.4999973220826,2|0|2,0:0|0:0|0:0,0:0:0:0:
202,13,180999,6,0,L|136:25,1,58.4999973220826,2|0,0:0|0:0,0:0:0:0:
14,163,181315,1,0,0:0:0:0:
80,126,181473,1,0,0:0:0:0:
146,162,181631,1,0,0:0:0:0:
225,269,181789,5,0,0:0:0:0:
236,271,181868,1,0,0:0:0:0:
246,265,181947,2,0,P|268:227|265:200,1,58.4999973220826
294,54,182263,2,0,P|318:70|330:96,1,58.4999973220826
447,225,182578,5,0,0:0:0:0:
348,177,182736,1,2,0:0:0:0:
447,225,182894,2,0,P|466:203|470:175,1,58.4999973220826,2|0,0:0|0:0,0:0:0:0:
329,273,183210,6,0,P|393:285|412:353,1,147.600002252197,6|0,1:2|1:2,0:0:0:0:
329,273,183684,1,2,0:0:0:0:
181,128,183842,2,0,P|199:195|268:211,1,147.600002252197,2|0,1:2|1:2,0:0:0:0:
163,375,184315,5,2,0:0:0:0:
235,331,184473,2,0,P|279:337|319:349,2,73.8000011260987,2|0|2,1:2|0:0|1:2,0:0:0:0:
152,253,184947,2,0,P|116:263|80:268,1,73.8000011260987,2|0,0:0|1:2,0:0:0:0:
0,124,185263,2,0,P|35:133|72:139,1,73.8000011260987,2|0,0:0|1:2,0:0:0:0:
268,0,185578,5,2,0:0:0:0:
268,0,185657,1,8,0:0:0:0:
268,0,185736,2,0,B|178:8|224:55|121:57,1,147.600002252197,8|0,0:0|1:2,0:0:0:0:
82,151,186210,1,2,0:0:0:0:
82,151,186368,2,0,B|171:159|125:206|228:208,1,147.600002252197,2|0,1:2|1:2,0:0:0:0:
328,317,186842,5,2,0:0:0:0:
341,312,186921,1,8,0:0:0:0:
353,304,186999,2,0,P|346:267|339:230,1,73.8000011260987,10|0,0:0|0:0,0:0:0:0:
403,120,187315,1,2,1:2:0:0:
441,33,187472,2,0,P|434:69|427:107,1,73.8000011260987,2|8,0:0|0:0,0:0:0:0:
469,200,187789,5,10,0:0:0:0:
313,65,187947,1,10,0:0:0:0:
512,0,188105,1,2,1:2:0:0:
256,192,189526,12,0,191578,0:0:0:0:
164,370,191736,5,0,0:0:0:0:
106,210,191894,1,0,0:0:0:0:
54,306,192052,1,6,1:2:0:0:
206,217,192210,5,0,1:2:0:0:
206,217,192289,1,0,1:2:0:0:
206,217,192368,2,0,L|189:156,1,47.7000000727844,8|8,0:0|0:0,0:0:0:0:
103,63,192526,1,2,1:2:0:0:
209,0,192684,1,2,1:2:0:0:
227,4,192763,1,0,1:2:0:0:
245,7,192842,1,8,0:0:0:0:
263,10,192921,1,8,0:0:0:0:
281,14,192999,6,0,L|336:23,1,47.7000000727844,4|0,1:2|1:2,0:0:0:0:
453,147,193157,1,10,0:0:0:0:
453,147,193236,1,8,0:0:0:0:
453,147,193315,5,2,1:2:0:0:
410,127,193393,1,0,1:2:0:0:
364,137,193472,1,0,1:2:0:0:
333,172,193551,1,8,0:0:0:0:
329,218,193631,6,0,P|343:246|356:280,1,47.7000000727844,10|0,0:0|1:2,0:0:0:0:
274,368,193789,1,2,1:2:0:0:
291,375,193868,1,0,1:2:0:0:
307,384,193947,2,0,L|362:375,1,47.7000000727844,8|10,0:0|0:0,0:0:0:0:
510,219,194105,1,2,1:2:0:0:
493,226,194184,1,2,1:2:0:0:
477,235,194263,6,0,L|422:226,1,47.7000000727844,10|10,1:3|1:3,0:0:0:0:
294,101,194421,2,0,L|223:113,1,47.7000000727844,10|10,1:3|1:3,0:0:0:0:
131,225,194578,6,0,P|57:215|38:142,1,157.950000602531,6|0,1:2|0:0,0:0:0:0:
52,132,194894,1,12,0:0:0:0:
184,290,195052,1,2,0:0:0:0:
302,94,195210,2,0,P|249:101|197:109,1,105.300000401688,2|0,1:2|1:2,0:0:0:0:
271,201,195526,5,8,0:0:0:0:
372,25,195684,1,2,0:0:0:0:
484,181,195842,2,0,P|432:173|380:164,1,105.300000401688,2|0,1:2|1:2,0:0:0:0:
212,317,196157,5,10,0:0:0:0:
142,245,196315,2,0,P|121:188|146:142,1,105.300000401688,2|0,0:0|1:2,0:0:0:0:
270,5,196631,2,0,P|291:62|266:108,1,105.300000401688,2|8,1:2|0:0,0:0:0:0:
441,290,196947,1,2,0:0:0:0:
441,290,197026,1,2,0:0:0:0:
441,290,197105,6,0,B|396:271|349:303|367:316|334:343|269:323,1,157.950000602531,4|0,1:2|0:0,0:0:0:0:
275,336,197421,5,10,0:0:0:0:
183,192,197578,1,0,0:0:0:0:
258,237,197736,5,2,1:2:0:0:
164,384,197894,1,0,1:2:0:0:
38,135,198052,5,10,0:0:0:0:
108,262,198210,1,0,0:0:0:0:
143,32,198368,6,0,P|89:27|43:5,1,105.300000401688,2|0,1:2|1:2,0:0:0:0:
189,199,198684,2,0,P|235:172|289:162,1,105.300000401688,10|0,0:0|0:0,0:0:0:0:
407,15,198999,5,2,1:2:0:0:
277,0,199157,1,2,1:2:0:0:
457,128,199315,1,10,0:0:0:0:
300,278,199473,6,0,B|272:207|313:168|321:193|365:141|333:72,1,210.600000803375,6|2,1:2|1:2,0:0:0:0:
231,107,199947,1,10,0:0:0:0:
391,257,200105,1,2,1:2:0:0:
107,231,200263,5,10,0:0:0:0:
285,162,200421,1,2,1:2:0:0:
299,366,200578,1,8,0:0:0:0:
299,366,200657,1,8,0:0:0:0:
299,366,200736,6,0,P|236:360|227:254,1,157.950000602531,6|0,1:2|0:0,0:0:0:0:
224,268,201052,1,2,1:2:0:0:
365,122,201210,2,0,P|411:149|465:159,1,105.300000401688,10|0,0:0|1:2,0:0:0:0:
394,285,201526,6,0,P|379:254|375:222,1,52.6500002008438,8|0,0:0|1:2,0:0:0:0:
282,48,201684,2,0,P|275:73|263:96,1,52.6500002008438,0|0,1:2|1:2,0:0:0:0:
157,192,201842,5,10,0:0:0:0:
106,197,201920,1,10,0:0:0:0:
61,171,201999,1,10,0:0:0:0:
40,124,202078,1,10,0:0:0:0:
60,69,202157,6,0,B|131:41|170:82|145:90|197:134|266:102,1,210.600000803375,6|12,1:2|0:0,0:0:0:0:
385,242,202631,1,2,0:0:0:0:
506,49,202789,2,0,P|454:57|401:65,1,105.300000401688,2|0,1:2|1:2,0:0:0:0:
210,286,203105,5,8,0:0:0:0:
335,155,203263,1,2,0:0:0:0:
450,373,203421,2,0,P|398:364|345:356,1,105.300000401688,2|0,1:2|1:2,0:0:0:0:
207,168,203736,5,10,0:0:0:0:
78,205,203894,2,0,P|129:196|182:188,1,105.300000401688,2|0,0:0|1:2,0:0:0:0:
373,45,204210,2,0,P|321:36|268:28,1,105.300000401688,2|14,1:2|0:0,0:0:0:0:
81,115,204526,5,2,0:0:0:0:
81,115,204605,1,2,0:0:0:0:
81,115,204684,5,2,1:2:0:0:
160,9,204842,1,2,1:2:0:0:
250,241,204999,1,14,0:0:0:0:
293,122,205157,5,2,0:0:0:0:
144,270,205315,2,0,P|155:321|165:380,1,105.300000401688,0|2,1:2|1:2,0:0:0:0:
261,239,205631,1,14,0:0:0:0:
68,110,205789,1,2,0:0:0:0:
168,6,205947,2,0,P|233:15|294:22,1,105.300000401688,2|0,1:2|1:2,0:0:0:0:
452,191,206263,5,10,0:0:0:0:
348,134,206421,2,0,P|353:78|410:44,1,105.300000401688,2|0,0:0|1:2,0:0:0:0:
512,278,206736,2,0,P|447:266|386:257,1,105.300000401688,2|8,1:2|0:0,0:0:0:0:
269,357,207052,5,2,0:0:0:0:
269,357,207131,1,2,0:0:0:0:
269,357,207210,5,6,1:2:0:0:
194,204,207368,1,2,0:0:0:0:
264,157,207526,5,10,0:0:0:0:
193,311,207684,1,2,0:0:0:0:
340,172,207842,2,0,P|335:116|278:82,1,105.300000401688,2|0,1:2|1:0,0:0:0:0:
98,33,208157,6,0,P|113:106|124:158,1,105.300000401688,10|2,0:0|0:0,0:0:0:0:
30,107,208473,1,2,1:2:0:0:
177,2,208631,1,2,1:2:0:0:
84,24,208789,5,10,0:0:0:0:
176,220,208947,1,2,0:0:0:0:
176,220,209026,1,2,0:0:0:0:
176,220,209105,2,0,L|239:204,1,52.6500002008438,0|0,1:2|0:0,0:0:0:0:
374,267,209263,5,0,1:0:0:0:
388,316,209341,1,8,0:0:0:0:
365,362,209420,1,8,0:0:0:0:
316,379,209499,1,8,0:0:0:0:
269,358,209578,6,0,P|226:315|127:359,1,157.950000602531,6|0,1:2|0:0,0:0:0:0:
131,350,209894,1,0,1:2:0:0:
9,187,210052,6,0,P|36:142|45:90,1,105.300000401688,10|0,0:0|0:0,0:0:0:0:
167,0,210368,2,0,P|176:51|203:96,1,105.300000401688,2|0,1:2|1:2,0:0:0:0:
84,249,210684,6,0,P|120:183|196:181,1,157.950000602531,10|0,0:0|0:0,0:0:0:0:
263,222,210999,1,2,1:2:0:0:
263,222,211157,1,0,1:2:0:0:
366,382,211315,2,0,P|414:362|466:355,1,105.300000401688,10|0,0:0|0:0,0:0:0:0:
511,210,211631,6,0,P|459:202|411:181,1,105.300000401688,2|0,1:2|1:2,0:0:0:0:
365,119,211868,1,8,0:0:0:0:
357,107,211947,6,0,P|368:60|415:48,1,101.250003862381,10|0,0:0|0:0,0:0:0:0:
494,0,212263,6,0,P|460:60|435:154,1,161.999995056153,14|0,0:0|0:0,0:0:0:0:
425,159,212578,5,8,0:0:0:0:
257,87,212736,1,0,0:0:0:0:
48,202,212894,5,8,0:0:0:0:
211,156,213052,1,0,1:2:0:0:
114,109,213210,5,10,0:0:0:0:
54,291,213368,1,0,1:2:0:0:
193,248,213526,5,10,0:0:0:0:
3,118,213684,1,0,0:0:0:0:
41,208,213842,5,10,0:0:0:0:
220,148,213999,1,0,0:0:0:0:
462,287,214157,5,10,0:0:0:0:
296,234,214314,1,0,1:2:0:0:
68,372,214473,5,10,0:0:0:0:
227,311,214630,1,0,1:2:0:0:
191,384,214789,6,0,P|152:347|148:294,1,107.999996704102,10|0,0:0|0:0,0:0:0:0:
255,24,215105,2,0,P|293:60|297:113,1,107.999996704102,10|0,0:0|0:0,0:0:0:0:
397,211,215421,5,10,0:0:0:0:
220,96,215578,1,0,1:2:0:0:
407,24,215736,1,10,0:0:0:0:
288,234,215894,6,0,B|225:225|225:225|201:199|201:199|139:191,1,161.999995056153,6|0,1:2|0:0,0:0:0:0:
87,137,216210,1,2,1:2:0:0:
218,314,216368,1,10,0:0:0:0:
336,117,216526,1,2,0:0:0:0:
428,284,216684,5,0,1:2:0:0:
428,284,216763,1,0,1:2:0:0:
428,284,216842,2,0,P|391:276|362:270,1,53.9999983520508,8|8,0:0|0:0,0:0:0:0:
243,143,216999,1,8,0:0:0:0:
243,143,217078,1,8,1:3:0:0:
243,143,217157,2,0,P|250:180|255:210,1,53.9999983520508,8|8,1:3|1:3,0:0:0:0:
184,381,217316,5,10,0:0:0:0:
181,333,217394,1,10,0:0:0:0:
157,290,217473,1,10,0:0:0:0:
109,280,217552,1,10,0:0:0:0:
63,298,217631,5,10,0:0:0:0:
273,194,217789,5,2,1:2:0:0:
295,188,218105,5,2,1:2:0:0:
44,306,218421,5,12,0:0:0:0:
7,78,218736,5,2,1:2:0:0:
7,78,218815,1,0,0:0:0:0:
7,78,218894,2,0,B|55:86|55:86|70:102|70:102|122:111,1,107.999996704102,8|2,0:0|1:2,0:0:0:0:
174,208,219131,5,0,0:0:0:0:
183,194,219210,2,0,B|231:186|231:186|246:170|246:170|298:161,1,107.999996704102,8|2,0:0|0:0,0:0:0:0:
399,0,219526,5,8,0:0:0:0:
395,16,219605,1,8,0:0:0:0:
391,32,219684,1,8,0:0:0:0:
388,47,219763,1,8,0:0:0:0:
383,62,219842,6,0,P|402:131|488:139,1,161.999995056153,6|0,1:2|0:0,0:0:0:0:
493,130,220157,5,8,0:0:0:0:
345,206,220315,1,0,1:2:0:0:
172,48,220473,5,10,0:0:0:0:
306,128,220631,1,0,1:2:0:0:
123,129,220789,5,8,0:0:0:0:
259,49,220947,1,0,1:2:0:0:
250,293,221105,6,0,P|211:255|202:203,1,107.999996704102,10|0,0:0|1:2,0:0:0:0:
75,49,221421,2,0,P|38:87|30:139,1,107.999996704102,8|0,0:0|1:2,0:0:0:0:
0,336,221736,5,10,0:0:0:0:
123,220,221894,1,0,1:2:0:0:
174,384,222052,1,8,0:0:0:0:
116,212,222210,6,0,L|142:151,1,53.9999983520508,2|0,0:0|0:0,0:0:0:0:
250,34,222368,5,10,0:0:0:0:
250,34,222447,1,8,1:3:0:0:
250,34,222526,2,0,L|265:99,1,53.9999983520508,8|8,1:3|1:3,0:0:0:0:
334,155,222684,2,0,L|313:223,1,53.9999983520508,8|8,1:3|1:3,0:0:0:0:
245,384,222842,5,10,0:0:0:0:
248,341,222920,1,8,1:3:0:0:
272,306,222999,1,8,1:3:0:0:
310,286,223078,1,8,1:3:0:0:
353,287,223157,2,0,L|368:345,1,53.9999983520508,8|8,1:3|1:3,0:0:0:0:
511,238,223315,5,10,0:0:0:0:
495,234,223394,1,10,0:0:0:0:
479,230,223473,1,10,0:0:0:0:
463,227,223552,1,10,0:0:0:0:
445,221,223631,6,0,B|331:194|320:54|372:-6|464:-5|498:48|489:113|430:126,1,396.000012084961,10|6,0:0|1:2,0:0:0:0:
17,383,227263,5,2,0:0:0:0:
57,285,227421,1,0,1:2:0:0:
505,7,229947,6,0,L|438:19,1,67.5000025749208,2|0,1:2|0:0,0:0:0:0:
331,151,230263,2,0,L|346:85,1,67.5000025749208,2|0,1:2|0:0,0:0:0:0:
414,259,230578,6,0,L|323:237,1,67.5000025749208,2|0,1:2|0:0,0:0:0:0:
232,85,230894,2,0,L|254:176,1,67.5000025749208,2|0,1:2|0:0,0:0:0:0:
77,384,231210,6,0,L|92:318,1,67.5000025749208,2|0,1:2|0:0,0:0:0:0:
215,226,231526,1,2,1:2:0:0:
215,226,231684,1,0,0:0:0:0:
86,141,231842,2,0,L|20:155,1,67.5000025749208,2|0,1:2|0:0,0:0:0:0:
163,4,232157,2,0,L|262:24,1,101.250003862381,2|8,1:2|0:0,0:0:0:0:
274,34,232473,5,10,0:0:0:0:
256,192,232552,12,10,234368,0:0:0:0:
508,268,234999,6,0,B|419:264|466:317|354:311,1,141.749995674133,4|0,1:2|0:0,0:0:0:0:
319,359,235315,2,0,P|368:367|424:386,1,94.499997116089,10|0,0:0|0:0,0:0:0:0:
377,112,235631,5,2,1:2:0:0:
292,264,235789,1,2,0:0:0:0:
205,177,235947,1,8,0:0:0:0:
140,346,236105,1,2,0:0:0:0:
140,346,236184,1,2,0:0:0:0:
140,346,236263,6,0,P|77:343|55:282,1,94.499997116089,2|0,1:2|0:0,0:0:0:0:
13,96,236578,6,0,P|68:105|161:120,1,141.749995674133,10|0,0:0|0:0,0:0:0:0:
205,177,236894,5,2,1:2:0:0:
150,20,237052,1,0,0:0:0:0:
224,65,237210,5,8,0:0:0:0:
143,238,237368,1,0,0:0:0:0:
199,375,237526,6,0,P|256:364|308:356,1,94.499997116089,2|0,1:2|0:0,0:0:0:0:
411,212,237842,2,0,P|478:224|496:289,1,141.749995674133,10|0,0:0|0:0,0:0:0:0:
440,340,238157,5,2,1:2:0:0:
440,340,238315,1,0,0:0:0:0:
328,194,238473,2,0,P|332:170|337:147,1,47.2499985580445,10|0,0:0|0:0,0:0:0:0:
367,9,238631,6,0,P|403:85|501:75,1,164.699993214569,12|0,0:0|0:0,0:0:0:0:
487,83,238947,6,0,P|494:107|477:149,1,49.9500012194825,2|0,1:2|0:0,0:0:0:0:
512,243,239105,2,0,P|478:243|457:233,1,49.9500012194825,10|0,0:0|0:0,0:0:0:0:
362,322,239263,2,0,P|362:296|372:267,1,49.9500012194825,2|0,0:0|0:0,0:0:0:0:
331,136,239421,5,2,1:2:0:0:
286,115,239499,1,0,1:2:0:0:
238,126,239578,1,10,0:0:0:0:
208,164,239657,1,8,0:0:0:0:
207,213,239736,6,0,P|217:238|227:272,1,49.9500012194825,10|0,0:0|1:2,0:0:0:0:
83,370,239894,2,0,P|89:343|96:306,1,49.9500012194825,10|8,0:0|0:0,0:0:0:0:
33,236,240052,6,0,L|50:178,3,42.7499988584519,10|10|10|10,0:0|0:0|0:0|0:0,0:0:0:0:
101,45,240368,6,0,P|110:92|120:138,1,94.499997116089,6|0,1:2|0:0,0:0:0:0:
26,113,240684,1,2,1:2:0:0:
183,12,240842,1,2,0:0:0:0:
26,113,240999,1,2,1:2:0:0:
205,219,241157,1,14,0:0:0:0:
205,219,241236,1,2,0:0:0:0:
205,219,241315,6,0,P|214:172|225:126,1,94.499997116089,0|2,1:2|0:0,0:0:0:0:
60,275,241631,2,0,B|117:285|117:285|137:310|137:310|187:320,1,141.749995674133,10|0,0:0|0:0,0:0:0:0:
248,367,241947,5,2,1:2:0:0:
363,259,242105,2,0,L|352:198,1,47.2499985580445,2|10,1:2|0:0,0:0:0:0:
472,104,242263,1,10,0:0:0:0:
472,104,242342,1,2,1:2:0:0:
472,104,242421,2,0,L|461:165,1,47.2499985580445,2|0,1:2|1:0,0:0:0:0:
359,72,242578,5,14,0:0:0:0:
498,14,242736,1,0,1:2:0:0:
228,26,242894,5,10,0:0:0:0:
367,84,243052,1,0,1:2:0:0:
101,78,243210,5,10,0:0:0:0:
240,20,243368,1,2,1:2:0:0:
95,186,243526,5,10,0:0:0:0:
246,271,243684,2,0,P|207:190|118:192,1,188.999994232178,6|2,1:2|1:2,0:0:0:0:
72,368,244157,5,10,0:0:0:0:
72,368,244315,1,10,0:0:0:0:
141,296,244473,5,10,0:0:0:0:
67,126,244631,1,10,0:0:0:0:
130,184,244789,5,10,0:0:0:0:
61,283,244947,1,10,0:0:0:0:
