osu file format v14

[General]
AudioFilename: audio.mp3
AudioLeadIn: 0
PreviewTime: 62969
Countdown: 0
SampleSet: Soft
StackLeniency: 0.7
Mode: 0
LetterboxInBreaks: 0
WidescreenStoryboard: 1

[Editor]
DistanceSpacing: 0.3
BeatDivisor: 4
GridSize: 8
TimelineZoom: 2.799999

[Metadata]
Title:Rising Hope
TitleUnicode:Rising Hope
Artist:LiSA
ArtistUnicode:LiSA
Creator:Hinae
Version:Eternity
Source:魔法科高校の劣等生
Tags:Mahouka Koukou no Rettousei The irregular at Magic High School anime opening 1 full japanese rock jrock j-rock 織部里沙 Risa Oribe 司波深雪 Shiba Miyuki 司波達也 Shiba Tatsuya oniisama onii-sama onii sama Onegai Flame Haze
BeatmapID:3496916
BeatmapSetID:1711383

[Difficulty]
HPDrainRate:6
CircleSize:4.2
OverallDifficulty:9
ApproachRate:9.4
SliderMultiplier:1.8
SliderTickRate:1

[Events]
//Background and Video events
0,0,"cropped-1920-1080-551175.jpg",0,0
//Break Periods
2,8142,9771
2,10668,11824
2,126879,130153
2,137616,140192
2,225094,229157
//Storyboard Layer 0 (Background)
//Storyboard Layer 1 (Fail)
//Storyboard Layer 2 (Pass)
//Storyboard Layer 3 (Foreground)
//Storyboard Layer 4 (Overlay)
//Storyboard Sound Samples

[TimingPoints]
364,315.789473684211,4,2,1,30,1,0
364,-133.333333333333,4,2,1,30,0,0
2890,-133.333333333333,4,2,1,40,0,0
3995,-111.111111111111,4,2,1,50,0,0
5416,-100,4,2,1,50,0,0
12679,-76.9230769230769,4,2,1,50,0,0
12995,-100,4,2,1,70,0,0
14574,-83.3333333333333,4,2,1,70,0,0
14890,-100,4,2,1,70,0,0
18048,-117.647058823529,4,2,1,40,0,0
22785,-90.9090909090909,4,2,1,40,0,0
23100,-117.647058823529,4,2,1,45,0,0
24206,-117.647058823529,4,2,1,46,0,0
24521,-117.647058823529,4,2,1,47,0,0
24837,-117.647058823529,4,2,1,48,0,0
25153,-117.647058823529,4,2,1,49,0,0
25469,-117.647058823529,4,2,1,50,0,0
25785,-117.647058823529,4,2,1,51,0,0
26100,-117.647058823529,4,2,1,52,0,0
26416,-117.647058823529,4,2,1,53,0,0
27521,-117.647058823529,4,2,1,50,0,0
27995,-100,4,2,1,60,0,0
37627,-133.333333333333,4,2,1,45,0,0
38258,-100,4,2,1,60,0,0
39679,-83.3333333333333,4,2,1,60,0,0
40785,-71.4285714285714,4,2,1,60,0,0
41100,-100,4,2,1,60,0,0
41574,-83.3333333333333,4,2,1,60,0,0
45206,-66.6666666666667,4,2,1,60,0,0
45679,-58.8235294117647,4,2,1,60,0,0
45837,-100,4,2,1,60,0,0
48364,-133.333333333333,4,2,1,40,0,0
52785,-133.333333333333,4,2,1,60,0,0
53416,-100,4,2,1,50,0,0
55942,-117.647058823529,4,2,1,50,0,0
57206,-117.647058823529,4,2,1,60,0,0
57837,-117.647058823529,4,2,1,70,0,0
58469,-117.647058823529,4,2,1,30,0,0
59890,-117.647058823529,4,2,1,40,0,0
60521,-117.647058823529,4,2,1,50,0,0
60679,-117.647058823529,4,2,1,60,0,0
60995,-100,4,2,1,70,0,0
62100,-83.3333333333333,4,2,1,70,0,0
62653,-83.3333333333333,4,2,1,5,0,0
62732,-83.3333333333333,4,2,1,70,0,0
62811,-83.3333333333333,4,2,1,5,0,0
62890,-83.3333333333333,4,2,1,70,0,0
63521,-83.3333333333333,4,2,1,80,0,1
66048,-66.6666666666667,4,2,1,80,0,1
66521,-83.3333333333333,4,2,1,80,0,1
68890,-100,4,2,1,80,0,1
69206,-83.3333333333333,4,2,1,80,0,1
69521,-71.4285714285714,4,2,1,80,0,1
70942,-71.4285714285714,4,2,1,80,0,1
71416,-83.3333333333333,4,2,1,80,0,1
72206,-66.6666666666667,4,2,1,80,0,1
73627,-76.9230769230769,4,2,1,80,0,1
73942,-83.3333333333333,4,2,1,80,0,1
76153,-71.4285714285714,4,2,1,80,0,1
76627,-83.3333333333333,4,2,1,80,0,1
90048,-100,4,2,1,80,0,0
91311,-117.647058823529,4,2,1,50,0,0
95732,-100,4,2,1,50,0,0
96364,-83.3333333333333,4,2,1,70,0,0
96679,-100,4,2,1,70,0,0
97942,-83.3333333333333,4,2,1,70,0,0
98258,-100,4,2,1,70,0,0
102995,-83.3333333333333,4,2,1,70,0,0
103311,-100,4,2,1,70,0,0
105048,-83.3333333333333,4,2,1,70,0,0
105364,-100,4,2,1,70,0,0
106153,-71.4285714285714,4,2,1,70,0,0
106469,-117.647058823529,4,2,1,50,0,0
115311,-100,4,2,1,50,0,0
116416,-100,4,2,1,60,0,0
123837,-83.3333333333333,4,2,1,60,0,0
124153,-100,4,2,1,70,0,0
125100,-83.3333333333333,4,2,1,70,0,0
125416,-100,4,2,1,70,0,0
126758,-100,4,2,1,40,0,0
130942,-117.647058823529,4,2,1,50,0,0
131179,-117.647058823529,4,2,1,5,0,0
131258,-117.647058823529,4,2,1,50,0,0
131337,-117.647058823529,4,2,1,5,0,0
131416,-117.647058823529,4,2,1,50,0,0
131732,-117.647058823529,4,2,1,60,0,0
134258,-83.3333333333333,4,2,1,60,0,0
134890,-100,4,2,1,60,0,0
135521,-100,4,2,1,70,0,0
136153,-100,4,2,1,65,0,0
136469,-100,4,2,1,60,0,0
136785,-153.846153846154,4,2,1,60,0,0
137416,-153.846153846154,4,2,1,40,0,0
140732,-153.846153846154,4,2,1,50,0,0
141206,315.789473684211,4,2,1,50,1,0
141206,-117.647058823529,4,2,1,50,0,0
144363,-100,4,2,1,60,0,0
145627,315.789473684211,4,2,1,70,1,0
145627,-83.3333333333333,4,2,1,70,0,0
146100,-90.9090909090909,4,2,1,70,0,0
146337,-90.9090909090909,4,2,1,5,0,0
146416,-90.9090909090909,4,2,1,70,0,0
146495,-90.9090909090909,4,2,1,5,0,0
146574,-90.9090909090909,4,2,1,70,0,0
147600,-90.9090909090909,4,2,1,5,0,0
147679,-90.9090909090909,4,2,1,70,0,0
147837,315.789473684211,4,2,1,70,1,0
147837,-83.3333333333333,4,2,1,70,0,0
148468,-100,4,2,1,70,0,0
150047,315.789473684211,4,2,1,70,1,0
150047,-90.9090909090909,4,2,1,70,0,0
150678,-100,4,2,1,70,0,0
152257,-100,4,2,1,80,0,0
153204,348.837209302325,4,2,1,80,1,0
153531,317.460317460318,4,2,1,80,1,0
154007,314.13612565445,4,2,1,80,1,0
154007,-133.333333333333,4,2,1,80,0,0
155420,315.789473684211,4,2,1,50,1,0
155420,-153.846153846154,4,2,1,50,0,0
160472,-133.333333333333,4,2,1,60,0,0
165525,-133.333333333333,4,2,1,30,0,0
166946,-133.333333333333,4,2,1,40,0,0
167577,-111.111111111111,4,2,1,50,0,0
168051,-90.9090909090909,4,2,1,60,0,0
171051,-76.9230769230769,4,2,1,60,0,0
171525,-100,4,2,1,60,0,0
171683,335.195530726257,4,2,1,60,1,0
171683,-76.9230769230769,4,2,1,60,0,0
172019,342.857142857143,4,2,1,60,1,0
172190,303.030303030303,4,2,1,65,1,0
172265,-100,4,2,1,5,0,0
172340,300,4,2,1,70,1,0
172340,-100,4,2,1,70,0,0
172415,-100,4,2,1,5,0,0
172490,329.67032967033,4,2,1,75,1,0
172490,-100,4,2,1,75,0,0
173149,331.491712707183,4,2,1,40,1,0
173149,-166.666666666667,4,2,1,40,0,0
173811,304.182509505704,4,2,1,40,1,0
173811,-142.857142857143,4,2,1,40,0,0
174266,329.67032967033,4,2,1,40,1,0
174430,309.278350515464,4,2,1,40,1,0
174430,-153.846153846154,4,2,1,40,0,0
174739,329.67032967033,4,2,1,40,1,0
174903,-158.730158730159,4,2,1,40,0,0
175233,309.278350515464,4,2,1,40,1,0
175542,370.942812982999,4,2,1,40,1,0
175542,-166.666666666667,4,2,1,40,0,0
176098,329.67032967033,4,2,1,40,1,0
176262,316.122233930453,4,2,1,40,1,0
176262,-166.666666666667,4,2,1,40,0,0
176736,329.67032967033,4,2,1,40,1,0
176900,-153.846153846154,4,2,1,40,0,0
177395,285.714285714286,4,2,1,40,1,0
177395,-181.818181818182,4,2,1,40,0,0
177680,321.285140562249,4,2,1,40,1,0
178001,315.789473684211,4,2,1,40,1,0
178474,315.789473684211,4,2,1,40,1,0
178474,-153.846153846154,4,2,1,40,0,0
179421,315.789473684211,4,2,1,40,1,0
179421,-153.846153846154,4,2,1,40,0,0
182894,-200,4,2,1,40,0,0
183210,-117.647058823529,4,2,1,50,0,0
187947,-100,4,2,1,50,0,0
188026,-100,4,2,1,5,0,0
188105,-100,4,2,1,50,0,0
188184,-100,4,2,1,5,0,0
189526,-125,4,2,1,30,0,0
191736,-125,4,2,1,30,0,0
192052,-100,4,2,1,65,0,1
194578,-76.9230769230769,4,2,1,80,0,1
194894,-83.3333333333333,4,2,1,80,0,1
197105,-71.4285714285714,4,2,1,80,0,1
197421,-83.3333333333333,4,2,1,80,0,1
199473,-71.4285714285714,4,2,1,80,0,1
199947,-83.3333333333333,4,2,1,80,0,1
200736,-66.6666666666667,4,2,1,80,0,1
201052,-83.3333333333333,4,2,1,80,0,1
202157,-66.6666666666667,4,2,1,80,0,1
202473,-83.3333333333333,4,2,1,80,0,1
204368,-71.4285714285714,4,2,1,80,0,1
204684,-133.333333333333,4,2,1,80,0,1
204999,-66.6666666666667,4,2,1,80,0,1
205315,-100,4,2,1,80,0,1
205552,-66.6666666666667,4,2,1,80,0,1
205947,-71.4285714285714,4,2,1,80,0,1
206421,-83.3333333333333,4,2,1,80,0,1
209578,-71.4285714285714,4,2,1,80,0,1
210052,-83.3333333333333,4,2,1,80,0,1
212263,-100,4,2,1,80,0,1
215894,-83.3333333333333,4,2,1,80,0,1
223631,-100,4,2,1,80,0,0
224894,-100,4,2,1,50,0,0
229947,-117.647058823529,4,2,1,50,0,0
233736,-100,4,2,1,50,0,0
234368,-133.333333333333,4,2,1,50,0,0
234999,-100,4,2,1,70,0,0
238631,-83.3333333333333,4,2,1,70,0,0
238947,-100,4,2,1,70,0,0
239421,-83.3333333333333,4,2,1,70,0,0
241631,-100,4,2,1,70,0,0
242578,-100,4,2,1,80,0,0
243684,-83.3333333333333,4,2,1,80,0,0
244552,-83.3333333333333,4,2,1,5,0,0
244631,-83.3333333333333,4,2,1,80,0,0
244710,-83.3333333333333,4,2,1,5,0,0
244789,-83.3333333333333,4,2,1,80,0,0
244868,-83.3333333333333,4,2,1,5,0,0
244947,-83.3333333333333,4,2,1,80,0,0
245026,-83.3333333333333,4,2,1,5,0,0
245105,-83.3333333333333,4,2,1,80,0,0

[Colours]
Combo1 : 255,255,128
Combo2 : 14,177,140
Combo3 : 71,239,172
Combo4 : 0,115,170
Combo5 : 128,128,255
Combo6 : 226,65,65
Combo7 : 192,192,192

[HitObjects]
64,301,364,5,2,0:0:0:0:
12,245,521,1,2,0:0:0:0:
53,180,679,1,2,0:0:0:0:
185,273,837,2,0,P|178:314|170:362,1,67.5000025749208,2|0,0:0|0:0,0:0:0:0:
199,184,1153,1,2,0:0:0:0:
199,184,1311,2,0,P|206:140|212:93,1,67.5000025749208,2|0,0:0|0:0,0:0:0:0:
371,31,1627,5,2,0:0:0:0:
430,63,1785,1,2,0:0:0:0:
440,115,1942,1,2,0:0:0:0:
425,148,2100,1,2,0:0:0:0:
303,212,2258,5,2,0:0:0:0:
290,167,2416,1,2,0:0:0:0:
310,137,2574,1,2,0:0:0:0:
334,126,2732,1,2,0:0:0:0:
506,258,2890,5,2,0:0:0:0:
446,313,3048,1,2,0:0:0:0:
370,283,3206,1,2,0:0:0:0:
351,293,3364,1,2,0:0:0:0:
221,376,3521,5,2,0:0:0:0:
158,313,3679,1,2,0:0:0:0:
192,232,3837,1,2,0:0:0:0:
351,293,3995,6,0,B|337:236|337:236|362:196|362:196|346:122,1,161.999995056153,2|0,0:0|0:0,0:0:0:0:
241,16,4469,5,2,1:2:0:0:
221,21,4548,1,2,1:2:0:0:
201,26,4627,2,0,L|142:43,1,40.4999987640381,2|2,1:2|1:2,0:0:0:0:
50,181,4785,1,2,0:0:0:0:
13,149,4864,1,2,0:0:0:0:
34,105,4942,1,2,0:0:0:0:
82,108,5021,1,2,0:0:0:0:
82,108,5416,5,8,0:0:0:0:
183,279,5574,1,8,0:0:0:0:
183,279,5653,1,8,0:0:0:0:
183,279,5732,2,0,P|151:285|121:291,1,45,8|0,0:0|0:0,0:0:0:0:
277,101,5890,1,2,1:2:0:0:
383,333,6206,1,2,1:2:0:0:
170,168,6521,1,10,0:2:0:0:
496,23,7942,5,6,1:2:0:0:
51,195,10311,6,0,L|14:188,3,30,2|2|2|2,0:0|0:0|0:0|1:2,0:0:0:0:
481,340,12364,5,2,0:0:0:0:
339,183,12521,2,0,P|361:175|399:156,1,45,0|0,1:0|1:0,0:0:0:0:
336,277,12679,2,0,B|286:278|258:242|258:242|280:306|241:346,1,175.499991966248,8|0,0:0|0:0,0:0:0:0:
188,351,12995,6,0,P|226:357|304:380,1,90,6|0,1:2|0:0,0:0:0:0:
123,195,13311,2,0,P|79:206|35:213,1,90,10|0,0:0|0:0,0:0:0:0:
280,29,13627,1,2,1:2:0:0:
348,234,13785,1,2,0:0:0:0:
163,102,13942,1,10,0:0:0:0:
382,27,14100,2,0,B|428:39|428:39|432:48|432:48|490:62,1,90,2|0,0:0|1:2,0:0:0:0:
267,170,14416,1,2,0:0:0:0:
267,170,14495,1,2,0:0:0:0:
267,170,14574,2,0,B|182:184|214:235|121:242,1,161.999995056153,10|0,0:0|0:0,0:0:0:0:
88,228,14890,6,0,P|94:199|101:157,1,45,2|0,1:2|0:0,0:0:0:0:
112,106,15048,1,2,0:0:0:0:
261,256,15206,6,0,P|267:285|274:327,1,45,10|0,0:0|0:0,0:0:0:0:
287,378,15364,1,2,0:0:0:0:
88,228,15521,6,0,P|50:237|-18:259,1,90,2|0,1:2|0:0,0:0:0:0:
192,51,15837,2,0,P|237:64|302:75,1,90,10|0,0:0|0:0,0:0:0:0:
428,233,16153,1,2,1:2:0:0:
488,147,16311,1,2,0:0:0:0:
414,63,16469,1,10,0:0:0:0:
247,167,16627,2,0,P|257:220|261:276,1,90,2|0,0:0|1:0,0:0:0:0:
86,104,16942,1,2,0:0:0:0:
78,125,17021,1,2,0:0:0:0:
77,147,17100,1,10,0:0:0:0:
238,32,17258,1,2,0:0:0:0:
383,169,17416,6,0,P|349:176|312:189,1,45,10|0,0:0|0:0,0:0:0:0:
127,301,17574,1,8,0:0:0:0:
142,346,17652,1,8,0:0:0:0:
181,376,17731,1,8,0:0:0:0:
229,381,17810,1,8,0:0:0:0:
274,360,17890,2,0,P|269:334|264:285,1,45,8|8,0:0|0:0,0:0:0:0:
151,156,18048,6,0,B|66:159|101:222|-5:229,1,153.000002918243,6|0,1:2|0:0,0:0:0:0:
212,86,18521,1,2,0:0:0:0:
271,157,18679,2,0,P|261:209|240:327,1,153.000002918243,2|0,0:0|0:0,0:0:0:0:
151,156,19153,1,2,0:0:0:0:
299,67,19311,6,0,P|340:81|382:86,1,76.5000014591217,2|0,0:0|0:0,0:0:0:0:
450,197,19627,1,2,0:0:0:0:
450,197,19785,2,0,P|410:200|361:215,1,76.5000014591217,2|0,0:0|0:0,0:0:0:0:
488,43,20100,2,0,P|496:83|516:127,1,76.5000014591217,2|0,0:0|0:0,0:0:0:0:
299,67,20416,5,2,1:2:0:0:
299,67,20574,2,0,B|248:83|248:83|232:110|232:110|158:130,1,153.000002918243,2|2,1:2|0:0,0:0:0:0:
65,82,21048,2,0,P|52:53|86:7,1,76.5000014591217,2|0,0:0|0:0,0:0:0:0:
166,127,21364,2,0,P|168:164|119:215,1,76.5000014591217,2|0,0:0|0:0,0:0:0:0:
112,359,21679,6,0,P|87:352|37:344,1,76.5000014591217,2|0,0:0|0:0,0:0:0:0:
28,256,21995,2,0,P|64:265|102:270,1,76.5000014591217,2|0,0:0|0:0,0:0:0:0:
238,197,22311,1,2,0:0:0:0:
288,275,22469,1,2,0:0:0:0:
149,197,22627,5,0,1:0:0:0:
149,197,22706,1,0,1:0:0:0:
149,197,22785,2,0,B|151:170|162:144|162:144|147:112|147:112|162:82|165:48,1,148.50000453186,8|0,0:0|0:0,0:0:0:0:
296,25,23100,6,0,P|298:66|313:120,1,76.5000014591217,6|0,1:2|0:0,0:0:0:0:
149,197,23416,2,0,P|157:159|158:121,1,76.5000014591217,2|0,1:2|0:0,0:0:0:0:
331,243,23732,2,0,P|295:249|230:279,1,76.5000014591217,2|0,1:2|0:0,0:0:0:0:
404,147,24048,1,2,1:2:0:0:
482,256,24206,5,2,1:2:0:0:
482,256,24285,1,8,0:0:0:0:
482,256,24364,1,8,0:0:0:0:
297,163,24521,2,0,P|298:143|308:107,1,38.2500007295609,2|8,1:2|0:0,0:0:0:0:
326,39,24679,1,10,0:0:0:0:
152,182,24837,2,0,P|168:192|194:219,1,38.2500007295609,2|8,1:2|0:0,0:0:0:0:
244,269,24995,1,8,0:0:0:0:
208,41,25153,2,0,P|190:50|154:59,1,38.2500007295609,2|8,1:2|0:0,0:0:0:0:
86,77,25311,1,10,0:0:0:0:
43,285,25469,5,2,1:2:0:0:
48,303,25548,1,8,0:0:0:0:
51,321,25627,1,10,0:0:0:0:
145,228,25785,5,2,1:2:0:0:
147,205,25864,1,8,0:0:0:0:
152,182,25942,1,10,0:0:0:0:
0,71,26100,5,2,1:2:0:0:
6,100,26179,1,8,0:0:0:0:
11,130,26258,1,10,0:0:0:0:
219,33,26416,5,8,0:0:0:0:
262,20,26494,1,8,0:0:0:0:
306,31,26573,1,10,0:0:0:0:
340,61,26652,1,8,0:0:0:0:
355,104,26731,1,14,0:0:0:0:
475,364,27521,5,0,1:2:0:0:
510,296,27679,1,2,1:2:0:0:
455,242,27837,1,10,0:0:0:0:
259,299,27995,6,0,B|172:311|200:376|86:386,1,180,6|0,1:2|1:2,0:0:0:0:
317,198,28469,1,8,0:0:0:0:
373,318,28627,1,2,0:0:0:0:
207,218,28785,2,0,P|215:169|219:103,1,90,2|0,1:2|1:2,0:0:0:0:
349,69,29100,1,8,0:0:0:0:
419,122,29258,1,2,0:0:0:0:
419,122,29337,1,2,0:0:0:0:
419,122,29416,6,0,P|421:170|437:229,1,90,2|0,1:2|1:0,0:0:0:0:
305,309,29732,1,10,0:0:0:0:
242,259,29890,2,0,P|251:215|253:170,1,90,2|0,0:0|1:0,0:0:0:0:
106,69,30206,2,0,P|107:113|117:157,1,90,2|8,1:2|0:0,0:0:0:0:
24,343,30521,1,2,0:0:0:0:
24,343,30600,1,2,0:0:0:0:
24,343,30679,6,0,B|67:310|117:336|117:336|131:362|174:382,1,135,2|0,1:2|0:0,0:0:0:0:
168,384,30995,1,8,0:0:0:0:
293,193,31153,2,0,P|251:209|190:218,1,90,2|0,0:0|1:0,0:0:0:0:
315,331,31469,2,0,P|359:339|401:355,1,90,2|8,1:2|0:0,0:0:0:0:
499,210,31785,1,2,0:0:0:0:
499,210,31864,1,2,0:0:0:0:
499,210,31942,5,2,1:2:0:0:
409,97,32100,2,0,P|404:148|391:200,1,90,2|8,1:2|0:0,0:0:0:0:
279,71,32416,1,2,0:0:0:0:
186,157,32574,1,2,1:2:0:0:
292,237,32732,1,0,1:0:0:0:
193,61,32890,1,8,0:0:0:0:
90,188,33048,1,8,0:0:0:0:
93,210,33127,1,8,0:0:0:0:
97,232,33206,6,0,B|108:283|100:321|100:321|118:299|157:291,1,135,6|0,1:2|0:0,0:0:0:0:
164,364,33521,2,0,P|204:368|273:389,1,90,14|0,0:0|0:0,0:0:0:0:
402,235,33837,1,2,1:2:0:0:
335,155,33995,1,0,1:0:0:0:
479,69,34153,2,0,P|468:112|463:164,1,90,10|0,0:0|0:0,0:0:0:0:
279,71,34469,5,2,1:2:0:0:
235,228,34627,1,2,1:2:0:0:
382,88,34785,1,10,0:0:0:0:
164,7,34942,2,0,P|120:26|54:43,1,90,2|0,0:0|1:0,0:0:0:0:
214,135,35258,2,0,P|257:147|298:165,1,90,2|8,1:2|0:0,0:0:0:0:
106,282,35574,1,2,0:0:0:0:
106,282,35653,1,2,0:0:0:0:
106,282,35732,5,6,1:2:0:0:
21,170,35890,2,0,P|26:149|32:113,1,45,0|8,1:0|0:0,0:0:0:0:
200,300,36048,1,10,0:0:0:0:
23,373,36206,1,2,1:2:0:0:
7,345,36285,1,8,0:0:0:0:
18,315,36364,1,8,0:0:0:0:
190,167,36521,6,0,P|223:175|265:180,1,45,2|8,1:2|0:0,0:0:0:0:
344,88,36679,1,8,0:0:0:0:
443,276,36837,1,2,1:2:0:0:
411,279,36916,1,2,0:0:0:0:
381,290,36995,5,10,0:0:0:0:
505,136,37153,1,10,0:0:0:0:
421,377,37311,1,10,0:0:0:0:
421,377,37627,2,0,P|354:377|287:321,1,135.000005149842,2|2,0:0|0:0,0:0:0:0:
142,190,38100,5,2,0:0:0:0:
138,173,38179,1,2,0:0:0:0:
134,157,38258,2,0,B|167:83|282:56|342:130|295:209|226:188|210:158,1,270,4|0,1:2|1:0,0:0:0:0:
118,312,38890,1,8,0:0:0:0:
0,175,39048,2,0,B|28:121|14:65|14:65|41:103|63:111,1,180,2|0,1:2|0:0,0:0:0:0:
221,281,39521,5,2,1:2:0:0:
77,337,39679,2,0,B|98:336|117:309|117:309|115:349|138:368,1,107.999996704102,8|0,0:0|0:0,0:0:0:0:
332,232,39995,1,2,1:2:0:0:
135,123,40153,2,0,B|114:93|72:109|72:109|99:123|112:153,1,107.999996704102,10|0,0:0|1:0,0:0:0:0:
263,38,40469,1,2,0:0:0:0:
416,209,40627,1,2,0:0:0:0:
413,193,40706,1,2,0:0:0:0:
411,175,40785,6,0,B|370:140|306:166|293:212|293:212|323:216|352:253,1,188.999994232178,6|0,1:2|0:0,0:0:0:0:
395,295,41100,2,0,P|389:336|382:398,1,90,2|0,0:0|1:0,0:0:0:0:
220,318,41416,6,0,P|199:314|157:307,1,45,8|0,0:0|0:0,0:0:0:0:
73,110,41574,2,0,B|112:168|91:233|91:233|120:184|206:177,1,215.999993408203,2|2,1:2|0:0,0:0:0:0:
176,179,41969,1,2,0:0:0:0:
191,175,42048,5,2,1:2:0:0:
332,89,42206,1,10,0:2:0:0:
220,318,42364,1,2,1:2:0:0:
73,110,42521,1,2,1:2:0:0:
80,78,42600,1,10,0:0:0:0:
80,45,42679,1,10,0:0:0:0:
191,175,42837,2,0,P|198:208|207:250,1,53.9999983520508,10|0,0:0|0:0,0:0:0:0:
332,89,42995,1,10,0:0:0:0:
417,221,43153,1,10,0:0:0:0:
223,90,43311,6,0,B|159:51|88:100|135:211|-39:214|-40:94|35:57|76:81|89:148,1,323.999990112305,6|0,1:2|1:0,0:0:0:0:
286,255,43942,1,8,0:0:0:0:
363,123,44100,1,2,1:2:0:0:
363,123,44179,1,2,0:0:0:0:
363,123,44258,1,2,0:0:0:0:
183,222,44416,1,2,0:0:0:0:
377,332,44574,5,2,1:2:0:0:
193,384,44732,2,0,B|201:358|186:326|186:326|209:349|233:347,1,107.999996704102,8|0,0:0|0:0,0:0:0:0:
372,211,45048,1,2,1:2:0:0:
173,90,45206,6,0,B|120:116|128:169|128:169|151:148|193:159,1,135.000005149842,10|0,0:0|1:0,0:0:0:0:
305,147,45442,2,0,B|308:88|259:68|259:68|265:98|235:129,1,135.000005149842,2|0,0:0|0:0,0:0:0:0:
205,243,45679,2,0,B|240:254|250:219|250:219|233:227|196:222,1,76.5000014591217,2|0,0:0|0:0,0:0:0:0:
31,23,45837,6,0,P|44:76|47:118,1,90,4|2,1:2|0:0,0:0:0:0:
28,250,46153,1,2,0:0:0:0:
173,90,46311,2,0,P|160:143|157:185,1,90,2|8,1:2|0:0,0:0:0:0:
81,334,46627,1,2,1:2:0:0:
3,153,46785,1,0,0:0:0:0:
81,334,46942,6,0,P|133:316|183:310,1,90,2|0,0:0|1:2,0:0:0:0:
366,363,47258,1,10,0:0:0:0:
265,209,47416,1,2,1:2:0:0:
440,144,47574,1,2,1:2:0:0:
440,144,47653,1,10,0:2:0:0:
440,144,47732,5,10,0:2:0:0:
485,213,47890,1,8,1:3:0:0:
428,274,48048,1,8,1:3:0:0:
358,226,48206,1,8,1:3:0:0:
384,18,48364,6,0,P|435:40|541:54,1,135.000005149842,4|0,1:2|0:0,0:0:0:0:
352,145,48837,1,2,0:0:0:0:
282,85,48995,2,0,P|234:106|128:120,1,135.000005149842,2|0,0:0|0:0,0:0:0:0:
31,208,49469,5,2,0:0:0:0:
91,264,49627,2,0,P|109:248|116:193,1,67.5000025749208,2|0,0:0|0:0,0:0:0:0:
33,71,49942,2,0,P|37:94|81:128,1,67.5000025749208,2|0,0:0|0:0,0:0:0:0:
216,116,50258,2,0,P|193:108|142:129,1,67.5000025749208,2|0,0:0|0:0,0:0:0:0:
31,208,50574,1,2,0:0:0:0:
158,317,50732,5,0,1:0:0:0:
158,317,50890,2,0,B|205:292|248:306|248:306|259:327|282:340,1,135.000005149842,2|0,1:2|0:0,0:0:0:0:
390,241,51364,1,2,0:0:0:0:
453,289,51521,2,0,P|485:255|457:167,1,135.000005149842,2|0,0:0|0:0,0:0:0:0:
371,63,51995,1,2,0:0:0:0:
272,156,52153,2,0,P|307:159|352:170,1,67.5000025749208,2|0,0:0|0:0,0:0:0:0:
235,28,52469,2,0,P|202:35|168:37,1,67.5000025749208,2|0,0:0|0:0,0:0:0:0:
42,165,52785,5,8,0:0:0:0:
107,130,52890,5,8,0:0:0:0:
165,170,52995,5,8,1:3:0:0:
99,278,53100,5,8,1:3:0:0:
87,258,53206,5,8,1:3:0:0:
98,238,53311,5,8,1:3:0:0:
9,355,53416,6,0,P|103:363|233:404,1,180,6|0,1:2|0:0,0:0:0:0:
354,332,53890,1,2,1:2:0:0:
413,278,54048,2,0,P|450:229|390:122,1,180,14|0,0:0|0:0,0:0:0:0:
171,35,54521,1,2,0:0:0:0:
115,93,54679,2,0,P|126:144|133:209,1,90,2|8,1:2|0:0,0:0:0:0:
240,256,54995,2,0,P|246:211|255:167,1,90,2|0,0:0|1:0,0:0:0:0:
147,294,55311,2,0,B|79:315|79:315|62:357|62:357|-25:377,1,180,10|10,0:0|0:0,0:0:0:0:
180,194,55785,1,2,0:0:0:0:
180,194,55864,1,2,0:0:0:0:
180,194,55942,6,0,P|225:204|284:224,1,76.5000014591217,6|0,1:2|0:0,0:0:0:0:
274,122,56258,2,0,P|237:111|199:103,1,76.5000014591217,0|2,1:2|0:0,0:0:0:0:
0,30,56574,6,0,P|-11:70|18:113,1,76.5000014591217,2|0,1:2|0:0,0:0:0:0:
87,93,56890,2,0,P|100:58|89:22,1,76.5000014591217,0|0,1:2|0:0,0:0:0:0:
193,269,57206,5,2,1:2:0:0:
85,91,57364,1,0,1:2:0:0:
47,299,57521,1,2,1:2:0:0:
188,144,57679,1,0,1:2:0:0:
228,374,57837,5,10,0:0:0:0:
105,211,57995,1,8,0:0:0:0:
328,93,58153,1,10,0:0:0:0:
200,289,58311,1,8,0:0:0:0:
85,91,58469,5,2,0:0:0:0:
85,91,59258,5,2,0:0:0:0:
147,46,59416,1,2,0:0:0:0:
218,74,59574,1,2,0:0:0:0:
218,74,59890,5,2,0:0:0:0:
280,119,60048,1,2,0:0:0:0:
351,91,60206,1,2,0:0:0:0:
351,91,60521,6,0,P|346:66|339:28,1,38.2500007295609,2|0,0:0|0:0,0:0:0:0:
476,119,60679,1,8,0:0:0:0:
473,141,60758,1,8,1:3:0:0:
470,163,60837,2,0,L|462:212,1,38.2500007295609,8|8,1:3|1:3,0:0:0:0:
359,347,60995,5,14,0:0:0:0:
267,197,61153,1,2,1:2:0:0:
198,380,61311,1,0,1:2:0:0:
386,206,61469,1,14,0:0:0:0:
386,206,61785,2,0,P|380:186|369:144,1,45,10|0,0:0|1:2,0:0:0:0:
186,42,61942,1,2,1:2:0:0:
184,68,62021,1,0,1:2:0:0:
178,94,62100,6,0,B|198:140|173:194|160:162|129:214|149:263,1,161.999995056153,14|0,0:0|0:0,0:0:0:0:
157,284,62416,1,0,1:0:0:0:
79,122,62574,6,0,P|48:128|15:135,1,53.9999983520508,10|0,0:0|0:0,0:0:0:0:
239,239,62732,2,0,P|270:245|303:252,1,53.9999983520508,10|0,0:0|0:0,0:0:0:0:
45,374,62890,1,10,0:0:0:0:
473,285,63521,6,0,B|413:249|367:291|367:291|367:332|319:362,1,161.999995056153,6|0,1:2|0:0,0:0:0:0:
326,360,63837,1,8,0:0:0:0:
157,282,63995,1,2,0:0:0:0:
157,282,64074,1,2,0:0:0:0:
157,282,64153,2,0,P|171:230|177:157,1,107.999996704102,2|0,1:2|1:0,0:0:0:0:
55,361,64469,1,8,0:0:0:0:
261,275,64627,1,2,0:0:0:0:
39,124,64785,6,0,P|53:176|54:239,1,107.999996704102,2|0,1:2|1:0,0:0:0:0:
180,13,65100,1,10,0:0:0:0:
299,158,65258,2,0,P|247:164|186:179,1,107.999996704102,2|0,0:0|1:0,0:0:0:0:
412,13,65574,1,2,1:2:0:0:
413,34,65653,1,2,0:0:0:0:
413,55,65732,2,0,B|406:101|437:136|453:120|486:171|456:232,1,161.999995056153,10|0,0:0|0:0,0:0:0:0:
377,265,66048,6,0,B|412:193|494:232|494:232|458:270|465:303,1,202.500007724762,4|0,1:2|0:0,0:0:0:0:
462,315,66364,1,8,0:0:0:0:
274,384,66521,1,2,0:0:0:0:
274,384,66600,1,2,0:0:0:0:
274,384,66679,2,0,P|222:372|154:370,1,107.999996704102,2|0,1:2|1:0,0:0:0:0:
105,233,66995,1,8,0:0:0:0:
0,371,67153,1,2,0:0:0:0:
227,244,67311,6,0,P|215:197|204:120,1,107.999996704102,2|0,1:2|1:0,0:0:0:0:
97,19,67627,1,10,0:0:0:0:
0,212,67785,2,0,P|56:219|114:237,1,107.999996704102,2|0,0:0|1:0,0:0:0:0:
292,89,68100,1,2,1:2:0:0:
298,68,68179,1,2,0:0:0:0:
287,48,68258,1,10,0:2:0:0:
97,180,68416,2,0,P|103:214|106:255,1,53.9999983520508,2|2,0:0|0:0,0:0:0:0:
295,384,68574,6,0,B|294:359|307:328|307:328|277:290|277:290|287:252|294:195,1,161.999995056153,4|0,1:2|0:0,0:0:0:0:
300,157,68890,2,0,P|344:152|388:208,1,90,10|0,0:0|0:0,0:0:0:0:
162,102,69206,2,0,P|135:66|183:-16,1,107.999996704102,2|0,1:2|1:0,0:0:0:0:
198,298,69521,2,0,P|163:334|71:307,1,125.999996154785,10|2,0:0|0:0,0:0:0:0:
73,319,69758,1,2,0:0:0:0:
57,304,69837,5,2,1:2:0:0:
212,163,69995,1,0,1:0:0:0:
281,381,70153,1,10,0:0:0:0:
96,215,70311,1,0,0:0:0:0:
328,119,70469,1,2,1:2:0:0:
77,15,70627,1,2,1:2:0:0:
79,36,70706,1,2,0:0:0:0:
81,57,70785,2,0,L|88:135,1,62.9999980773926,10|0,0:0|0:0,0:0:0:0:
12,329,70942,6,0,B|111:339|76:260|202:274,1,188.999994232178,6|0,1:2|0:0,0:0:0:0:
217,282,71258,1,2,1:2:0:0:
45,81,71416,2,0,P|36:141|16:206,1,107.999996704102,10|0,0:0|1:0,0:0:0:0:
13,205,71653,1,0,1:0:0:0:
5,225,71732,1,10,0:0:0:0:
221,75,71890,2,0,P|188:66|152:49,1,53.9999983520508,2|0,1:2|0:0,0:0:0:0:
196,244,72048,1,10,0:0:0:0:
217,239,72127,1,10,0:0:0:0:
237,236,72206,6,0,B|290:180|363:222|363:222|376:259|417:276,1,202.500007724762,6|0,1:2|0:0,0:0:0:0:
449,276,72521,1,2,1:2:0:0:
221,75,72679,1,10,0:0:0:0:
285,326,72837,1,0,1:0:0:0:
490,93,72995,5,8,0:0:0:0:
460,76,73074,1,0,1:2:0:0:
426,80,73153,1,0,1:2:0:0:
397,99,73232,1,0,1:2:0:0:
364,132,73311,1,10,0:0:0:0:
315,154,73390,1,10,0:0:0:0:
256,137,73469,1,10,0:0:0:0:
223,84,73548,1,10,0:0:0:0:
241,33,73627,6,0,B|333:60|282:114|419:151,1,175.499991966248,6|0,1:2|0:0,0:0:0:0:
465,121,73942,2,0,P|492:72|443:25,1,107.999996704102,14|2,0:0|0:0,0:0:0:0:
315,154,74179,1,2,0:0:0:0:
319,175,74258,2,0,P|326:234|334:300,1,107.999996704102,2|0,1:2|1:0,0:0:0:0:
243,374,74574,1,8,0:0:0:0:
434,252,74732,1,2,0:0:0:0:
183,145,74890,6,0,P|131:165|46:183,1,107.999996704102,2|0,1:2|1:0,0:0:0:0:
243,374,75206,1,10,0:0:0:0:
358,219,75364,2,0,P|349:173|342:92,1,107.999996704102,2|0,0:0|1:0,0:0:0:0:
78,2,75679,1,2,1:2:0:0:
76,23,75758,1,2,0:0:0:0:
73,44,75837,2,0,B|44:104|80:147|80:147|99:114|148:100,1,161.999995056153,10|0,0:0|0:0,0:0:0:0:
4,212,76153,6,0,P|76:195|237:179,1,188.999994232178,4|0,1:2|0:0,0:0:0:0:
228,179,76469,1,8,0:0:0:0:
139,373,76627,1,2,0:0:0:0:
139,373,76706,1,2,0:0:0:0:
139,373,76785,2,0,P|132:317|120:248,1,107.999996704102,2|0,1:2|1:0,0:0:0:0:
266,88,77100,1,8,0:0:0:0:
337,268,77258,1,2,0:0:0:0:
468,97,77416,6,0,P|414:117|350:131,1,107.999996704102,2|0,1:2|1:0,0:0:0:0:
221,243,77732,1,10,0:0:0:0:
84,44,77890,2,0,P|146:59|206:65,1,107.999996704102,2|0,0:0|1:0,0:0:0:0:
326,214,78206,2,0,P|342:264|295:316,1,107.999996704102,2|12,1:2|0:0,0:0:0:0:
175,178,78521,1,2,0:0:0:0:
175,178,78600,1,2,0:0:0:0:
175,178,78679,5,6,1:2:0:0:
316,86,78837,1,2,0:0:0:0:
223,271,78995,1,10,0:0:0:0:
115,87,79153,1,2,0:0:0:0:
10,253,79311,2,0,P|21:307|30:371,1,107.999996704102,2|0,1:2|1:0,0:0:0:0:
175,178,79627,1,10,0:0:0:0:
17,78,79785,1,2,0:0:0:0:
175,178,79942,5,2,1:2:0:0:
10,253,80100,1,2,1:2:0:0:
143,74,80258,1,10,0:0:0:0:
220,244,80416,1,2,0:0:0:0:
381,56,80574,2,0,P|345:71|266:76,1,107.999996704102,0|0,1:2|1:0,0:0:0:0:
174,195,80811,5,8,0:0:0:0:
148,237,80889,1,8,0:0:0:0:
161,284,80968,1,8,0:0:0:0:
202,310,81048,6,0,B|262:321|262:321|284:353|284:353|348:363,1,161.999995056153,4|0,1:2|0:0,0:0:0:0:
382,371,81364,1,2,1:2:0:0:
495,204,81521,2,0,P|479:162|472:89,1,107.999996704102,10|0,0:0|0:0,0:0:0:0:
270,53,81837,2,0,P|262:106|238:173,1,107.999996704102,2|0,1:2|1:2,0:0:0:0:
386,262,82153,2,0,P|370:220|363:147,1,107.999996704102,10|2,0:0|0:0,0:0:0:0:
362,135,82390,1,2,0:0:0:0:
368,113,82469,5,2,1:2:0:0:
258,240,82627,1,0,1:2:0:0:
471,345,82785,2,0,P|497:306|468:232,1,107.999996704102,10|0,0:0|0:0,0:0:0:0:
251,135,83100,2,0,P|192:158|121:172,1,107.999996704102,2|2,1:2|0:0,0:0:0:0:
70,144,83337,1,8,0:0:0:0:
70,144,83416,2,0,P|60:120|78:75,1,53.9999983520508,10|0,0:0|1:0,0:0:0:0:
179,270,83574,1,0,1:0:0:0:
187,289,83653,1,0,1:0:0:0:
181,309,83732,6,0,P|123:296|42:287,1,107.999996704102,14|0,0:0|0:0,0:0:0:0:
251,135,84048,2,0,P|303:122|353:101,1,107.999996704102,8|0,0:0|0:0,0:0:0:0:
139,40,84364,1,8,0:0:0:0:
270,243,84521,1,0,1:0:0:0:
353,101,84679,1,10,0:0:0:0:
143,249,84837,1,0,1:0:0:0:
143,249,84916,1,0,1:0:0:0:
143,249,84995,6,0,P|151:313|159:374,1,107.999996704102,10|0,0:0|0:0,0:0:0:0:
339,208,85311,2,0,P|347:144|355:83,1,107.999996704102,10|0,0:0|0:0,0:0:0:0:
102,81,85627,1,10,0:0:0:0:
259,313,85785,1,0,1:0:0:0:
360,31,85942,1,10,0:0:0:0:
120,160,86100,1,0,1:0:0:0:
352,296,86258,6,0,P|406:303|475:316,1,107.999996704102,10|0,0:0|0:0,0:0:0:0:
196,99,86574,2,0,P|171:151|205:213,1,107.999996704102,10|0,0:0|0:0,0:0:0:0:
285,375,86890,1,10,0:0:0:0:
410,159,87048,1,0,1:0:0:0:
176,285,87206,1,10,0:0:0:0:
428,379,87364,6,0,B|415:311|415:311|453:259|453:259|430:158,1,215.999993408203,6|2,1:2|1:2,0:0:0:0:
306,51,87837,1,10,0:0:0:0:
145,195,87995,2,0,P|199:204|274:233,1,107.999996704102,2|0,0:0|1:2,0:0:0:0:
419,97,88311,1,0,1:0:0:0:
428,77,88390,1,8,0:0:0:0:
422,56,88469,2,0,P|429:28|437:-6,1,53.9999983520508,8|8,0:0|1:3,0:0:0:0:
239,168,88627,2,0,P|245:197|252:240,1,53.9999983520508,8|8,1:3|1:3,0:0:0:0:
446,375,88785,5,10,0:0:0:0:
464,342,88863,1,10,0:0:0:0:
464,305,88942,1,10,0:0:0:0:
443,274,89021,1,10,0:0:0:0:
409,259,89100,2,0,P|399:300|388:335,1,53.9999983520508,10|0,0:0|0:0,0:0:0:0:
143,140,89258,6,0,B|149:193|149:193|157:202|157:202|168:280,1,107.999996704102,2|0,1:2|0:0,0:0:0:0:
422,56,89574,2,0,B|416:109|416:109|408:118|408:118|397:196,1,107.999996704102,2|0,1:2|0:0,0:0:0:0:
84,15,89890,1,10,0:0:0:0:
457,42,91311,6,0,B|403:58|403:58|386:93|386:93|326:108,1,153.000002918243,14|0,0:0|1:2,0:0:0:0:
252,129,91785,1,2,1:2:0:0:
126,43,91942,1,10,0:0:0:0:
66,95,92100,2,0,P|26:126|53:226,1,153.000002918243,2|0,1:2|1:2,0:0:0:0:
161,352,92574,5,10,0:0:0:0:
220,299,92732,2,0,P|208:262|202:202,2,76.5000014591217,2|0|0,1:2|0:0|1:2,0:0:0:0:
376,368,93206,1,10,0:0:0:0:
484,215,93364,2,0,B|402:217|438:280|318:270,1,153.000002918243,6|0,1:2|1:2,0:0:0:0:
290,210,93758,1,0,1:2:0:0:
290,210,93837,6,0,P|297:167|307:110,1,76.5000014591217,14|0,0:0|0:0,0:0:0:0:
215,86,94153,2,0,P|208:123|202:161,1,76.5000014591217,2|0,1:2|0:0,0:0:0:0:
106,318,94469,1,2,1:2:0:0:
41,277,94627,1,2,0:0:0:0:
57,202,94785,1,2,1:2:0:0:
213,276,94942,1,2,0:0:0:0:
211,291,95021,1,2,0:0:0:0:
209,306,95100,5,10,0:0:0:0:
86,124,95258,1,2,1:2:0:0:
290,210,95416,1,10,0:0:0:0:
106,318,95574,1,2,1:2:0:0:
240,78,95732,2,0,P|280:90|348:97,1,90,10|2,0:2|1:2,0:0:0:0:
404,68,95969,1,10,0:2:0:0:
404,68,96048,2,0,P|409:46|420:-5,1,45,10|2,0:2|1:2,0:0:0:0:
493,171,96206,1,10,0:2:0:0:
505,204,96285,1,10,0:2:0:0:
494,238,96364,6,0,B|398:242|458:313|323:317,1,161.999995056153,6|0,1:2|0:0,0:0:0:0:
315,302,96679,2,0,P|296:265|323:211,1,90,10|0,0:0|0:0,0:0:0:0:
240,78,96995,1,2,1:2:0:0:
171,253,97153,1,2,0:0:0:0:
344,142,97311,1,10,0:0:0:0:
143,9,97469,2,0,P|95:26|28:40,1,90,2|0,0:0|1:2,0:0:0:0:
218,174,97785,1,2,0:0:0:0:
218,174,97864,1,2,0:0:0:0:
218,174,97942,2,0,B|280:190|280:190|300:225|300:225|379:241,1,161.999995056153,10|0,0:0|0:0,0:0:0:0:
388,249,98258,6,0,P|395:222|408:170,1,45,2|0,1:2|0:0,0:0:0:0:
417,130,98416,1,2,0:0:0:0:
218,270,98574,6,0,P|237:289|276:326,1,45,10|0,0:0|0:0,0:0:0:0:
306,354,98732,1,2,0:0:0:0:
228,124,98890,6,0,P|196:136|124:157,1,90,2|0,1:2|0:0,0:0:0:0:
22,303,99206,2,0,P|69:315|136:332,1,90,10|0,0:0|0:0,0:0:0:0:
289,202,99521,1,2,1:2:0:0:
338,127,99679,1,2,0:0:0:0:
292,49,99837,1,10,0:0:0:0:
55,150,99995,6,0,B|146:170|105:234|217:257,1,180,14|2,0:0|0:0,0:0:0:0:
236,255,100390,1,2,0:0:0:0:
236,255,100469,1,10,0:0:0:0:
147,81,100627,1,2,0:0:0:0:
53,261,100785,2,0,P|58:289|66:344,1,45,10|0,0:0|0:0,0:0:0:0:
299,368,100942,1,0,1:2:0:0:
299,368,101021,1,8,0:0:0:0:
299,368,101100,2,0,P|303:339|311:303,1,45,8|0,0:3|1:0,0:0:0:0:
192,150,101258,1,8,0:0:0:0:
186,171,101337,1,8,0:0:0:0:
197,190,101416,6,0,B|187:239|187:239|204:276|204:276|189:337,1,135,6|0,1:2|0:0,0:0:0:0:
182,357,101732,2,0,P|143:363|95:310,1,90,10|0,0:0|0:0,0:0:0:0:
278,204,102048,1,2,1:2:0:0:
340,383,102206,1,2,0:0:0:0:
168,263,102364,1,10,0:0:0:0:
396,149,102521,2,0,P|442:160|503:172,1,90,2|0,0:0|1:2,0:0:0:0:
287,23,102837,1,2,0:0:0:0:
287,23,102916,1,2,0:0:0:0:
287,23,102995,2,0,B|234:7|185:51|185:51|188:89|153:117,1,161.999995056153,10|0,0:0|0:0,0:0:0:0:
157,131,103311,5,2,1:2:0:0:
54,45,103469,1,2,0:0:0:0:
70,36,103548,1,0,0:0:0:0:
89,46,103627,1,10,0:0:0:0:
251,184,103785,2,0,P|246:211|237:251,1,45,2|0,0:0|0:0,0:0:0:0:
74,343,103942,6,0,P|69:296|57:190,1,135,2|0,1:2|0:0,0:0:0:0:
54,168,104258,2,0,B|93:146|93:146|158:180,1,90,10|0,0:0|0:0,0:0:0:0:
276,331,104574,1,2,1:2:0:0:
355,166,104732,1,2,0:0:0:0:
174,268,104890,2,0,P|177:297|179:334,1,45,10|0,0:0|0:0,0:0:0:0:
425,381,105048,6,0,B|424:349|439:317|439:317|422:285|422:285|443:250|439:206,1,161.999995056153,14|0,0:0|0:0,0:0:0:0:
434,182,105364,6,0,P|405:190|364:203,1,45,10|0,0:0|0:0,0:0:0:0:
305,38,105521,2,0,P|326:59|358:88,1,45,10|0,0:0|0:0,0:0:0:0:
234,207,105679,2,0,P|241:177|250:135,1,45,10|0,1:3|0:0,0:0:0:0:
122,34,105837,5,10,1:3:0:0:
141,22,105916,1,8,1:3:0:0:
160,32,105995,2,0,P|158:57|152:107,1,45,10|0,1:3|0:0,0:0:0:0:
47,233,106153,6,0,P|111:218|244:206,1,188.999994232178,10|0,0:0|0:0,0:0:0:0:
289,278,106469,6,0,P|298:315|267:355,1,76.5000014591217,6|0,1:2|0:0,0:0:0:0:
406,297,106785,2,0,P|397:260|428:220,1,76.5000014591217,2|0,1:2|1:2,0:0:0:0:
304,65,107100,1,10,0:0:0:0:
247,122,107258,2,0,P|256:166|259:211,1,76.5000014591217,2|0,1:2|0:0,0:0:0:0:
440,97,107574,6,0,P|431:53|428:8,1,76.5000014591217,2|8,1:2|0:0,0:0:0:0:
379,153,107890,1,2,1:2:0:0:
443,197,108048,1,2,0:0:0:0:
363,317,108206,1,2,1:2:0:0:
363,317,108285,1,2,0:0:0:0:
363,317,108364,2,0,P|322:308|272:306,1,76.5000014591217,10|2,0:0|1:2,0:0:0:0:
233,202,108679,2,0,P|274:211|324:213,1,76.5000014591217,2|0,0:0|1:2,0:0:0:0:
123,367,108995,5,14,0:0:0:0:
66,315,109153,2,0,B|41:286|41:286|59:241,1,76.5000014591217,2|0,0:0|1:2,0:0:0:0:
143,133,109469,1,2,1:2:0:0:
233,202,109627,2,0,P|225:246|219:296,1,76.5000014591217,10|0,0:0|1:2,0:0:0:0:
73,86,109942,2,0,P|116:51|188:65,1,114.750002188683,2|0,0:0|0:0,0:0:0:0:
206,75,110258,5,10,0:0:0:0:
365,147,110416,1,2,1:2:0:0:
306,28,110574,1,2,0:0:0:0:
233,202,110732,1,2,1:2:0:0:
233,202,110811,1,2,1:2:0:0:
233,202,110890,2,0,P|237:246|236:291,1,76.5000014591217,10|2,0:0|1:2,0:0:0:0:
415,205,111206,1,10,1:3:0:0:
302,99,111364,1,10,1:3:0:0:
415,205,111521,5,14,0:0:0:0:
475,151,111679,2,0,P|481:112|491:74,2,76.5000014591217,2|0|0,0:0|1:2|1:2,0:0:0:0:
427,333,112153,1,10,0:0:0:0:
361,283,112311,1,2,1:2:0:0:
427,333,112469,2,0,P|472:325|515:322,1,76.5000014591217,0|0,0:0|1:2,0:0:0:0:
264,234,112785,5,10,0:0:0:0:
225,346,112942,1,2,1:2:0:0:
361,283,113100,2,0,P|353:242|347:190,1,76.5000014591217,2|0,0:0|1:2,0:0:0:0:
211,131,113416,1,8,0:0:0:0:
151,184,113574,2,0,P|135:206|150:265,1,76.5000014591217,2|8,1:2|0:0,0:0:0:0:
306,153,113890,1,2,0:0:0:0:
306,153,113969,1,2,0:0:0:0:
306,153,114048,6,0,B|297:99|297:99|306:81|306:81|297:26,1,114.750002188683,14|0,0:0|0:0,0:0:0:0:
296,3,114364,2,0,P|329:-4|380:32,1,76.5000014591217,2|2,1:2|0:0,0:0:0:0:
228,227,114679,1,10,0:0:0:0:
178,114,114837,1,0,1:2:0:0:
360,220,114995,1,10,0:0:0:0:
193,334,115153,1,0,1:2:0:0:
360,220,115311,6,0,P|389:226|437:235,1,45,10|0,0:0|0:0,0:0:0:0:
299,41,115469,2,0,P|279:63|247:100,1,45,10|0,0:0|0:0,0:0:0:0:
461,96,115627,2,0,P|451:67|435:21,1,45,10|0,0:0|0:0,0:0:0:0:
270,187,115785,5,2,1:2:0:0:
260,207,115864,1,2,1:2:0:0:
273,224,115942,2,0,P|268:250|258:295,1,45,10|2,0:0|1:2,0:0:0:0:
67,379,116100,1,10,0:0:0:0:
32,349,116178,1,10,0:0:0:0:
22,307,116257,1,10,0:0:0:0:
36,265,116336,1,10,0:0:0:0:
114,305,116416,6,0,B|205:306|162:380|283:386,1,180,6|0,1:2|1:2,0:0:0:0:
360,220,116890,2,0,P|352:176|350:98,1,90,10|2,0:0|0:0,0:0:0:0:
179,83,117206,2,0,P|176:127|167:172,1,90,2|0,1:2|0:0,0:0:0:0:
250,294,117521,1,10,0:0:0:0:
360,220,117679,1,2,0:0:0:0:
360,220,117758,1,2,0:0:0:0:
360,220,117837,5,2,1:2:0:0:
408,350,117995,1,2,0:0:0:0:
256,209,118153,2,0,P|210:226|145:234,1,90,10|2,0:0|0:0,0:0:0:0:
375,88,118469,1,2,1:2:0:0:
437,142,118627,2,0,P|460:180|437:239,1,90,2|8,0:0|0:0,0:0:0:0:
268,84,118942,1,2,0:0:0:0:
268,84,119021,1,2,0:0:0:0:
268,84,119100,5,2,1:2:0:0:
211,142,119258,1,2,0:0:0:0:
256,209,119416,1,10,0:0:0:0:
332,183,119574,1,2,0:0:0:0:
186,43,119732,5,2,1:2:0:0:
120,181,119890,1,2,0:0:0:0:
268,84,120048,1,10,0:0:0:0:
101,19,120206,1,2,0:0:0:0:
256,209,120364,5,2,1:2:0:0:
329,20,120521,1,2,0:0:0:0:
193,126,120679,1,10,0:0:0:0:
323,277,120837,1,2,0:0:0:0:
439,143,120995,6,0,P|434:119|431:69,1,45,2|0,1:2|0:0,0:0:0:0:
187,203,121153,2,0,P|184:225|179:247,1,45,0|8,1:2|0:0,0:0:0:0:
298,377,121311,1,8,0:0:0:0:
298,377,121390,1,8,0:0:0:0:
298,377,121469,2,0,B|398:386|357:312|491:330,1,180,4|2,1:2|0:0,0:0:0:0:
500,203,121942,2,0,P|486:158|483:105,1,90,10|2,0:0|0:0,0:0:0:0:
262,83,122258,2,0,P|253:149|233:243,1,135,2|0,1:2|0:0,0:0:0:0:
231,251,122574,1,10,0:0:0:0:
366,151,122732,1,2,0:0:0:0:
173,21,122890,6,0,P|127:36|65:46,1,90,2|0,1:2|0:0,0:0:0:0:
30,208,123206,2,0,P|76:193|138:183,1,90,10|2,0:0|0:0,0:0:0:0:
152,180,123442,1,2,0:0:0:0:
152,180,123521,1,2,1:2:0:0:
101,328,123679,1,2,0:0:0:0:
257,275,123837,6,0,B|254:248|237:222|237:222|256:184|256:184|238:152|238:109,1,161.999995056153,14|0,0:0|0:0,0:0:0:0:
235,84,124153,6,0,B|281:64|281:64|328:93,1,90,12|2,0:0|0:0,0:0:0:0:
462,237,124469,1,10,0:0:0:0:
509,163,124627,2,0,P|498:123|501:57,1,90,2|8,0:0|0:0,0:0:0:0:
257,275,124942,1,2,0:0:0:0:
257,275,125021,1,2,0:0:0:0:
257,275,125100,2,0,B|348:284|310:346|412:347,1,161.999995056153,8|8,0:0|0:0,0:0:0:0:
488,228,125416,6,0,B|450:239|450:239|446:246|446:246|394:257,1,90,8|0,0:0|1:2,0:0:0:0:
330,199,125653,1,8,0:0:0:0:
330,199,125732,2,0,B|316:174|316:174|331:142,1,45,8|8,0:0|1:3,0:0:0:0:
487,21,125890,1,8,1:3:0:0:
499,39,125969,1,8,1:3:0:0:
493,60,126048,2,0,P|497:91|505:130,1,45,8|8,1:3|1:3,0:0:0:0:
315,25,126206,5,8,1:3:0:0:
266,13,126285,1,8,1:3:0:0:
232,35,126364,1,10,1:3:0:0:
206,60,126442,1,10,1:3:0:0:
178,75,126521,1,10,1:3:0:0:
151,71,126600,1,10,1:3:0:0:
132,59,126679,5,6,1:2:0:0:
463,308,130942,5,8,1:3:0:0:
463,308,131021,1,8,1:3:0:0:
463,308,131100,2,0,P|456:340|449:366,1,38.2500007295609,8|0,1:3|0:0,0:0:0:0:
339,217,131258,2,0,P|362:210|396:200,1,38.2500007295609,0|0,1:2|0:0,0:0:0:0:
299,350,131416,1,8,0:0:0:0:
299,350,131732,6,0,P|259:341|195:335,1,76.5000014591217,14|0,0:0|0:0,0:0:0:0:
100,268,132048,2,0,P|106:228|101:182,1,76.5000014591217,2|0,1:2|0:0,0:0:0:0:
202,171,132364,2,0,P|196:211|201:257,1,76.5000014591217,2|0,1:2|0:0,0:0:0:0:
91,95,132679,1,2,1:2:0:0:
274,2,132837,1,0,1:2:0:0:
281,15,132916,1,8,0:0:0:0:
278,30,132995,5,10,0:0:0:0:
353,126,133153,1,2,0:0:0:0:
291,170,133311,1,10,0:0:0:0:
91,95,133469,5,2,1:2:0:0:
91,95,133548,1,8,0:0:0:0:
91,95,133627,1,8,0:0:0:0:
192,19,133785,2,0,L|183:75,1,38.2500007295609,2|0,0:0|0:0,0:0:0:0:
2,13,133942,1,6,1:2:0:0:
75,216,134100,1,10,0:0:0:0:
97,213,134179,1,8,0:0:0:0:
119,210,134258,6,0,B|211:195|181:270|288:248,1,161.999995056153,6|0,1:2|0:0,0:0:0:0:
305,243,134574,1,2,1:2:0:0:
208,128,134732,1,2,0:0:0:0:
136,293,134890,2,0,P|147:343|153:395,1,90,2|0,1:2|0:0,0:0:0:0:
312,152,135206,1,2,1:2:0:0:
390,335,135364,1,2,1:2:0:0:
390,335,135442,1,2,0:0:0:0:
390,335,135521,6,0,P|356:341|328:346,1,45,2|0,1:2|0:0,0:0:0:0:
484,251,135679,1,10,0:0:0:0:
312,152,135837,6,0,P|277:160|239:169,1,45,10|0,0:0|0:0,0:0:0:0:
453,57,135995,1,10,0:0:0:0:
346,243,136153,5,2,1:2:0:0:
220,69,136311,1,2,1:2:0:0:
428,157,136469,1,10,1:3:0:0:
280,340,136627,1,10,1:3:0:0:
11,246,136785,6,0,P|106:228|259:197,1,233.999989288331,6|2,1:2|0:0,0:0:0:0:
57,51,140732,5,0,1:2:0:0:
178,185,140890,1,8,1:3:0:0:
178,185,141206,6,0,P|144:190|90:209,1,76.5000014591217,6|0,1:2|0:0,0:0:0:0:
190,78,141521,2,0,P|226:89|264:95,1,76.5000014591217,2|0,1:2|0:0,0:0:0:0:
397,204,141837,1,2,1:2:0:0:
453,152,141995,1,0,0:0:0:0:
418,83,142153,2,0,P|426:44|434:0,1,76.5000014591217,2|0,1:2|0:0,0:0:0:0:
264,95,142469,6,0,P|255:128|276:181,1,76.5000014591217,2|0,1:2|0:0,0:0:0:0:
303,303,142784,2,0,P|278:278|222:270,1,76.5000014591217,2|0,1:2|0:0,0:0:0:0:
100,232,143100,2,0,P|133:223|168:178,1,76.5000014591217,2|0,1:2|0:0,0:0:0:0:
264,95,143416,2,0,P|254:128|276:180,1,76.5000014591217,2|0,1:2|0:0,0:0:0:0:
125,356,143732,5,2,1:2:0:0:
57,305,143890,1,2,0:0:0:0:
100,232,144048,1,2,1:2:0:0:
180,255,144206,1,2,0:0:0:0:
87,43,144363,6,0,P|53:53|-3:63,1,90,8|0,0:0|1:2,0:0:0:0:
118,138,144600,1,8,0:0:0:0:
118,138,144679,2,0,P|149:142|181:153,1,45,8|0,0:0|1:2,0:0:0:0:
248,17,144837,2,0,P|226:22|203:24,1,45,0|0,1:2|1:2,0:0:0:0:
330,186,144995,5,8,0:0:0:0:
373,188,145073,1,0,1:2:0:0:
409,163,145152,1,0,1:2:0:0:
420,120,145231,1,0,1:2:0:0:
401,80,145310,1,8,1:3:0:0:
383,84,145390,1,8,1:3:0:0:
365,88,145469,1,8,1:3:0:0:
347,93,145548,1,8,1:3:0:0:
329,97,145627,6,0,B|240:104|279:171|152:171,1,161.999995056153,6|0,1:2|0:0,0:0:0:0:
157,162,145942,1,10,0:0:0:0:
275,344,146100,1,2,0:0:0:0:
275,344,146179,1,2,0:0:0:0:
275,344,146258,2,0,P|268:316|259:279,1,49.5000015106202,2|0,1:2|0:0,0:0:0:0:
476,227,146416,2,0,P|471:258|463:297,1,49.5000015106202,2|0,1:2|0:0,0:0:0:0:
347,189,146574,2,0,B|350:171|334:133|334:133|350:102|350:102|336:72|328:27,1,148.50000453186,10|0,0:0|0:0,0:0:0:0:
326,14,146890,5,2,1:2:0:0:
224,136,147048,1,2,1:2:0:0:
457,227,147205,1,10,0:0:0:0:
347,106,147363,1,2,1:2:0:0:
340,124,147442,1,2,0:0:0:0:
351,139,147521,2,0,L|345:200,1,49.5000015106202,10|0,0:0|0:0,0:0:0:0:
235,344,147679,1,2,0:0:0:0:
55,136,147837,6,0,B|107:90|177:142|177:142|183:190|252:200,1,215.999993408203,6|8,1:2|0:0,0:0:0:0:
231,195,148310,1,0,0:0:0:0:
80,365,148468,1,2,1:2:0:0:
20,312,148626,2,0,P|30:280|32:219,1,90,2|8,1:2|0:0,0:0:0:0:
256,113,148942,6,0,P|279:121|312:128,1,45,2|2,0:0|0:0,0:0:0:0:
443,63,149100,1,2,1:2:0:0:
324,274,149258,5,2,0:0:0:0:
306,253,149337,1,2,0:0:0:0:
312,227,149415,1,2,1:2:0:0:
495,370,149573,5,2,1:2:0:0:
512,343,149652,1,10,0:0:0:0:
503,312,149731,2,0,P|465:320|428:330,1,45,10|10,0:0|0:0,0:0:0:0:
194,380,149889,1,10,0:0:0:0:
177,353,149968,1,10,0:0:0:0:
186,322,150047,6,0,B|221:255|170:200|170:200|161:244|114:266,1,198.000006042481,6|8,1:2|0:0,0:0:0:0:
66,316,150520,1,2,0:0:0:0:
0,97,150678,2,0,B|44:108|44:108|54:116|54:116|106:129,1,90,2|0,1:2|1:2,0:0:0:0:
227,18,150994,2,0,P|203:23|166:28,1,45,10|0,0:0|0:0,0:0:0:0:
256,136,151152,2,0,P|285:139|322:144,1,45,2|0,0:0|0:0,0:0:0:0:
499,20,151310,5,2,1:2:0:0:
456,9,151388,1,2,0:0:0:0:
415,27,151467,1,2,1:2:0:0:
395,66,151546,1,2,0:0:0:0:
404,109,151625,2,0,P|410:142|418:181,1,45,10|2,0:0|0:0,0:0:0:0:
305,269,151783,2,0,P|300:246|297:224,1,45,2|2,1:2|0:0,0:0:0:0:
482,296,151941,5,10,0:0:0:0:
492,316,152020,1,2,0:0:0:0:
479,334,152099,2,0,P|474:358|466:394,1,45,2|2,0:0|0:0,0:0:0:0:
297,224,152257,6,0,P|320:216|355:205,1,45,10|0,0:0|0:0,0:0:0:0:
495,85,152415,2,0,P|471:77|436:66,1,45,10|0,0:0|0:0,0:0:0:0:
227,18,152573,5,2,1:2:0:0:
177,49,152652,1,10,1:3:0:0:
169,107,152731,1,10,0:0:0:0:
202,154,152810,1,10,1:2:0:0:
222,171,152889,5,10,0:0:0:0:
280,204,152968,1,10,1:3:0:0:
283,271,153047,1,10,1:3:0:0:
241,324,153126,1,10,1:3:0:0:
220,336,153204,5,10,0:0:0:0:
229,305,153291,1,10,1:3:0:0:
255,288,153378,1,10,1:3:0:0:
286,283,153465,1,10,1:3:0:0:
309,293,153531,6,0,P|336:289|383:282,1,45,10|0,0:0|0:0,0:0:0:0:
365,97,153689,2,0,P|335:102|292:110,1,45,10|0,0:0|0:0,0:0:0:0:
145,277,153848,5,10,0:0:0:0:
145,277,153927,1,10,0:0:0:0:
145,277,154007,2,0,B|94:308|96:371|96:371|65:339|77:275|119:248|113:259|181:232|214:159|173:33|16:42|13:177|88:189,1,540.000020599366,6|0,1:2|0:0,0:0:0:0:
180,349,155420,6,0,B|226:357|226:357|251:382|251:382|297:385,1,116.999994644165,6|0,1:2|1:2,0:0:0:0:
390,295,155893,1,2,0:0:0:0:
448,242,156051,2,0,P|442:209|435:159,2,58.4999973220826,2|0|0,1:2|0:0|1:2,0:0:0:0:
310,119,156525,5,2,0:0:0:0:
362,57,156683,2,0,P|389:65|428:69,1,58.4999973220826,2|0,1:2|0:0,0:0:0:0:
239,182,156998,2,0,P|232:154|216:118,1,58.4999973220826,2|0,1:2|0:0,0:0:0:0:
369,208,157314,2,0,P|357:234|350:263,1,58.4999973220826,2|0,1:2|0:0,0:0:0:0:
362,57,157630,2,0,P|389:65|428:69,1,58.4999973220826,2|0,1:2|0:0,0:0:0:0:
279,150,157946,6,0,B|222:161|239:206|157:212,1,116.999994644165,6|0,1:2|1:2,0:0:0:0:
46,149,158420,1,2,0:0:0:0:
4,218,158577,2,0,P|15:251|20:297,2,58.4999973220826,2|0|0,1:2|0:0|1:2,0:0:0:0:
106,84,159051,1,2,0:0:0:0:
195,217,159209,6,0,P|164:210|121:208,1,58.4999973220826,2|0,1:2|0:0,0:0:0:0:
230,53,159525,2,0,P|261:60|304:62,1,58.4999973220826,2|0,1:2|0:0,0:0:0:0:
406,193,159841,1,2,1:2:0:0:
452,113,159998,1,0,1:2:0:0:
290,219,160156,1,10,0:0:0:0:
290,219,160472,6,0,P|332:223|437:271,1,135.000005149842,6|0,1:2|0:0,0:0:0:0:
227,370,160946,1,2,1:2:0:0:
170,315,161104,2,0,P|139:278|155:182,1,135.000005149842,10|0,0:0|0:0,0:0:0:0:
276,86,161577,1,2,0:0:0:0:
335,139,161735,6,0,P|324:174|317:224,1,67.5000025749208,2|8,1:2|0:0,0:0:0:0:
194,86,162051,1,2,1:2:0:0:
336,20,162209,1,0,1:0:0:0:
336,20,162288,1,8,0:0:0:0:
336,20,162367,1,10,0:0:0:0:
242,171,162525,1,8,1:3:0:0:
144,14,162683,2,0,P|103:29|60:38,1,67.5000025749208,10|0,0:0|0:0,0:0:0:0:
12,195,162998,6,0,P|5:233|32:269,1,67.5000025749208,6|0,1:2|0:0,0:0:0:0:
67,319,163314,2,0,P|89:342|139:354,1,67.5000025749208,0|2,1:2|0:0,0:0:0:0:
290,291,163630,6,0,P|282:264|276:217,1,67.5000025749208,2|0,1:2|0:0,0:0:0:0:
193,188,163946,2,0,P|188:221|179:253,1,67.5000025749208,0|0,1:2|0:0,0:0:0:0:
354,103,164262,5,2,1:2:0:0:
194,186,164420,1,0,1:2:0:0:
409,221,164577,1,2,1:2:0:0:
254,63,164735,1,0,1:2:0:0:
465,144,164893,5,10,0:0:0:0:
284,243,165051,1,8,0:0:0:0:
410,46,165209,1,10,0:0:0:0:
467,298,165367,1,8,0:0:0:0:
319,173,165525,5,2,0:0:0:0:
319,173,166314,5,2,0:0:0:0:
253,124,166472,1,2,0:0:0:0:
178,154,166630,1,2,0:0:0:0:
178,154,166946,5,2,0:0:0:0:
112,203,167104,1,2,0:0:0:0:
37,173,167262,1,2,0:0:0:0:
37,173,167577,6,0,P|43:147|50:104,1,40.4999987640381,2|0,0:0|0:0,0:0:0:0:
189,250,167735,1,8,0:0:0:0:
192,270,167814,1,8,1:3:0:0:
195,289,167893,2,0,P|199:313|207:354,1,40.4999987640381,8|8,1:3|1:3,0:0:0:0:
279,97,168051,5,14,0:0:0:0:
112,203,168209,1,2,1:2:0:0:
305,300,168367,1,2,1:2:0:0:
112,203,168525,2,0,P|67:221|-2:231,1,99.0000030212403,14|0,0:0|0:0,0:0:0:0:
174,29,168841,6,0,P|201:35|232:37,1,49.5000015106202,10|0,0:0|1:2,0:0:0:0:
420,155,168998,1,8,0:0:0:0:
440,116,169076,1,8,0:0:0:0:
439,72,169155,1,8,0:0:0:0:
414,35,169234,1,8,0:0:0:0:
375,16,169314,6,0,P|368:46|359:83,1,49.5000015106202,6|0,1:2|1:2,0:0:0:0:
234,233,169472,1,10,0:0:0:0:
263,236,169550,1,8,0:0:0:0:
292,241,169629,1,10,0:0:0:0:
321,248,169708,1,8,0:0:0:0:
350,254,169788,2,0,B|431:266|388:322|494:332,1,148.50000453186,14|2,0:0|0:0,0:0:0:0:
503,331,170104,1,10,0:0:0:0:
349,152,170262,1,10,0:0:0:0:
187,334,170420,6,0,P|201:273|204:167,1,148.50000453186,6|0,1:2|0:0,0:0:0:0:
199,151,170735,1,10,0:0:0:0:
74,275,170893,1,10,0:0:0:0:
5,62,171051,6,0,B|23:2|104:15|104:15|79:44|95:87,1,175.499991966248,6|0,1:2|0:0,0:0:0:0:
199,151,171367,1,10,0:0:0:0:
207,135,171446,1,10,0:0:0:0:
197,120,171525,2,0,L|205:62,1,45,10|10,0:0|0:0,0:0:0:0:
13,237,171683,6,0,B|118:238|58:319|197:321,1,175.499991966248,6|0,1:2|0:0,0:0:0:0:
200,315,172018,1,0,1:2:0:0:
108,102,172190,6,0,L|92:163,1,45,10|0,0:0|0:0,0:0:0:0:
283,244,172340,2,0,L|275:193,1,45,10|0,0:0|0:0,0:0:0:0:
99,369,172490,1,10,0:0:0:0:
484,106,173149,6,0,P|482:57|417:42,1,107.999996704102,6|0,1:2|0:0,0:0:0:0:
308,118,173646,1,2,0:0:0:0:
248,165,173811,2,0,P|260:211|270:294,1,125.999996154785,2|0,0:0|0:0,0:0:0:0:
419,371,174266,1,2,0:0:0:0:
419,371,174430,2,0,P|425:331|446:248,1,116.999994644165,2|2,0:0|0:0,0:0:0:0:
367,186,174903,2,0,B|312:198|323:236|257:239,1,113.399996539307,2|2,0:0|0:0,0:0:0:0:
125,150,175542,2,0,P|148:107|251:128,1,161.999995056153,2|2,0:0|0:0,0:0:0:0:
383,79,176262,6,0,P|375:114|366:192,1,107.999996704102,2|0,0:0|0:0,0:0:0:0:
439,345,176736,1,2,0:0:0:0:
494,289,176900,2,0,P|508:248|459:189,1,116.999994644165,2|2,0:0|0:0,0:0:0:0:
353,295,177395,2,0,B|313:306|313:306|298:326|298:326|250:337,1,99.0000030212403,2|2,0:0|0:0,0:0:0:0:
122,263,178001,1,2,0:0:0:0:
122,263,178474,6,0,P|135:224|144:146,2,116.999994644165,2|2|2,0:0|0:0|0:0,0:0:0:0:
77,105,179421,2,0,P|121:74|200:97,1,116.999994644165,2|2,0:0|0:0,0:0:0:0:
275,199,180052,2,0,P|320:187|403:173,1,116.999994644165,2|2,0:0|0:0,0:0:0:0:
477,209,180526,2,0,B|473:258|473:258|485:287|485:287|481:338,1,116.999994644165,2|2,0:0|0:0,0:0:0:0:
402,378,180999,1,2,0:0:0:0:
72,38,182736,5,2,0:0:0:0:
21,99,182894,2,0,P|29:135|32:178,1,67.5,2|0,0:0|0:0,0:0:0:0:
37,206,183210,6,0,B|119:190|105:259|205:233,1,153.000002918243,6|0,1:2|1:2,0:0:0:0:
309,102,183684,1,2,0:0:0:0:
361,158,183842,2,0,P|385:187|372:239,2,76.5000014591217,2|0|0,1:2|0:0|1:2,0:0:0:0:
219,102,184315,1,2,0:0:0:0:
168,162,184473,2,0,P|179:207|185:249,1,76.5000014591217,2|0,1:2|0:0,0:0:0:0:
288,326,184789,1,2,1:2:0:0:
288,326,184947,2,0,P|295:289|306:249,1,76.5000014591217,2|0,0:0|1:2,0:0:0:0:
215,368,185263,1,2,0:0:0:0:
149,327,185421,1,0,1:2:0:0:
26,261,185578,5,2,0:0:0:0:
26,261,185657,1,8,0:0:0:0:
26,261,185736,2,0,P|15:210|99:178,1,153.000002918243,8|0,0:0|1:2,0:0:0:0:
201,70,186210,1,2,0:0:0:0:
137,24,186368,2,0,P|99:40|60:47,1,76.5000014591217,2|0,1:2|0:0,0:0:0:0:
198,157,186684,1,0,1:2:0:0:
290,18,186842,1,2,0:0:0:0:
290,18,186921,1,8,0:0:0:0:
290,18,186999,6,0,P|307:57|285:101,1,76.5000014591217,10|0,0:0|0:0,0:0:0:0:
386,237,187315,1,2,1:2:0:0:
469,109,187473,1,2,0:0:0:0:
469,109,187552,1,8,0:0:0:0:
469,109,187631,1,8,0:0:0:0:
286,204,187789,1,10,0:0:0:0:
450,314,187947,6,0,P|474:321|514:332,1,45,10|0,0:0|0:0,0:0:0:0:
274,368,188105,2,0,P|250:375|210:386,1,45,2|0,1:2|0:0,0:0:0:0:
256,192,189526,12,0,191736,0:0:0:0:
19,249,192052,6,0,P|64:253|122:264,1,90,6|0,1:2|1:2,0:0:0:0:
192,265,192289,1,0,1:2:0:0:
192,265,192368,2,0,B|200:240|200:240|186:209,1,45,8|8,0:0|0:0,0:0:0:0:
98,346,192526,1,2,1:2:0:0:
9,157,192684,6,0,P|15:135|21:100,1,45,2|0,1:2|1:2,0:0:0:0:
183,23,192842,1,8,0:0:0:0:
188,40,192921,1,8,0:0:0:0:
180,55,192999,2,0,P|184:84|189:133,1,45,4|0,1:2|1:2,0:0:0:0:
304,220,193157,1,10,0:0:0:0:
295,204,193236,1,8,0:0:0:0:
302,187,193315,6,0,B|296:149|296:149|305:135|305:135|292:72,1,90,2|0,1:2|1:2,0:0:0:0:
383,57,193552,1,8,0:0:0:0:
383,57,193631,2,0,P|415:61|453:65,1,45,10|0,0:0|1:2,0:0:0:0:
295,204,193789,2,0,P|263:208|225:212,1,45,2|0,1:2|1:2,0:0:0:0:
475,319,193947,5,8,0:0:0:0:
505,275,194025,1,10,0:0:0:0:
501,223,194104,1,2,1:2:0:0:
465,185,194183,1,2,1:2:0:0:
412,179,194262,1,10,1:3:0:0:
416,197,194342,1,10,1:3:0:0:
419,214,194421,1,10,1:3:0:0:
423,231,194499,1,10,1:3:0:0:
427,248,194578,6,0,B|332:263|371:328|252:333,1,175.499991966248,6|0,1:2|0:0,0:0:0:0:
238,320,194894,1,12,0:0:0:0:
66,370,195052,1,2,0:0:0:0:
66,370,195131,1,2,0:0:0:0:
66,370,195210,2,0,P|57:311|41:258,1,107.999996704102,2|0,1:2|1:2,0:0:0:0:
148,142,195526,1,8,0:0:0:0:
58,26,195684,2,0,P|23:34|-20:39,1,53.9999983520508,2|0,0:0|0:0,0:0:0:0:
148,142,195842,6,0,B|212:151|212:151|233:187|233:187|312:194,1,161.999995056153,2|0,1:2|0:0,0:0:0:0:
321,195,196157,1,10,0:0:0:0:
406,0,196315,2,0,P|361:17|293:21,1,107.999996704102,2|0,0:0|1:2,0:0:0:0:
468,250,196631,2,0,P|475:202|506:141,1,107.999996704102,2|8,1:2|0:0,0:0:0:0:
331,286,196947,1,2,0:0:0:0:
331,286,197026,1,2,0:0:0:0:
331,286,197105,6,0,B|262:235|206:297|206:297|212:336|170:366,1,188.999994232178,4|0,1:2|0:0,0:0:0:0:
170,378,197421,5,10,0:0:0:0:
96,329,197578,1,0,0:0:0:0:
221,283,197736,5,2,1:2:0:0:
33,384,197894,1,0,1:2:0:0:
130,149,198052,6,0,B|175:159|175:159|184:168|184:168|241:180,1,107.999996704102,10|0,0:0|0:0,0:0:0:0:
422,296,198368,5,2,1:2:0:0:
335,106,198526,1,0,1:2:0:0:
298,336,198684,1,10,0:0:0:0:
480,199,198842,1,0,0:0:0:0:
477,364,198999,5,2,1:2:0:0:
369,218,199157,1,2,1:2:0:0:
422,296,199315,5,10,0:0:0:0:
508,46,199473,2,0,B|406:38|446:116|311:106,1,188.999994232178,6|0,1:2|0:0,0:0:0:0:
298,94,199789,1,2,1:2:0:0:
178,16,199947,2,0,P|138:28|56:47,1,107.999996704102,10|2,0:0|1:2,0:0:0:0:
58,48,200184,1,2,0:0:0:0:
42,53,200263,1,10,0:0:0:0:
193,222,200421,2,0,P|197:201|211:163,1,53.9999983520508,2|0,1:2|0:0,0:0:0:0:
27,281,200578,1,8,0:0:0:0:
22,307,200657,1,8,0:0:0:0:
35,330,200736,6,0,B|74:331|111:316|111:316|159:347|159:347|197:331|240:333,1,202.500007724762,6|0,1:2|0:0,0:0:0:0:
266,324,201052,1,2,1:2:0:0:
80,113,201210,2,0,P|96:165|105:232,1,107.999996704102,10|0,0:0|1:2,0:0:0:0:
267,42,201526,6,0,P|260:75|253:110,1,53.9999983520508,8|0,0:0|1:2,0:0:0:0:
411,211,201684,2,0,P|404:178|397:140,1,53.9999983520508,0|0,1:2|1:2,0:0:0:0:
252,286,201842,1,10,0:0:0:0:
229,334,201920,1,10,0:0:0:0:
182,361,201999,1,10,0:0:0:0:
129,349,202078,1,10,0:0:0:0:
82,275,202157,6,0,B|146:242|195:302|195:302|205:356|269:364,1,202.500007724762,6|0,1:2|0:0,0:0:0:0:
329,261,202473,2,0,B|296:252|286:231|286:231|291:267|259:298,1,107.999996704102,12|2,0:0|0:0,0:0:0:0:
502,383,202789,2,0,P|506:321|519:242,1,107.999996704102,2|0,1:2|1:2,0:0:0:0:
406,101,203105,1,8,0:0:0:0:
329,261,203263,2,0,P|335:291|340:319,1,53.9999983520508,2|0,0:0|0:0,0:0:0:0:
406,101,203421,6,0,B|316:120|352:172|240:178,1,161.999995056153,2|0,1:2|0:0,0:0:0:0:
230,171,203736,1,10,0:0:0:0:
93,17,203894,2,0,P|152:30|211:36,1,107.999996704102,2|0,0:0|1:2,0:0:0:0:
26,210,204210,2,0,P|21:186|6:157,1,53.9999983520508,2|2,1:2|0:0,0:0:0:0:
131,304,204368,2,0,B|187:268|244:310|244:310|250:351|309:368,1,188.999994232178,14|0,0:0|0:0,0:0:0:0:
374,335,204684,6,0,B|389:301|389:301|366:258,1,67.5000025749208,0|2,1:2|1:2,0:0:0:0:
429,134,204921,1,2,0:0:0:0:
429,134,204999,2,0,B|407:64|330:90|330:90|355:145|311:200,1,202.500007724762,14|0,0:0|0:0,0:0:0:0:
213,46,205315,6,0,B|236:22|267:28|267:28|245:47|243:76,1,90,0|2,1:2|1:2,0:0:0:0:
179,171,205552,1,2,0:0:0:0:
179,171,205631,2,0,B|131:176|92:118|92:118|119:187|61:251,1,202.500007724762,14|0,0:0|0:0,0:0:0:0:
0,231,205947,6,0,B|109:213|67:313|214:273,1,188.999994232178,2|0,1:2|0:0,0:0:0:0:
214,270,206263,1,10,0:0:0:0:
330,64,206421,2,0,P|284:84|209:98,1,107.999996704102,2|0,0:0|1:2,0:0:0:0:
389,237,206736,2,0,P|450:246|522:269,1,107.999996704102,2|8,1:2|0:0,0:0:0:0:
307,373,207052,1,2,0:0:0:0:
307,373,207131,1,2,0:0:0:0:
307,373,207210,5,6,1:2:0:0:
202,212,207368,1,2,0:0:0:0:
105,379,207526,1,10,0:0:0:0:
297,235,207684,1,2,0:0:0:0:
98,132,207842,2,0,P|52:159|-18:173,1,107.999996704102,2|0,1:2|1:0,0:0:0:0:
182,299,208157,1,10,0:0:0:0:
282,132,208315,1,2,0:0:0:0:
90,257,208473,5,2,1:2:0:0:
277,352,208631,1,2,1:2:0:0:
90,257,208789,1,10,0:0:0:0:
314,98,208947,2,0,P|302:155|291:220,1,107.999996704102,2|0,0:0|1:2,0:0:0:0:
125,72,209263,2,0,P|120:45|111:2,1,53.9999983520508,0|8,1:0|0:0,0:0:0:0:
20,250,209421,1,8,0:0:0:0:
1,221,209499,1,8,0:0:0:0:
12,191,209578,6,0,B|121:197|74:266|197:270,1,188.999994232178,6|0,1:2|0:0,0:0:0:0:
211,257,209894,1,0,1:2:0:0:
422,380,210052,2,0,P|425:327|448:266,1,107.999996704102,10|0,0:0|0:0,0:0:0:0:
486,49,210368,2,0,P|438:72|374:83,1,107.999996704102,2|0,1:2|1:2,0:0:0:0:
271,181,210684,2,0,P|323:191|371:215,1,107.999996704102,10|0,0:0|0:0,0:0:0:0:
178,16,210999,5,2,1:2:0:0:
122,77,211157,1,0,1:2:0:0:
271,181,211315,2,0,P|260:134|251:67,1,107.999996704102,10|0,0:0|0:0,0:0:0:0:
116,206,211631,2,0,P|108:259|96:312,1,107.999996704102,2|0,1:2|1:2,0:0:0:0:
91,327,211868,1,8,0:0:0:0:
87,342,211947,1,10,0:0:0:0:
270,279,212105,2,0,P|234:275|179:268,1,53.9999983520508,0|0,1:2|0:0,0:0:0:0:
6,155,212263,6,0,P|19:207|36:276,1,90,14|0,0:0|0:0,0:0:0:0:
188,97,212578,5,8,0:0:0:0:
52,74,212736,1,0,0:0:0:0:
6,155,212894,5,8,0:0:0:0:
68,291,213052,1,0,1:2:0:0:
123,202,213210,5,10,0:0:0:0:
21,384,213368,1,0,1:2:0:0:
235,316,213526,5,10,0:0:0:0:
37,223,213684,1,0,0:0:0:0:
327,243,213842,5,10,0:0:0:0:
144,313,213999,1,0,0:0:0:0:
301,381,214157,5,10,0:0:0:0:
210,203,214315,1,0,1:2:0:0:
300,68,214473,5,10,0:0:0:0:
386,103,214631,1,0,1:2:0:0:
297,180,214789,6,0,P|252:191|204:204,1,90,10|0,0:0|0:0,0:0:0:0:
394,356,215105,2,0,P|432:362|492:373,1,90,10|0,0:0|0:0,0:0:0:0:
512,88,215421,5,10,0:0:0:0:
453,137,215578,1,0,1:2:0:0:
381,111,215736,1,10,0:0:0:0:
194,22,215894,6,0,B|132:35|132:35|112:71|112:71|30:88,1,161.999995056153,6|0,1:2|0:0,0:0:0:0:
21,91,216210,1,2,1:2:0:0:
174,180,216368,1,10,0:0:0:0:
41,305,216526,1,2,0:0:0:0:
174,180,216684,6,0,P|209:186|253:195,1,53.9999983520508,0|0,1:2|1:2,0:0:0:0:
422,321,216842,1,8,0:0:0:0:
447,274,216920,1,8,0:0:0:0:
439,221,216999,1,8,0:0:0:0:
401,184,217078,1,8,1:3:0:0:
349,178,217157,2,0,P|345:211|341:241,1,53.9999983520508,8|8,1:3|1:3,0:0:0:0:
127,53,217315,5,10,0:0:0:0:
153,49,217393,1,10,0:0:0:0:
180,46,217472,1,10,0:0:0:0:
207,42,217551,1,10,0:0:0:0:
236,38,217631,2,0,B|310:33,1,53.9999983520508,10|0,0:0|0:0,0:0:0:0:
79,277,217789,6,0,B|68:226|68:226|72:218|72:218|62:158,1,107.999996704102,2|0,1:2|0:0,0:0:0:0:
306,358,218105,2,0,B|317:307|317:307|313:299|313:299|323:239,1,107.999996704102,2|0,1:2|0:0,0:0:0:0:
14,375,218421,1,12,0:0:0:0:
14,375,218736,1,2,1:2:0:0:
184,204,218894,2,0,B|106:220|135:281|29:278,1,161.999995056153,8|0,0:0|0:0,0:0:0:0:
3,194,219210,6,0,P|16:142|23:63,1,107.999996704102,8|2,0:0|0:0,0:0:0:0:
296,9,219526,1,8,0:0:0:0:
300,46,219604,1,8,0:0:0:0:
305,83,219683,1,8,0:0:0:0:
313,121,219762,1,8,0:0:0:0:
322,157,219842,2,0,P|334:218|346:278,1,107.999996704102,6|0,1:2|0:0,0:0:0:0:
442,125,220157,5,8,0:0:0:0:
240,251,220315,1,0,1:2:0:0:
461,317,220473,5,10,0:0:0:0:
313,121,220631,1,0,1:2:0:0:
274,378,220789,5,8,0:0:0:0:
494,201,220947,1,0,1:2:0:0:
113,189,221105,5,10,0:0:0:0:
372,285,221263,1,0,1:2:0:0:
225,88,221421,5,8,0:0:0:0:
118,335,221578,1,0,1:2:0:0:
109,13,221736,5,10,0:0:0:0:
263,283,221894,1,0,1:2:0:0:
302,22,222052,5,8,0:0:0:0:
0,153,222210,1,2,0:0:0:0:
138,315,222368,5,10,0:0:0:0:
169,309,222446,1,8,1:3:0:0:
200,300,222525,1,8,1:3:0:0:
231,291,222604,1,8,1:3:0:0:
263,283,222684,2,0,P|298:276|331:268,1,53.9999983520508,8|8,1:3|1:3,0:0:0:0:
407,107,222842,5,10,0:0:0:0:
379,104,222920,1,8,1:3:0:0:
352,103,222999,1,8,1:3:0:0:
325,101,223078,1,8,1:3:0:0:
297,97,223158,2,0,P|261:93|226:91,1,53.9999983520508,8|8,1:3|1:3,0:0:0:0:
4,19,223315,5,10,0:0:0:0:
57,19,223393,1,10,0:0:0:0:
100,49,223472,1,10,0:0:0:0:
119,98,223551,1,10,0:0:0:0:
104,150,223630,1,10,0:0:0:0:
451,345,224894,5,6,1:2:0:0:
34,33,229947,6,0,P|41:74|43:112,1,76.5000014591217,2|0,1:2|0:0,0:0:0:0:
144,114,230263,2,0,P|137:76|135:38,1,76.5000014591217,2|0,1:2|0:0,0:0:0:0:
333,241,230578,6,0,P|333:199|339:161,1,76.5000014591217,2|0,1:2|0:0,0:0:0:0:
240,140,230894,2,0,P|239:178|234:216,1,76.5000014591217,2|0,1:2|0:0,0:0:0:0:
99,356,231210,5,2,1:2:0:0:
38,309,231368,1,0,0:0:0:0:
45,232,231526,1,2,1:2:0:0:
112,196,231684,1,0,0:0:0:0:
299,139,231842,5,2,1:2:0:0:
343,209,231999,1,0,0:0:0:0:
296,279,232157,1,2,1:2:0:0:
193,174,232315,5,0,1:2:0:0:
193,174,232394,1,8,0:0:0:0:
193,174,232473,2,0,P|186:134|179:90,1,76.5000014591217,10|0,0:0|1:0,0:0:0:0:
287,57,232710,1,0,1:0:0:0:
287,57,232789,2,0,P|292:101|298:141,1,76.5000014591217,2|0,1:2|0:0,0:0:0:0:
421,249,233105,6,0,P|455:261|497:226,1,76.5000014591217,2|0,1:2|0:0,0:0:0:0:
439,168,233421,1,2,1:2:0:0:
332,264,233578,1,0,1:0:0:0:
332,264,233657,1,0,1:0:0:0:
332,264,233736,6,0,P|284:279|225:297,1,90,2|0,1:2|1:2,0:0:0:0:
112,334,233973,1,0,1:2:0:0:
128,346,234052,1,8,1:3:0:0:
150,307,234130,1,8,1:3:0:0:
146,263,234209,1,8,1:3:0:0:
117,231,234288,1,8,1:3:0:0:
51,273,234368,6,0,B|179:289|121:370|269:377,1,236.250009012223,10|0,0:0|0:0,0:0:0:0:
332,264,234999,6,0,P|321:211|315:97,1,135,4|0,1:2|0:0,0:0:0:0:
321,91,235315,2,0,B|363:71|363:71|416:104,1,90,10|0,0:0|0:0,0:0:0:0:
232,233,235631,1,2,1:2:0:0:
232,233,235710,1,2,0:0:0:0:
232,233,235789,2,0,P|196:240|125:257,1,90,2|8,0:0|0:0,0:0:0:0:
105,245,236026,2,0,P|110:218|116:184,1,45,2|0,0:0|0:0,0:0:0:0:
321,330,236263,5,2,1:2:0:0:
387,374,236368,2,0,P|422:366|475:357,1,60,2|2,0:0|0:0,0:0:0:0:
496,249,236578,2,0,P|459:243|419:236,1,60,10|2,0:0|0:0,0:0:0:0:
337,155,236789,1,2,0:0:0:0:
457,73,236894,2,0,B|413:89|413:89|390:124|390:124|327:143,1,135,2|0,1:2|0:0,0:0:0:0:
257,101,237210,2,0,P|247:77|286:26,1,90,8|0,0:0|0:0,0:0:0:0:
98,129,237526,6,0,P|114:186|120:282,1,135,2|0,1:2|0:0,0:0:0:0:
208,298,237842,2,0,P|203:253|202:188,1,90,10|0,0:0|0:0,0:0:0:0:
91,369,238157,2,0,P|37:382|12:293,1,135,2|0,1:2|0:0,0:0:0:0:
12,280,238473,2,0,P|39:288|78:298,1,45,10|0,0:0|0:0,0:0:0:0:
221,112,238631,6,0,B|143:122|165:187|34:196,1,161.999995056153,12|0,0:0|0:0,0:0:0:0:
43,173,238947,2,0,B|33:154|33:154|50:129,1,45,2|0,1:2|0:0,0:0:0:0:
206,236,239105,2,0,B|194:254|194:254|164:251,1,45,10|0,0:0|0:0,0:0:0:0:
238,41,239263,2,0,B|261:39|261:39|283:67,1,45,2|0,0:0|0:0,0:0:0:0:
79,50,239421,6,0,P|85:25|90:-6,1,53.9999983520508,2|0,1:2|1:2,0:0:0:0:
308,185,239578,1,10,0:0:0:0:
309,201,239657,1,8,0:0:0:0:
311,217,239736,2,0,P|315:252|327:289,1,53.9999983520508,10|0,0:0|1:2,0:0:0:0:
82,377,239894,1,10,0:0:0:0:
35,351,239972,1,8,0:0:0:0:
11,303,240051,1,10,0:0:0:0:
16,250,240130,1,10,0:0:0:0:
50,209,240210,2,0,P|77:218|115:224,1,53.9999983520508,10|10,0:0|0:0,0:0:0:0:
304,48,240368,6,0,B|243:18|199:65|199:65|193:100|152:128,1,161.999995056153,6|0,1:2|0:0,0:0:0:0:
157,123,240684,1,2,1:2:0:0:
311,217,240842,1,2,0:0:0:0:
414,88,240999,1,2,1:2:0:0:
217,186,241157,6,0,P|231:251|243:375,1,161.999995056153,14|0,0:0|0:0,0:0:0:0:
245,376,241473,1,2,0:0:0:0:
446,185,241631,2,0,P|437:230|433:309,1,90,10|0,0:0|0:0,0:0:0:0:
259,73,241947,2,0,B|291:44|291:44|348:65,1,90,2|2,1:2|1:2,0:0:0:0:
364,79,242184,1,10,0:0:0:0:
364,79,242263,1,10,0:0:0:0:
253,257,242421,1,2,1:2:0:0:
150,123,242578,5,14,0:0:0:0:
367,214,242736,1,0,1:2:0:0:
160,322,242894,5,10,0:0:0:0:
288,115,243052,1,0,1:2:0:0:
368,376,243210,5,10,0:0:0:0:
164,223,243368,1,2,1:2:0:0:
387,67,243526,2,0,P|410:75|441:81,1,45,10|0,0:0|0:0,0:0:0:0:
164,223,243684,6,0,B|99:236|99:236|79:270|79:270|5:288,1,161.999995056153,6|0,1:2|0:0,0:0:0:0:
0,288,243999,1,2,1:2:0:0:
158,118,244157,1,10,0:0:0:0:
225,337,244315,1,10,0:0:0:0:
29,170,244473,6,0,P|34:141|40:99,1,53.9999983520508,10|0,0:0|0:0,0:0:0:0:
253,78,244631,2,0,P|258:112|263:147,1,53.9999983520508,10|0,0:0|0:0,0:0:0:0:
163,223,244789,6,0,P|159:196|155:169,1,53.9999983520508,10|0,0:0|0:0,0:0:0:0:
368,119,244947,2,0,P|363:145|359:172,1,53.9999983520508,10|0,0:0|0:0,0:0:0:0:
140,23,245105,5,2,1:2:0:0:
