osu file format v14

[General]
AudioFilename: audio.mp3
AudioLeadIn: 0
PreviewTime: -1
Countdown: 1
SampleSet: Soft
StackLeniency: 0.7
Mode: 0
LetterboxInBreaks: 0
WidescreenStoryboard: 0

[Editor]
Bookmarks: 11369
DistanceSpacing: 1
BeatDivisor: 4
GridSize: 4
TimelineZoom: 1

[Metadata]
Title:Rally Go Round
TitleUnicode:Rally Go Round
Artist:LiSA
ArtistUnicode:LiSA
Creator:ksg
Version:jklsdfsdjklfs
Source:
Tags:
BeatmapID:1505716
BeatmapSetID:712270

[Difficulty]
HPDrainRate:5
CircleSize:4
OverallDifficulty:9
ApproachRate:9.4
SliderMultiplier:1.9
SliderTickRate:1

[Events]
//Background and Video events
0,0,"saatana.jpg",0,0
//Break Periods
//Storyboard Layer 0 (Background)
//Storyboard Layer 1 (Fail)
//Storyboard Layer 2 (Pass)
//Storyboard Layer 3 (Foreground)
//Storyboard Sound Samples

[TimingPoints]
1264,315.789473684211,4,2,1,60,1,0
11211,-133.333333333333,4,2,1,60,0,0
18790,-100,4,2,1,60,0,0
31579,-133.333333333333,4,2,1,60,0,0
33948,-100,4,2,1,60,0,0
34421,-133.333333333333,4,2,1,60,0,0
39000,-100,4,2,1,60,0,0
51632,-133.333333333333,4,2,1,60,0,0
52737,-100,4,2,1,60,0,0
83369,-200,4,2,1,60,0,0
84632,-100,4,2,1,60,0,0
88264,-66.6666666666667,4,2,1,60,0,0

[HitObjects]
282,292,1264,5,0,0:0:0:0:
266,39,1421,1,0,0:0:0:0:
266,39,1737,1,0,0:0:0:0:
300,120,1895,6,0,P|359:136|422:105,1,95
456,65,2211,1,0,0:0:0:0:
476,147,2369,1,0,0:0:0:0:
366,44,2527,5,0,0:0:0:0:
470,52,2685,1,0,0:0:0:0:
476,147,2842,1,0,0:0:0:0:
337,187,3000,6,0,B|291:201|246:180|246:180|201:158|154:186,1,190
86,249,3474,1,0,0:0:0:0:
210,253,3632,1,0,0:0:0:0:
32,174,3790,5,0,0:0:0:0:
289,280,3948,1,0,0:0:0:0:
289,280,4264,1,0,0:0:0:0:
244,178,4421,6,0,P|197:171|153:186,1,95
86,249,4737,1,0,0:0:0:0:
210,253,4895,1,0,0:0:0:0:
135,92,5053,6,0,L|158:213,1,95,2|0,0:1|0:0,0:0:0:0:
321,33,5369,2,0,L|298:154,1,95,2|0,0:1|0:0,0:0:0:0:
86,249,5685,5,0,0:0:0:0:
113,271,5763,1,0,0:0:0:0:
147,279,5842,1,0,0:0:0:0:
182,273,5921,1,0,0:0:0:0:
210,253,6000,1,0,0:0:0:0:
49,151,6158,1,0,0:0:0:0:
219,69,6316,6,0,P|269:93|326:93,1,95
434,44,6632,1,0,0:0:0:0:
427,171,6790,5,0,0:0:0:0:
427,171,6869,1,0,0:0:0:0:
427,171,6948,1,0,0:0:0:0:
307,95,7106,1,0,0:0:0:0:
509,111,7264,1,0,0:0:0:0:
387,279,7421,2,0,P|350:268|322:268,1,47.5
345,160,7579,6,0,P|299:171|256:152,1,95
130,60,7895,2,0,P|175:49|218:68,1,95
218,68,8132,1,0,0:0:0:0:
218,68,8211,1,0,0:0:0:0:
144,167,8369,1,0,0:0:0:0:
246,267,8527,1,0,0:0:0:0:
77,308,8685,5,0,0:0:0:0:
77,308,8764,1,0,0:0:0:0:
77,308,8842,2,0,P|122:297|165:316,1,95
319,208,9158,1,0,0:0:0:0:
140,162,9316,5,0,0:0:0:0:
140,162,9395,1,0,0:0:0:0:
140,162,9474,1,0,0:0:0:0:
246,267,9632,1,0,0:0:0:0:
382,148,9790,1,0,0:0:0:0:
130,73,9948,6,0,P|56:131|95:226,1,190
26,22,10421,1,0,0:0:0:0:
103,231,10579,6,0,L|212:200,1,95
382,148,10895,1,0,0:0:0:0:
357,188,10973,1,0,0:0:0:0:
355,235,11052,1,0,0:0:0:0:
376,277,11131,1,0,0:0:0:0:
418,304,11211,6,0,B|483:313|516:264|516:264|488:248|457:257,1,142.500005435944
336,352,11685,2,0,P|296:356|256:344,1,71.2500027179719
264,201,12000,2,0,P|224:197|184:209,1,71.2500027179719
90,302,12316,2,0,P|50:306|10:294,1,71.2500027179719
48,118,12632,5,0,0:0:0:0:
96,199,12790,1,0,0:0:0:0:
53,105,12948,5,0,0:0:0:0:
91,212,13106,1,0,0:0:0:0:
170,118,13264,2,0,P|178:69|168:27,2,71.2500027179719
175,340,13737,2,0,P|228:347|232:270,1,142.500005435944
173,200,14211,1,0,0:0:0:0:
260,254,14369,1,0,0:0:0:0:
351,207,14527,2,0,P|396:210|436:224,1,71.2500027179719
265,149,14842,1,0,0:0:0:0:
356,102,15000,6,0,P|401:105|441:119,1,71.2500027179719
313,313,15316,2,0,P|358:310|398:296,1,71.2500027179719
195,138,15632,2,0,P|240:141|280:155,1,71.2500027179719
135,267,15948,5,0,0:0:0:0:
178,68,16106,1,0,0:0:0:0:
260,254,16264,1,0,0:0:0:0:
57,277,16421,6,0,P|47:229|48:131,1,142.500005435944
194,215,16895,1,0,0:0:0:0:
255,72,17053,2,0,P|307:69|355:80,1,71.2500027179719
287,170,17369,1,0,0:0:0:0:
152,114,17527,1,0,0:0:0:0:
325,0,17685,6,0,P|328:52|317:100,1,71.2500027179719
194,215,18000,2,0,P|191:267|202:315,1,71.2500027179719
319,279,18316,5,0,0:0:0:0:
177,133,18474,1,0,0:0:0:0:
122,325,18632,1,0,0:0:0:0:
400,310,18790,6,0,P|410:244|409:189,1,95
400,36,19106,1,0,0:0:0:0:
287,201,19264,2,0,L|193:214,1,95
28,235,19579,5,0,0:0:0:0:
15,201,19657,1,0,0:0:0:0:
15,166,19736,1,0,0:0:0:0:
28,133,19815,1,0,0:0:0:0:
51,107,19895,5,0,0:0:0:0:
87,108,19973,1,0,0:0:0:0:
121,99,20052,1,0,0:0:0:0:
412,302,21000,5,0,0:0:0:0:
372,158,21158,1,0,0:0:0:0:
150,268,21316,6,0,B|202:285|246:257|246:257|295:226|349:257,1,190
197,83,21790,2,0,L|189:196,1,95
325,343,22106,6,0,L|331:248,1,95
150,268,22421,2,0,L|142:381,1,95
372,158,22737,6,0,L|380:45,1,95
190,177,23053,2,0,P|249:179|299:155,1,95
105,96,23369,5,0,0:0:0:0:
82,212,23527,1,0,0:0:0:0:
225,96,23685,1,0,0:0:0:0:
17,136,23842,2,0,P|2:193|23:329,1,190
146,316,24316,5,0,0:0:0:0:
82,212,24474,1,0,0:0:0:0:
80,369,24632,5,0,0:0:0:0:
225,325,24790,2,0,P|274:319|336:340,1,95
509,276,25106,6,0,P|460:270|398:291,1,95
268,192,25421,2,0,P|324:233|347:282,1,95
472,141,25737,6,0,P|416:182|393:231,1,95
339,133,26053,1,0,0:0:0:0:
317,330,26211,1,0,0:0:0:0:
403,202,26369,1,0,0:0:0:0:
225,325,26527,6,0,B|179:342|139:308|139:308|83:285|49:327,1,190
196,250,27000,1,0,0:0:0:0:
32,151,27158,2,0,P|23:210|38:267,2,95
174,142,27632,6,0,P|230:144|302:266,1,190
110,214,28106,1,0,0:0:0:0:
99,73,28264,1,0,0:0:0:0:
303,102,28421,5,0,0:0:0:0:
174,142,28579,1,0,0:0:0:0:
202,18,28737,1,0,0:0:0:0:
383,94,28895,6,0,P|339:172|251:162,1,190
398,77,29369,2,0,L|520:89,1,95
363,253,29685,2,0,L|241:265,1,95
303,102,30000,1,0,0:0:0:0:
453,198,30158,6,0,P|461:257|443:322,1,95
316,343,30474,1,0,0:0:0:0:
250,161,30632,1,0,0:0:0:0:
453,198,30790,1,0,0:0:0:0:
453,198,30869,1,0,0:0:0:0:
453,198,30948,1,0,0:0:0:0:
217,277,31106,1,0,0:0:0:0:
217,277,31185,1,0,0:0:0:0:
217,277,31264,1,0,0:0:0:0:
62,105,31421,5,0,0:0:0:0:
62,105,31500,1,0,0:0:0:0:
62,105,31579,2,0,B|46:136|57:175|57:175|83:202|121:198,1,142.500005435944
255,146,32053,1,0,0:0:0:0:
352,237,32211,2,0,P|310:237|265:219,1,71.2500027179719
167,132,32527,1,0,0:0:0:0:
313,73,32685,6,0,P|329:116|329:162,1,71.2500027179719
296,306,33000,1,0,0:0:0:0:
198,208,33158,2,0,P|202:243|216:276,1,71.2500027179719
330,141,33474,5,0,0:0:0:0:
167,132,33632,1,0,0:0:0:0:
352,237,33790,1,0,0:0:0:0:
147,41,33948,6,0,P|95:74|123:211,1,190
75,349,34421,2,0,P|88:316|93:280,1,71.2500027179719
198,208,34737,2,0,P|202:243|216:276,1,71.2500027179719
167,132,35053,1,0,0:0:0:0:
311,209,35211,6,0,P|324:176|329:140,1,71.2500027179719
434,68,35527,2,0,P|438:103|452:136,1,71.2500027179719
292,61,35842,1,0,0:0:0:0:
404,211,36000,5,0,0:0:0:0:
249,134,36158,1,0,0:0:0:0:
452,136,36316,1,0,0:0:0:0:
346,304,36474,6,0,B|310:319|276:304|276:304|239:289|202:308,1,142.500005435944
309,237,36948,1,0,0:0:0:0:
251,377,37106,1,0,0:0:0:0:
251,377,37185,1,0,0:0:0:0:
250,376,37264,2,0,P|182:381|122:324,1,142.500005435944
113,129,37737,6,0,P|150:176|119:275,1,142.500005435944
67,205,38211,1,0,0:0:0:0:
144,40,38369,1,0,0:0:0:0:
249,184,38527,5,0,0:0:0:0:
38,98,38685,1,0,0:0:0:0:
254,77,38842,1,0,0:0:0:0:
244,291,39000,6,0,B|57:255,1,190
249,184,39474,1,0,0:0:0:0:
273,363,39632,1,0,0:0:0:0:
335,155,39790,5,0,0:0:0:0:
180,358,39948,1,0,0:0:0:0:
156,179,40106,1,0,0:0:0:0:
359,334,40264,6,0,B|405:343|456:321|456:321|441:261|459:212,1,190
489,117,40737,1,0,0:0:0:0:
334,232,40895,1,0,0:0:0:0:
250,107,41053,5,0,0:0:0:0:
402,181,41211,1,0,0:0:0:0:
256,275,41369,1,0,0:0:0:0:
319,51,41527,6,0,B|349:90|330:142|330:142|310:188|334:232,1,190
452,333,42000,2,0,P|405:338|358:333,1,95
256,275,42316,2,0,P|208:269|161:275,1,95
59,333,42632,1,0,0:0:0:0:
3,224,42790,6,0,P|-2:176|0:129,1,95
105,166,43106,1,0,0:0:0:0:
59,333,43264,1,0,0:0:0:0:
161,275,43421,2,0,P|211:268|352:323,1,190
444,227,43895,5,0,0:0:0:0:
444,227,43974,1,0,0:0:0:0:
444,227,44053,2,0,B|426:155|426:155|447:114|447:114|429:41,1,190
321,113,44527,1,0,0:0:0:0:
256,32,44685,1,0,0:0:0:0:
191,113,44842,1,0,0:0:0:0:
81,46,45000,2,0,L|57:138,1,95
146,289,45316,6,0,L|169:196,1,95
191,113,45632,1,0,0:0:0:0:
55,263,45790,1,0,0:0:0:0:
234,306,45948,6,0,P|321:284|326:196,1,190
388,341,46421,1,0,0:0:0:0:
262,236,46579,6,0,P|267:147|353:125,1,190
415,266,47053,1,0,0:0:0:0:
234,306,47211,1,0,0:0:0:0:
353,125,47369,5,0,0:0:0:0:
388,341,47527,1,0,0:0:0:0:
169,222,47685,1,0,0:0:0:0:
418,85,47842,6,0,P|412:173|326:195,1,190
197,77,48316,1,0,0:0:0:0:
234,306,48474,1,0,0:0:0:0:
353,125,48632,5,0,0:0:0:0:
65,175,48790,1,0,0:0:0:0:
234,306,48948,1,0,0:0:0:0:
189,3,49106,6,0,P|125:64|167:142,1,190
353,125,49579,1,0,0:0:0:0:
202,341,49737,1,0,0:0:0:0:
197,77,49895,5,0,0:0:0:0:
356,287,50053,1,0,0:0:0:0:
103,210,50211,1,0,0:0:0:0:
296,29,50369,6,0,P|346:32|401:56,1,95
387,47,50606,1,0,0:0:0:0:
387,47,50685,1,0,0:0:0:0:
229,194,50842,1,0,0:0:0:0:
189,3,51000,1,0,0:0:0:0:
353,150,51158,5,0,0:0:0:0:
365,183,51236,1,0,0:0:0:0:
370,218,51315,1,0,0:0:0:0:
367,253,51394,1,0,0:0:0:0:
356,287,51473,1,0,0:0:0:0:
89,99,51632,6,0,P|133:82|233:102,1,142.500005435944
356,287,52264,6,0,P|312:304|212:284,1,142.500005435944
217,283,52658,1,0,0:0:0:0:
213,277,52737,2,0,L|222:147,1,95
457,200,53053,6,0,L|463:294,1,95
226,87,53369,2,0,L|219:181,1,95
503,122,53685,6,0,P|437:113|389:137,1,95
172,260,54000,2,0,P|238:269|286:245,1,95
408,26,54316,6,0,L|411:137,1,95
266,355,54632,2,0,L|263:260,1,95
463,294,54948,5,0,0:0:0:0:
307,197,55106,2,0,P|368:189|419:207,1,95
187,333,55421,2,0,P|126:341|75:323,1,95
207,181,55737,1,0,0:0:0:0:
352,295,55895,2,0,L|346:389,1,95
144,253,56211,5,0,0:0:0:0:
307,197,56369,1,0,0:0:0:0:
266,355,56527,1,0,0:0:0:0:
124,176,56685,6,0,P|117:118|130:62,1,95
243,266,57000,1,0,0:0:0:0:
305,103,57158,2,0,P|312:161|299:217,1,95
186,13,57473,5,0,0:0:0:0:
0,130,57632,1,0,0:0:0:0:
211,186,57790,1,0,0:0:0:0:
391,76,57948,6,0,P|449:79|495:103,1,95
305,103,58264,1,0,0:0:0:0:
488,9,58421,1,0,0:0:0:0:
327,192,58579,6,0,P|269:189|223:165,1,95
413,165,58895,1,0,0:0:0:0:
230,259,59052,1,0,0:0:0:0:
487,310,59211,6,0,P|426:291|295:341,1,190
149,373,59685,1,0,0:0:0:0:
26,282,59842,2,0,L|33:393,1,95
161,149,60158,2,0,L|154:260,1,95
10,31,60474,6,0,P|71:50|202:0,1,190
348,85,60948,2,0,P|280:73|225:88,1,95
155,243,61264,2,0,P|223:255|278:240,1,95
78,138,61579,1,0,0:0:0:0:
144,338,61737,1,0,0:0:0:0:
268,151,61895,5,0,0:0:0:0:
30,298,62053,1,0,0:0:0:0:
269,332,62211,1,0,0:0:0:0:
178,132,62369,1,0,0:0:0:0:
178,132,62448,1,0,0:0:0:0:
178,132,62527,1,0,0:0:0:0:
378,152,62685,5,0,0:0:0:0:
385,182,62763,1,0,0:0:0:0:
388,214,62842,1,0,0:0:0:0:
388,245,62921,1,0,0:0:0:0:
383,277,63000,1,0,0:0:0:0:
375,307,63079,1,0,0:0:0:0:
362,336,63158,6,0,P|299:340|249:322,1,95
47,217,63474,2,0,P|110:213|160:231,1,95
268,151,63790,6,0,L|254:284,1,95
64,34,64106,2,0,L|73:128,1,95
90,313,64421,5,0,0:0:0:0:
173,151,64579,2,0,P|227:146|289:155,1,95
134,229,64895,1,0,0:0:0:0:
223,66,65053,1,0,0:0:0:0:
306,228,65211,2,0,P|360:233|422:224,1,95
173,151,65527,6,0,P|82:157|54:260,1,190
204,308,66000,1,0,0:0:0:0:
267,150,66158,6,0,P|220:145|173:151,1,95
306,228,66474,1,0,0:0:0:0:
223,66,66632,1,0,0:0:0:0:
134,229,66790,6,0,P|181:233|228:228,1,95
405,63,67106,2,0,P|357:58|310:63,1,95
470,221,67421,1,0,0:0:0:0:
510,95,67579,5,0,0:0:0:0:
343,135,67737,1,0,0:0:0:0:
461,256,67895,1,0,0:0:0:0:
405,63,68053,6,0,P|357:58|310:63,1,95
143,143,68369,1,0,0:0:0:0:
366,169,68527,5,0,0:0:0:0:
128,62,68685,1,0,0:0:0:0:
303,217,68842,5,0,0:0:0:0:
204,27,69000,1,0,0:0:0:0:
164,236,69158,1,0,0:0:0:0:
366,169,69316,6,0,P|327:142|280:141,1,95
237,283,69632,1,0,0:0:0:0:
431,221,69790,1,0,0:0:0:0:
302,49,69948,6,0,L|280:140,1,95
237,283,70264,1,0,0:0:0:0:
431,221,70421,1,0,0:0:0:0:
189,118,70579,6,0,B|138:100|95:116|95:116|49:135|3:112,1,190
172,212,71053,2,0,P|219:208|259:183,1,95
139,9,71369,2,0,P|92:12|52:38,1,95
71,221,71685,1,0,0:0:0:0:
283,106,71842,6,0,L|188:117,1,95
331,294,72158,2,0,L|236:282,1,95
412,145,72474,1,0,0:0:0:0:
389,352,72632,1,0,0:0:0:0:
267,191,72790,5,0,0:0:0:0:
267,191,72869,1,0,0:0:0:0:
267,191,72948,2,0,L|322:203,1,47.5
453,269,73106,2,0,L|398:281,1,47.5
176,322,73264,6,0,P|161:263|170:217,1,95
193,121,73579,1,0,0:0:0:0:
270,333,73737,6,0,P|223:333|175:321,1,95
20,173,74053,2,0,P|66:172|114:161,1,95
336,123,74369,6,0,B|384:143|393:197|393:197|407:147|450:127,1,190
397,36,74842,5,0,0:0:0:0:
304,209,75000,1,0,0:0:0:0:
495,214,75158,5,0,0:0:0:0:
276,65,75316,1,0,0:0:0:0:
249,302,75474,5,0,0:0:0:0:
447,128,75632,1,0,0:0:0:0:
205,36,75790,6,0,P|200:83|226:122,1,95
323,2,76106,1,0,0:0:0:0:
126,63,76264,6,0,L|12:57,1,95
192,221,76579,2,0,L|78:227,1,95
276,65,76895,6,0,P|301:104|297:150,1,95
97,225,77211,1,0,0:0:0:0:
199,7,77369,5,0,0:0:0:0:
286,242,77527,1,0,0:0:0:0:
89,133,77685,5,0,0:0:0:0:
334,122,77842,2,0,P|299:147|290:164,1,47.5
220,321,78000,5,0,0:0:0:0:
200,291,78078,1,0,0:0:0:0:
190,257,78157,1,0,0:0:0:0:
192,221,78236,1,0,0:0:0:0:
203,188,78316,6,0,B|228:141|203:96|203:96|175:47|199:6,1,190
396,87,78790,2,0,P|335:79|298:53,1,95
17,172,79106,2,0,P|78:164|115:138,1,95
287,259,79421,6,0,B|294:313|257:381|257:381|293:383|317:362,1,190
359,169,79895,5,0,0:0:0:0:
187,318,80053,1,0,0:0:0:0:
420,368,80211,5,0,0:0:0:0:
267,166,80369,1,0,0:0:0:0:
160,384,80527,1,0,0:0:0:0:
423,230,80685,5,0,0:0:0:0:
423,230,80842,2,0,P|451:180|439:129,1,95
287,259,81158,1,0,0:0:0:0:
282,75,81316,6,0,P|208:108|266:165,1,190
385,60,81790,1,0,0:0:0:0:
127,95,81948,6,0,B|132:159|132:159|167:210|167:210|175:280,1,190
183,355,82421,5,0,0:0:0:0:
61,191,82579,1,0,0:0:0:0:
266,165,82737,5,0,0:0:0:0:
76,308,82895,1,0,0:0:0:0:
48,80,83053,5,0,0:0:0:0:
291,264,83211,1,0,0:0:0:0:
291,264,83290,1,0,0:0:0:0:
291,264,83369,2,0,P|301:312|247:323,1,95
444,94,84632,6,0,L|332:78,1,95
236,59,84948,1,0,0:0:0:0:
338,170,85106,5,0,0:0:0:0:
338,170,85185,1,0,0:0:0:0:
338,170,85264,1,0,0:0:0:0:
305,5,85421,1,0,0:0:0:0:
203,138,85579,2,0,P|196:201|220:264,1,95
377,296,85895,6,0,P|325:258|259:247,1,95
153,367,86211,1,0,0:0:0:0:
308,345,86369,5,0,0:0:0:0:
308,345,86448,1,0,0:0:0:0:
308,345,86527,1,0,0:0:0:0:
203,231,86685,1,0,0:0:0:0:
233,383,86842,1,0,0:0:0:0:
256,173,87000,1,0,0:0:0:0:
57,264,87158,6,0,P|116:283|161:281,1,95
27,176,87474,1,0,0:0:0:0:
153,367,87632,1,0,0:0:0:0:
256,173,87790,5,0,0:0:0:0:
256,173,87869,1,0,0:0:0:0:
256,173,87948,1,0,0:0:0:0:
0,312,88106,1,0,0:0:0:0:
329,265,88264,6,0,P|369:204|347:112,1,142.500005435944
148,282,88579,1,0,0:0:0:0:
430,284,88737,1,0,0:0:0:0:
289,45,88895,6,0,P|248:105|270:197,1,142.500005435944
470,28,89210,1,0,0:0:0:0:
192,19,89368,1,0,0:0:0:0:
329,265,89527,5,0,0:0:0:0:
