osu file format v14

[General]
AudioFilename: audio.mp3
AudioLeadIn: 0
PreviewTime: 52263
Countdown: 0
SampleSet: Soft
StackLeniency: 0.6
Mode: 0
LetterboxInBreaks: 0
WidescreenStoryboard: 0

[Editor]
DistanceSpacing: 1
BeatDivisor: 4
GridSize: 4
TimelineZoom: 2.4

[Metadata]
Title:Rally Go Round (TV Size)
TitleUnicode:Rally Go Round (TV Size)
Artist:LiSA
ArtistUnicode:LiSA
Creator:silverin0
Version:Normal
Source:ニセコイ:
Tags:nisekoi: false love 2nd season 2 opening japanese anime rock
BeatmapID:2391952
BeatmapSetID:1145661

[Difficulty]
HPDrainRate:3
CircleSize:3
OverallDifficulty:4
ApproachRate:5
SliderMultiplier:1.1
SliderTickRate:1

[Events]
//Background and Video events
0,0,"nskipink.jpg",0,0
//Break Periods
//Storyboard Layer 0 (Background)
//Storyboard Layer 1 (Fail)
//Storyboard Layer 2 (Pass)
//Storyboard Layer 3 (Foreground)
//Storyboard Layer 4 (Overlay)
//Storyboard Sound Samples

[TimingPoints]
632,315.789473684211,4,2,1,60,1,0
632,-100,4,2,1,60,0,0
5684,-100,4,2,1,80,0,0
10737,-100,4,2,1,80,0,0
11053,-100,4,2,1,50,0,0
20368,-100,4,2,1,70,0,0
20684,-100,4,2,1,65,0,0
30947,-100,4,2,1,55,0,0
33316,-100,4,2,1,65,0,0
35842,-100,4,2,1,50,0,0
38368,-100,4,2,1,65,0,0
40895,-100,4,2,1,60,0,0
52421,-100,4,2,1,80,0,0
72632,-100,4,2,1,70,0,0
77684,-100,4,2,1,80,0,0
84000,-100,4,2,1,70,0,0
88895,-100,4,2,1,80,0,0

[Colours]
Combo1 : 228,139,58
Combo2 : 255,34,117
Combo3 : 36,201,255
Combo4 : 255,235,89

[HitObjects]
267,333,632,6,0,L|326:327,1,55,8|8,0:0|0:0,0:0:0:0:
427,359,1105,1,2,0:0:0:0:
427,359,1263,2,0,P|428:299|405:256,1,110,2|2,0:0|0:0,0:0:0:0:
323,181,1895,2,0,L|318:117,2,55,2|2|2,0:0|0:0|1:2,0:0:0:0:
279,214,2368,2,0,L|99:229,1,165,10|4,0:0|0:3,0:0:0:0:
34,152,3158,6,0,L|38:97,1,55,8|8,0:0|0:0,0:0:0:0:
115,18,3632,1,2,0:0:0:0:
115,18,3789,2,0,P|144:64|145:122,1,110,2|2,0:0|0:0,0:0:0:0:
129,227,4421,2,0,P|191:221|232:189,1,110,2|2,0:0|0:0,0:0:0:0:
267,90,5053,2,0,L|262:35,2,55,0|0|12,1:0|1:0|0:0,0:0:0:0:
354,165,5684,5,4,1:2:0:0:
354,165,5842,2,0,P|366:219|345:269,1,110,0|10,1:0|0:0,0:0:0:0:
299,299,6316,1,2,1:2:0:0:
214,228,6632,1,10,0:0:0:0:
126,294,6947,1,2,1:2:0:0:
126,294,7105,2,0,L|71:299,1,55,2|10,1:2|0:0,0:0:0:0:
20,309,7421,2,0,P|8:255|29:205,1,110,10|0,0:0|1:0,0:0:0:0:
67,165,7895,1,8,0:0:0:0:
174,133,8210,5,4,1:2:0:0:
174,133,8368,2,0,L|285:123,1,110,0|10,1:0|0:0,0:0:0:0:
338,119,8842,1,2,1:2:0:0:
425,185,9158,1,10,0:0:0:0:
425,185,9316,2,0,P|436:238|415:292,1,110,6|2,1:2|1:2,0:0:0:0:
369,307,9789,1,10,0:0:0:0:
369,307,9947,2,0,L|258:316,1,110,6|10,1:2|0:0,0:0:0:0:
208,293,10421,1,10,0:0:0:0:
208,293,10579,1,6,1:2:0:0:
16,204,11053,6,0,P|5:150|26:100,1,110,2|2,1:2|1:2,0:0:0:0:
122,47,11684,1,2,1:2:0:0:
187,135,12000,2,0,L|254:140,1,55,2|2,1:2|0:0,0:0:0:0:
296,144,12316,1,2,1:2:0:0:
369,62,12632,2,0,L|436:67,1,55,2|2,1:2|0:0,0:0:0:0:
478,71,12947,1,2,1:2:0:0:
478,71,13105,6,0,L|492:238,1,165,10|2,0:0|1:2,0:0:0:0:
425,323,13895,1,2,1:2:0:0:
356,245,14210,1,2,1:2:0:0:
356,245,14368,2,0,L|244:254,1,110,2|2,0:0|0:0,0:0:0:0:
156,309,15000,2,0,P|140:257|156:205,1,110,2|14,0:0|0:0,0:0:0:0:
249,147,15632,6,0,L|417:132,1,165,14|0,0:0|1:0,0:0:0:0:
472,130,16263,1,2,0:0:0:0:
472,130,16421,1,2,1:2:0:0:
488,243,16737,1,2,1:2:0:0:
488,243,16895,2,0,P|443:309|364:292,1,165,2|0,0:0|1:0,0:0:0:0:
276,234,17684,2,0,L|199:240,1,55,2|2,1:2|0:0,0:0:0:0:
170,243,18000,1,2,1:2:0:0:
170,243,18158,6,0,P|109:174|150:98,1,165,12|14,0:0|0:0,0:0:0:0:
225,58,18947,2,0,L|230:3,2,55,10|8|8,0:0|0:0|0:0,0:0:0:0:
253,105,19421,1,2,1:2:0:0:
390,351,20368,2,0,L|385:296,1,55,8|8,0:0|0:0,0:0:0:0:
377,242,20684,6,0,P|327:218|274:229,1,110,4|0,1:2|1:0,0:0:0:0:
235,267,21158,2,0,L|175:272,1,55,10|0,0:0|0:0,0:0:0:0:
123,276,21474,1,2,1:2:0:0:
37,207,21789,1,10,0:0:0:0:
97,115,22105,2,0,L|102:51,2,55,2|0|10,1:2|1:0|0:0,0:0:0:0:
193,168,22737,2,0,P|225:169|252:162,1,55,2|2,1:2|1:2,0:0:0:0:
295,136,23053,1,10,0:0:0:0:
295,136,23210,6,0,L|404:145,1,110,2|0,1:2|1:0,0:0:0:0:
425,196,23684,2,0,L|420:255,1,55,10|2,0:0|0:0,0:0:0:0:
415,305,24000,1,2,1:2:0:0:
415,305,24158,1,2,1:2:0:0:
304,311,24474,2,0,P|253:290|201:303,1,110,2|2,0:0|1:2,0:0:0:0:
101,348,25105,2,0,P|90:295|110:244,1,110,2|2,0:0|1:2,0:0:0:0:
203,186,25737,1,6,1:2:0:0:
203,186,25895,6,0,L|325:193,1,110,2|8,0:0|0:0,0:0:0:0:
371,196,26368,1,2,0:0:0:0:
371,196,26526,2,0,P|390:147|377:78,1,110,2|10,1:2|0:0,0:0:0:0:
350,46,27000,1,2,0:0:0:0:
191,93,27474,1,8,0:0:0:0:
88,54,27789,2,0,L|92:0,2,55,2|2|10,1:2|1:2|0:0,0:0:0:0:
75,107,28263,6,0,L|84:218,1,110,2|2,1:2|1:2,0:0:0:0:
93,271,28737,2,0,P|125:272|148:266,1,55,10|0,0:0|0:0,0:0:0:0:
198,246,29053,1,2,1:2:0:0:
236,143,29368,1,8,0:0:0:0:
236,143,29526,2,0,L|345:154,1,110,2|2,0:0|1:2,0:0:0:0:
400,162,30000,2,0,L|395:107,1,55,10|10,0:0|0:0,0:0:0:0:
385,52,30316,1,10,0:0:0:0:
279,20,30632,2,0,L|219:14,1,55,8|8,0:0|0:0,0:0:0:0:
170,27,30947,6,0,P|125:69|150:180,1,165,6|2,1:2|1:2,0:0:0:0:
175,203,31579,1,10,0:0:0:0:
129,305,31895,1,0,1:0:0:0:
129,305,32053,2,0,L|298:334,1,165,2|2,1:2|0:0,0:0:0:0:
401,322,32842,1,8,0:2:0:0:
365,223,33158,1,10,0:0:0:0:
365,223,33316,6,0,L|353:96,1,110,6|0,1:2|1:0,0:0:0:0:
350,60,33789,1,10,0:0:0:0:
254,4,34105,1,2,1:2:0:0:
198,100,34421,1,10,0:0:0:0:
198,100,34579,2,0,L|209:227,1,110,2|2,1:2|1:2,0:0:0:0:
213,263,35053,1,8,0:0:0:0:
150,353,35368,2,0,L|94:348,1,55,2|2,1:2|1:2,0:0:0:0:
48,330,35684,1,10,0:0:0:0:
48,330,35842,6,0,L|34:165,1,165,6|2,1:2|0:0,0:0:0:0:
91,71,36632,2,0,P|141:50|194:61,1,110,10|2,0:0|1:2,0:0:0:0:
234,99,37105,2,0,L|249:264,1,165,2|2,1:2|0:0,0:0:0:0:
325,343,37895,2,0,P|353:339|379:328,1,55,10|2,0:0|1:2,0:0:0:0:
410,286,38210,1,10,0:0:0:0:
410,286,38368,6,0,L|419:174,1,110,6|0,1:2|1:0,0:0:0:0:
424,123,38842,1,10,0:0:0:0:
336,56,39158,2,0,L|331:1,2,55,2|2|10,1:2|1:2|0:0,0:0:0:0:
308,104,39632,2,0,L|197:114,1,110,6|0,1:2|1:0,0:0:0:0:
144,121,40105,1,8,0:0:0:0:
73,205,40421,2,0,L|66:276,1,55,10|6,0:3|0:3,0:0:0:0:
62,314,40737,1,2,1:2:0:0:
62,314,40895,6,0,P|116:330|169:323,1,110,6|0,1:2|1:0,0:0:0:0:
216,297,41368,1,8,0:0:0:0:
276,204,41684,2,0,L|335:199,2,55,2|0|10,1:2|1:0|0:0,0:0:0:0:
227,176,42158,2,0,L|237:67,1,110,2|2,1:2|1:2,0:0:0:0:
241,12,42632,1,10,0:0:0:0:
241,12,42789,1,2,0:0:0:0:
372,121,43263,1,8,0:0:0:0:
372,121,43421,6,0,L|360:248,1,110,2|2,1:2|1:2,0:0:0:0:
323,270,43895,2,0,L|267:266,1,55,10|2,0:0|0:0,0:0:0:0:
213,264,44210,1,2,1:2:0:0:
213,264,44368,1,2,1:2:0:0:
119,203,44684,2,0,P|108:149|129:99,1,110,6|2,1:2|1:2,0:0:0:0:
223,42,45316,2,0,L|334:51,1,110,4|0,1:2|1:0,0:0:0:0:
406,132,45947,6,0,L|395:241,1,110,6|2,1:2|1:2,0:0:0:0:
364,287,46421,2,0,L|369:346,2,55,10|10|2,0:0|0:0|1:2,0:0:0:0:
312,267,46895,1,2,1:2:0:0:
226,335,47210,2,0,L|107:324,1,110,6|2,1:2|1:2,0:0:0:0:
67,298,47684,2,0,L|72:239,1,55,10|10,0:0|0:0,0:0:0:0:
107,200,48000,2,0,L|101:141,1,55,8|2,0:0|1:2,0:0:0:0:
41,52,48474,6,0,P|91:31|144:46,1,110,6|2,1:2|1:2,0:0:0:0:
184,82,48947,2,0,L|256:88,1,55,10|2,0:0|1:2,0:0:0:0:
289,63,49263,2,0,L|361:56,1,55,10|2,0:0|1:2,0:0:0:0:
395,76,49579,1,10,0:0:0:0:
395,76,49737,1,6,1:2:0:0:
447,172,50053,2,0,L|452:226,1,55,8|8,0:0|0:0,0:0:0:0:
459,285,50368,1,0,1:0:0:0:
459,285,50526,2,0,B|332:292,1,110,8|8,0:0|0:0,0:0:0:0:
293,294,51000,1,0,1:0:0:0:
79,304,51947,2,0,L|84:244,1,55,0|8,1:0|0:0,0:0:0:0:
94,140,52421,6,0,L|157:134,1,55,6|0,1:2|0:0,0:0:0:0:
195,105,52737,2,0,L|258:110,1,55,10|0,0:0|0:0,0:0:0:0:
300,131,53053,1,2,1:2:0:0:
386,63,53368,1,10,0:0:0:0:
464,140,53684,2,0,L|458:203,1,55,2|0,1:2|1:0,0:0:0:0:
421,235,54000,2,0,L|427:298,1,55,10|0,0:0|0:0,0:0:0:0:
439,348,54316,1,2,1:2:0:0:
439,348,54474,1,2,1:2:0:0:
333,317,54789,6,0,P|279:305|229:326,1,110,6|2,1:2|1:2,0:0:0:0:
191,364,55263,1,8,0:0:0:0:
86,329,55579,2,0,L|81:269,1,55,2|2,1:2|1:2,0:0:0:0:
118,233,55895,1,10,0:0:0:0:
118,233,56053,2,0,L|129:118,1,110,2|2,0:0|1:2,0:0:0:0:
133,69,56526,1,8,0:0:0:0:
235,108,56842,2,0,L|241:167,1,55,2|0,1:2|1:0,0:0:0:0:
246,217,57158,1,10,0:0:0:0:
246,217,57316,6,0,P|310:237|365:219,1,110,6|0,1:2|1:0,0:0:0:0:
389,188,57789,1,10,0:0:0:0:
389,188,57947,1,2,0:0:0:0:
375,78,58263,2,0,L|319:82,1,55,0|10,1:0|0:0,0:0:0:0:
265,89,58579,2,0,L|132:76,1,110,2|0,1:2|1:0,0:0:0:0:
100,76,59053,1,10,0:0:0:0:
100,76,59210,1,2,0:0:0:0:
67,180,59526,2,0,L|72:234,1,55,2|8,1:2|0:0,0:0:0:0:
83,289,59842,6,0,P|150:336|230:329,1,165,2|12,1:2|0:0,0:0:0:0:
284,311,60474,1,2,0:0:0:0:
284,311,60632,2,0,L|278:236,1,55,2|0,1:2|1:0,0:0:0:0:
275,200,60947,1,14,0:0:0:0:
238,110,61263,2,0,L|183:105,2,55,2|0|8,1:2|1:0|0:0,0:0:0:0:
277,71,61737,1,10,0:0:0:0:
277,71,61895,2,0,L|340:76,1,55,10|8,0:0|0:0,0:0:0:0:
386,83,62210,1,10,0:0:0:0:
398,192,62526,6,0,L|338:197,1,55,6|0,1:2|0:0,0:0:0:0:
302,233,62842,2,0,L|247:228,1,55,10|0,0:0|0:0,0:0:0:0:
192,220,63158,1,2,1:2:0:0:
128,130,63474,1,10,0:0:0:0:
56,212,63789,2,0,L|1:217,2,55,2|2|8,1:2|1:2|0:0,0:0:0:0:
97,248,64263,1,2,0:0:0:0:
97,248,64421,2,0,L|101:302,1,55,2|0,1:2|1:2,0:0:0:0:
196,359,64895,6,0,L|305:350,1,110,6|0,1:2|1:0,0:0:0:0:
363,343,65368,1,10,0:0:0:0:
363,343,65526,2,0,L|372:232,1,110,2|0,0:0|1:0,0:0:0:0:
380,179,66000,1,10,0:0:0:0:
380,179,66158,1,2,1:2:0:0:
300,111,66474,1,0,1:0:0:0:
300,111,66632,1,8,0:0:0:0:
239,202,66947,2,0,L|243:256,2,55,2|2|10,1:2|1:2|0:0,0:0:0:0:
195,168,67421,6,0,L|75:179,1,110,6|2,1:2|1:2,0:0:0:0:
31,189,67895,2,0,L|24:260,1,55,10|2,0:0|0:0,0:0:0:0:
19,298,68210,1,2,1:2:0:0:
108,371,68526,1,10,0:0:0:0:
108,371,68684,2,0,L|227:361,1,110,2|2,1:2|1:2,0:0:0:0:
276,352,69158,1,10,0:0:0:0:
276,352,69316,1,2,0:0:0:0:
303,245,69632,2,0,L|240:240,1,55,2|10,1:2|0:0,0:0:0:0:
193,232,69947,6,0,L|182:117,1,110,2|0,1:2|1:0,0:0:0:0:
177,68,70421,1,10,0:0:0:0:
276,21,70737,2,0,L|336:27,1,55,2|0,1:2|1:0,0:0:0:0:
386,32,71053,1,10,0:0:0:0:
386,32,71210,2,0,P|407:87|396:136,1,110,2|2,1:2|1:2,0:0:0:0:
369,184,71684,1,12,0:0:0:0:
262,210,72000,2,0,L|207:207,1,55,0|8,1:0|0:0,0:0:0:0:
158,180,72316,2,0,L|103:183,1,55,8|8,0:0|0:0,0:0:0:0:
57,214,72632,6,0,L|66:325,1,110,6|10,1:2|0:0,0:0:0:0:
73,378,73105,1,2,1:2:0:0:
169,325,73421,1,2,1:2:0:0:
275,351,73737,2,0,P|276:296|248:250,1,110,6|0,1:2|1:0,0:0:0:0:
204,217,74210,2,0,L|199:163,1,55,10|0,0:0|1:0,0:0:0:0:
244,130,74526,2,0,L|249:76,1,55,10|0,0:0|1:0,0:0:0:0:
257,20,74842,1,10,0:0:0:0:
358,63,75158,6,0,L|367:174,1,110,6|10,1:2|0:0,0:0:0:0:
375,227,75632,1,2,1:2:0:0:
339,330,75947,1,2,1:2:0:0:
269,244,76263,2,0,L|145:233,1,110,6|2,1:2|1:2,0:0:0:0:
104,229,76737,1,10,0:0:0:0:
25,151,77053,1,0,1:0:0:0:
25,151,77210,2,0,L|31:88,1,55,10|10,0:0|0:0,0:0:0:0:
45,42,77526,1,10,0:3:0:0:
45,42,77684,6,0,P|93:18|147:25,1,110,6|10,1:2|0:0,0:0:0:0:
187,63,78158,1,2,1:2:0:0:
131,158,78474,1,2,1:2:0:0:
220,221,78789,2,0,L|210:331,1,110,6|0,1:2|1:0,0:0:0:0:
245,372,79263,2,0,L|300:367,1,55,10|0,0:0|1:0,0:0:0:0:
338,327,79579,2,0,L|393:332,1,55,10|0,0:0|1:0,0:0:0:0:
451,341,79895,1,10,0:0:0:0:
451,341,80053,1,10,0:0:0:0:
433,232,80368,6,0,L|438:177,1,55,2|10,1:2|0:0,0:0:0:0:
438,122,80684,2,0,P|393:93|340:99,1,110,2|2,1:2|1:2,0:0:0:0:
289,124,81158,1,10,0:0:0:0:
289,124,81316,1,6,1:2:0:0:
216,206,81632,1,8,0:0:0:0:
216,206,81789,2,0,L|161:211,2,55,8|8|8,0:0|0:0|0:0,0:0:0:0:
259,240,82263,2,0,L|255:295,1,55,8|8,0:0|0:0,0:0:0:0:
255,354,82579,1,10,0:0:0:0:
255,354,82737,1,6,0:0:0:0:
272,30,84000,5,4,1:2:0:0:
272,30,84158,2,0,L|282:153,1,110,0|10,1:0|0:0,0:0:0:0:
288,194,84632,1,2,1:2:0:0:
346,286,84947,1,10,0:0:0:0:
236,294,85263,2,0,L|181:299,1,55,2|2,1:2|1:2,0:0:0:0:
126,305,85579,1,10,0:0:0:0:
126,305,85737,2,0,L|136:189,1,110,10|0,0:0|1:0,0:0:0:0:
141,140,86210,1,8,0:0:0:0:
209,54,86526,5,4,1:2:0:0:
209,54,86684,2,0,P|263:33|312:44,1,110,0|10,1:0|0:0,0:0:0:0:
352,82,87158,1,2,1:2:0:0:
343,195,87474,1,10,0:0:0:0:
343,195,87632,2,0,L|227:184,1,110,6|2,1:2|1:2,0:0:0:0:
178,180,88105,1,10,0:0:0:0:
178,180,88263,2,0,P|157:234|168:283,1,110,6|10,1:2|0:0,0:0:0:0:
203,326,88737,1,10,0:0:0:0:
203,326,88895,1,6,1:2:0:0:
