osu file format v14

[General]
AudioFilename: audio.mp3
AudioLeadIn: 0
PreviewTime: 52263
Countdown: 0
SampleSet: Soft
StackLeniency: 0.6
Mode: 0
LetterboxInBreaks: 0
WidescreenStoryboard: 1

[Editor]
DistanceSpacing: 1
BeatDivisor: 4
GridSize: 4
TimelineZoom: 2.7

[Metadata]
Title:Rally Go Round (TV Size)
TitleUnicode:Rally Go Round (TV Size)
Artist:LiSA
ArtistUnicode:LiSA
Creator:silverin0
Version:Insane
Source:ニセコイ:
Tags:nisekoi: false love 2nd season 2 opening japanese anime rock
BeatmapID:2391951
BeatmapSetID:1145661

[Difficulty]
HPDrainRate:5
CircleSize:4
OverallDifficulty:8
ApproachRate:9
SliderMultiplier:1.6
SliderTickRate:1

[Events]
//Background and Video events
0,0,"nskipink.jpg",0,0
//Break Periods
//Storyboard Layer 0 (Background)
//Storyboard Layer 1 (Fail)
//Storyboard Layer 2 (Pass)
//Storyboard Layer 3 (Foreground)
//Storyboard Layer 4 (Overlay)
//Storyboard Sound Samples

[TimingPoints]
632,315.789473684211,4,2,1,60,1,0
632,-125,4,2,1,60,0,0
2368,-100,4,2,1,60,0,0
3789,-125,4,2,1,60,0,0
5053,-100,4,2,1,60,0,0
5684,-100,4,2,1,80,0,0
11053,-125,4,2,1,50,0,0
19421,-166.666666666666,4,2,1,50,0,0
20210,-166.666666666666,4,2,1,5,0,0
20368,-100,4,2,1,70,0,0
20684,-100,4,2,1,65,0,0
30947,-111.111111111111,4,2,1,55,0,0
33316,-100,4,2,1,65,0,0
35842,-111.111111111111,4,2,1,50,0,0
38368,-100,4,2,1,65,0,0
40895,-100,4,2,1,60,0,0
52421,-83.3333333333333,4,2,1,80,0,0
72632,-100,4,2,1,70,0,0
77684,-90.9090909090909,4,2,1,80,0,0
81632,-90.9090909090909,4,2,1,90,0,0
84000,-100,4,2,1,70,0,0
88895,-125,4,2,1,80,0,0
89526,-125,4,2,1,40,0,0

[Colours]
Combo1 : 228,139,58
Combo2 : 255,34,117
Combo3 : 36,201,255
Combo4 : 255,235,89

[HitObjects]
276,138,632,5,8,0:0:0:0:
97,45,789,1,8,0:0:0:0:
97,45,1105,5,2,0:0:0:0:
97,45,1263,2,0,P|56:103|62:169,1,128,2|2,0:0|0:0,0:0:0:0:
149,126,1737,1,2,0:0:0:0:
211,216,1895,2,0,L|298:223,1,64,2|2,0:0|0:0,0:0:0:0:
91,256,2210,1,2,1:2:0:0:
149,126,2368,6,0,L|308:112,1,160,10|8,0:0|0:3,0:0:0:0:
381,180,2842,1,4,0:3:0:0:
321,19,3000,1,0,1:0:0:0:
258,196,3158,5,8,0:0:0:0:
417,52,3316,1,8,0:0:0:0:
417,52,3632,5,2,0:0:0:0:
417,52,3789,2,0,L|404:199,1,128,2|2,0:0|0:0,0:0:0:0:
308,112,4263,1,2,0:0:0:0:
257,199,4421,2,0,L|252:263,1,64,2|2,0:0|0:0,0:0:0:0:
156,150,4737,2,0,L|150:86,1,64,2|2,0:0|0:0,0:0:0:0:
131,265,5053,1,0,1:0:0:0:
129,284,5132,1,0,1:0:0:0:
127,304,5210,2,0,L|122:351,1,40,0|0,1:0|1:0,0:0:0:0:
260,343,5368,2,0,L|253:264,1,80,12|0,0:0|0:0,0:0:0:0:
417,284,5684,5,4,1:2:0:0:
323,189,5842,1,0,1:0:0:0:
494,128,6000,2,0,L|415:121,1,80,8|10,0:0|0:0,0:0:0:0:
415,120,6237,1,8,0:0:0:0:
415,120,6316,1,2,1:2:0:0:
306,68,6474,1,0,1:0:0:0:
234,166,6632,2,0,P|226:206|234:246,1,80,10|2,0:0|0:0,0:0:0:0:
312,338,6947,5,2,1:2:0:0:
341,202,7105,1,2,1:2:0:0:
204,334,7263,2,0,L|124:340,1,80,10|10,0:0|0:0,0:0:0:0:
124,339,7500,1,8,0:0:0:0:
124,339,7579,1,0,1:0:0:0:
233,244,7737,1,0,1:0:0:0:
136,154,7895,2,0,P|127:113|142:78,1,80,8|0,0:0|0:0,0:0:0:0:
283,133,8210,5,4,1:2:0:0:
233,244,8368,1,0,1:0:0:0:
334,310,8526,2,0,L|340:230,1,80,8|10,0:0|0:0,0:0:0:0:
339,230,8763,1,8,0:0:0:0:
339,230,8842,1,2,1:2:0:0:
398,138,9000,1,0,1:0:0:0:
441,255,9158,1,10,0:0:0:0:
283,133,9316,6,0,L|124:119,1,160,6|2,1:2|1:2,0:0:0:0:
197,216,9789,1,10,0:0:0:0:
254,47,9947,2,0,P|292:38|328:54,1,80,6|0,1:2|0:0,0:0:0:0:
369,220,10263,1,10,0:0:0:0:
388,221,10342,1,8,0:0:0:0:
408,223,10421,1,10,0:0:0:0:
428,225,10500,1,8,0:0:0:0:
448,227,10579,2,0,P|453:148|398:91,1,160,6|0,1:2|0:0,0:0:0:0:
319,83,11053,6,0,L|324:150,1,64,2|0,1:2|0:0,0:0:0:0:
225,209,11368,2,0,L|230:141,1,64,2|0,1:2|0:0,0:0:0:0:
303,239,11684,2,0,P|335:244|366:233,1,64,2|0,1:2|0:0,0:0:0:0:
421,161,12000,5,2,1:2:0:0:
421,161,12158,1,2,0:0:0:0:
460,248,12316,1,2,1:2:0:0:
460,248,12474,1,2,0:0:0:0:
323,146,12632,1,2,1:2:0:0:
379,70,12789,1,2,0:0:0:0:
303,239,12947,1,2,1:2:0:0:
261,65,13105,6,0,L|106:54,1,128,10|0,0:0|0:0,0:0:0:0:
63,119,13579,2,0,P|51:154|56:190,1,64,2|2,1:2|0:0,0:0:0:0:
146,238,13895,2,0,P|157:202|152:166,1,64,2|0,1:2|0:0,0:0:0:0:
242,158,14210,1,2,1:2:0:0:
297,232,14368,2,0,L|381:240,1,64,2|0,0:0|1:0,0:0:0:0:
399,146,14684,2,0,L|328:153,1,64,2|0,0:0|1:0,0:0:0:0:
272,59,15000,2,0,L|356:67,1,64,2|0,0:0|1:0,0:0:0:0:
467,85,15316,1,14,0:0:0:0:
335,152,15474,1,0,1:0:0:0:
487,215,15632,6,0,P|441:257|378:257,1,128,14|0,0:0|0:0,0:0:0:0:
270,203,16105,1,0,1:0:0:0:
187,352,16263,1,2,0:0:0:0:
187,352,16421,2,0,L|175:208,1,128,2|2,1:2|1:2,0:0:0:0:
62,169,16895,2,0,L|51:296,1,128,2|0,0:0|0:0,0:0:0:0:
176,224,17368,2,0,L|251:230,1,64,0|0,1:0|0:0,0:0:0:0:
360,237,17684,1,2,1:2:0:0:
291,324,17842,1,2,0:0:0:0:
307,155,18000,1,2,1:2:0:0:
437,349,18158,6,0,L|431:285,1,64,12|0,0:0|1:0,0:0:0:0:
391,153,18474,1,12,0:0:0:0:
291,324,18632,2,0,L|297:260,1,64,14|0,0:0|1:0,0:0:0:0:
239,109,18947,1,10,0:0:0:0:
121,190,19105,1,8,0:0:0:0:
94,184,19184,1,8,0:0:0:0:
67,180,19263,1,8,0:0:0:0:
41,174,19342,1,8,0:0:0:0:
14,170,19421,6,0,P|32:87|157:117,1,239.999992675781,2|0,1:2|0:0,0:0:0:0:
192,254,20368,5,8,0:0:0:0:
351,188,20526,1,8,0:0:0:0:
206,347,20684,2,0,B|104:350|153:291|60:299,1,160,4|0,1:2|1:0,0:0:0:0:
179,176,21158,2,0,P|190:211|193:254,1,80,10|0,0:0|0:0,0:0:0:0:
84,91,21474,2,0,P|72:126|69:169,1,80,2|0,1:2|1:0,0:0:0:0:
205,70,21789,2,0,L|297:61,1,80,10|0,0:0|0:0,0:0:0:0:
365,187,22105,6,0,L|273:178,1,80,2|0,1:2|1:0,0:0:0:0:
388,16,22421,2,0,P|396:64|388:96,1,80,10|0,0:0|0:0,0:0:0:0:
284,62,22737,1,2,1:2:0:0:
192,162,22895,1,2,1:2:0:0:
160,28,23053,1,10,0:0:0:0:
285,179,23210,6,0,P|239:242|160:250,1,160,2|0,1:2|1:0,0:0:0:0:
72,129,23684,1,10,0:0:0:0:
5,284,23842,1,2,0:0:0:0:
72,129,24000,1,2,1:2:0:0:
5,284,24158,2,0,L|84:290,1,80,2|8,1:2|0:0,0:0:0:0:
192,162,24474,6,0,P|188:122|177:83,1,80,2|0,0:0|1:0,0:0:0:0:
299,9,24789,2,0,P|287:47|284:87,1,80,2|8,1:2|0:0,0:0:0:0:
382,214,25105,2,0,P|379:174|366:136,1,80,2|0,0:0|1:0,0:0:0:0:
425,54,25421,1,2,1:2:0:0:
286,173,25579,1,8,0:0:0:0:
466,223,25737,1,6,1:2:0:0:
366,321,25895,6,0,P|292:287|206:314,1,160,2|8,0:0|0:0,0:0:0:0:
102,318,26368,1,2,0:0:0:0:
102,318,26526,2,0,P|97:281|108:238,1,80,2|0,1:2|1:0,0:0:0:0:
188,113,26842,1,10,0:0:0:0:
188,113,27000,6,0,P|192:149|180:196,1,80,2|0,0:0|1:0,0:0:0:0:
91,139,27316,1,0,1:0:0:0:
156,23,27474,2,0,P|196:18|235:29,1,80,8|0,0:0|0:0,0:0:0:0:
282,158,27789,1,2,1:2:0:0:
319,42,27947,1,2,1:2:0:0:
188,113,28105,1,10,0:0:0:0:
372,131,28263,6,0,P|423:186|411:265,1,160,2|2,1:2|1:2,0:0:0:0:
288,237,28737,2,0,L|282:158,1,80,10|0,0:0|0:0,0:0:0:0:
378,52,29053,2,0,L|372:131,1,80,2|0,1:2|1:0,0:0:0:0:
454,193,29368,1,8,0:0:0:0:
295,316,29526,6,0,L|281:157,1,160,2|2,0:0|1:2,0:0:0:0:
167,96,30000,2,0,L|160:175,1,80,10|10,0:0|0:0,0:0:0:0:
159,175,30237,1,8,0:0:0:0:
159,175,30316,1,10,0:0:0:0:
298,70,30474,1,8,0:0:0:0:
305,69,30553,1,8,0:0:0:0:
313,68,30632,1,8,0:0:0:0:
321,67,30710,1,8,0:0:0:0:
329,67,30789,2,0,L|376:62,1,40,8|8,0:0|0:0,0:0:0:0:
487,175,30947,6,0,P|407:170|358:223,1,143.999995605469,6|0,1:2|0:0,0:0:0:0:
305,310,31421,1,2,1:2:0:0:
305,310,31500,1,0,1:0:0:0:
305,310,31579,2,0,L|298:381,2,71.9999978027344,10|0|0,0:0|0:0|1:0,0:0:0:0:
259,206,32053,6,0,P|197:166|129:178,1,143.999995605469,2|10,1:2|0:0,0:0:0:0:
172,333,32526,2,0,L|179:262,1,71.9999978027344,2|2,0:0|1:2,0:0:0:0:
145,77,32842,1,8,0:2:0:0:
90,257,33000,1,2,1:2:0:0:
240,89,33158,1,10,0:0:0:0:
33,173,33316,6,0,L|193:158,1,160,6|0,1:2|1:0,0:0:0:0:
301,156,33789,2,0,P|298:195|280:231,1,80,10|8,0:0|0:0,0:0:0:0:
182,254,34105,2,0,P|198:290|227:317,1,80,2|0,1:2|1:0,0:0:0:0:
365,216,34421,1,10,0:0:0:0:
192,158,34579,6,0,L|112:150,1,80,2|0,1:2|0:0,0:0:0:0:
5,256,34895,2,0,L|86:248,1,80,2|8,1:2|0:0,0:0:0:0:
19,158,35210,1,8,0:0:0:0:
182,254,35368,1,2,1:2:0:0:
50,332,35526,1,2,1:2:0:0:
112,150,35684,1,10,0:0:0:0:
157,335,35842,6,0,P|226:328|267:261,1,143.999995605469,6|2,1:2|1:2,0:0:0:0:
175,182,36316,2,0,L|181:253,1,71.9999978027344,2|2,0:0|1:2,0:0:0:0:
181,253,36553,1,0,1:0:0:0:
181,253,36632,1,10,0:0:0:0:
245,115,36789,1,0,0:0:0:0:
109,223,36947,1,2,1:2:0:0:
245,115,37105,6,0,L|102:103,1,143.999995605469,2|10,1:2|0:0,0:0:0:0:
221,23,37579,2,0,P|259:18|296:32,1,71.9999978027344,2|0,0:0|1:0,0:0:0:0:
344,133,37895,2,0,L|337:204,1,71.9999978027344,10|2,0:0|1:2,0:0:0:0:
389,37,38210,1,10,0:0:0:0:
245,115,38368,6,0,P|202:178|227:251,1,160,6|0,1:2|1:0,0:0:0:0:
388,277,38842,2,0,P|349:285|310:289,1,80,10|8,0:0|0:0,0:0:0:0:
353,365,39158,1,2,1:2:0:0:
299,200,39316,1,2,1:2:0:0:
184,351,39474,1,10,0:0:0:0:
68,237,39632,6,0,L|227:251,1,160,6|0,1:2|1:0,0:0:0:0:
272,118,40105,2,0,L|193:124,1,80,8|0,0:0|1:0,0:0:0:0:
361,112,40421,1,10,0:3:0:0:
227,251,40579,1,6,0:3:0:0:
192,124,40737,1,2,1:2:0:0:
327,218,40895,6,0,L|487:231,1,160,6|0,1:2|1:0,0:0:0:0:
482,122,41368,2,0,P|442:128|411:152,1,80,8|0,0:0|0:0,0:0:0:0:
477,306,41684,2,0,P|491:269|486:230,1,80,2|0,1:2|1:0,0:0:0:0:
382,315,42000,1,10,0:0:0:0:
308,227,42158,6,0,L|220:219,1,80,2|0,1:2|0:0,0:0:0:0:
148,153,42474,1,2,1:2:0:0:
251,128,42632,1,10,0:0:0:0:
139,251,42789,2,0,L|132:330,1,80,2|0,0:0|1:0,0:0:0:0:
228,219,43105,1,0,1:0:0:0:
60,196,43263,1,8,0:0:0:0:
212,308,43421,6,0,P|278:297|316:212,1,160,2|2,1:2|1:2,0:0:0:0:
251,128,43895,1,10,0:0:0:0:
228,219,44053,1,2,0:0:0:0:
356,118,44210,1,2,1:2:0:0:
195,56,44368,2,0,P|168:85|157:122,1,80,2|8,1:2|0:0,0:0:0:0:
316,219,44684,6,0,P|304:181|277:151,1,80,6|0,1:2|0:0,0:0:0:0:
140,211,45000,1,2,1:2:0:0:
254,322,45158,1,8,0:0:0:0:
86,289,45316,2,0,P|46:222|73:149,1,160,4|0,1:2|1:0,0:0:0:0:
196,56,45789,1,8,0:0:0:0:
271,219,45947,6,0,B|285:59,1,160,6|2,1:2|1:2,0:0:0:0:
389,27,46421,2,0,P|425:34|454:63,1,80,10|10,0:0|0:0,0:0:0:0:
419,200,46737,2,0,P|391:173|383:135,1,80,2|2,1:2|1:2,0:0:0:0:
504,146,47053,1,10,0:0:0:0:
366,268,47210,6,0,L|206:255,1,160,6|2,1:2|1:2,0:0:0:0:
96,211,47684,1,10,0:0:0:0:
181,334,47842,1,10,0:0:0:0:
301,178,48000,1,8,0:0:0:0:
359,347,48158,2,0,L|366:268,1,80,2|2,1:2|1:2,0:0:0:0:
216,98,48474,6,0,L|230:261,1,160,6|2,1:2|1:2,0:0:0:0:
301,178,48947,1,10,0:0:0:0:
181,334,49105,1,2,1:2:0:0:
133,180,49263,1,10,0:0:0:0:
272,334,49421,1,2,1:2:0:0:
83,332,49579,1,10,0:0:0:0:
201,134,49737,6,0,P|137:92|67:123,1,160,6|8,1:2|0:0,0:0:0:0:
27,249,50210,1,8,0:0:0:0:
218,264,50368,1,0,1:0:0:0:
133,180,50526,1,8,0:0:0:0:
112,370,50684,1,8,0:0:0:0:
112,370,50763,1,8,0:0:0:0:
112,370,50842,1,8,0:0:0:0:
295,222,51000,1,0,1:0:0:0:
397,298,51947,5,0,1:0:0:0:
397,298,52026,1,0,1:0:0:0:
397,298,52105,2,0,P|348:258|303:285,1,120,8|0,0:0|0:0,0:0:0:0:
283,306,52421,6,0,B|179:307|233:230|106:239,1,191.999994140625,6|10,1:2|0:0,0:0:0:0:
294,163,52895,1,0,0:0:0:0:
169,65,53053,1,2,1:2:0:0:
208,228,53210,1,0,1:0:0:0:
368,107,53368,2,0,L|376:11,1,95.9999970703126,10|0,0:0|0:0,0:0:0:0:
393,194,53684,5,2,1:2:0:0:
275,70,53842,1,0,1:0:0:0:
207,229,54000,2,0,L|112:238,1,95.9999970703126,10|0,0:0|0:0,0:0:0:0:
315,268,54316,1,2,1:2:0:0:
170,342,54474,1,2,1:2:0:0:
190,144,54632,1,8,0:0:0:0:
265,343,54789,6,0,P|350:352|406:272,1,191.999994140625,6|2,1:2|1:2,0:0:0:0:
306,172,55263,2,0,L|315:268,1,95.9999970703126,8|0,0:0|0:0,0:0:0:0:
349,47,55579,1,2,1:2:0:0:
243,94,55737,1,2,1:2:0:0:
400,138,55895,1,10,0:0:0:0:
222,208,56053,6,0,L|126:200,1,95.9999970703126,2|0,0:0|1:0,0:0:0:0:
14,85,56368,2,0,L|113:77,1,95.9999970703126,2|8,1:2|0:0,0:0:0:0:
243,94,56684,1,0,0:0:0:0:
126,200,56842,2,0,P|118:248|134:291,1,95.9999970703126,2|0,1:2|1:0,0:0:0:0:
280,215,57158,1,10,0:0:0:0:
379,350,57316,6,0,P|453:296|442:204,1,191.999994140625,6|0,1:2|1:0,0:0:0:0:
280,215,57789,1,10,0:0:0:0:
165,343,57947,2,0,L|156:247,1,95.9999970703126,2|0,0:0|1:0,0:0:0:0:
192,89,58263,1,0,1:0:0:0:
301,198,58421,1,10,0:0:0:0:
105,162,58579,6,0,L|-2:171,1,95.9999970703126,2|0,1:2|0:0,0:0:0:0:
192,89,58895,1,0,1:0:0:0:
156,247,59053,1,10,0:0:0:0:
287,215,59210,2,0,P|294:168|280:123,1,95.9999970703126,2|0,0:0|1:0,0:0:0:0:
93,109,59526,2,0,P|120:148|163:170,1,95.9999970703126,2|8,1:2|0:0,0:0:0:0:
369,82,59842,6,0,P|292:24|200:63,1,191.999994140625,2|0,1:2|1:0,0:0:0:0:
287,215,60316,1,12,0:0:0:0:
162,169,60474,1,2,0:0:0:0:
67,308,60632,2,0,P|55:268|66:211,1,95.9999970703126,2|0,1:2|1:0,0:0:0:0:
200,279,60947,2,0,P|206:323|181:377,1,95.9999970703126,14|0,0:0|0:0,0:0:0:0:
272,201,61263,6,0,L|382:192,1,95.9999970703126,2|0,1:2|1:0,0:0:0:0:
474,100,61579,1,8,0:0:0:0:
344,27,61737,1,10,0:0:0:0:
344,27,61816,1,8,0:0:0:0:
344,27,61895,1,10,0:0:0:0:
251,167,62053,1,8,0:0:0:0:
249,188,62132,1,8,0:0:0:0:
247,210,62210,1,10,0:0:0:0:
245,232,62289,1,8,0:0:0:0:
243,254,62368,2,0,L|238:309,1,47.9999985351563,10|8,0:0|0:0,0:0:0:0:
109,152,62526,6,0,B|101:17|101:17|146:52,1,191.999994140625,6|10,1:2|0:0,0:0:0:0:
251,167,63000,1,0,0:0:0:0:
235,23,63158,1,2,1:2:0:0:
173,213,63316,1,0,1:0:0:0:
328,95,63474,2,0,P|350:137|350:184,1,95.9999970703126,10|0,0:0|0:0,0:0:0:0:
259,307,63789,5,2,1:2:0:0:
180,117,63947,2,0,L|173:213,1,95.9999970703126,2|8,1:2|0:0,0:0:0:0:
78,105,64263,1,2,0:0:0:0:
130,290,64421,1,2,1:2:0:0:
180,117,64579,1,0,1:2:0:0:
5,168,64737,1,8,0:0:0:0:
111,21,64895,6,0,L|94:212,1,191.999994140625,6|0,1:2|1:0,0:0:0:0:
206,327,65368,1,10,0:0:0:0:
295,153,65526,2,0,L|304:249,1,95.9999970703126,2|0,0:0|1:0,0:0:0:0:
352,355,65842,1,0,1:0:0:0:
210,235,66000,1,10,0:0:0:0:
396,182,66158,6,0,P|402:132|378:91,1,95.9999970703126,2|0,1:2|0:0,0:0:0:0:
266,16,66474,1,0,1:0:0:0:
199,161,66632,2,0,L|295:153,1,95.9999970703126,8|0,0:0|0:0,0:0:0:0:
355,15,66947,1,2,1:2:0:0:
396,182,67105,1,2,1:2:0:0:
465,51,67263,1,10,0:0:0:0:
294,153,67421,6,0,B|175:158|225:92|112:105,1,191.999994140625,6|2,1:2|1:2,0:0:0:0:
269,55,67895,1,10,0:0:0:0:
137,191,68053,1,2,0:0:0:0:
269,55,68210,2,0,P|316:51|356:75,1,95.9999970703126,2|0,1:2|1:0,0:0:0:0:
372,213,68526,1,10,0:0:0:0:
479,54,68684,6,0,L|470:149,1,95.9999970703126,2|0,1:2|0:0,0:0:0:0:
422,285,69000,1,2,1:2:0:0:
310,151,69158,1,10,0:0:0:0:
221,311,69316,2,0,L|230:214,1,95.9999970703126,2|0,0:0|1:0,0:0:0:0:
250,86,69632,1,2,1:2:0:0:
139,174,69789,1,10,0:0:0:0:
334,243,69947,6,0,P|399:191|381:87,1,191.999994140625,2|0,1:2|1:0,0:0:0:0:
233,181,70421,2,0,L|224:276,1,95.9999970703126,10|0,0:0|0:0,0:0:0:0:
342,338,70737,2,0,L|334:243,1,95.9999970703126,2|0,1:2|1:0,0:0:0:0:
302,114,71053,1,10,0:0:0:0:
154,210,71210,6,0,L|58:217,1,95.9999970703126,2|0,1:2|0:0,0:0:0:0:
114,83,71526,2,0,L|210:91,1,95.9999970703126,2|12,1:2|0:0,0:0:0:0:
359,171,71842,1,0,1:0:0:0:
272,32,72000,1,0,1:0:0:0:
236,170,72158,1,8,0:0:0:0:
234,191,72237,1,8,0:0:0:0:
232,213,72316,1,8,0:0:0:0:
230,235,72395,1,8,0:0:0:0:
228,257,72474,2,0,L|223:312,1,47.9999985351563,8|8,0:0|0:0,0:0:0:0:
372,330,72632,6,0,L|358:170,1,160,6|10,1:2|0:0,0:0:0:0:
465,148,73105,2,0,P|467:189|451:226,1,80,2|0,1:2|0:0,0:0:0:0:
260,194,73421,2,0,P|258:153|274:116,1,80,2|8,1:2|0:0,0:0:0:0:
333,271,73737,6,0,L|173:285,1,160,6|0,1:2|1:0,0:0:0:0:
83,210,74210,1,10,0:0:0:0:
80,311,74368,1,0,1:0:0:0:
179,191,74526,1,10,0:0:0:0:
0,258,74684,1,0,1:0:0:0:
165,364,74842,2,0,L|173:285,1,80,10|0,0:0|0:0,0:0:0:0:
274,149,75158,6,0,L|434:135,1,160,6|10,1:2|0:0,0:0:0:0:
295,58,75632,2,0,P|255:55|218:71,1,80,2|0,1:2|0:0,0:0:0:0:
224,229,75947,2,0,P|260:244|300:242,1,80,2|8,1:2|0:0,0:0:0:0:
433,135,76263,6,0,L|446:295,1,160,6|2,1:2|1:2,0:0:0:0:
294,321,76737,2,0,L|300:242,1,80,10|0,0:0|1:0,0:0:0:0:
196,123,77053,1,0,1:0:0:0:
177,125,77132,1,8,0:0:0:0:
157,127,77210,1,10,0:0:0:0:
137,129,77289,1,8,0:0:0:0:
117,130,77368,2,0,L|66:135,1,40,10|8,0:0|0:0,0:0:0:0:
7,241,77526,2,0,L|59:237,1,40,10|4,0:3|0:3,0:0:0:0:
212,299,77684,6,0,L|196:123,1,176.000005371094,6|10,1:2|0:0,0:0:0:0:
304,16,78158,2,0,P|316:56|320:108,1,88.000002685547,2|0,1:2|0:0,0:0:0:0:
440,206,78474,2,0,P|443:162|456:120,1,88.000002685547,2|8,1:2|0:0,0:0:0:0:
329,251,78789,6,0,P|248:279|174:237,1,176.000005371094,6|0,1:2|1:0,0:0:0:0:
257,172,79263,1,10,0:0:0:0:
156,93,79421,1,0,1:0:0:0:
275,8,79579,2,0,L|267:95,1,88.000002685547,10|0,0:0|1:0,0:0:0:0:
174,237,79895,1,10,0:0:0:0:
339,217,80053,1,10,0:0:0:0:
168,150,80210,6,0,L|80:143,1,88.000002685547,4|2,1:2|1:2,0:0:0:0:
256,106,80526,1,10,0:0:0:0:
336,229,80684,2,0,L|344:137,1,88.000002685547,2|0,1:2|0:0,0:0:0:0:
426,196,81000,1,2,1:2:0:0:
337,45,81158,1,10,0:0:0:0:
252,196,81316,1,6,1:2:0:0:
252,196,81632,5,8,0:0:0:0:
189,132,81789,1,8,0:0:0:0:
231,285,81947,1,8,0:0:0:0:
285,95,82105,1,8,0:0:0:0:
136,236,82263,1,8,0:0:0:0:
352,172,82421,1,8,0:0:0:0:
167,49,82579,1,10,0:0:0:0:
167,49,82658,1,2,0:0:0:0:
167,49,82737,1,6,0:0:0:0:
101,81,84000,5,4,1:2:0:0:
163,236,84158,1,0,1:0:0:0:
267,116,84316,2,0,L|346:109,1,80,8|10,0:0|0:0,0:0:0:0:
346,108,84553,1,8,0:0:0:0:
346,108,84632,1,2,1:2:0:0:
200,52,84789,1,0,1:0:0:0:
251,197,84947,2,0,P|259:237|251:277,1,80,10|2,0:0|0:0,0:0:0:0:
106,313,85263,5,2,1:2:0:0:
182,154,85421,1,2,1:2:0:0:
251,275,85579,2,0,L|331:281,1,80,10|10,0:0|0:0,0:0:0:0:
330,280,85816,1,8,0:0:0:0:
330,280,85895,1,0,1:0:0:0:
456,210,86053,1,0,1:0:0:0:
351,131,86210,2,0,L|359:52,1,80,8|0,0:0|0:0,0:0:0:0:
334,286,86526,5,4,1:2:0:0:
264,144,86684,1,0,1:0:0:0:
171,246,86842,2,0,L|91:252,1,80,8|10,0:0|0:0,0:0:0:0:
91,251,87079,1,8,0:0:0:0:
91,251,87158,1,2,1:2:0:0:
171,154,87316,1,0,1:0:0:0:
239,314,87474,1,10,0:0:0:0:
349,193,87632,6,0,L|508:179,1,160,6|2,1:2|1:2,0:0:0:0:
405,60,88105,1,10,0:0:0:0:
257,150,88263,2,0,P|245:185|250:229,1,80,6|0,1:2|0:0,0:0:0:0:
391,309,88579,1,10,0:0:0:0:
410,310,88658,1,8,0:0:0:0:
430,312,88737,1,10,0:0:0:0:
450,314,88816,1,8,0:0:0:0:
470,316,88895,6,0,P|492:232|360:220,1,256,6|0,1:2|0:0,0:0:0:0:
