osu file format v14

[General]
AudioFilename: audio.mp3
AudioLeadIn: 0
PreviewTime: 52263
Countdown: 0
SampleSet: Soft
StackLeniency: 0.6
Mode: 0
LetterboxInBreaks: 0
WidescreenStoryboard: 1

[Editor]
DistanceSpacing: 1.3
BeatDivisor: 4
GridSize: 4
TimelineZoom: 1.800006

[Metadata]
Title:Rally Go Round (TV Size)
TitleUnicode:Rally Go Round (TV Size)
Artist:LiSA
ArtistUnicode:LiSA
Creator:silverin0
Version:Hard
Source:ニセコイ:
Tags:nisekoi: false love 2nd season 2 opening japanese anime rock
BeatmapID:2391950
BeatmapSetID:1145661

[Difficulty]
HPDrainRate:4.5
CircleSize:3.5
OverallDifficulty:6
ApproachRate:7.5
SliderMultiplier:1.5
SliderTickRate:1

[Events]
//Background and Video events
0,0,"nskipink.jpg",0,0
//Break Periods
//Storyboard Layer 0 (Background)
//Storyboard Layer 1 (Fail)
//Storyboard Layer 2 (Pass)
//Storyboard Layer 3 (Foreground)
//Storyboard Layer 4 (Overlay)
//Storyboard Sound Samples

[TimingPoints]
632,315.789473684211,4,2,1,60,1,0
632,-111.111111111111,4,2,1,60,0,0
5684,-100,4,2,1,80,0,0
10737,-125,4,2,1,80,0,0
11053,-125,4,2,1,50,0,0
20368,-125,4,2,1,70,0,0
20684,-111.111111111111,4,2,1,65,0,0
30947,-125,4,2,1,55,0,0
33316,-111.111111111111,4,2,1,65,0,0
35842,-125,4,2,1,50,0,0
38368,-111.111111111111,4,2,1,65,0,0
40895,-125,4,2,1,60,0,0
45947,-111.111111111111,4,2,1,60,0,0
52421,-90.9090909090909,4,2,1,80,0,0
72632,-100,4,2,1,70,0,0
77684,-90.9090909090909,4,2,1,80,0,0
84000,-100,4,2,1,70,0,0
88895,-100,4,2,1,80,0,0

[Colours]
Combo1 : 228,139,58
Combo2 : 255,34,117
Combo3 : 36,201,255
Combo4 : 255,235,89

[HitObjects]
183,37,632,5,8,0:0:0:0:
116,102,789,2,0,L|102:253,1,134.999995880127,8|2,0:0|0:0,0:0:0:0:
72,326,1263,2,0,P|146:323|189:276,1,134.999995880127,2|2,0:0|0:0,0:0:0:0:
231,198,1737,1,2,0:0:0:0:
231,198,1895,2,0,L|298:203,1,67.4999979400635,2|2,0:0|0:0,0:0:0:0:
360,275,2210,1,2,1:2:0:0:
437,209,2368,2,0,L|448:73,1,134.999995880127,10|8,0:0|0:3,0:0:0:0:
371,18,2842,2,0,P|334:13|303:23,1,67.4999979400635,4|0,0:3|1:0,0:0:0:0:
255,103,3158,5,8,0:0:0:0:
186,37,3316,2,0,P|118:18|56:54,1,134.999995880127,8|2,0:0|0:0,0:0:0:0:
129,114,3789,2,0,L|142:269,1,134.999995880127,2|2,0:0|0:0,0:0:0:0:
178,341,4263,1,2,0:0:0:0:
178,341,4421,2,0,P|217:355|252:353,1,67.4999979400635,2|2,0:0|0:0,0:0:0:0:
300,279,4737,2,0,P|333:265|369:265,1,67.4999979400635,2|2,0:0|0:0,0:0:0:0:
453,296,5053,2,0,L|488:299,2,33.7499989700318,0|0|0,1:0|1:0|1:0,0:0:0:0:
441,202,5368,1,12,0:0:0:0:
328,42,5684,5,4,1:2:0:0:
249,99,5842,2,0,L|169:93,1,75,0|8,1:0|0:0,0:0:0:0:
85,57,6158,1,10,0:0:0:0:
85,57,6237,1,8,0:0:0:0:
85,57,6316,2,0,P|75:97|87:136,1,75,2|0,1:2|1:0,0:0:0:0:
163,205,6632,1,10,0:0:0:0:
163,205,6789,1,2,0:0:0:0:
94,284,6947,6,0,P|54:295|14:290,2,75,2|2|10,1:2|1:2|0:0,0:0:0:0:
163,205,7421,2,0,L|167:149,2,37.5,10|8|0,0:0|0:0|1:0,0:0:0:0:
226,296,7737,1,0,1:0:0:0:
226,296,7895,2,0,L|305:303,1,75,8|0,0:0|0:0,0:0:0:0:
384,238,8210,5,4,1:2:0:0:
322,153,8368,2,0,P|317:116|328:77,1,75,0|8,1:0|0:0,0:0:0:0:
432,46,8684,1,10,0:0:0:0:
432,46,8763,1,8,0:0:0:0:
432,46,8842,2,0,L|438:121,1,75,2|0,1:2|1:0,0:0:0:0:
483,216,9158,1,10,0:0:0:0:
392,283,9316,6,0,P|311:249|246:279,1,150,6|2,1:2|1:2,0:0:0:0:
193,353,9789,1,10,0:0:0:0:
107,280,9947,2,0,P|95:244|100:208,1,75,6|0,1:2|0:0,0:0:0:0:
154,116,10263,2,0,L|157:72,2,37.5,10|8|10,0:0|0:0|0:0,0:0:0:0:
209,207,10579,1,6,1:2:0:0:
368,61,11053,6,0,L|487:71,2,120,2|2|2,1:2|1:2|1:2,0:0:0:0:
293,108,11842,1,0,0:0:0:0:
293,108,12000,2,0,L|286:179,1,60,2|2,1:2|0:0,0:0:0:0:
351,232,12316,2,0,L|356:295,1,60,2|2,1:2|0:0,0:0:0:0:
299,362,12632,2,0,P|267:368|239:367,1,60,2|2,1:2|0:0,0:0:0:0:
179,300,12947,1,2,1:2:0:0:
114,363,13105,2,0,P|84:364|54:357,1,60,10|0,0:0|0:0,0:0:0:0:
13,181,13579,6,0,L|80:175,1,60,2|2,1:2|0:0,0:0:0:0:
150,129,13895,2,0,L|273:139,1,120,2|2,1:2|1:2,0:0:0:0:
355,113,14368,2,0,L|359:53,1,60,2|0,0:0|1:0,0:0:0:0:
449,61,14684,2,0,P|469:117|449:173,1,120,2|2,0:0|0:0,0:0:0:0:
390,240,15158,1,0,1:0:0:0:
443,312,15316,1,14,0:0:0:0:
272,366,15632,6,0,L|148:355,1,120,14|0,0:0|0:0,0:0:0:0:
106,278,16105,1,0,1:0:0:0:
171,216,16263,1,2,0:0:0:0:
171,216,16421,2,0,P|232:205|286:226,1,120,2|2,1:2|1:2,0:0:0:0:
370,254,16895,2,0,P|371:195|320:145,1,120,2|0,0:0|0:0,0:0:0:0:
249,116,17368,1,0,1:0:0:0:
101,22,17684,1,2,1:2:0:0:
101,22,17842,2,0,L|94:97,1,60,2|2,0:0|1:2,0:0:0:0:
42,155,18158,6,0,L|47:222,1,60,12|0,0:0|1:0,0:0:0:0:
109,280,18474,1,12,0:0:0:0:
180,225,18632,2,0,P|212:219|243:230,1,60,14|0,0:0|1:0,0:0:0:0:
291,299,18947,2,0,L|293:330,4,30,10|8|8|8|8,0:0|0:0|0:0|0:0|0:0,0:0:0:0:
370,251,19421,1,2,1:2:0:0:
71,125,20368,1,8,0:0:0:0:
133,60,20526,1,8,0:0:0:0:
177,147,20684,6,0,P|241:172|299:147,1,134.999995880127,4|0,1:2|1:0,0:0:0:0:
382,101,21158,2,0,L|388:168,1,67.4999979400635,10|0,0:0|0:0,0:0:0:0:
433,258,21474,1,2,1:2:0:0:
433,258,21632,1,0,1:0:0:0:
360,318,21789,2,0,L|292:323,1,67.4999979400635,10|0,0:0|0:0,0:0:0:0:
208,365,22105,5,2,1:2:0:0:
208,365,22263,1,0,1:0:0:0:
155,286,22421,2,0,L|160:218,1,67.4999979400635,10|0,0:0|0:0,0:0:0:0:
128,134,22737,1,2,1:2:0:0:
128,134,22895,1,2,1:2:0:0:
59,198,23053,1,10,0:0:0:0:
36,99,23210,6,0,P|86:44|160:39,1,134.999995880127,2|0,1:2|1:0,0:0:0:0:
208,104,23684,2,0,P|243:115|271:109,1,67.4999979400635,10|2,0:0|0:0,0:0:0:0:
334,37,24000,2,0,P|369:25|405:30,1,67.4999979400635,2|2,1:2|1:2,0:0:0:0:
473,97,24316,1,8,0:0:0:0:
473,97,24474,2,0,L|466:168,1,67.4999979400635,2|0,0:0|1:0,0:0:0:0:
438,254,24789,6,0,P|406:243|370:248,1,67.4999979400635,2|8,1:2|0:0,0:0:0:0:
306,315,25105,2,0,P|251:323|187:278,1,134.999995880127,2|2,0:0|1:2,0:0:0:0:
174,185,25579,1,8,0:0:0:0:
246,123,25737,1,6,1:2:0:0:
166,60,25895,6,0,P|96:84|61:133,1,134.999995880127,2|8,0:0|0:0,0:0:0:0:
96,232,26368,1,2,0:0:0:0:
96,232,26526,2,0,L|101:299,1,67.4999979400635,2|0,1:2|1:0,0:0:0:0:
168,376,26842,1,10,0:0:0:0:
241,306,27000,6,0,L|380:293,1,134.999995880127,2|0,0:0|1:0,0:0:0:0:
477,285,27474,1,8,0:0:0:0:
414,93,27789,2,0,L|423:1,2,67.4999979400635,2|2|10,1:2|1:2|0:0,0:0:0:0:
336,135,28263,6,0,L|196:122,1,134.999995880127,2|2,1:2|1:2,0:0:0:0:
103,152,28737,2,0,P|117:184|141:208,1,67.4999979400635,10|0,0:0|0:0,0:0:0:0:
230,253,29053,2,0,L|369:265,1,134.999995880127,2|8,1:2|0:0,0:0:0:0:
461,294,29526,6,0,P|459:230|406:169,1,134.999995880127,2|2,0:0|1:2,0:0:0:0:
338,110,30000,1,10,0:0:0:0:
261,174,30158,1,10,0:0:0:0:
261,174,30237,1,8,0:0:0:0:
261,174,30316,2,0,L|189:167,1,67.4999979400635,10|8,0:0|0:0,0:0:0:0:
112,107,30632,2,0,L|72:110,2,33.7499989700318,8|8|8,0:0|0:0|0:0,0:0:0:0:
182,40,30947,6,0,P|240:21|295:41,1,120,6|0,1:2|0:0,0:0:0:0:
351,130,31421,1,2,1:2:0:0:
351,130,31500,1,0,1:0:0:0:
351,130,31579,2,0,L|340:253,1,120,10|0,0:0|1:0,0:0:0:0:
296,335,32053,2,0,P|357:346|413:319,1,120,2|10,1:2|0:0,0:0:0:0:
453,238,32526,2,0,L|458:178,1,60,2|2,0:0|1:2,0:0:0:0:
437,88,32842,1,8,0:2:0:0:
437,88,33000,1,2,1:2:0:0:
358,142,33158,1,10,0:0:0:0:
294,62,33316,6,0,L|158:50,1,134.999995880127,6|0,1:2|1:0,0:0:0:0:
75,93,33789,2,0,P|63:128|68:164,1,67.4999979400635,10|8,0:0|0:0,0:0:0:0:
143,214,34105,2,0,P|154:249|148:281,1,67.4999979400635,2|0,1:2|1:0,0:0:0:0:
104,363,34421,1,10,0:0:0:0:
104,363,34579,2,0,L|179:369,1,67.4999979400635,2|0,1:2|0:0,0:0:0:0:
250,315,34895,2,0,L|321:308,1,67.4999979400635,2|8,1:2|0:0,0:0:0:0:
469,195,35368,1,2,1:2:0:0:
469,195,35526,1,2,1:2:0:0:
417,116,35684,1,10,0:0:0:0:
351,186,35842,6,0,P|288:189|237:154,1,120,6|2,1:2|1:2,0:0:0:0:
197,73,36316,1,2,0:0:0:0:
132,143,36474,1,2,1:2:0:0:
132,143,36553,1,0,1:0:0:0:
132,144,36632,2,0,L|120:275,1,120,10|2,0:0|1:2,0:0:0:0:
72,346,37105,2,0,P|133:359|187:333,1,120,2|10,1:2|0:0,0:0:0:0:
236,254,37579,2,0,P|271:242|303:248,1,60,2|0,0:0|1:0,0:0:0:0:
382,284,37895,2,0,P|389:246|384:214,1,60,10|2,0:0|1:2,0:0:0:0:
349,136,38210,1,10,0:0:0:0:
406,52,38368,6,0,L|270:40,1,134.999995880127,6|0,1:2|1:0,0:0:0:0:
184,78,38842,2,0,P|172:113|178:145,1,67.4999979400635,10|8,0:0|0:0,0:0:0:0:
240,220,39158,1,2,1:2:0:0:
240,220,39316,1,2,1:2:0:0:
316,163,39474,1,10,0:0:0:0:
323,257,39632,2,0,P|260:310|197:301,1,134.999995880127,6|0,1:2|1:0,0:0:0:0:
151,241,40105,1,8,0:0:0:0:
151,241,40263,1,0,1:0:0:0:
64,279,40421,2,0,L|57:350,2,67.4999979400635,10|6|2,0:3|0:3|1:2,0:0:0:0:
31,194,40895,6,0,P|59:144|128:115,1,120,6|0,1:2|1:0,0:0:0:0:
198,144,41368,1,8,0:0:0:0:
377,127,41684,2,0,L|383:202,1,60,2|0,1:2|1:0,0:0:0:0:
353,275,42000,1,10,0:0:0:0:
353,275,42158,2,0,L|229:264,1,120,2|2,1:2|1:2,0:0:0:0:
159,314,42632,1,10,0:0:0:0:
159,314,42789,2,0,P|143:253|171:199,1,120,2|0,0:0|1:0,0:0:0:0:
252,174,43263,1,8,0:0:0:0:
187,110,43421,6,0,L|55:98,1,120,2|2,1:2|1:2,0:0:0:0:
10,170,43895,1,10,0:0:0:0:
10,170,44053,1,2,0:0:0:0:
63,242,44210,1,2,1:2:0:0:
24,323,44368,2,0,L|87:328,1,60,2|8,1:2|0:0,0:0:0:0:
150,266,44684,6,0,P|207:255|266:302,1,120,6|2,1:2|1:2,0:0:0:0:
310,359,45158,1,8,0:0:0:0:
388,314,45316,2,0,P|411:256|391:202,1,120,4|0,1:2|1:0,0:0:0:0:
339,131,45789,1,8,0:0:0:0:
259,194,45947,6,0,B|121:182,1,134.999995880127,6|2,1:2|1:2,0:0:0:0:
88,95,46421,2,0,L|155:89,1,67.4999979400635,10|10,0:0|0:0,0:0:0:0:
229,28,46737,1,2,1:2:0:0:
229,28,46895,2,0,L|300:34,1,67.4999979400635,2|10,1:2|0:0,0:0:0:0:
371,101,47210,6,0,P|407:170|390:231,1,134.999995880127,6|2,1:2|1:2,0:0:0:0:
310,178,47684,2,0,L|230:171,1,67.4999979400635,10|10,0:0|0:0,0:0:0:0:
159,125,48000,1,8,0:0:0:0:
98,197,48158,2,0,L|91:268,1,67.4999979400635,2|2,1:2|1:2,0:0:0:0:
127,359,48474,6,0,B|262:347,1,134.999995880127,6|2,1:2|1:2,0:0:0:0:
356,345,48947,2,0,P|350:309|328:278,1,67.4999979400635,10|2,0:0|1:2,0:0:0:0:
258,233,49263,1,10,0:0:0:0:
258,233,49421,1,2,1:2:0:0:
313,156,49579,1,10,0:0:0:0:
245,90,49737,1,6,1:2:0:0:
106,218,50053,1,8,0:0:0:0:
106,218,50210,6,0,L|111:285,1,67.4999979400635,8|0,0:0|1:0,0:0:0:0:
172,358,50526,2,0,P|207:369|239:363,1,67.4999979400635,8|8,0:0|0:0,0:0:0:0:
277,338,50763,1,8,0:0:0:0:
277,338,50842,1,8,0:0:0:0:
366,367,51000,1,0,1:0:0:0:
148,54,51947,1,0,1:0:0:0:
148,54,52026,1,0,1:0:0:0:
148,54,52105,2,0,L|155:141,1,67.4999979400635,8|0,0:0|0:0,0:0:0:0:
115,222,52421,6,0,P|159:233|195:221,1,82.5000025177003,6|0,1:2|0:0,0:0:0:0:
293,262,52737,2,0,P|304:221|291:181,1,82.5000025177003,10|0,0:0|0:0,0:0:0:0:
245,92,53053,1,2,1:2:0:0:
245,92,53210,1,0,1:0:0:0:
326,22,53368,6,0,L|409:29,1,82.5000025177003,10|0,0:0|0:0,0:0:0:0:
464,121,53684,2,0,L|376:128,1,82.5000025177003,2|0,1:2|1:0,0:0:0:0:
332,224,54000,2,0,L|427:232,1,82.5000025177003,10|0,0:0|0:0,0:0:0:0:
498,306,54316,1,2,1:2:0:0:
498,306,54474,1,2,1:2:0:0:
419,378,54632,1,8,0:0:0:0:
331,317,54789,6,0,P|245:287|184:328,1,165.000005035401,6|2,1:2|1:2,0:0:0:0:
87,363,55263,2,0,L|94:279,1,82.5000025177003,8|0,0:0|0:0,0:0:0:0:
154,192,55579,1,2,1:2:0:0:
154,192,55737,1,2,1:2:0:0:
71,132,55895,1,10,0:0:0:0:
127,40,56053,6,0,P|166:28|206:33,1,82.5000025177003,2|0,0:0|1:0,0:0:0:0:
282,117,56368,1,2,1:2:0:0:
282,117,56526,2,0,P|322:121|362:110,1,82.5000025177003,8|0,0:0|0:0,0:0:0:0:
439,34,56842,2,0,L|452:115,1,82.5000025177003,2|0,1:2|1:0,0:0:0:0:
502,210,57158,1,10,0:0:0:0:
415,273,57316,6,0,L|247:287,1,165.000005035401,6|0,1:2|1:0,0:0:0:0:
158,341,57789,1,10,0:0:0:0:
92,256,57947,2,0,L|76:169,2,82.5000025177003,2|0|0,0:0|1:0|1:0,0:0:0:0:
158,341,58421,1,10,0:0:0:0:
250,287,58579,6,0,P|265:245|263:208,1,82.5000025177003,2|0,1:2|0:0,0:0:0:0:
277,104,58895,1,0,1:0:0:0:
277,104,59053,1,10,0:0:0:0:
371,153,59210,2,0,L|378:240,1,82.5000025177003,2|0,0:0|1:0,0:0:0:0:
423,338,59526,1,2,1:2:0:0:
423,338,59684,1,8,0:0:0:0:
505,269,59842,6,0,L|488:81,1,165.000005035401,2|0,1:2|1:0,0:0:0:0:
422,27,60316,1,12,0:0:0:0:
422,27,60474,1,2,0:0:0:0:
351,107,60632,2,0,L|247:117,1,82.5000025177003,2|0,1:2|1:0,0:0:0:0:
198,33,60947,2,0,L|111:25,1,82.5000025177003,14|0,0:0|0:0,0:0:0:0:
28,89,61263,6,0,P|12:173|55:236,1,165.000005035401,2|8,1:2|0:0,0:0:0:0:
152,183,61737,1,10,0:0:0:0:
152,183,61816,1,8,0:0:0:0:
152,183,61895,2,0,L|240:191,1,82.5000025177003,10|8,0:0|0:0,0:0:0:0:
295,278,62210,2,0,L|299:321,2,41.2500012588501,10|8|10,0:0|0:0|0:0,0:0:0:0:
371,202,62526,6,0,L|379:103,1,82.5000025177003,6|0,1:2|0:0,0:0:0:0:
474,72,62842,2,0,L|481:160,1,82.5000025177003,10|0,0:0|0:0,0:0:0:0:
459,263,63158,1,2,1:2:0:0:
459,263,63316,1,0,1:0:0:0:
371,202,63474,2,0,P|328:194|287:209,1,82.5000025177003,10|0,0:0|0:0,0:0:0:0:
250,307,63789,1,2,1:2:0:0:
250,307,63947,6,0,P|207:322|162:314,1,82.5000025177003,2|8,1:2|0:0,0:0:0:0:
90,254,64263,1,2,0:0:0:0:
90,254,64421,1,2,1:2:0:0:
132,155,64579,2,0,L|124:67,1,82.5000025177003,0|8,1:2|0:0,0:0:0:0:
234,14,64895,6,0,P|287:83|267:155,1,165.000005035401,6|0,1:2|1:0,0:0:0:0:
201,236,65368,1,10,0:0:0:0:
264,322,65526,2,0,L|351:330,1,82.5000025177003,2|0,0:0|1:0,0:0:0:0:
434,268,65842,1,0,1:0:0:0:
434,268,66000,1,10,0:0:0:0:
342,197,66158,6,0,L|327:21,1,165.000005035401,2|0,1:2|1:0,0:0:0:0:
234,87,66632,2,0,P|191:95|136:75,1,82.5000025177003,8|0,0:0|0:0,0:0:0:0:
76,20,66947,1,2,1:2:0:0:
76,20,67105,1,2,1:2:0:0:
19,110,67263,1,10,0:0:0:0:
104,187,67421,6,0,L|119:362,1,165.000005035401,6|2,1:2|1:2,0:0:0:0:
213,297,67895,1,10,0:0:0:0:
213,297,68053,1,2,0:0:0:0:
312,336,68210,2,0,L|319:249,1,82.5000025177003,2|0,1:2|1:0,0:0:0:0:
284,151,68526,1,10,0:0:0:0:
391,169,68684,6,0,P|445:234|429:318,1,165.000005035401,2|2,1:2|1:2,0:0:0:0:
347,372,69158,1,10,0:0:0:0:
278,289,69316,2,0,P|240:269|198:274,1,82.5000025177003,2|0,0:0|1:0,0:0:0:0:
122,345,69632,1,2,1:2:0:0:
122,345,69789,1,10,0:0:0:0:
40,263,69947,6,0,L|55:87,1,165.000005035401,2|0,1:2|1:0,0:0:0:0:
146,43,70421,2,0,L|155:134,1,82.5000025177003,10|0,0:0|0:0,0:0:0:0:
256,158,70737,2,0,L|264:70,1,82.5000025177003,2|0,1:2|1:0,0:0:0:0:
364,32,71053,1,10,0:0:0:0:
364,32,71210,6,0,L|379:207,1,165.000005035401,2|2,1:2|1:2,0:0:0:0:
435,287,71684,2,0,P|387:305|346:298,1,82.5000025177003,12|0,0:0|1:0,0:0:0:0:
280,225,72000,1,0,1:0:0:0:
209,306,72158,1,8,0:0:0:0:
209,306,72237,1,8,0:0:0:0:
209,306,72316,2,0,L|205:346,2,41.2500012588501,8|8|8,0:0|0:0|0:0,0:0:0:0:
131,244,72632,6,0,L|122:153,1,75,6|0,1:2|0:0,0:0:0:0:
84,85,72947,1,10,0:0:0:0:
84,85,73105,2,0,P|148:47|227:72,1,150,2|2,1:2|1:2,0:0:0:0:
273,145,73579,1,8,0:0:0:0:
350,86,73737,2,0,B|376:126|376:126|363:234,1,150,6|0,1:2|1:0,0:0:0:0:
326,317,74210,2,0,P|294:327|254:323,1,75,10|0,0:0|1:0,0:0:0:0:
192,246,74526,2,0,P|160:235|120:239,1,75,10|0,0:0|1:0,0:0:0:0:
43,301,74842,1,10,0:0:0:0:
58,106,75158,6,0,P|96:95|135:99,1,75,6|0,1:2|0:0,0:0:0:0:
209,165,75474,1,10,0:0:0:0:
209,165,75632,2,0,B|250:127|250:127|230:2,1,150,2|2,1:2|1:2,0:0:0:0:
327,3,76105,1,8,0:0:0:0:
391,76,76263,6,0,L|405:239,1,150,6|2,1:2|1:2,0:0:0:0:
439,317,76737,2,0,P|395:322|345:300,1,75,10|0,0:0|1:0,0:0:0:0:
288,253,77053,1,0,1:0:0:0:
238,336,77210,2,0,L|234:375,4,37.5,10|8|10|8|10,0:0|0:0|0:0|0:0|0:3,0:0:0:0:
151,259,77684,6,0,P|159:174|234:134,1,165.000005035401,6|10,1:2|0:0,0:0:0:0:
327,155,78158,2,0,L|335:63,1,82.5000025177003,2|0,1:2|0:0,0:0:0:0:
436,39,78474,2,0,L|444:126,1,82.5000025177003,2|8,1:2|0:0,0:0:0:0:
408,222,78789,1,6,1:2:0:0:
238,98,79105,1,0,1:0:0:0:
238,98,79263,6,0,L|150:91,1,82.5000025177003,10|0,0:0|1:0,0:0:0:0:
55,51,79579,2,0,P|47:102|57:139,1,82.5000025177003,10|0,0:0|1:0,0:0:0:0:
133,204,79895,1,10,0:0:0:0:
133,204,80053,1,10,0:0:0:0:
87,300,80210,6,0,P|127:312|166:303,1,82.5000025177003,4|2,1:2|1:2,0:0:0:0:
238,224,80526,1,10,0:0:0:0:
328,281,80684,2,0,L|335:193,1,82.5000025177003,2|0,1:2|0:0,0:0:0:0:
342,91,81000,1,2,1:2:0:0:
437,150,81158,1,10,0:0:0:0:
437,150,81316,1,6,1:2:0:0:
226,136,81632,1,8,0:0:0:0:
226,136,81789,6,0,L|139:129,1,82.5000025177003,8|8,0:0|0:0,0:0:0:0:
56,185,82105,1,8,0:0:0:0:
56,185,82263,1,8,0:0:0:0:
135,256,82421,1,8,0:0:0:0:
73,345,82579,1,10,0:0:0:0:
73,345,82658,1,2,0:0:0:0:
73,345,82737,1,6,0:0:0:0:
414,84,84000,5,4,1:2:0:0:
414,84,84158,2,0,L|408:164,1,75,0|8,1:0|0:0,0:0:0:0:
349,248,84474,1,10,0:0:0:0:
349,248,84553,1,8,0:0:0:0:
349,248,84632,2,0,P|316:253|277:241,1,75,2|0,1:2|1:0,0:0:0:0:
202,174,84947,1,10,0:0:0:0:
202,174,85105,1,2,0:0:0:0:
128,248,85263,6,0,L|135:328,2,75,2|2|10,1:2|1:2|0:0,0:0:0:0:
45,182,85737,2,0,P|40:145|51:102,1,75,10|0,0:0|1:0,0:0:0:0:
139,52,86053,1,0,1:0:0:0:
139,52,86210,2,0,L|218:59,1,75,8|0,0:0|0:0,0:0:0:0:
285,136,86526,5,4,1:2:0:0:
215,215,86684,2,0,P|207:259|215:295,1,75,0|8,1:0|0:0,0:0:0:0:
307,355,87000,1,10,0:0:0:0:
307,355,87079,1,8,0:0:0:0:
307,355,87158,2,0,L|382:348,1,75,2|0,1:2|1:0,0:0:0:0:
461,278,87474,1,10,0:0:0:0:
385,194,87632,6,0,B|411:147|411:147|384:44,1,150,6|2,1:2|1:2,0:0:0:0:
295,1,88105,1,10,0:0:0:0:
228,82,88263,2,0,L|136:90,1,75,6|0,1:2|0:0,0:0:0:0:
71,154,88579,1,10,0:0:0:0:
147,225,88737,1,10,0:0:0:0:
87,311,88895,1,6,1:2:0:0:
