osu file format v14

[General]
AudioFilename: audio.mp3
AudioLeadIn: 0
PreviewTime: 62803
Countdown: 0
SampleSet: Soft
StackLeniency: 0.7
Mode: 0
LetterboxInBreaks: 0
WidescreenStoryboard: 0

[Editor]
DistanceSpacing: 1.4
BeatDivisor: 4
GridSize: 4
TimelineZoom: 1.9

[Metadata]
Title:ROCK-mode
TitleUnicode:ROCK-mode
Artist:LiSA
ArtistUnicode:LiSA
Creator:browiec
Version:I'm fine, thank you!
Source:
Tags:japanese pop rock kuki1537 short cut ver version lover"s"mile risa oribe
BeatmapID:2349467
BeatmapSetID:1124391

[Difficulty]
HPDrainRate:5.5
CircleSize:4
OverallDifficulty:9
ApproachRate:9.3
SliderMultiplier:1.85
SliderTickRate:1

[Events]
//Background and Video events
0,0,"bg stolen from some unranked set.jpg",0,0
//Break Periods
//Storyboard Layer 0 (Background)
//Storyboard Layer 1 (Fail)
//Storyboard Layer 2 (Pass)
//Storyboard Layer 3 (Foreground)
//Storyboard Layer 4 (Overlay)
//Storyboard Sound Samples

[TimingPoints]
220,333.333333333333,4,2,1,55,1,0
220,-125,4,2,1,55,0,0
6886,-333.333333333333,4,2,1,30,0,0
7719,-333.333333333333,4,2,1,55,0,0
7886,-105.263157894737,4,2,1,65,0,0
18886,-133.333333333333,4,2,1,55,0,0
26886,-133.333333333333,4,2,1,65,0,0
29219,-105.263157894737,4,2,1,65,0,0
29553,-133.333333333333,4,2,1,55,0,0
34719,-117.647058823529,4,2,1,55,0,0
34886,-117.647058823529,4,2,1,60,0,0
37553,-105.263157894737,4,2,1,65,0,0
40219,-133.333333333333,4,2,1,55,0,0
54553,-105.263157894737,4,2,1,55,0,0
54719,-105.263157894737,4,2,1,65,0,0
62219,-333.333333333333,4,2,1,30,0,0
62886,-100,4,2,1,70,0,0
86886,-117.647058823529,4,2,1,60,0,0
89219,-105.263157894737,4,2,1,65,0,0

[Colours]
Combo1 : 132,27,158
Combo2 : 196,196,196
Combo3 : 166,151,94
Combo4 : 105,105,105

[HitObjects]
52,228,220,6,0,L|148:236,1,74,2|0,3:2|3:2,0:2:0:0:
272,276,553,1,8,0:2:0:0:
216,196,719,1,2,3:2:0:0:
216,196,803,1,0,3:2:0:0:
216,196,886,2,0,P|204:148|208:120,1,74,0|0,3:2|3:2,0:2:0:0:
356,108,1219,2,0,P|320:142|294:152,1,74,8|0,0:2|0:2,0:2:0:0:
112,36,1553,6,0,L|120:124,1,74,2|0,3:2|3:2,0:2:0:0:
128,284,1886,1,8,0:2:0:0:
16,184,2053,1,2,3:2:0:0:
16,184,2136,1,0,3:2:0:0:
16,184,2219,2,0,P|76:196|104:188,1,74,0|0,3:2|3:2,0:2:0:0:
208,100,2553,2,0,P|268:88|296:96,1,74,8|0,0:2|0:2,0:2:0:0:
364,272,2886,6,0,L|356:180,1,74,2|0,3:2|3:2,0:2:0:0:
428,44,3219,1,8,0:2:0:0:
504,124,3386,1,2,3:2:0:0:
504,124,3469,1,0,3:2:0:0:
504,124,3553,2,0,P|500:172|480:204,1,74,0|0,3:2|3:2,0:2:0:0:
344,156,3886,2,0,P|387:135|425:136,1,74,8|0,0:2|0:2,0:2:0:0:
340,280,4219,5,0,3:2:0:0:
240,144,4386,1,8,0:2:0:0:
204,312,4553,1,8,0:2:0:0:
332,136,4719,1,8,0:2:0:0:
368,368,4886,5,10,0:2:0:0:
152,220,5053,1,10,0:2:0:0:
420,112,5219,1,10,0:2:0:0:
272,376,5386,1,10,0:2:0:0:
272,344,6886,6,0,B|288:264|288:264|264:216,1,110.999996612549,2|2,0:2|0:2,0:0:0:0:
340,176,7719,5,0,3:2:0:0:
340,176,7803,1,0,3:2:0:0:
340,176,7886,2,0,P|284:196|212:172,1,131.812496480227,12|0,3:2|0:2,0:2:0:0:
152,104,8219,5,6,3:2:0:0:
216,292,8386,1,2,0:2:0:0:
64,136,8553,1,10,0:2:0:0:
32,332,8719,1,2,0:2:0:0:
200,188,8886,2,0,L|300:180,1,87.8749976534844,2|0,3:2|0:2,0:2:0:0:
424,312,9219,1,10,0:2:0:0:
300,200,9386,1,2,0:2:0:0:
484,152,9553,5,2,3:2:0:0:
320,292,9719,1,2,0:2:0:0:
332,88,9886,1,10,0:2:0:0:
504,252,10053,1,2,0:2:0:0:
464,52,10219,2,0,P|464:104|468:152,1,87.8749976534844,2|0,3:2|0:2,0:2:0:0:
424,336,10553,1,10,0:2:0:0:
344,176,10719,1,2,0:2:0:0:
264,360,10886,6,0,P|204:368|168:352,1,87.8749976534844,2|0,3:2|0:2,0:2:0:0:
56,248,11219,2,0,P|116:256|152:240,1,87.8749976534844,10|0,0:2|0:2,0:2:0:0:
44,84,11553,2,0,P|7:131|2:171,1,87.8749976534844,2|0,3:2|0:2,0:2:0:0:
216,172,11886,2,0,L|208:80,1,87.8749976534844,10|0,0:2|0:2,0:2:0:0:
140,247,12219,5,2,3:2:0:0:
312,176,12386,1,2,0:2:0:0:
124,268,12553,2,0,B|80:276|80:276|24:268,1,87.8749976534844,10|0,0:2|0:2,0:2:0:0:
296,155,12886,5,2,3:2:0:0:
124,84,13053,1,2,0:2:0:0:
312,176,13220,2,0,B|356:184|356:184|412:176,1,87.8749976534844,10|0,0:2|0:2,0:2:0:0:
200,32,13553,5,6,3:2:0:0:
244,240,13719,1,2,0:2:0:0:
344,44,13886,1,10,0:2:0:0:
144,120,14053,1,2,0:2:0:0:
337,219,14219,2,0,P|335:271|307:315,1,87.8749976534844,2|0,3:2|0:2,0:2:0:0:
136,360,14553,1,10,0:2:0:0:
311,320,14719,1,2,0:2:0:0:
103,201,14886,5,2,3:2:0:0:
233,365,15053,1,2,0:2:0:0:
256,144,15219,1,10,0:2:0:0:
128,338,15386,1,2,0:2:0:0:
64,130,15553,2,0,L|56:38,1,87.8749976534844,2|0,3:2|0:2,0:2:0:0:
243,174,15886,1,10,0:2:0:0:
50,220,16053,1,0,0:2:0:0:
251,68,16219,6,0,P|303:84|331:116,1,87.8749976534844,14|0,0:2|3:2,0:0:0:0:
404,336,16553,1,8,0:2:0:0:
432,108,16719,1,2,3:2:0:0:
312,364,16886,1,10,0:2:0:0:
332,128,17053,1,2,3:2:0:0:
492,304,17219,1,8,0:2:0:0:
248,192,17386,6,0,L|148:184,1,87.8749976534844,2|8,3:2|0:2,0:0:0:0:
12,332,17719,1,2,3:2:0:0:
88,112,17886,1,10,0:2:0:0:
168,336,18053,1,0,3:2:0:0:
184,92,18219,1,10,0:2:0:0:
28,316,18386,1,0,3:2:0:0:
28,316,18469,1,0,3:2:0:0:
28,316,18553,2,0,P|96:312|148:360,1,131.812496480227,12|0,3:2|0:2,0:2:0:0:
228,368,18886,6,0,P|224:328|232:288,1,69.3750026464463,6|0,3:2|0:2,0:2:0:0:
168,232,19219,2,0,P|201:208|240:195,1,69.3750026464463,2|0,3:2|0:2,0:2:0:0:
204,112,19553,2,0,B|276:88|265:151|348:128,1,138.750005292893,2|2,3:2|3:2,0:2:0:0:
429,40,20053,1,2,0:2:0:0:
429,40,20219,6,0,P|421:80|429:124,1,69.3750026464463,0|0,3:2|0:2,0:2:0:0:
480,180,20553,2,0,P|488:220|480:264,1,69.3750026464463,2|0,3:2|0:2,0:2:0:0:
336,328,20886,1,2,3:2:0:0:
504,276,21053,1,0,3:2:0:0:
352,208,21219,1,2,3:2:0:0:
440,352,21386,1,2,3:2:0:0:
332,192,21553,6,0,L|324:112,1,69.3750026464463,2|2,3:2|0:2,0:2:0:0:
240,44,21886,2,0,L|232:124,1,69.3750026464463,2|2,3:2|0:2,0:2:0:0:
148,154,22219,2,0,L|156:234,1,69.3750026464463,2|0,3:2|0:2,0:2:0:0:
188,340,22553,1,2,3:2:0:0:
188,340,22636,1,0,0:2:0:0:
188,340,22719,2,0,L|272:332,1,69.3750026464463,2|0,0:2|3:2,0:2:0:0:
372,368,23053,5,2,3:2:0:0:
372,368,23136,1,0,3:2:0:0:
372,368,23219,2,0,P|344:320|372:224,1,138.750005292893,0|0,3:2|3:2,0:2:0:0:
456,140,23719,1,10,0:2:0:0:
439,141,23802,1,8,0:2:0:0:
422,143,23885,1,10,3:2:0:0:
405,145,23968,1,8,0:2:0:0:
388,147,24053,2,0,L|336:152,1,34.6875013232232,10|0,0:2|0:2,0:2:0:0:
264,104,24219,6,0,L|268:188,1,69.3750026464463,4|2,3:2|0:2,0:2:0:0:
172,184,24553,2,0,P|172:236|168:268,1,69.3750026464463,2|0,3:2|0:2,0:2:0:0:
104,324,24886,1,0,3:2:0:0:
36,256,25053,2,0,P|34:221|35:186,1,69.3750026464463,2|2,0:2|3:2,0:2:0:0:
16,84,25386,5,2,0:2:0:0:
16,84,25553,2,0,P|56:96|100:88,1,69.3750026464463,0|2,3:2|0:2,0:2:0:0:
196,104,25886,2,0,P|166:132|151:174,1,69.3750026464463,2|2,3:2|0:2,0:2:0:0:
312,184,26219,2,0,P|303:143|274:109,1,69.3750026464463,2|0,3:2|0:2,0:2:0:0:
176,244,26553,2,0,L|180:292,2,34.6875013232232,2|8|8,3:2|0:2|0:2,0:2:0:0:
202,34,26886,6,0,L|194:118,1,69.3750026464463,14|0,0:2|3:2,0:0:0:0:
284,336,27219,1,8,0:2:0:0:
332,104,27386,1,2,3:2:0:0:
156,288,27553,1,10,0:2:0:0:
400,224,27719,1,2,3:2:0:0:
195,103,27886,1,8,0:2:0:0:
300,356,28053,6,0,P|304:300|312:260,1,69.3750026464463,2|8,3:2|0:2,0:0:0:0:
268,48,28386,1,2,3:2:0:0:
140,272,28553,1,10,0:2:0:0:
360,144,28719,1,0,3:2:0:0:
284,376,28886,1,10,0:2:0:0:
184,160,29053,1,0,3:2:0:0:
384,356,29219,2,0,P|444:372|512:304,1,131.812496480227,12|0,0:2|0:2,0:2:0:0:
512,252,29553,6,0,L|428:260,1,69.3750026464463,2|0,3:2|0:2,0:2:0:0:
368,200,29886,2,0,L|284:192,1,69.3750026464463,10|0,0:2|3:2,0:2:0:0:
200,184,30219,2,0,P|212:224|208:264,2,69.3750026464463,2|0|2,0:2|3:2|0:2,0:2:0:0:
104,88,30719,6,0,B|160:96|160:96|196:88|196:88|244:96,1,138.750005292893,10|2,0:2|3:2,0:2:0:0:
320,224,31219,1,2,0:2:0:0:
256,112,31386,1,8,0:2:0:0:
216,264,31553,1,2,0:2:0:0:
340,136,31719,1,0,3:2:0:0:
376,300,31886,2,0,P|376:348|372:380,1,69.3750026464463,10|0,0:2|0:2,0:2:0:0:
224,244,32219,5,10,0:2:0:0:
396,208,32386,1,2,3:2:0:0:
212,272,32553,1,10,0:2:0:0:
404,184,32719,1,2,3:2:0:0:
308,368,32886,2,0,L|300:288,1,69.3750026464463,2|0,0:2|3:2,0:2:0:0:
280,176,33219,1,2,0:2:0:0:
280,176,33386,6,0,B|208:200|224:140|140:168,2,138.750005292893,10|2|8,0:2|3:2|0:2,0:2:0:0:
464,44,34386,5,2,3:2:0:0:
448,140,34553,1,10,0:2:0:0:
344,44,34719,1,2,3:2:0:0:
344,44,34803,1,0,3:2:0:0:
344,44,34886,6,0,L|352:128,1,78.6250014996529,0|2,3:2|3:2,0:2:0:0:
400,236,35219,2,0,P|356:212|304:220,1,78.6250014996529,10|0,0:2|0:2,0:2:0:0:
292,232,35469,1,8,0:2:0:0:
292,232,35553,1,0,3:2:0:0:
236,356,35719,1,2,3:2:0:0:
196,212,35886,1,2,0:2:0:0:
128,360,36053,6,0,P|116:312|16:280,1,157.250002999306,10|10,0:2|0:2,0:2:0:0:
60,120,36553,1,2,0:2:0:0:
8,296,36719,1,10,0:2:0:0:
160,128,36886,1,2,0:2:0:0:
200,300,37053,1,2,3:2:0:0:
48,212,37219,2,0,L|40:116,1,78.6250014996529,14|0,0:2|0:2,0:2:0:0:
272,16,37553,6,0,P|248:64|248:112,1,87.8749976534844,14|0,0:2|3:2,0:0:0:0:
396,264,37886,1,8,0:2:0:0:
176,160,38053,1,2,3:2:0:0:
428,88,38219,1,10,0:2:0:0:
260,276,38386,1,2,3:2:0:0:
356,40,38553,1,8,0:2:0:0:
416,304,38719,6,0,L|508:316,1,87.8749976534844,2|8,3:2|0:2,0:0:0:0:
348,124,39053,1,2,3:2:0:0:
328,352,39219,1,10,0:2:0:0:
240,140,39386,1,0,3:2:0:0:
400,280,39553,1,10,0:2:0:0:
432,40,39719,1,0,3:2:0:0:
276,220,39886,2,0,B|232:240|192:216|192:216|169:231|144:228,1,131.812496480227,10|0,0:2|0:2,0:2:0:0:
48,312,40219,6,0,B|108:308|108:308|132:320|132:320|196:316,1,138.750005292893,6|2,3:2|0:2,0:2:0:0:
260,376,40719,1,0,3:2:0:0:
328,308,40886,2,0,B|288:280|288:280|304:184,1,138.750005292893,10|0,0:2|0:2,0:2:0:0:
464,192,41386,6,0,P|416:200|384:188,1,69.3750026464463,2|0,3:2|0:2,0:2:0:0:
428,44,41719,2,0,P|436:92|424:124,1,69.3750026464463,10|0,0:2|0:2,0:2:0:0:
256,144,42053,1,2,0:2:0:0:
376,208,42219,1,10,0:2:0:0:
236,128,42386,2,0,L|244:56,1,69.3750026464463,2|0,0:2|0:2,0:2:0:0:
444,20,42719,5,2,0:2:0:0:
444,20,42886,2,0,B|400:56|400:56|424:140,1,138.750005292893,0|2,3:2|0:2,0:2:0:0:
488,204,43386,1,2,3:2:0:0:
440,288,43553,2,0,B|367:271|375:327|290:305,1,138.750005292893,10|0,0:2|0:2,0:2:0:0:
212,360,44053,6,0,P|216:320|204:284,1,69.3750026464463,2|0,3:2|0:2,0:2:0:0:
64,304,44386,2,0,P|96:327|133:335,1,69.3750026464463,2|0,3:2|0:2,0:2:0:0:
248,200,44719,1,2,3:2:0:0:
132,240,44886,1,10,0:2:0:0:
300,280,45053,1,0,0:2:0:0:
168,156,45219,1,2,0:2:0:0:
212,360,45386,1,0,0:2:0:0:
148,136,45553,6,0,P|104:112|28:176,1,138.750005292893,6|2,3:2|0:2,0:2:0:0:
4,244,46053,1,0,3:2:0:0:
92,288,46219,2,0,B|176:284|140:340|244:332,1,138.750005292893,10|0,0:2|0:2,0:2:0:0:
308,240,46719,6,0,P|310:287|316:319,1,69.3750026464463,2|0,3:2|0:2,0:2:0:0:
440,348,47053,1,10,0:2:0:0:
440,348,47219,2,0,P|446:313|448:278,1,69.3750026464463,2|2,0:2|0:2,0:2:0:0:
396,192,47553,1,10,0:2:0:0:
308,240,47719,2,0,L|220:232,1,69.3750026464463,2|0,0:2|0:2,0:2:0:0:
168,168,48053,1,2,0:2:0:0:
108,316,48219,5,2,3:2:0:0:
32,256,48386,2,0,P|20:212|32:168,1,69.3750026464463,2|0,0:2|0:2,0:2:0:0:
88,116,48719,1,2,3:2:0:0:
192,268,48886,5,10,0:2:0:0:
264,200,49053,2,0,L|348:196,1,69.3750026464463,2|8,3:2|0:2,0:2:0:0:
388,348,49386,6,0,P|360:316|352:276,1,69.3750026464463,2|0,3:2|0:2,0:2:0:0:
504,236,49719,2,0,P|472:264|432:272,1,69.3750026464463,10|0,0:2|0:2,0:2:0:0:
433,108,50053,1,2,3:2:0:0:
433,108,50219,2,0,L|425:192,1,69.3750026464463,10|0,0:2|3:2,0:2:0:0:
352,290,50553,1,10,0:2:0:0:
296,164,50719,1,8,0:2:0:0:
244,352,50886,5,2,3:2:0:0:
228,336,52053,5,2,3:2:0:0:
212,320,53219,5,2,3:2:0:0:
348,240,53386,1,10,0:2:0:0:
364,224,54553,5,10,0:2:0:0:
216,344,54719,2,0,L|120:336,1,87.8749976534844,6|8,3:2|0:2,0:2:0:0:
4,104,55053,1,2,3:2:0:0:
152,252,55219,1,8,0:2:0:0:
68,28,55386,1,2,3:2:0:0:
36,252,55553,1,8,0:2:0:0:
164,44,55719,1,2,3:2:0:0:
164,44,55803,1,0,3:2:0:0:
164,44,55886,2,0,B|208:32|208:32|256:44,1,87.8749976534844,8|0,0:2|0:2,0:2:0:0:
456,160,56219,5,2,3:2:0:0:
232,224,56386,1,2,0:2:0:0:
480,176,56553,1,10,0:2:0:0:
320,8,56719,2,0,B|268:48|268:48|304:172,1,175.749995306969,2|2,3:2|3:2,0:2:0:0:
368,312,57219,2,0,L|376:224,1,87.8749976534844,14|0,0:2|0:2,0:2:0:0:
136,64,57553,5,2,3:2:0:0:
236,272,57719,1,2,0:2:0:0:
324,60,57886,1,10,0:2:0:0:
128,224,58053,2,0,B|76:264|16:240|16:240|8:200|40:168,1,175.749995306969,2|2,3:2|3:2,0:2:0:0:
160,44,58553,2,0,P|156:100|164:148,1,87.8749976534844,14|0,0:2|0:2,0:2:0:0:
288,356,58886,5,10,3:2:0:0:
352,132,59053,1,10,3:2:0:0:
76,284,59386,5,10,3:2:0:0:
412,208,59719,5,10,3:2:0:0:
80,96,60053,6,0,B|72:160|72:160|96:200|96:200|88:280,1,175.749995306969,10|10,3:2|3:2,0:2:0:0:
272,352,60553,1,10,3:2:0:0:
76,284,60719,1,2,3:2:0:0:
296,176,60886,1,10,0:2:0:0:
164,380,61053,1,8,3:2:0:0:
164,380,61136,1,8,3:2:0:0:
168,384,61219,2,0,L|164:332,1,43.9374988267422,8|8,3:2|3:2,0:2:0:0:
204,112,61385,2,0,L|200:164,1,43.9374988267422,8|8,3:2|3:2,0:2:0:0:
340,248,62219,6,0,B|316:216|316:216|332:156,1,97.1249970359803,2|0,0:2|0:2,0:2:0:0:
364,60,62886,5,6,3:2:0:0:
212,224,63053,1,2,0:2:0:0:
444,168,63219,1,10,0:2:0:0:
248,24,63386,1,2,0:2:0:0:
348,260,63553,2,0,P|344:312|336:364,1,92.5,2|0,3:2|0:2,0:2:0:0:
132,280,63886,1,10,0:2:0:0:
360,240,64053,1,2,0:2:0:0:
124,168,64219,5,2,3:2:0:0:
244,352,64386,1,2,0:2:0:0:
292,124,64553,1,10,0:2:0:0:
140,304,64719,1,2,0:2:0:0:
92,60,64886,2,0,P|48:48|-16:64,1,92.5,2|0,3:2|0:2,0:2:0:0:
52,264,65219,1,10,0:2:0:0:
172,100,65386,1,2,0:2:0:0:
244,352,65553,6,0,L|252:260,1,92.5,2|0,3:2|0:2,0:2:0:0:
412,92,65886,2,0,L|420:184,1,92.5,10|0,0:2|0:2,0:2:0:0:
192,180,66219,2,0,P|252:160|304:172,1,92.5,2|0,3:2|0:2,0:2:0:0:
480,256,66553,2,0,P|420:276|368:264,1,92.5,10|0,0:2|0:2,0:2:0:0:
224,72,66886,5,2,3:2:0:0:
264,292,67053,1,2,0:2:0:0:
212,52,67219,2,0,L|108:44,1,92.5,10|0,0:2|0:2,0:2:0:0:
176,316,67553,5,2,3:2:0:0:
296,128,67720,1,2,0:2:0:0:
160,336,67886,2,0,L|56:344,1,92.5,10|0,0:2|0:2,0:2:0:0:
116,104,68219,5,6,3:2:0:0:
300,264,68386,1,2,0:2:0:0:
96,112,68553,1,10,0:2:0:0:
336,40,68719,1,2,0:2:0:0:
192,264,68886,2,0,L|184:168,1,92.5,2|0,3:2|0:2,0:2:0:0:
392,204,69219,1,10,0:2:0:0:
184,288,69386,1,2,0:2:0:0:
316,64,69553,5,2,3:2:0:0:
376,296,69719,1,2,0:2:0:0:
480,84,69886,1,10,0:2:0:0:
256,188,70053,1,2,0:2:0:0:
504,264,70219,2,0,P|512:312|492:364,1,92.5,2|0,3:2|0:2,0:2:0:0:
332,232,70553,2,0,P|369:201|424:192,1,92.5,10|0,0:2|0:2,0:2:0:0:
224,360,70886,6,0,B|213:290|213:290|232:252|232:252|220:176,1,185,2|8,3:2|0:2,0:2:0:0:
40,60,71386,1,2,0:2:0:0:
136,236,71553,1,2,3:2:0:0:
244,64,71719,2,0,P|192:64|148:92,1,92.5,2|8,0:2|0:2,0:2:0:0:
16,296,72053,6,0,B|68:268|68:268|196:296,1,185,2|2,0:2|0:2,0:2:0:0:
364,368,72553,2,0,P|336:320|336:276,1,92.5,10|0,0:2|0:2,0:2:0:0:
512,132,72886,1,2,3:2:0:0:
460,380,73053,1,12,0:2:0:0:
316,172,73219,2,0,L|208:164,1,92.5,12|0,0:2|0:2,0:2:0:0:
80,380,73553,5,2,3:2:0:0:
304,280,73719,1,2,0:2:0:0:
56,188,73886,1,10,0:2:0:0:
240,372,74053,1,2,0:2:0:0:
160,108,74219,2,0,P|156:164|164:224,1,92.5,2|0,3:2|0:2,0:2:0:0:
372,152,74553,1,10,0:2:0:0:
148,88,74719,1,2,0:2:0:0:
328,284,74886,5,2,3:2:0:0:
380,48,75053,1,2,0:2:0:0:
236,252,75219,1,10,0:2:0:0:
200,12,75386,1,2,0:2:0:0:
400,212,75553,2,0,P|428:260|428:312,1,92.5,2|0,3:2|0:2,0:2:0:0:
238,382,75886,1,10,0:2:0:0:
444,316,76053,1,2,0:2:0:0:
220,148,76219,6,0,L|228:244,1,92.5,2|0,3:2|0:2,0:2:0:0:
452,112,76553,2,0,L|459:19,1,92.5,10|0,0:2|0:2,0:2:0:0:
200,57,76886,2,0,P|264:65|304:105,1,92.5,2|0,3:2|0:2,0:2:0:0:
480,208,77219,2,0,P|416:216|376:256,1,92.5,10|0,0:2|0:2,0:2:0:0:
192,368,77553,5,2,3:2:0:0:
140,128,77719,1,2,0:2:0:0:
212,384,77886,2,0,L|204:272,1,92.5,10|0,0:2|0:2,0:2:0:0:
104,40,78219,5,2,3:2:0:0:
52,280,78385,1,2,0:2:0:0:
124,24,78552,2,0,L|124:136,1,92.5,10|0,0:2|0:2,0:2:0:0:
328,272,78886,5,6,3:2:0:0:
104,200,79053,1,2,0:2:0:0:
348,144,79219,1,10,0:2:0:0:
160,296,79386,1,2,0:2:0:0:
412,348,79553,2,0,L|512:340,1,92.5,2|0,3:2|0:2,0:2:0:0:
456,136,79886,1,10,0:2:0:0:
388,332,80053,1,2,0:2:0:0:
304,60,80219,5,2,3:2:0:0:
456,252,80386,1,2,0:2:0:0:
224,180,80553,1,10,0:2:0:0:
432,32,80719,1,2,0:2:0:0:
264,268,80886,2,0,P|208:276|168:260,1,92.5,2|0,3:2|0:2,0:2:0:0:
88,92,81219,2,0,P|122:136|129:179,1,92.5,10|0,0:2|0:2,0:2:0:0:
56,380,81553,6,0,B|12:336|12:336|40:204,1,185,2|8,3:2|0:2,0:2:0:0:
104,72,82053,1,0,0:2:0:0:
175,260,82219,2,0,L|276:268,1,92.5,2|0,3:2|0:2,0:2:0:0:
388,120,82553,2,0,L|287:128,1,92.5,8|0,0:2|0:2,0:2:0:0:
352,348,82886,6,0,B|408:384|472:360|472:360|472:324|440:296,1,185,2|10,3:2|0:2,0:2:0:0:
252,200,83386,1,0,0:2:0:0:
464,80,83553,2,0,L|452:184,1,92.5,2|0,3:2|0:2,0:2:0:0:
424,208,83803,1,8,3:2:0:0:
424,208,83886,2,0,L|428:160,1,46.25,10|8,3:2|3:2,0:2:0:0:
304,40,84053,2,0,L|308:88,1,46.25,8|8,3:2|3:2,0:2:0:0:
252,304,84219,6,0,L|240:200,1,92.5,2|0,3:2|0:2,0:2:0:0:
20,24,84553,5,8,0:2:0:0:
152,264,84719,1,2,3:2:0:0:
220,0,84886,5,8,0:2:0:0:
68,224,85053,1,0,3:2:0:0:
368,172,85219,5,10,0:2:0:0:
136,36,85386,1,0,3:2:0:0:
100,355,85553,5,10,0:2:0:0:
208,88,85719,1,2,3:2:0:0:
272,384,85886,5,10,0:2:0:0:
128,128,86053,1,2,3:2:0:0:
364,356,86219,5,10,0:2:0:0:
400,88,86386,1,2,3:2:0:0:
204,320,86553,2,0,P|164:328|108:312,1,92.5,14|0,0:2|0:2,0:2:0:0:
40,80,86886,5,6,3:2:0:0:
56,188,87053,2,0,L|64:92,1,78.6250014996529,2|0,0:2|0:2,0:2:0:0:
132,24,87386,1,2,3:2:0:0:
196,196,87553,1,10,0:2:0:0:
240,112,87719,2,0,P|284:100|332:112,1,78.6250014996529,2|0,3:2|0:2,0:2:0:0:
504,168,88053,6,0,P|452:160|400:248,1,157.250002999306,6|10,3:2|0:2,0:2:0:0:
360,356,88553,2,0,P|344:312|304:284,1,78.6250014996529,6|0,3:2|0:2,0:2:0:0:
216,204,88886,2,0,P|262:212|306:191,1,78.6250014996529,10|0,0:2|0:2,0:2:0:0:
108,152,89219,6,0,L|120:299,1,131.812496480227,2|0,3:2|0:2,0:2:0:0:
196,328,89553,5,6,3:2:0:0:
120,128,89719,1,2,0:2:0:0:
56,348,89886,1,10,0:2:0:0:
188,172,90053,1,2,0:2:0:0:
264,368,90219,2,0,P|320:372|364:356,1,87.8749976534844,2|0,3:2|0:2,0:2:0:0:
416,184,90553,1,10,0:2:0:0:
368,344,90719,1,2,0:2:0:0:
332,120,90886,5,2,3:2:0:0:
456,300,91053,1,2,0:2:0:0:
480,96,91219,1,10,0:2:0:0:
352,256,91386,1,2,0:2:0:0:
296,52,91553,2,0,P|316:100|312:148,1,87.8749976534844,2|0,3:2|0:2,0:2:0:0:
232,296,91886,1,10,0:2:0:0:
392,172,92053,1,2,0:2:0:0:
176,128,92219,6,0,L|188:224,1,87.8749976534844,2|0,3:2|0:2,0:2:0:0:
32,328,92553,2,0,L|44:232,1,87.8749976534844,10|0,0:2|0:2,0:2:0:0:
244,288,92886,2,0,P|191:309|136:294,1,87.8749976534844,2|0,3:2|0:2,0:2:0:0:
8,144,93219,2,0,P|60:165|115:150,1,87.8749976534844,10|0,0:2|0:2,0:2:0:0:
268,32,93553,5,2,3:2:0:0:
186,215,93719,1,2,0:2:0:0:
280,16,93886,2,0,L|288:116,1,87.8749976534844,10|0,0:2|0:2,0:2:0:0:
268,296,94219,5,2,3:2:0:0:
186,113,94385,1,2,0:2:0:0:
280,312,94552,2,0,L|288:212,1,87.8749976534844,10|0,0:2|0:2,0:2:0:0:
460,72,94886,5,6,3:2:0:0:
380,252,95053,1,2,0:2:0:0:
340,48,95219,1,10,0:2:0:0:
484,208,95386,1,2,0:2:0:0:
272,120,95553,2,0,P|224:120|176:156,1,87.8749976534844,2|0,3:2|0:2,0:2:0:0:
148,344,95886,1,10,0:2:0:0:
184,156,96053,1,2,0:2:0:0:
312,364,96219,5,2,3:2:0:0:
120,228,96386,1,2,0:2:0:0:
344,176,96553,1,10,0:2:0:0:
156,328,96719,1,2,0:2:0:0:
392,280,96886,2,0,L|292:268,1,87.8749976534844,2|0,3:2|0:2,0:2:0:0:
144,132,97219,2,0,L|244:120,1,87.8749976534844,10|0,0:2|0:2,0:2:0:0:
432,24,97553,5,10,3:2:0:0:
448,40,98053,1,10,3:2:0:0:
384,184,98219,1,10,3:2:0:0:
288,64,98386,1,10,3:2:0:0:
236,308,98719,6,0,P|272:269|384:296,2,175.749995306969,10|10|10,3:2|3:2|3:2,0:2:0:0:
384,184,99553,1,10,3:2:0:0:
